  0
SECTION
  2
HEADER
  9
$ACADVER
  1
AC1015
  9
$ACADMAINTVER
 70
     6
  9
$DWGCODEPAGE
  3
DOS932
  9
$INSBASE
 10
0.0
 20
0.0
 30
0.0
  9
$EXTMIN
 10
0.0
 20
0.0
 30
0.0
  9
$EXTMAX
 10
210.0
 20
297.0
 30
0.0
  9
$LIMMIN
 10
0.0
 20
0.0
  9
$LIMMAX
 10
210.0
 20
297.0
  9
$ORTHOMODE
 70
     0
  9
$REGENMODE
 70
     1
  9
$FILLMODE
 70
     1
  9
$QTEXTMODE
 70
     0
  9
$MIRRTEXT
 70
     1
  9
$LTSCALE
 40
1.0
  9
$ATTMODE
 70
     1
  9
$TEXTSIZE
 40
3.5
  9
$TRACEWID
 40
1.0
  9
$TEXTSTYLE
  7
Standard
  9
$CLAYER
  8
0
  9
$CELTYPE
  6
ByLayer
  9
$CECOLOR
 62
   256
  9
$CELTSCALE
 40
1.0
  9
$DISPSILH
 70
     0
  9
$DIMSCALE
 40
1.0
  9
$DIMASZ
 40
4.0
  9
$DIMEXO
 40
1.0
  9
$DIMDLI
 40
3.75
  9
$DIMRND
 40
0.0
  9
$DIMDLE
 40
0.0
  9
$DIMEXE
 40
1.0
  9
$DIMTP
 40
0.0
  9
$DIMTM
 40
0.0
  9
$DIMTXT
 40
3.5
  9
$DIMCEN
 40
2.5
  9
$DIMTSZ
 40
0.0
  9
$DIMTOL
 70
     0
  9
$DIMLIM
 70
     0
  9
$DIMTIH
 70
     1
  9
$DIMTOH
 70
     1
  9
$DIMSE1
 70
     0
  9
$DIMSE2
 70
     0
  9
$DIMTAD
 70
     1
  9
$DIMZIN
 70
     0
  9
$DIMBLK
  1

  9
$DIMASO
 70
     1
  9
$DIMSHO
 70
     1
  9
$DIMPOST
  1

  9
$DIMAPOST
  1

  9
$DIMALT
 70
     0
  9
$DIMALTD
 70
     3
  9
$DIMALTF
 40
0.0393700787
  9
$DIMLFAC
 40
10.0
  9
$DIMTOFL
 70
     1
  9
$DIMTVP
 40
0.0
  9
$DIMTIX
 70
     0
  9
$DIMSOXD
 70
     0
  9
$DIMSAH
 70
     0
  9
$DIMBLK1
  1

  9
$DIMBLK2
  1

  9
$DIMSTYLE
  2
ISO-25
  9
$DIMCLRD
 70
     0
  9
$DIMCLRE
 70
     0
  9
$DIMCLRT
 70
     0
  9
$DIMTFAC
 40
1.0
  9
$DIMGAP
 40
1.524
  9
$DIMJUST
 70
     0
  9
$DIMSD1
 70
     0
  9
$DIMSD2
 70
     0
  9
$DIMTOLJ
 70
     0
  9
$DIMTZIN
 70
     0
  9
$DIMALTZ
 70
     0
  9
$DIMALTTZ
 70
     0
  9
$DIMUPT
 70
     0
  9
$DIMDEC
 70
     2
  9
$DIMTDEC
 70
     2
  9
$DIMALTU
 70
     2
  9
$DIMALTTD
 70
     3
  9
$DIMTXSTY
  7
Standard
  9
$DIMAUNIT
 70
     0
  9
$DIMADEC
 70
     2
  9
$DIMALTRND
 40
0.0
  9
$DIMAZIN
 70
     0
  9
$DIMDSEP
 70
    44
  9
$DIMATFIT
 70
     3
  9
$DIMFRAC
 70
     0
  9
$DIMLDRBLK
  1

  9
$DIMLUNIT
 70
     2
  9
$DIMLWD
 70
    -2
  9
$DIMLWE
 70
    -2
  9
$DIMTMOVE
 70
     0
  9
$LUNITS
 70
     2
  9
$LUPREC
 70
     2
  9
$SKETCHINC
 40
1.0
  9
$FILLETRAD
 40
10.0
  9
$AUNITS
 70
     0
  9
$AUPREC
 70
     2
  9
$MENU
  1
.
  9
$ELEVATION
 40
0.0
  9
$PELEVATION
 40
0.0
  9
$THICKNESS
 40
0.0
  9
$LIMCHECK
 70
     0
  9
$CHAMFERA
 40
10.0
  9
$CHAMFERB
 40
10.0
  9
$CHAMFERC
 40
20.0
  9
$CHAMFERD
 40
0.0
  9
$SKPOLY
 70
     0
  9
$TDCREATE
 40
2456457.600621817
  9
$TDUCREATE
 40
2456457.225621817
  9
$TDUPDATE
 40
2456457.600622743
  9
$TDUUPDATE
 40
2456457.225622743
  9
$TDINDWG
 40
0.0000000116
  9
$TDUSRTIMER
 40
0.0000000116
  9
$USRTIMER
 70
     1
  9
$ANGBASE
 50
0.0
  9
$ANGDIR
 70
     0
  9
$PDMODE
 70
     0
  9
$PDSIZE
 40
-1.0
  9
$PLINEWID
 40
0.0
  9
$SPLFRAME
 70
     0
  9
$SPLINETYPE
 70
     6
  9
$SPLINESEGS
 70
     8
  9
$HANDSEED
  5
3EE
  9
$SURFTAB1
 70
     6
  9
$SURFTAB2
 70
     6
  9
$SURFTYPE
 70
     6
  9
$SURFU
 70
     6
  9
$SURFV
 70
     6
  9
$UCSBASE
  2

  9
$UCSNAME
  2

  9
$UCSORG
 10
0.0
 20
0.0
 30
0.0
  9
$UCSXDIR
 10
1.0
 20
0.0
 30
0.0
  9
$UCSYDIR
 10
0.0
 20
1.0
 30
0.0
  9
$UCSORTHOREF
  2

  9
$UCSORTHOVIEW
 70
     0
  9
$UCSORGTOP
 10
0.0
 20
0.0
 30
0.0
  9
$UCSORGBOTTOM
 10
0.0
 20
0.0
 30
0.0
  9
$UCSORGLEFT
 10
0.0
 20
0.0
 30
0.0
  9
$UCSORGRIGHT
 10
0.0
 20
0.0
 30
0.0
  9
$UCSORGFRONT
 10
0.0
 20
0.0
 30
0.0
  9
$UCSORGBACK
 10
0.0
 20
0.0
 30
0.0
  9
$PUCSBASE
  2

  9
$PUCSNAME
  2

  9
$PUCSORG
 10
0.0
 20
0.0
 30
0.0
  9
$PUCSXDIR
 10
1.0
 20
0.0
 30
0.0
  9
$PUCSYDIR
 10
0.0
 20
1.0
 30
0.0
  9
$PUCSORTHOREF
  2

  9
$PUCSORTHOVIEW
 70
     0
  9
$PUCSORGTOP
 10
0.0
 20
0.0
 30
0.0
  9
$PUCSORGBOTTOM
 10
0.0
 20
0.0
 30
0.0
  9
$PUCSORGLEFT
 10
0.0
 20
0.0
 30
0.0
  9
$PUCSORGRIGHT
 10
0.0
 20
0.0
 30
0.0
  9
$PUCSORGFRONT
 10
0.0
 20
0.0
 30
0.0
  9
$PUCSORGBACK
 10
0.0
 20
0.0
 30
0.0
  9
$USERI1
 70
     0
  9
$USERI2
 70
     0
  9
$USERI3
 70
     0
  9
$USERI4
 70
     0
  9
$USERI5
 70
     0
  9
$USERR1
 40
0.0
  9
$USERR2
 40
0.0
  9
$USERR3
 40
0.0
  9
$USERR4
 40
0.0
  9
$USERR5
 40
0.0
  9
$WORLDVIEW
 70
     1
  9
$SHADEDGE
 70
     3
  9
$SHADEDIF
 70
    70
  9
$TILEMODE
 70
     1
  9
$MAXACTVP
 70
    64
  9
$PINSBASE
 10
0.0
 20
0.0
 30
0.0
  9
$PLIMCHECK
 70
     0
  9
$PEXTMIN
 10
1.0000000000E+20
 20
1.0000000000E+20
 30
1.0000000000E+20
  9
$PEXTMAX
 10
-1.0000000000E+20
 20
-1.0000000000E+20
 30
-1.0000000000E+20
  9
$PLIMMIN
 10
0.0
 20
0.0
  9
$PLIMMAX
 10
420.0
 20
297.0
  9
$UNITMODE
 70
     0
  9
$VISRETAIN
 70
     1
  9
$PLINEGEN
 70
     0
  9
$PSLTSCALE
 70
     1
  9
$TREEDEPTH
 70
  3020
  9
$CMLSTYLE
  2
Standard
  9
$CMLJUST
 70
     0
  9
$CMLSCALE
 40
20.0
  9
$PROXYGRAPHICS
 70
     1
  9
$MEASUREMENT
 70
     1
  9
$CELWEIGHT
370
    -1
  9
$ENDCAPS
280
     0
  9
$JOINSTYLE
280
     0
  9
$LWDISPLAY
290
     1
  9
$INSUNITS
 70
     4
  9
$HYPERLINKBASE
  1

  9
$STYLESHEET
  1

  9
$XEDIT
290
     1
  9
$CEPSNTYPE
380
     0
  9
$PSTYLEMODE
290
     1
  9
$FINGERPRINTGUID
  2
{E7032329-C611-46DF-B672-57DC54C1CB2B}
  9
$VERSIONGUID
  2
{FAEB1C32-E019-11D5-929B-00C0DF256EC4}
  9
$EXTNAMES
290
     1
  9
$PSVPSCALE
 40
0.0
  9
$OLESTARTUP
290
     0
  0
ENDSEC
  0
SECTION
  2
CLASSES
  0
CLASS
  1
ACDBDICTIONARYWDFLT
  2
AcDbDictionaryWithDefault
  3
ObjectDBX Classes
 90
        0
280
     0
281
     0
  0
CLASS
  1
VISUALSTYLE
  2
AcDbVisualStyle
  3
ObjectDBX Classes
 90
     4095
280
     0
281
     0
  0
CLASS
  1
MATERIAL
  2
AcDbMaterial
  3
ObjectDBX Classes
 90
     1153
280
     0
281
     0
  0
CLASS
  1
ACDBPLACEHOLDER
  2
AcDbPlaceHolder
  3
ObjectDBX Classes
 90
        0
280
     0
281
     0
  0
CLASS
  1
LAYOUT
  2
AcDbLayout
  3
ObjectDBX Classes
 90
        0
280
     0
281
     0
  0
ENDSEC
  0
SECTION
  2
TABLES
  0
TABLE
  2
VPORT
  5
8
330
0
100
AcDbSymbolTable
 70
     1
  0
VPORT
  5
29
330
8
100
AcDbSymbolTableRecord
100
AcDbViewportTableRecord
  2
*Active
 70
     0
 10
0.0
 20
0.0
 11
1.0
 21
1.0
 12
105.0
 22
148.5
 13
0.0
 23
0.0
 14
10.0
 24
10.0
 15
10.0
 25
10.0
 16
0.0
 26
0.0
 36
1.0
 17
0.0
 27
0.0
 37
0.0
 40
297.0
 41
0.7070707071
 42
50.0
 43
0.0
 44
0.0
 50
0.0
 51
0.0
 71
     0
 72
  2000
 73
     1
 74
     3
 75
     0
 76
     0
 77
     0
 78
     0
281
     0
 65
     1
110
0.0
120
0.0
130
0.0
111
1.0
121
0.0
131
0.0
112
0.0
122
1.0
132
0.0
 79
     0
146
0.0
  0
ENDTAB
  0
TABLE
  2
LTYPE
  5
5
330
0
100
AcDbSymbolTable
 70
     6
  0
LTYPE
  5
14
330
5
100
AcDbSymbolTableRecord
100
AcDbLinetypeTableRecord
  2
ByBlock
 70
     0
  3

 72
    65
 73
     0
 40
0.0
  0
LTYPE
  5
15
330
5
100
AcDbSymbolTableRecord
100
AcDbLinetypeTableRecord
  2
ByLayer
 70
     0
  3

 72
    65
 73
     0
 40
0.0
  0
LTYPE
  5
16
330
5
100
AcDbSymbolTableRecord
100
AcDbLinetypeTableRecord
  2
Continuous
 70
     0
  3
Solid line
 72
    65
 73
     0
 40
0.0
  0
LTYPE
  5
3F
330
5
100
AcDbSymbolTableRecord
100
AcDbLinetypeTableRecord
  2
HIDDEN
 70
     0
  3
Hidden __ __ __ __ __ __ __ __ __ __ __ __ __ __
 72
    65
 73
     2
 40
1.905
 49
1.27
 74
     0
 49
-0.635
 74
     0
  0
LTYPE
  5
40
330
5
100
AcDbSymbolTableRecord
100
AcDbLinetypeTableRecord
  2
PHANTOM
 70
     0
  3
Phantom ______  __  __  ______  __  __  ______
 72
    65
 73
     6
 40
12.7
 49
6.35
 74
     0
 49
-1.27
 74
     0
 49
1.27
 74
     0
 49
-1.27
 74
     0
 49
1.27
 74
     0
 49
-1.27
 74
     0
  0
LTYPE
  5
41
330
5
100
AcDbSymbolTableRecord
100
AcDbLinetypeTableRecord
  2
CENTER
 70
     0
  3
Center ____ _ ____ _ ____ _ ____ _ ____ _ ____
 72
    65
 73
     4
 40
10.16
 49
6.35
 74
     0
 49
-1.27
 74
     0
 49
1.27
 74
     0
 49
-1.27
 74
     0
  0
LTYPE
  5
42
330
5
100
AcDbSymbolTableRecord
100
AcDbLinetypeTableRecord
  2
CENTERX2
 70
     0
  3
Center (2x) ________  __  ________  __  _____
 72
    65
 73
     4
 40
20.32
 49
12.7
 74
     0
 49
-2.54
 74
     0
 49
2.54
 74
     0
 49
-2.54
 74
     0
  0
LTYPE
  5
43
330
5
100
AcDbSymbolTableRecord
100
AcDbLinetypeTableRecord
  2
DOT2
 70
     0
  3
Dot (.5x) ........................................
 72
    65
 73
     2
 40
0.635
 49
0.0
 74
     0
 49
-0.635
 74
     0
  0
ENDTAB
  0
TABLE
  2
LAYER
  5
2
330
0
100
AcDbSymbolTable
 70
     1
  0
LAYER
  5
10
330
2
100
AcDbSymbolTableRecord
100
AcDbLayerTableRecord
  2
0
 70
     0
 62
     7
  6
Continuous
370
    -3
390
F
  0
ENDTAB
  0
TABLE
  2
STYLE
  5
3
330
0
100
AcDbSymbolTable
 70
     2
  0
STYLE
  5
11
330
3
100
AcDbSymbolTableRecord
100
AcDbTextStyleTableRecord
  2
Standard
 70
     0
 40
0.0
 41
1.0
 50
0.0
 71
     0
 42
3.5
  3
txt
  4
bigfont
  0
STYLE
  5
1A2
330
3
100
AcDbSymbolTableRecord
100
AcDbTextStyleTableRecord
  2
SLDTEXTSTYLE0
 70
     0
 40
0.0
 41
0.7
 50
0.0
 71
     0
 42
0.2
  3
TXT
  4
bigfont
  0
ENDTAB
  0
TABLE
  2
VIEW
  5
6
330
0
100
AcDbSymbolTable
 70
     0
  0
ENDTAB
  0
TABLE
  2
UCS
  5
7
330
0
100
AcDbSymbolTable
 70
     0
  0
ENDTAB
  0
TABLE
  2
APPID
  5
9
330
0
100
AcDbSymbolTable
 70
     1
  0
APPID
  5
12
330
9
100
AcDbSymbolTableRecord
100
AcDbRegAppTableRecord
  2
ACAD
 70
     0
  0
ENDTAB
  0
TABLE
  2
DIMSTYLE
  5
A
330
0
100
AcDbSymbolTable
 70
     2
100
AcDbDimStyleTable
  0
DIMSTYLE
105
27
330
A
100
AcDbSymbolTableRecord
100
AcDbDimStyleTableRecord
  2
ISO-25
 70
     0
 41
2.5
 42
0.625
 43
3.75
 44
1.25
 73
     0
 74
     0
 77
     1
 78
     8
140
2.5
141
2.5
143
0.0393700787
147
0.625
171
     3
172
     1
178
     0
271
     2
272
     2
274
     3
278
    44
283
     0
284
     8
340
11
  0
DIMSTYLE
105
1A3
102
{ACAD_REACTORS
330
1A1
102
}
330
A
100
AcDbSymbolTableRecord
100
AcDbDimStyleTableRecord
  2
SLDDIMSTYLE0
 70
     0
 41
4.0
 44
0.0
 45
0.000000001
 73
     0
 74
     0
 77
     3
 78
    12
 79
     3
140
3.5
147
0.875
172
     1
173
     1
178
     0
271
     2
272
     2
276
     2
284
    12
289
     0
340
1A2
  0
ENDTAB
  0
TABLE
  2
BLOCK_RECORD
  5
1
330
0
100
AcDbSymbolTable
 70
     8
  0
BLOCK_RECORD
  5
1F
330
1
100
AcDbSymbolTableRecord
100
AcDbBlockTableRecord
  2
*Model_Space
340
22
  0
BLOCK_RECORD
  5
1B
330
1
100
AcDbSymbolTableRecord
100
AcDbBlockTableRecord
  2
*Paper_Space
340
1E
  0
BLOCK_RECORD
  5
23
330
1
100
AcDbSymbolTableRecord
100
AcDbBlockTableRecord
  2
*Paper_Space0
340
26
  0
BLOCK_RECORD
  5
1A4
330
1
100
AcDbSymbolTableRecord
100
AcDbBlockTableRecord
  2
_D
340
0
  0
BLOCK_RECORD
  5
1AE
330
1
100
AcDbSymbolTableRecord
100
AcDbBlockTableRecord
  2
SW_CENTERMARKSYMBOL_0
340
0
102
{BLKREFS
331
1B9
102
}
  0
BLOCK_RECORD
  5
1BA
330
1
100
AcDbSymbolTableRecord
100
AcDbBlockTableRecord
  2
SW_CENTERMARKSYMBOL_1
340
0
102
{BLKREFS
331
1C5
102
}
  0
BLOCK_RECORD
  5
2FF
330
1
100
AcDbSymbolTableRecord
100
AcDbBlockTableRecord
  2
SW_CENTERMARKSYMBOL_2
340
0
102
{BLKREFS
331
322
102
}
  0
BLOCK_RECORD
  5
323
330
1
100
AcDbSymbolTableRecord
100
AcDbBlockTableRecord
  2
SW_CENTERMARKSYMBOL_3
340
0
102
{BLKREFS
331
32E
102
}
  0
BLOCK_RECORD
  5
3D6
330
1
100
AcDbSymbolTableRecord
100
AcDbBlockTableRecord
  2
SW_CENTERMARKSYMBOL_4
340
0
102
{BLKREFS
331
3E1
102
}
  0
BLOCK_RECORD
  5
3E2
330
1
100
AcDbSymbolTableRecord
100
AcDbBlockTableRecord
  2
SW_CENTERMARKSYMBOL_5
340
0
102
{BLKREFS
331
3ED
102
}
  0
ENDTAB
  0
ENDSEC
  0
SECTION
  2
BLOCKS
  0
BLOCK
  5
20
330
1F
100
AcDbEntity
  8
0
100
AcDbBlockBegin
  2
*Model_Space
 70
     0
 10
0.0
 20
0.0
 30
0.0
  3
*Model_Space
  1

  0
ENDBLK
  5
21
330
1F
100
AcDbEntity
  8
0
100
AcDbBlockEnd
  0
BLOCK
  5
1C
330
1B
100
AcDbEntity
 67
     1
  8
0
100
AcDbBlockBegin
  2
*Paper_Space
 70
     0
 10
0.0
 20
0.0
 30
0.0
  3
*Paper_Space
  1

  0
ENDBLK
  5
1D
330
1B
100
AcDbEntity
 67
     1
  8
0
100
AcDbBlockEnd
  0
BLOCK
  5
24
330
23
100
AcDbEntity
  8
0
100
AcDbBlockBegin
  2
*Paper_Space0
 70
     0
 10
0.0
 20
0.0
 30
0.0
  3
*Paper_Space0
  1

  0
ENDBLK
  5
25
330
23
100
AcDbEntity
  8
0
100
AcDbBlockEnd
  0
BLOCK
  5
1A5
330
1A4
100
AcDbEntity
  8
0
100
AcDbBlockBegin
  2
_D
 70
     0
 10
0.0
 20
0.0
 30
0.0
  3
_D
  1

  0
SOLID
  5
1A7
330
1A4
100
AcDbEntity
  8
0
  6
Continuous
 62
     7
370
     0
100
AcDbTrace
 10
-156.3340669507
 20
379.5234781924
 30
0.0
 11
-160.3340669507
 21
380.5234781924
 31
0.0
 12
-160.3340669507
 22
378.5234781924
 32
0.0
 13
-160.3340669507
 23
378.5234781924
 33
0.0
  0
SOLID
  5
1A8
330
1A4
100
AcDbEntity
  8
0
  6
Continuous
 62
     7
370
     0
100
AcDbTrace
 10
-149.3340669506
 20
379.5234781924
 30
0.0
 11
-145.3340669506
 21
378.5234781924
 31
0.0
 12
-145.3340669506
 22
380.5234781924
 32
0.0
 13
-145.3340669506
 23
380.5234781924
 33
0.0
  0
LINE
  5
1A9
330
1A4
100
AcDbEntity
  8
0
  6
Continuous
 62
     7
370
     0
100
AcDbLine
 10
-149.3340669506
 20
246.3549817695
 30
0.0
 11
-149.3340669506
 21
380.5234781924
 31
0.0
  0
LINE
  5
1AA
330
1A4
100
AcDbEntity
  8
0
  6
Continuous
 62
     7
370
     0
100
AcDbLine
 10
-156.3340669507
 20
379.5234781924
 30
0.0
 11
-196.4550648156
 21
379.5234781924
 31
0.0
  0
LINE
  5
1AB
330
1A4
100
AcDbEntity
  8
0
  6
Continuous
 62
     7
370
     0
100
AcDbLine
 10
-156.3340669507
 20
379.5234781924
 30
0.0
 11
-149.3340669506
 21
379.5234781924
 31
0.0
  0
LINE
  5
1AC
330
1A4
100
AcDbEntity
  8
0
  6
Continuous
 62
     7
370
     0
100
AcDbLine
 10
-149.3340669506
 20
379.5234781924
 30
0.0
 11
-143.3340669506
 21
379.5234781924
 31
0.0
  0
MTEXT
  5
1AD
330
1A4
100
AcDbEntity
  8
0
  6
Continuous
 62
     7
370
     0
100
AcDbMText
 10
-196.4550648156
 20
384.0352150488
 30
0.0636691406
 40
3.5
 41
0.0
 71
     1
 72
     1
  1
7
  7
SLDTEXTSTYLE0
 73
     1
 44
1.0
  0
ENDBLK
  5
1A6
330
1A4
100
AcDbEntity
  8
0
100
AcDbBlockEnd
  0
BLOCK
  5
1AF
330
1AE
100
AcDbEntity
  8
0
100
AcDbBlockBegin
  2
SW_CENTERMARKSYMBOL_0
 70
     0
 10
0.0
 20
0.0
 30
0.0
  3
SW_CENTERMARKSYMBOL_0
  1

  0
LINE
  5
1B1
330
1AE
100
AcDbEntity
  8
0
  6
Continuous
 62
     0
370
     0
100
AcDbLine
 10
0.0
 20
0.0
 30
0.0
 11
0.0
 21
2.5
 31
0.0
  0
LINE
  5
1B2
330
1AE
100
AcDbEntity
  8
0
  6
Continuous
 62
     0
370
     0
100
AcDbLine
 10
0.0
 20
0.0
 30
0.0
 11
-2.5
 21
0.0
 31
0.0
  0
LINE
  5
1B3
330
1AE
100
AcDbEntity
  8
0
  6
Continuous
 62
     0
370
     0
100
AcDbLine
 10
0.0
 20
0.0
 30
0.0
 11
0.0
 21
-2.5
 31
0.0
  0
LINE
  5
1B4
330
1AE
100
AcDbEntity
  8
0
  6
Continuous
 62
     0
370
     0
100
AcDbLine
 10
0.0
 20
0.0
 30
0.0
 11
2.5
 21
0.0
 31
0.0
  0
LINE
  5
1B5
330
1AE
100
AcDbEntity
  8
0
  6
Continuous
 62
     0
370
     0
100
AcDbLine
 10
0.0
 20
5.0
 30
0.0
 11
0.0
 21
32.0
 31
0.0
  0
LINE
  5
1B6
330
1AE
100
AcDbEntity
  8
0
  6
Continuous
 62
     0
370
     0
100
AcDbLine
 10
-5.0
 20
0.0
 30
0.0
 11
-32.0
 21
0.0
 31
0.0
  0
LINE
  5
1B7
330
1AE
100
AcDbEntity
  8
0
  6
Continuous
 62
     0
370
     0
100
AcDbLine
 10
0.0
 20
-5.0
 30
0.0
 11
0.0
 21
-32.0
 31
0.0
  0
LINE
  5
1B8
330
1AE
100
AcDbEntity
  8
0
  6
Continuous
 62
     0
370
     0
100
AcDbLine
 10
5.0
 20
0.0
 30
0.0
 11
32.0
 21
0.0
 31
0.0
  0
ENDBLK
  5
1B0
330
1AE
100
AcDbEntity
  8
0
100
AcDbBlockEnd
  0
BLOCK
  5
1BB
330
1BA
100
AcDbEntity
  8
0
100
AcDbBlockBegin
  2
SW_CENTERMARKSYMBOL_1
 70
     0
 10
0.0
 20
0.0
 30
0.0
  3
SW_CENTERMARKSYMBOL_1
  1

  0
LINE
  5
1BD
330
1BA
100
AcDbEntity
  8
0
  6
Continuous
 62
     0
370
     0
100
AcDbLine
 10
0.0
 20
0.0
 30
0.0
 11
0.0
 21
2.5
 31
0.0
  0
LINE
  5
1BE
330
1BA
100
AcDbEntity
  8
0
  6
Continuous
 62
     0
370
     0
100
AcDbLine
 10
0.0
 20
0.0
 30
0.0
 11
-2.5
 21
0.0
 31
0.0
  0
LINE
  5
1BF
330
1BA
100
AcDbEntity
  8
0
  6
Continuous
 62
     0
370
     0
100
AcDbLine
 10
0.0
 20
0.0
 30
0.0
 11
0.0
 21
-2.5
 31
0.0
  0
LINE
  5
1C0
330
1BA
100
AcDbEntity
  8
0
  6
Continuous
 62
     0
370
     0
100
AcDbLine
 10
0.0
 20
0.0
 30
0.0
 11
2.5
 21
0.0
 31
0.0
  0
LINE
  5
1C1
330
1BA
100
AcDbEntity
  8
0
  6
Continuous
 62
     0
370
     0
100
AcDbLine
 10
0.0
 20
5.0
 30
0.0
 11
0.0
 21
22.5
 31
0.0
  0
LINE
  5
1C2
330
1BA
100
AcDbEntity
  8
0
  6
Continuous
 62
     0
370
     0
100
AcDbLine
 10
-5.0
 20
0.0
 30
0.0
 11
-22.5
 21
0.0
 31
0.0
  0
LINE
  5
1C3
330
1BA
100
AcDbEntity
  8
0
  6
Continuous
 62
     0
370
     0
100
AcDbLine
 10
0.0
 20
-5.0
 30
0.0
 11
0.0
 21
-22.5
 31
0.0
  0
LINE
  5
1C4
330
1BA
100
AcDbEntity
  8
0
  6
Continuous
 62
     0
370
     0
100
AcDbLine
 10
5.0
 20
0.0
 30
0.0
 11
22.5
 21
0.0
 31
0.0
  0
ENDBLK
  5
1BC
330
1BA
100
AcDbEntity
  8
0
100
AcDbBlockEnd
  0
BLOCK
  5
300
330
2FF
100
AcDbEntity
  8
0
100
AcDbBlockBegin
  2
SW_CENTERMARKSYMBOL_2
 70
     0
 10
0.0
 20
0.0
 30
0.0
  3
SW_CENTERMARKSYMBOL_2
  1

  0
ARC
  5
302
330
2FF
100
AcDbEntity
  8
0
  6
Continuous
 62
     0
370
     0
100
AcDbCircle
 10
-130.8147545195
 20
-130.8147545195
 30
0.0
 40
185.0
100
AcDbArc
 50
45.0
 51
45.7742672907
  0
ARC
  5
303
330
2FF
100
AcDbEntity
  8
0
  6
Continuous
 62
     0
370
     0
100
AcDbCircle
 10
-130.8147545195
 20
-130.8147545195
 30
0.0
 40
185.0
100
AcDbArc
 50
44.2257327093
 51
45.0
  0
ARC
  5
304
330
2FF
100
AcDbEntity
  8
0
  6
Continuous
 62
     0
370
     0
100
AcDbCircle
 10
-130.8147545195
 20
-130.8147545195
 30
0.0
 40
185.0
100
AcDbArc
 50
46.5485345814
 51
53.0351395472
  0
ARC
  5
305
330
2FF
100
AcDbEntity
  8
0
  6
Continuous
 62
     0
370
     0
100
AcDbCircle
 10
-130.8147545195
 20
-130.8147545195
 30
0.0
 40
185.0
100
AcDbArc
 50
42.3674912116
 51
43.4514654186
  0
ARC
  5
306
330
2FF
100
AcDbEntity
  8
0
  6
Continuous
 62
     0
370
     0
100
AcDbCircle
 10
-130.8147545195
 20
-130.8147545195
 30
0.0
 40
185.0
100
AcDbArc
 50
315.0
 51
315.7742672907
  0
ARC
  5
307
330
2FF
100
AcDbEntity
  8
0
  6
Continuous
 62
     0
370
     0
100
AcDbCircle
 10
-130.8147545195
 20
-130.8147545195
 30
0.0
 40
185.0
100
AcDbArc
 50
314.2257327093
 51
315.0
  0
ARC
  5
308
330
2FF
100
AcDbEntity
  8
0
  6
Continuous
 62
     0
370
     0
100
AcDbCircle
 10
-130.8147545195
 20
-130.8147545195
 30
0.0
 40
185.0
100
AcDbArc
 50
316.5485345814
 51
317.6325087884
  0
ARC
  5
309
330
2FF
100
AcDbEntity
  8
0
  6
Continuous
 62
     0
370
     0
100
AcDbCircle
 10
-130.8147545195
 20
-130.8147545195
 30
0.0
 40
185.0
100
AcDbArc
 50
312.3674912116
 51
313.4514654186
  0
ARC
  5
30A
330
2FF
100
AcDbEntity
  8
0
  6
Continuous
 62
     0
370
     0
100
AcDbCircle
 10
-130.8147545195
 20
-130.8147545195
 30
0.0
 40
184.9999999999999
100
AcDbArc
 50
225.0
 51
225.7742672907
  0
ARC
  5
30B
330
2FF
100
AcDbEntity
  8
0
  6
Continuous
 62
     0
370
     0
100
AcDbCircle
 10
-130.8147545195
 20
-130.8147545195
 30
0.0
 40
184.9999999999999
100
AcDbArc
 50
224.2257327093
 51
225.0
  0
ARC
  5
30C
330
2FF
100
AcDbEntity
  8
0
  6
Continuous
 62
     0
370
     0
100
AcDbCircle
 10
-130.8147545195
 20
-130.8147545195
 30
0.0
 40
185.0
100
AcDbArc
 50
226.5485345814
 51
227.6325087884
  0
ARC
  5
30D
330
2FF
100
AcDbEntity
  8
0
  6
Continuous
 62
     0
370
     0
100
AcDbCircle
 10
-130.8147545195
 20
-130.8147545195
 30
0.0
 40
185.0
100
AcDbArc
 50
222.3674912116
 51
223.4514654186
  0
ARC
  5
30E
330
2FF
100
AcDbEntity
  8
0
  6
Continuous
 62
     0
370
     0
100
AcDbCircle
 10
-130.8147545195
 20
-130.8147545195
 30
0.0
 40
185.0
100
AcDbArc
 50
135.0
 51
135.7742672907
  0
ARC
  5
30F
330
2FF
100
AcDbEntity
  8
0
  6
Continuous
 62
     0
370
     0
100
AcDbCircle
 10
-130.8147545195
 20
-130.8147545195
 30
0.0
 40
185.0
100
AcDbArc
 50
134.2257327093
 51
135.0
  0
ARC
  5
310
330
2FF
100
AcDbEntity
  8
0
  6
Continuous
 62
     0
370
     0
100
AcDbCircle
 10
-130.8147545195
 20
-130.8147545195
 30
0.0
 40
185.0
100
AcDbArc
 50
136.5485345814
 51
137.6325087884
  0
ARC
  5
311
330
2FF
100
AcDbEntity
  8
0
  6
Continuous
 62
     0
370
     0
100
AcDbCircle
 10
-130.8147545195
 20
-130.8147545195
 30
0.0
 40
185.0000000000001
100
AcDbArc
 50
132.3674912116
 51
133.4514654186
  0
LINE
  5
312
330
2FF
100
AcDbEntity
  8
0
  6
Continuous
 62
     0
370
     0
100
AcDbLine
 10
0.0
 20
0.0
 30
0.0
 11
1.767766953
 21
1.767766953
 31
0.0
  0
LINE
  5
313
330
2FF
100
AcDbEntity
  8
0
  6
Continuous
 62
     0
370
     0
100
AcDbLine
 10
0.0
 20
0.0
 30
0.0
 11
-1.767766953
 21
-1.767766953
 31
0.0
  0
LINE
  5
314
330
2FF
100
AcDbEntity
  8
0
  6
Continuous
 62
     0
370
     0
100
AcDbLine
 10
3.5355339059
 20
3.5355339059
 30
0.0
 11
6.0104076401
 21
6.0104076401
 31
0.0
  0
LINE
  5
315
330
2FF
100
AcDbEntity
  8
0
  6
Continuous
 62
     0
370
     0
100
AcDbLine
 10
-3.5355339059
 20
-3.5355339059
 30
0.0
 11
-6.0104076401
 21
-6.0104076401
 31
0.0
  0
LINE
  5
316
330
2FF
100
AcDbEntity
  8
0
  6
Continuous
 62
     0
370
     0
100
AcDbLine
 10
0.0
 20
-261.629509039
 30
0.0
 11
1.767766953
 21
-263.397275992
 31
0.0
  0
LINE
  5
317
330
2FF
100
AcDbEntity
  8
0
  6
Continuous
 62
     0
370
     0
100
AcDbLine
 10
0.0
 20
-261.629509039
 30
0.0
 11
-1.767766953
 21
-259.8617420861
 31
0.0
  0
LINE
  5
318
330
2FF
100
AcDbEntity
  8
0
  6
Continuous
 62
     0
370
     0
100
AcDbLine
 10
3.5355339059
 20
-265.165042945
 30
0.0
 11
6.0104076401
 21
-267.6399166791
 31
0.0
  0
LINE
  5
319
330
2FF
100
AcDbEntity
  8
0
  6
Continuous
 62
     0
370
     0
100
AcDbLine
 10
-3.5355339059
 20
-258.0939751331
 30
0.0
 11
-6.0104076401
 21
-255.6191013989
 31
0.0
  0
LINE
  5
31A
330
2FF
100
AcDbEntity
  8
0
  6
Continuous
 62
     0
370
     0
100
AcDbLine
 10
-261.629509039
 20
-261.629509039
 30
0.0
 11
-263.397275992
 21
-263.397275992
 31
0.0
  0
LINE
  5
31B
330
2FF
100
AcDbEntity
  8
0
  6
Continuous
 62
     0
370
     0
100
AcDbLine
 10
-261.629509039
 20
-261.629509039
 30
0.0
 11
-259.8617420861
 21
-259.8617420861
 31
0.0
  0
LINE
  5
31C
330
2FF
100
AcDbEntity
  8
0
  6
Continuous
 62
     0
370
     0
100
AcDbLine
 10
-265.165042945
 20
-265.165042945
 30
0.0
 11
-267.6399166791
 21
-267.6399166791
 31
0.0
  0
LINE
  5
31D
330
2FF
100
AcDbEntity
  8
0
  6
Continuous
 62
     0
370
     0
100
AcDbLine
 10
-258.0939751331
 20
-258.0939751331
 30
0.0
 11
-255.6191013989
 21
-255.6191013989
 31
0.0
  0
LINE
  5
31E
330
2FF
100
AcDbEntity
  8
0
  6
Continuous
 62
     0
370
     0
100
AcDbLine
 10
-261.629509039
 20
0.0
 30
0.0
 11
-263.397275992
 21
1.767766953
 31
0.0
  0
LINE
  5
31F
330
2FF
100
AcDbEntity
  8
0
  6
Continuous
 62
     0
370
     0
100
AcDbLine
 10
-261.629509039
 20
0.0
 30
0.0
 11
-259.8617420861
 21
-1.767766953
 31
0.0
  0
LINE
  5
320
330
2FF
100
AcDbEntity
  8
0
  6
Continuous
 62
     0
370
     0
100
AcDbLine
 10
-265.165042945
 20
3.5355339059
 30
0.0
 11
-267.6399166791
 21
6.0104076401
 31
0.0
  0
LINE
  5
321
330
2FF
100
AcDbEntity
  8
0
  6
Continuous
 62
     0
370
     0
100
AcDbLine
 10
-258.0939751331
 20
-3.5355339059
 30
0.0
 11
-255.6191013989
 21
-6.0104076401
 31
0.0
  0
ENDBLK
  5
301
330
2FF
100
AcDbEntity
  8
0
100
AcDbBlockEnd
  0
BLOCK
  5
324
330
323
100
AcDbEntity
  8
0
100
AcDbBlockBegin
  2
SW_CENTERMARKSYMBOL_3
 70
     0
 10
0.0
 20
0.0
 30
0.0
  3
SW_CENTERMARKSYMBOL_3
  1

  0
LINE
  5
326
330
323
100
AcDbEntity
  8
0
  6
Continuous
 62
     0
370
     0
100
AcDbLine
 10
0.0
 20
0.0
 30
0.0
 11
0.0
 21
2.5
 31
0.0
  0
LINE
  5
327
330
323
100
AcDbEntity
  8
0
  6
Continuous
 62
     0
370
     0
100
AcDbLine
 10
0.0
 20
0.0
 30
0.0
 11
-2.5
 21
0.0
 31
0.0
  0
LINE
  5
328
330
323
100
AcDbEntity
  8
0
  6
Continuous
 62
     0
370
     0
100
AcDbLine
 10
0.0
 20
0.0
 30
0.0
 11
0.0
 21
-2.5
 31
0.0
  0
LINE
  5
329
330
323
100
AcDbEntity
  8
0
  6
Continuous
 62
     0
370
     0
100
AcDbLine
 10
0.0
 20
0.0
 30
0.0
 11
2.5
 21
0.0
 31
0.0
  0
LINE
  5
32A
330
323
100
AcDbEntity
  8
0
  6
Continuous
 62
     0
370
     0
100
AcDbLine
 10
0.0
 20
5.0
 30
0.0
 11
0.0
 21
202.7176805489
 31
0.0
  0
LINE
  5
32B
330
323
100
AcDbEntity
  8
0
  6
Continuous
 62
     0
370
     0
100
AcDbLine
 10
-5.0
 20
0.0
 30
0.0
 11
-172.5
 21
0.0
 31
0.0
  0
LINE
  5
32C
330
323
100
AcDbEntity
  8
0
  6
Continuous
 62
     0
370
     0
100
AcDbLine
 10
0.0
 20
-5.0
 30
0.0
 11
0.0
 21
-172.6131651018
 31
0.0
  0
LINE
  5
32D
330
323
100
AcDbEntity
  8
0
  6
Continuous
 62
     0
370
     0
100
AcDbLine
 10
5.0
 20
0.0
 30
0.0
 11
172.5
 21
0.0
 31
0.0
  0
ENDBLK
  5
325
330
323
100
AcDbEntity
  8
0
100
AcDbBlockEnd
  0
BLOCK
  5
3D7
330
3D6
100
AcDbEntity
  8
0
100
AcDbBlockBegin
  2
SW_CENTERMARKSYMBOL_4
 70
     0
 10
0.0
 20
0.0
 30
0.0
  3
SW_CENTERMARKSYMBOL_4
  1

  0
LINE
  5
3D9
330
3D6
100
AcDbEntity
  8
0
  6
Continuous
 62
     0
370
     0
100
AcDbLine
 10
0.0
 20
0.0
 30
0.0
 11
0.0
 21
2.5
 31
0.0
  0
LINE
  5
3DA
330
3D6
100
AcDbEntity
  8
0
  6
Continuous
 62
     0
370
     0
100
AcDbLine
 10
0.0
 20
0.0
 30
0.0
 11
-2.5
 21
0.0
 31
0.0
  0
LINE
  5
3DB
330
3D6
100
AcDbEntity
  8
0
  6
Continuous
 62
     0
370
     0
100
AcDbLine
 10
0.0
 20
0.0
 30
0.0
 11
0.0
 21
-2.5
 31
0.0
  0
LINE
  5
3DC
330
3D6
100
AcDbEntity
  8
0
  6
Continuous
 62
     0
370
     0
100
AcDbLine
 10
0.0
 20
0.0
 30
0.0
 11
2.5
 21
0.0
 31
0.0
  0
LINE
  5
3DD
330
3D6
100
AcDbEntity
  8
0
  6
Continuous
 62
     0
370
     0
100
AcDbLine
 10
0.0
 20
5.0
 30
0.0
 11
0.0
 21
25.5
 31
0.0
  0
LINE
  5
3DE
330
3D6
100
AcDbEntity
  8
0
  6
Continuous
 62
     0
370
     0
100
AcDbLine
 10
-5.0
 20
0.0
 30
0.0
 11
-25.5
 21
0.0
 31
0.0
  0
LINE
  5
3DF
330
3D6
100
AcDbEntity
  8
0
  6
Continuous
 62
     0
370
     0
100
AcDbLine
 10
0.0
 20
-5.0
 30
0.0
 11
0.0
 21
-25.5
 31
0.0
  0
LINE
  5
3E0
330
3D6
100
AcDbEntity
  8
0
  6
Continuous
 62
     0
370
     0
100
AcDbLine
 10
5.0
 20
0.0
 30
0.0
 11
25.5
 21
0.0
 31
0.0
  0
ENDBLK
  5
3D8
330
3D6
100
AcDbEntity
  8
0
100
AcDbBlockEnd
  0
BLOCK
  5
3E3
330
3E2
100
AcDbEntity
  8
0
100
AcDbBlockBegin
  2
SW_CENTERMARKSYMBOL_5
 70
     0
 10
0.0
 20
0.0
 30
0.0
  3
SW_CENTERMARKSYMBOL_5
  1

  0
LINE
  5
3E5
330
3E2
100
AcDbEntity
  8
0
  6
Continuous
 62
     0
370
     0
100
AcDbLine
 10
0.0
 20
0.0
 30
0.0
 11
0.0
 21
2.5
 31
0.0
  0
LINE
  5
3E6
330
3E2
100
AcDbEntity
  8
0
  6
Continuous
 62
     0
370
     0
100
AcDbLine
 10
0.0
 20
0.0
 30
0.0
 11
-2.5
 21
0.0
 31
0.0
  0
LINE
  5
3E7
330
3E2
100
AcDbEntity
  8
0
  6
Continuous
 62
     0
370
     0
100
AcDbLine
 10
0.0
 20
0.0
 30
0.0
 11
0.0
 21
-2.5
 31
0.0
  0
LINE
  5
3E8
330
3E2
100
AcDbEntity
  8
0
  6
Continuous
 62
     0
370
     0
100
AcDbLine
 10
0.0
 20
0.0
 30
0.0
 11
2.5
 21
0.0
 31
0.0
  0
LINE
  5
3E9
330
3E2
100
AcDbEntity
  8
0
  6
Continuous
 62
     0
370
     0
100
AcDbLine
 10
0.0
 20
5.0
 30
0.0
 11
0.0
 21
22.5
 31
0.0
  0
LINE
  5
3EA
330
3E2
100
AcDbEntity
  8
0
  6
Continuous
 62
     0
370
     0
100
AcDbLine
 10
-5.0
 20
0.0
 30
0.0
 11
-22.5
 21
0.0
 31
0.0
  0
LINE
  5
3EB
330
3E2
100
AcDbEntity
  8
0
  6
Continuous
 62
     0
370
     0
100
AcDbLine
 10
0.0
 20
-5.0
 30
0.0
 11
0.0
 21
-22.5
 31
0.0
  0
LINE
  5
3EC
330
3E2
100
AcDbEntity
  8
0
  6
Continuous
 62
     0
370
     0
100
AcDbLine
 10
5.0
 20
0.0
 30
0.0
 11
22.5
 21
0.0
 31
0.0
  0
ENDBLK
  5
3E4
330
3E2
100
AcDbEntity
  8
0
100
AcDbBlockEnd
  0
ENDSEC
  0
SECTION
  2
ENTITIES
  0
LINE
  5
44
330
1F
100
AcDbEntity
  8
0
  6
Continuous
 62
     7
370
    15
100
AcDbLine
 10
-175.9736707443
 20
247.7727656259
 30
0.0
 11
-177.5225589061
 21
249.3216519251
 31
0.0
  0
LINE
  5
45
330
1F
100
AcDbEntity
  8
0
  6
Continuous
 62
     7
370
    15
100
AcDbLine
 10
-185.1320585245
 20
241.3747956052
 30
0.0
 11
-183.7518459195
 21
239.9945830002
 31
0.0
  0
LINE
  5
46
330
1F
100
AcDbEntity
  8
0
  6
Continuous
 62
     7
370
    15
100
AcDbLine
 10
-179.9181589865
 20
234.7713534727
 30
0.0
 11
-176.6706148171
 21
231.7462389364
 31
0.0
  0
LINE
  5
47
330
1F
100
AcDbEntity
  8
0
  6
Continuous
 62
     7
370
    15
100
AcDbLine
 10
-167.7253238865
 20
240.6915326609
 30
0.0
 11
-170.6831969329
 21
243.866888155
 31
0.0
  0
LINE
  5
48
330
1F
100
AcDbEntity
  8
0
  6
Continuous
 62
     7
370
    15
100
AcDbLine
 10
13.6659348375
 20
-95.6450129852
 30
0.0
 11
13.6659348375
 21
60.3549827828
 31
0.0
  0
LINE
  5
49
330
1F
100
AcDbEntity
  8
0
  6
Continuous
 62
     7
370
    15
100
AcDbLine
 10
13.6659348375
 20
-177.1450067864
 30
0.0
 11
13.6659348375
 21
-156.6450322971
 31
0.0
  0
LINE
  5
4A
330
1F
100
AcDbEntity
  8
0
  6
Continuous
 62
     7
370
    15
100
AcDbLine
 10
-326.3340687388
 20
-156.6450322971
 30
0.0
 11
-326.3340687388
 21
-177.1450067864
 31
0.0
  0
LINE
  5
4B
330
1F
100
AcDbEntity
  8
0
  6
Continuous
 62
     7
370
    15
100
AcDbLine
 10
-326.3340687388
 20
60.3549827828
 30
0.0
 11
-326.3340687388
 21
-95.6450129852
 31
0.0
  0
ARC
  5
4C
330
1F
100
AcDbEntity
  8
0
  6
Continuous
 62
     7
370
    15
100
AcDbCircle
 10
-156.3340669507
 20
-453.9289220921
 30
0.0
 40
570.0000000000002
100
AcDbArc
 50
87.0820068582
 51
90.311441326
  0
SPLINE
  5
4D
330
1F
100
AcDbEntity
  8
0
  6
Continuous
 62
     7
370
    15
100
AcDbSpline
210
0.0
220
0.0
230
1.0
 70
     8
 71
     3
 72
    12
 73
     8
 74
     0
 42
0.00000001
 43
0.00000001
 12
1.0
 22
0.0
 32
0.0
 13
1.0
 23
0.0
 33
0.0
 40
0.0
 40
0.0
 40
0.0
 40
0.0
 40
0.1381066287138396
 40
0.3943849325913349
 40
0.6281577670352939
 40
0.8580229078146401
 40
1.0
 40
1.0
 40
1.0
 40
1.0
 10
-156.3985334557875
 20
113.9103326021882
 30
0.0
 10
-156.3919658234016
 20
113.9083022876646
 30
0.0
 10
-156.373210928869
 20
113.9025044091415
 30
0.0
 10
-156.5656764405492
 20
113.9715233717822
 30
0.0
 10
-156.9620623560084
 20
114.1812772970339
 30
0.0
 10
-157.4518953717271
 20
114.4924752363934
 30
0.0
 10
-157.7803739777081
 20
114.8249311688175
 30
0.0
 10
-157.9057939359265
 20
114.9518697529288
 30
0.0
  0
SPLINE
  5
4E
330
1F
100
AcDbEntity
  8
0
  6
Continuous
 62
     7
370
    15
100
AcDbSpline
210
0.0
220
0.0
230
1.0
 70
     8
 71
     3
 72
    13
 73
     9
 74
     0
 42
0.00000001
 43
0.00000001
 12
1.0
 22
0.0
 32
0.0
 13
1.0
 23
0.0
 33
0.0
 40
0.0
 40
0.0
 40
0.0
 40
0.0
 40
0.1115980877266403
 40
0.3193938316305682
 40
0.5295444030694163
 40
0.7494521680003285
 40
0.9905166305554604
 40
1.0
 40
1.0
 40
1.0
 40
1.0
 10
-128.2797327273803
 20
114.4365000545235
 30
0.0
 10
-128.3859827952472
 20
114.327369058576
 30
0.0
 10
-128.6900705890285
 20
114.0150360459287
 30
0.0
 10
-129.1693544587438
 20
113.7032506933278
 30
0.0
 10
-129.6386278080264
 20
113.4520317521757
 30
0.0
 10
-129.9084136715057
 20
113.3481049065645
 30
0.0
 10
-130.0123036980183
 20
113.3210793571204
 30
0.0
 10
-129.9811116412431
 20
113.3282823119088
 30
0.0
 10
-129.9799310052114
 20
113.3285549476
 30
0.0
  0
ARC
  5
4F
330
1F
100
AcDbEntity
  8
0
  6
Continuous
 62
     7
370
    15
100
AcDbCircle
 10
-328.3340669507
 20
-146.358634248
 30
0.0
 40
2.000000000000024
100
AcDbArc
 50
0.0
 51
28.9550243719
  0
ARC
  5
50
330
1F
100
AcDbEntity
  8
0
  6
Continuous
 62
     7
370
    15
100
AcDbCircle
 10
-328.3340669507
 20
-105.9314022129
 30
0.0
 40
2.000000000000045
100
AcDbArc
 50
331.0449756281
 51
0.0
  0
ARC
  5
51
330
1F
100
AcDbEntity
  8
0
  6
Continuous
 62
     7
370
    15
100
AcDbCircle
 10
15.6659330493
 20
-105.9314022129
 30
0.0
 40
2.000000000000021
100
AcDbArc
 50
180.0
 51
208.9550243719
  0
ARC
  5
52
330
1F
100
AcDbEntity
  8
0
  6
Continuous
 62
     7
370
    15
100
AcDbCircle
 10
15.6659330493
 20
-146.358634248
 30
0.0
 40
2.000000000000002
100
AcDbArc
 50
151.0449756281
 51
180.0
  0
ARC
  5
53
330
1F
100
AcDbEntity
  8
0
  6
Continuous
 62
     7
370
    15
100
AcDbCircle
 10
-324.8340669507
 20
-107.867893886
 30
0.0
 40
2.0
100
AcDbArc
 50
151.0449756281
 51
180.0
  0
ARC
  5
54
330
1F
100
AcDbEntity
  8
0
  6
Continuous
 62
     7
370
    15
100
AcDbCircle
 10
-324.8340669507
 20
-144.4221425749
 30
0.0
 40
2.0
100
AcDbArc
 50
180.0
 51
208.9550243719
  0
ARC
  5
55
330
1F
100
AcDbEntity
  8
0
  6
Continuous
 62
     7
370
    15
100
AcDbCircle
 10
12.1659330493
 20
-144.4221425749
 30
0.0
 40
2.000000000000006
100
AcDbArc
 50
331.0449756281
 51
0.0
  0
ARC
  5
56
330
1F
100
AcDbEntity
  8
0
  6
Continuous
 62
     7
370
    15
100
AcDbCircle
 10
12.1659330493
 20
-107.867893886
 30
0.0
 40
2.000000000000002
100
AcDbArc
 50
0.0
 51
28.9550243719
  0
LINE
  5
57
330
1F
100
AcDbEntity
  8
0
  6
Continuous
 62
     7
370
    15
100
AcDbLine
 10
-326.3340687388
 20
347.021711339
 30
0.0
 11
-326.3340687388
 21
88.7590137317
 31
0.0
  0
LINE
  5
58
330
1F
100
AcDbEntity
  8
0
  6
Continuous
 62
     7
370
    15
100
AcDbLine
 10
13.6659348375
 20
88.7590137317
 30
0.0
 11
13.6659348375
 21
347.021711339
 31
0.0
  0
ARC
  5
59
330
1F
100
AcDbEntity
  8
0
  6
Continuous
 62
     7
370
    15
100
AcDbCircle
 10
-301.3340669507
 20
347.021709632
 30
0.0
 40
25.0
100
AcDbArc
 50
101.2907132618
 51
180.0
  0
ARC
  5
5A
330
1F
100
AcDbEntity
  8
0
  6
Continuous
 62
     7
370
    15
100
AcDbCircle
 10
-11.3340669507
 20
347.021709632
 30
0.0
 40
25.00000000000005
100
AcDbArc
 50
0.0
 51
78.7092867382
  0
ARC
  5
5B
330
1F
100
AcDbEntity
  8
0
  6
Continuous
 62
     7
370
    15
100
AcDbCircle
 10
-156.3340669507
 20
-379.2450182305
 30
0.0
 40
765.6
100
AcDbArc
 50
78.7092867382
 51
101.2907132618
  0
ARC
  5
5C
330
1F
100
AcDbEntity
  8
0
  6
Continuous
 62
     7
370
    15
100
AcDbCircle
 10
-328.8840669507
 20
83.5163065421
 30
0.0
 40
1.250000000020623
100
AcDbArc
 50
180.0
 51
251.6823015917
  0
ARC
  5
5D
330
1F
100
AcDbEntity
  8
0
  6
Continuous
 62
     7
370
    15
100
AcDbCircle
 10
-328.8840669507
 20
84.1049817695
 30
0.0
 40
1.25000000002641
100
AcDbArc
 50
101.5369590269
 51
180.0
  0
ARC
  5
5E
330
1F
100
AcDbEntity
  8
0
  6
Continuous
 62
     7
370
    15
100
AcDbCircle
 10
-328.8840669507
 20
61.6450148825
 30
0.0
 40
1.250000000071545
100
AcDbArc
 50
103.0503049255
 51
180.0
  0
LINE
  5
5F
330
1F
100
AcDbEntity
  8
0
  6
Continuous
 62
     7
370
    15
100
AcDbLine
 10
-330.1340734595
 20
60.5549824431
 30
0.0
 11
-329.9340700739
 21
60.3549827828
 31
0.0
  0
LINE
  5
60
330
1F
100
AcDbEntity
  8
0
  6
Continuous
 62
     7
370
    15
100
AcDbLine
 10
-330.1340734595
 20
61.6450135603
 30
0.0
 11
-330.1340734595
 21
60.5549824431
 31
0.0
  0
LINE
  5
61
330
1F
100
AcDbEntity
  8
0
  6
Continuous
 62
     7
370
    15
100
AcDbLine
 10
-330.1340734595
 20
84.1049824848
 30
0.0
 11
-330.1340734595
 21
83.5163083865
 31
0.0
  0
ARC
  5
62
330
1F
100
AcDbEntity
  8
0
  6
Continuous
 62
     7
370
    15
100
AcDbCircle
 10
-329.4340669507
 20
81.8549817695
 30
0.0
 40
0.5000000000000568
100
AcDbArc
 50
0.0
 51
71.6823015817
  0
ARC
  5
63
330
1F
100
AcDbEntity
  8
0
  6
Continuous
 62
     7
370
    15
100
AcDbCircle
 10
-329.8340669507
 20
88.7590122808
 30
0.0
 40
3.500000000000057
100
AcDbArc
 50
281.5369590349
 51
0.0
  0
ARC
  5
64
330
1F
100
AcDbEntity
  8
0
  6
Continuous
 62
     7
370
    15
100
AcDbCircle
 10
-329.2340669507
 20
63.1549817695
 30
0.0
 40
0.3000000000000114
100
AcDbArc
 50
283.0503049986
 51
0.0
  0
LINE
  5
65
330
1F
100
AcDbEntity
  8
0
  6
Continuous
 62
     7
370
    15
100
AcDbLine
 10
-328.9340680474
 20
81.8549816503
 30
0.0
 11
-328.9340680474
 21
63.1549817517
 31
0.0
  0
ARC
  5
66
330
1F
100
AcDbEntity
  8
0
  6
Continuous
 62
     7
370
    15
100
AcDbCircle
 10
16.2159330493
 20
84.1049817695
 30
0.0
 40
1.250000000026409
100
AcDbArc
 50
0.0
 51
78.4630409731
  0
ARC
  5
67
330
1F
100
AcDbEntity
  8
0
  6
Continuous
 62
     7
370
    15
100
AcDbCircle
 10
16.2159330493
 20
61.6450148825
 30
0.0
 40
1.250000000071533
100
AcDbArc
 50
0.0
 51
76.9496950745
  0
ARC
  5
68
330
1F
100
AcDbEntity
  8
0
  6
Continuous
 62
     7
370
    15
100
AcDbCircle
 10
16.2159330493
 20
83.5163065421
 30
0.0
 40
1.250000000020619
100
AcDbArc
 50
288.3176984083
 51
0.0
  0
LINE
  5
69
330
1F
100
AcDbEntity
  8
0
  6
Continuous
 62
     7
370
    15
100
AcDbLine
 10
17.4659395582
 20
60.5549824431
 30
0.0
 11
17.4659395582
 21
61.6450135603
 31
0.0
  0
LINE
  5
6A
330
1F
100
AcDbEntity
  8
0
  6
Continuous
 62
     7
370
    15
100
AcDbLine
 10
17.2659361726
 20
60.3549827828
 30
0.0
 11
17.4659395582
 21
60.5549824431
 31
0.0
  0
LINE
  5
6B
330
1F
100
AcDbEntity
  8
0
  6
Continuous
 62
     7
370
    15
100
AcDbLine
 10
17.4659395582
 20
83.5163083865
 30
0.0
 11
17.4659395582
 21
84.1049824848
 31
0.0
  0
ARC
  5
6C
330
1F
100
AcDbEntity
  8
0
  6
Continuous
 62
     7
370
    15
100
AcDbCircle
 10
17.1659330493
 20
88.7590122808
 30
0.0
 40
3.500000000000057
100
AcDbArc
 50
180.0
 51
258.4630409651
  0
ARC
  5
6D
330
1F
100
AcDbEntity
  8
0
  6
Continuous
 62
     7
370
    15
100
AcDbCircle
 10
16.7659330493
 20
81.8549817695
 30
0.0
 40
0.5000000000000853
100
AcDbArc
 50
108.3176984183
 51
180.0
  0
ARC
  5
6E
330
1F
100
AcDbEntity
  8
0
  6
Continuous
 62
     7
370
    15
100
AcDbCircle
 10
16.5659330493
 20
63.1549817695
 30
0.0
 40
0.3000000000000504
100
AcDbArc
 50
180.0
 51
256.9496950014
  0
LINE
  5
6F
330
1F
100
AcDbEntity
  8
0
  6
Continuous
 62
     7
370
    15
100
AcDbLine
 10
16.2659341461
 20
63.1549817517
 30
0.0
 11
16.2659341461
 21
81.8549816503
 31
0.0
  0
LINE
  5
70
330
1F
100
AcDbEntity
  8
0
  6
Continuous
 62
     7
370
    15
100
AcDbLine
 10
-15.0805061692
 20
-186.6450036869
 30
0.0
 11
-15.0805061692
 21
-187.4450172291
 31
0.0
  0
LINE
  5
71
330
1F
100
AcDbEntity
  8
0
  6
Continuous
 62
     7
370
    15
100
AcDbLine
 10
-6.0805028313
 20
-187.4450172291
 30
0.0
 11
-6.0805028313
 21
-186.6450036869
 31
0.0
  0
ARC
  5
72
330
1F
100
AcDbEntity
  8
0
  6
Continuous
 62
     7
370
    15
100
AcDbCircle
 10
-8.5805083872
 20
-185.5450182305
 30
0.0
 40
2.000000000000057
100
AcDbArc
 50
0.0
 51
42.3072493592
  0
ARC
  5
73
330
1F
100
AcDbEntity
  8
0
  6
Continuous
 62
     7
370
    15
100
AcDbCircle
 10
-12.5805083872
 20
-185.5450182305
 30
0.0
 40
2.000000000000057
100
AcDbArc
 50
137.7525973771
 51
180.0
  0
LINE
  5
74
330
1F
100
AcDbEntity
  8
0
  6
Continuous
 62
     7
370
    15
100
AcDbLine
 10
-6.5805112952
 20
-186.6450036869
 30
0.0
 11
-6.5805112952
 21
-185.5450297699
 31
0.0
  0
LINE
  5
75
330
1F
100
AcDbEntity
  8
0
  6
Continuous
 62
     7
370
    15
100
AcDbLine
 10
-14.5805126065
 20
-185.5450297699
 30
0.0
 11
-14.5805126065
 21
-186.6450036869
 31
0.0
  0
LINE
  5
76
330
1F
100
AcDbEntity
  8
0
  6
Continuous
 62
     7
370
    15
100
AcDbLine
 10
-326.8340623015
 20
-130.1450158463
 30
0.0
 11
-326.3340687388
 21
-130.1450158463
 31
0.0
  0
LINE
  5
77
330
1F
100
AcDbEntity
  8
0
  6
Continuous
 62
     7
370
    15
100
AcDbLine
 10
-326.3340687388
 20
-122.145014535
 30
0.0
 11
-326.8340623015
 21
-122.145014535
 31
0.0
  0
LINE
  5
78
330
1F
100
AcDbEntity
  8
0
  6
Continuous
 62
     7
370
    15
100
AcDbLine
 10
14.1659284002
 20
-122.145014535
 30
0.0
 11
13.6659348375
 21
-122.145014535
 31
0.0
  0
LINE
  5
79
330
1F
100
AcDbEntity
  8
0
  6
Continuous
 62
     7
370
    15
100
AcDbLine
 10
13.6659348375
 20
-130.1450158463
 30
0.0
 11
14.1659284002
 21
-130.1450158463
 31
0.0
  0
LINE
  5
7A
330
1F
100
AcDbEntity
  8
0
  6
Continuous
 62
     7
370
    15
100
AcDbLine
 10
-326.8340623015
 20
-102.64501227
 30
0.0
 11
-330.0340717667
 21
-102.64501227
 31
0.0
  0
LINE
  5
7B
330
1F
100
AcDbEntity
  8
0
  6
Continuous
 62
     7
370
    15
100
AcDbLine
 10
-330.0340717667
 20
-149.6450330124
 30
0.0
 11
-326.8340623015
 21
-149.6450330124
 31
0.0
  0
LINE
  5
7C
330
1F
100
AcDbEntity
  8
0
  6
Continuous
 62
     7
370
    15
100
AcDbLine
 10
17.3659378654
 20
-102.64501227
 30
0.0
 11
14.1659284002
 21
-102.64501227
 31
0.0
  0
LINE
  5
7D
330
1F
100
AcDbEntity
  8
0
  6
Continuous
 62
     7
370
    15
100
AcDbLine
 10
14.1659284002
 20
-149.6450330124
 30
0.0
 11
17.3659378654
 21
-149.6450330124
 31
0.0
  0
LINE
  5
7E
330
1F
100
AcDbEntity
  8
0
  6
Continuous
 62
     7
370
    15
100
AcDbLine
 10
22.1765840417
 20
-110.1450200186
 30
0.0
 11
17.3659378654
 21
-110.1450200186
 31
0.0
  0
LINE
  5
7F
330
1F
100
AcDbEntity
  8
0
  6
Continuous
 62
     7
370
    15
100
AcDbLine
 10
17.3659378654
 20
-142.1450103626
 30
0.0
 11
22.1765840417
 21
-142.1450103626
 31
0.0
  0
ARC
  5
80
330
1F
100
AcDbEntity
  8
0
  6
Continuous
 62
     7
370
    15
100
AcDbCircle
 10
28.8659330493
 20
-130.2485518111
 30
0.0
 40
1.0
100
AcDbArc
 50
270.0
 51
0.0
  0
LINE
  5
81
330
1F
100
AcDbEntity
  8
0
  6
Continuous
 62
     7
370
    15
100
AcDbLine
 10
24.3659371501
 20
-131.248566042
 30
0.0
 11
28.8659388191
 21
-131.248566042
 31
0.0
  0
LINE
  5
82
330
1F
100
AcDbEntity
  8
0
  6
Continuous
 62
     7
370
    15
100
AcDbLine
 10
28.8659388191
 20
-110.1769085035
 30
0.0
 11
23.8659286863
 21
-110.1769085035
 31
0.0
  0
LINE
  5
83
330
1F
100
AcDbEntity
  8
0
  6
Continuous
 62
     7
370
    15
100
AcDbLine
 10
23.8659286863
 20
-142.1131218777
 30
0.0
 11
28.8659388191
 21
-142.1131218777
 31
0.0
  0
ARC
  5
84
330
1F
100
AcDbEntity
  8
0
  6
Continuous
 62
     7
370
    15
100
AcDbCircle
 10
28.8659330493
 20
-141.1131220651
 30
0.0
 40
1.000000000000004
100
AcDbArc
 50
270.0
 51
0.0
  0
LINE
  5
85
330
1F
100
AcDbEntity
  8
0
  6
Continuous
 62
     7
370
    15
100
AcDbLine
 10
-326.8340623015
 20
-102.64501227
 30
0.0
 11
-330.0340717667
 21
-102.64501227
 31
0.0
  0
LINE
  5
86
330
1F
100
AcDbEntity
  8
0
  6
Continuous
 62
     7
370
    15
100
AcDbLine
 10
-330.0340717667
 20
-149.6450330124
 30
0.0
 11
-326.8340623015
 21
-149.6450330124
 31
0.0
  0
LINE
  5
87
330
1F
100
AcDbEntity
  8
0
  6
Continuous
 62
     7
370
    15
100
AcDbLine
 10
20.6762159235
 20
-201.6450191841
 30
0.0
 11
20.6762159235
 21
-199.645015131
 31
0.0
  0
LINE
  5
88
330
1F
100
AcDbEntity
  8
0
  6
Continuous
 62
     7
370
    15
100
AcDbLine
 10
-333.3443498248
 20
-199.645015131
 30
0.0
 11
-333.3443498248
 21
-201.6450191841
 31
0.0
  0
ARC
  5
89
330
1F
100
AcDbEntity
  8
0
  6
Continuous
 62
     7
370
    15
100
AcDbCircle
 10
19.6762174674
 20
-197.6450182305
 30
0.0
 40
2.000000000000004
100
AcDbArc
 50
180.0
 51
270.0
  0
ARC
  5
8A
330
1F
100
AcDbEntity
  8
0
  6
Continuous
 62
     7
370
    15
100
AcDbCircle
 10
-332.3443513687
 20
-197.6450182305
 30
0.0
 40
2.0
100
AcDbArc
 50
270.0
 51
0.0
  0
LINE
  5
8B
330
1F
100
AcDbEntity
  8
0
  6
Continuous
 62
     7
370
    15
100
AcDbLine
 10
17.6762247449
 20
-197.6450110779
 30
0.0
 11
17.6762247449
 21
-180.4870094166
 31
0.0
  0
LINE
  5
8C
330
1F
100
AcDbEntity
  8
0
  6
Continuous
 62
     7
370
    15
100
AcDbLine
 10
-330.3443586462
 20
-180.4870094166
 30
0.0
 11
-330.3443586462
 21
-197.6450110779
 31
0.0
  0
SPLINE
  5
8D
330
1F
100
AcDbEntity
  8
0
  6
Continuous
 62
     7
370
    15
100
AcDbSpline
210
0.0
220
0.0
230
1.0
 70
     8
 71
     3
 72
    11
 73
     7
 74
     0
 42
0.00000001
 43
0.00000001
 12
1.0
 22
0.0
 32
0.0
 13
1.0
 23
0.0
 33
0.0
 40
0.0
 40
0.0
 40
0.0
 40
0.0
 40
0.2407142534914087
 40
0.5283151594948725
 40
0.8222013817658999
 40
1.0
 40
1.0
 40
1.0
 40
1.0
 10
17.66568962398005
 20
-180.4876650676875
 30
0.0
 10
17.65182341153912
 20
-180.1949684231343
 30
0.0
 10
17.62139010677605
 20
-179.5525632800743
 30
0.0
 10
17.25338258846501
 20
-178.6139808015077
 30
0.0
 10
16.74202063161318
 20
-177.829091314931
 30
0.0
 10
16.2840955677358
 20
-177.4835678901341
 30
0.0
 10
16.11148361030051
 20
-177.3533250198511
 30
0.0
  0
SPLINE
  5
8E
330
1F
100
AcDbEntity
  8
0
  6
Continuous
 62
     7
370
    15
100
AcDbSpline
210
0.0
220
0.0
230
1.0
 70
     8
 71
     3
 72
    11
 73
     7
 74
     0
 42
0.00000001
 43
0.00000001
 12
1.0
 22
0.0
 32
0.0
 13
1.0
 23
0.0
 33
0.0
 40
0.0
 40
0.0
 40
0.0
 40
0.0
 40
0.2528255458472302
 40
0.5672549493448749
 40
0.8387068489786621
 40
0.9999999999999999
 40
0.9999999999999999
 40
0.9999999999999999
 40
0.9999999999999999
 10
-328.7920152777152
 20
-177.3408378467707
 30
0.0
 10
-329.0260806375409
 20
-177.5405918867048
 30
0.0
 10
-329.5512440793377
 20
-177.9887723402447
 30
0.0
 10
-330.05470567422
 20
-178.8907870010994
 30
0.0
 10
-330.323690681512
 20
-179.7665937031386
 30
0.0
 10
-330.3233650649512
 20
-180.2919016043888
 30
0.0
 10
-330.3232437008338
 20
-180.4876948700098
 30
0.0
  0
ARC
  5
8F
330
1F
100
AcDbEntity
  8
0
  6
Continuous
 62
     7
370
    15
100
AcDbCircle
 10
15.5549858443
 20
-178.1450182305
 30
0.0
 40
1.000000000000003
100
AcDbArc
 50
54.9410027925
 51
89.9999999962
  0
ARC
  5
90
330
1F
100
AcDbEntity
  8
0
  6
Continuous
 62
     7
370
    15
100
AcDbCircle
 10
-328.2231197457
 20
-178.1450182305
 30
0.0
 40
1.000000000000021
100
AcDbArc
 50
90.0000000038
 51
124.9407088748
  0
LINE
  5
91
330
1F
100
AcDbEntity
  8
0
  6
Continuous
 62
     7
370
    15
100
AcDbLine
 10
-182.4415309363
 20
257.5038944378
 30
0.0
 11
-183.6334506058
 21
258.0451940193
 31
0.0
  0
SPLINE
  5
92
330
1F
100
AcDbEntity
  8
0
  6
Continuous
 62
     7
370
    15
100
AcDbSpline
210
0.0
220
0.0
230
1.0
 70
     8
 71
     3
 72
     9
 73
     5
 74
     0
 42
0.00000001
 43
0.00000001
 12
1.0
 22
0.0
 32
0.0
 13
1.0
 23
0.0
 33
0.0
 40
0.0
 40
0.0
 40
0.0
 40
0.0
 40
0.4087584088670193
 40
0.9999999999999999
 40
0.9999999999999999
 40
0.9999999999999999
 40
0.9999999999999999
 10
-185.7811922216134
 20
252.760661114678
 30
0.0
 10
-185.8058266501077
 20
253.1995827744617
 30
0.0
 10
-185.8660931252672
 20
254.2733751424286
 30
0.0
 10
-185.565771890235
 20
255.1707971559377
 30
0.0
 10
-185.3882094853835
 20
255.7013903751226
 30
0.0
  0
SPLINE
  5
93
330
1F
100
AcDbEntity
  8
0
  6
Continuous
 62
     7
370
    15
100
AcDbSpline
210
0.0
220
0.0
230
1.0
 70
     8
 71
     3
 72
    10
 73
     6
 74
     0
 42
0.00000001
 43
0.00000001
 12
1.0
 22
0.0
 32
0.0
 13
1.0
 23
0.0
 33
0.0
 40
0.0
 40
0.0
 40
0.0
 40
0.0
 40
0.1441597015447219
 40
0.8326851848750864
 40
1.0
 40
1.0
 40
1.0
 40
1.0
 10
-184.7353653990941
 20
256.5733765258642
 30
0.0
 10
-184.6581260953825
 20
256.6667822664968
 30
0.0
 10
-184.2119818317528
 20
257.2063059723151
 30
0.0
 10
-183.3212889700314
 20
257.3831277207874
 30
0.0
 10
-182.5853962709324
 20
257.4841456619953
 30
0.0
 10
-182.4415309363322
 20
257.5038944377752
 30
0.0
  0
LINE
  5
94
330
1F
100
AcDbEntity
  8
0
  6
Continuous
 62
     7
370
    15
100
AcDbLine
 10
-187.0954466992
 20
252.4216894998
 30
0.0
 11
-185.7811922216
 21
252.7606611147
 31
0.0
  0
LINE
  5
95
330
1F
100
AcDbEntity
  8
0
  6
Continuous
 62
     7
370
    15
100
AcDbLine
 10
-185.7811922216
 20
252.7606611147
 30
0.0
 11
-179.5139128351
 21
246.4933742776
 31
0.0
  0
LINE
  5
96
330
1F
100
AcDbEntity
  8
0
  6
Continuous
 62
     7
370
    15
100
AcDbLine
 10
-185.2915121251
 20
241.2295241847
 30
0.0
 11
-179.5139128351
 21
246.4933742776
 31
0.0
  0
LINE
  5
97
330
1F
100
AcDbEntity
  8
0
  6
Continuous
 62
     7
370
    15
100
AcDbLine
 10
-189.4407739871
 20
245.378789772
 30
0.0
 11
-185.2915121251
 21
241.2295241847
 31
0.0
  0
LINE
  5
98
330
1F
100
AcDbEntity
  8
0
  6
Continuous
 62
     7
370
    15
100
AcDbLine
 10
-182.4415309363
 20
257.5038944378
 30
0.0
 11
-176.1742515498
 21
251.2366150513
 31
0.0
  0
LINE
  5
99
330
1F
100
AcDbEntity
  8
0
  6
Continuous
 62
     7
370
    15
100
AcDbLine
 10
-179.5139128351
 20
246.4933742776
 30
0.0
 11
-176.1742515498
 21
251.2366150513
 31
0.0
  0
LINE
  5
9A
330
1F
100
AcDbEntity
  8
0
  6
Continuous
 62
     7
370
    15
100
AcDbLine
 10
-189.6982399755
 20
242.6777009859
 30
0.0
 11
-187.7294501298
 21
240.7089148655
 31
0.0
  0
LINE
  5
9B
330
1F
100
AcDbEntity
  8
0
  6
Continuous
 62
     7
370
    15
100
AcDbLine
 10
-187.7294501298
 20
240.7089148655
 30
0.0
 11
-185.2915121251
 21
241.2295241847
 31
0.0
  0
ARC
  5
9C
330
1F
100
AcDbEntity
  8
0
  6
Continuous
 62
     7
370
    15
100
AcDbCircle
 10
-177.9576479469
 20
247.640973957
 30
0.0
 40
1.9883497138233
100
AcDbArc
 50
311.6888449755
 51
3.8004614338
  0
LWPOLYLINE
  5
9D
330
1F
100
AcDbEntity
  8
0
  6
Continuous
 62
     7
370
    15
100
AcDbPolyline
 90
       10
 70
   128
 43
0.0
 10
-183.7518459195
 20
239.9945830002
 10
-183.4445392722
 20
239.9523158564
 10
-182.8931404286
 20
240.1779566898
 10
-182.1352263921
 20
240.6561424031
 10
-181.22244645
 20
241.3542767062
 10
-180.2170073622
 20
242.2247801914
 10
-179.1874265307
 20
243.2083387866
 10
-178.2038679355
 20
244.2379196181
 10
-177.3333588624
 20
245.2433605685
 10
-176.6352264219
 20
246.156138648
  0
LINE
  5
9E
330
1F
100
AcDbEntity
  8
0
  6
Continuous
 62
     7
370
    15
100
AcDbLine
 10
-174.0851590419
 20
249.1475318565
 30
0.0
 11
-176.5230970466
 21
248.6269150867
 31
0.0
  0
LINE
  5
9F
330
1F
100
AcDbEntity
  8
0
  6
Continuous
 62
     7
370
    15
100
AcDbLine
 10
-177.4248203271
 20
244.4042836323
 30
0.0
 11
-174.0851590419
 21
249.1475318565
 31
0.0
  0
LINE
  5
A0
330
1F
100
AcDbEntity
  8
0
  6
Continuous
 62
     7
370
    15
100
AcDbLine
 10
-183.2024196171
 20
239.1404335394
 30
0.0
 11
-177.4248203271
 21
244.4042836323
 31
0.0
  0
LINE
  5
A1
330
1F
100
AcDbEntity
  8
0
  6
Continuous
 62
     7
370
    15
100
AcDbLine
 10
-185.6403576219
 20
238.6198242202
 30
0.0
 11
-183.2024196171
 21
239.1404335394
 31
0.0
  0
LINE
  5
A2
330
1F
100
AcDbEntity
  8
0
  6
Continuous
 62
     7
370
    15
100
AcDbLine
 10
-184.2920502656
 20
240.5347873463
 30
0.0
 11
-185.6403576219
 21
238.6198242202
 31
0.0
  0
LINE
  5
A3
330
1F
100
AcDbEntity
  8
0
  6
Continuous
 62
     7
370
    15
100
AcDbLine
 10
-176.5230970466
 20
248.6269150867
 30
0.0
 11
-176.6825506472
 21
248.4816436663
 31
0.0
  0
LINE
  5
A4
330
1F
100
AcDbEntity
  8
0
  6
Continuous
 62
     7
370
    15
100
AcDbLine
 10
-183.2024196171
 20
239.1404335394
 30
0.0
 11
-179.0242346012
 21
234.9622447982
 31
0.0
  0
LINE
  5
A5
330
1F
100
AcDbEntity
  8
0
  6
Continuous
 62
     7
370
    15
100
AcDbLine
 10
-177.4248203271
 20
244.4042836323
 30
0.0
 11
-173.2466353112
 21
240.2260948911
 31
0.0
  0
LINE
  5
A6
330
1F
100
AcDbEntity
  8
0
  6
Continuous
 62
     7
370
    15
100
AcDbLine
 10
-179.0242346012
 20
234.9622447982
 30
0.0
 11
-173.2466353112
 21
240.2260948911
 31
0.0
  0
LINE
  5
A7
330
1F
100
AcDbEntity
  8
0
  6
Continuous
 62
     7
370
    15
100
AcDbLine
 10
-174.0851590419
 20
249.1475318565
 30
0.0
 11
-169.9069740259
 21
244.9693431153
 31
0.0
  0
LINE
  5
A8
330
1F
100
AcDbEntity
  8
0
  6
Continuous
 62
     7
370
    15
100
AcDbLine
 10
-173.2466353112
 20
240.2260948911
 30
0.0
 11
-169.9069740259
 21
244.9693431153
 31
0.0
  0
LINE
  5
A9
330
1F
100
AcDbEntity
  8
0
  6
Continuous
 62
     7
370
    15
100
AcDbLine
 10
-185.6403576219
 20
238.6198242202
 30
0.0
 11
-181.462172606
 21
234.441635479
 31
0.0
  0
LINE
  5
AA
330
1F
100
AcDbEntity
  8
0
  6
Continuous
 62
     7
370
    15
100
AcDbLine
 10
-181.462172606
 20
234.441635479
 30
0.0
 11
-179.0242346012
 21
234.9622447982
 31
0.0
  0
CIRCLE
  5
AB
330
1F
100
AcDbEntity
  8
0
  6
Continuous
 62
     7
370
    15
100
AcDbCircle
 10
-149.3340669507
 20
213.3549817695
 30
0.0
 40
19.29999999999998
  0
CIRCLE
  5
AC
330
1F
100
AcDbEntity
  8
0
  6
Continuous
 62
     7
370
    15
100
AcDbCircle
 10
-149.3340669507
 20
213.3549817695
 30
0.0
 40
22.99999999999999
  0
CIRCLE
  5
AD
330
1F
100
AcDbEntity
  8
0
  6
Continuous
 62
     7
370
    15
100
AcDbCircle
 10
-104.3340669507
 20
213.3549817695
 30
0.0
 40
20.0
  0
CIRCLE
  5
AE
330
1F
100
AcDbEntity
  8
0
  6
Continuous
 62
     7
370
    15
100
AcDbCircle
 10
-104.3340669507
 20
213.3549817695
 30
0.0
 40
16.27500000000001
  0
LINE
  5
AF
330
1F
100
AcDbEntity
  8
0
  6
Continuous
 62
     7
370
    15
100
AcDbLine
 10
-105.618434214
 20
253.3549790277
 30
0.0
 11
-151.0497002871
 21
253.3549790277
 31
0.0
  0
ARC
  5
B0
330
1F
100
AcDbEntity
  8
0
  6
Continuous
 62
     7
370
    15
100
AcDbCircle
 10
-128.3340669507
 20
213.3549817695
 30
0.0
 40
46.00000000000002
100
AcDbArc
 50
299.591845794
 51
60.408154206
  0
ARC
  5
B1
330
1F
100
AcDbEntity
  8
0
  6
Continuous
 62
     7
370
    15
100
AcDbCircle
 10
-128.3340669507
 20
213.3549817695
 30
0.0
 40
46.00000000000002
100
AcDbArc
 50
119.591845794
 51
240.4081542061
  0
LINE
  5
B2
330
1F
100
AcDbEntity
  8
0
  6
Continuous
 62
     7
370
    15
100
AcDbLine
 10
-151.0497002871
 20
173.3549808159
 30
0.0
 11
-105.618434214
 21
173.3549808159
 31
0.0
  0
CIRCLE
  5
B3
330
1F
100
AcDbEntity
  8
0
  6
Continuous
 62
     7
370
    15
100
AcDbCircle
 10
-149.3340669507
 20
213.3549817695
 30
0.0
 40
14.99999999999997
  0
CIRCLE
  5
B4
330
1F
100
AcDbEntity
  8
0
  6
Continuous
 62
     7
370
    15
100
AcDbCircle
 10
-104.3340669507
 20
213.3549817695
 30
0.0
 40
11.00000000000001
  0
CIRCLE
  5
B5
330
1F
100
AcDbEntity
  8
0
  6
Continuous
 62
     7
370
    15
100
AcDbCircle
 10
-170.8160476942
 20
133.1831381876
 30
0.0
 40
5.999999999999997
  0
LINE
  5
B6
330
1F
100
AcDbEntity
  8
0
  6
Continuous
 62
     7
370
    15
100
AcDbLine
 10
-171.6948553928
 20
136.6077105521
 30
0.0
 11
-172.156719678
 21
136.4161859273
 31
0.0
  0
LINE
  5
B7
330
1F
100
AcDbEntity
  8
0
  6
Continuous
 62
     7
370
    15
100
AcDbLine
 10
-172.156719678
 20
136.4161859273
 30
0.0
 11
-172.6185830319
 21
136.2246613025
 31
0.0
  0
LINE
  5
B8
330
1F
100
AcDbEntity
  8
0
  6
Continuous
 62
     7
370
    15
100
AcDbLine
 10
-172.6185830319
 20
136.2246613025
 30
0.0
 11
-172.6048329854
 21
136.1915015622
 31
0.0
  0
LINE
  5
B9
330
1F
100
AcDbEntity
  8
0
  6
Continuous
 62
     7
370
    15
100
AcDbLine
 10
-174.2074603224
 20
132.3180816143
 30
0.0
 11
-174.2406209939
 21
132.3043306365
 31
0.0
  0
LINE
  5
BA
330
1F
100
AcDbEntity
  8
0
  6
Continuous
 62
     7
370
    15
100
AcDbLine
 10
-174.2406209939
 20
132.3043306365
 30
0.0
 11
-174.0490963691
 21
131.8424663513
 31
0.0
  0
LINE
  5
BB
330
1F
100
AcDbEntity
  8
0
  6
Continuous
 62
     7
370
    15
100
AcDbLine
 10
-174.0490963691
 20
131.8424663513
 30
0.0
 11
-173.8575717443
 21
131.3806029975
 31
0.0
  0
LINE
  5
BC
330
1F
100
AcDbEntity
  8
0
  6
Continuous
 62
     7
370
    15
100
AcDbLine
 10
-173.8575717443
 20
131.3806029975
 30
0.0
 11
-173.8244110727
 21
131.394353044
 31
0.0
  0
LINE
  5
BD
330
1F
100
AcDbEntity
  8
0
  6
Continuous
 62
     7
370
    15
100
AcDbLine
 10
-169.9509911248
 20
129.7917261726
 30
0.0
 11
-169.937240147
 21
129.758565501
 31
0.0
  0
LINE
  5
BE
330
1F
100
AcDbEntity
  8
0
  6
Continuous
 62
     7
370
    15
100
AcDbLine
 10
-169.0135125079
 20
130.1416147507
 30
0.0
 11
-169.0272625544
 21
130.1747749566
 31
0.0
  0
LINE
  5
BF
330
1F
100
AcDbEntity
  8
0
  6
Continuous
 62
     7
370
    15
100
AcDbLine
 10
-167.4246352175
 20
134.0481949046
 30
0.0
 11
-167.3914754772
 21
134.0619458824
 31
0.0
  0
LINE
  5
C0
330
1F
100
AcDbEntity
  8
0
  6
Continuous
 62
     7
370
    15
100
AcDbLine
 10
-167.3914754772
 20
134.0619458824
 30
0.0
 11
-167.5829991707
 21
134.5238101675
 31
0.0
  0
LINE
  5
C1
330
1F
100
AcDbEntity
  8
0
  6
Continuous
 62
     7
370
    15
100
AcDbLine
 10
-167.5829991707
 20
134.5238101675
 30
0.0
 11
-167.7745237955
 21
134.9856735214
 31
0.0
  0
LINE
  5
C2
330
1F
100
AcDbEntity
  8
0
  6
Continuous
 62
     7
370
    15
100
AcDbLine
 10
-167.7745237955
 20
134.9856735214
 30
0.0
 11
-167.8076844671
 21
134.9719225436
 31
0.0
  0
LINE
  5
C3
330
1F
100
AcDbEntity
  8
0
  6
Continuous
 62
     7
370
    15
100
AcDbLine
 10
-171.681104415
 20
136.5745508119
 30
0.0
 11
-171.6948553928
 21
136.6077105521
 31
0.0
  0
LINE
  5
C4
330
1F
100
AcDbEntity
  8
0
  6
Continuous
 62
     7
370
    15
100
AcDbLine
 10
-169.4753758618
 20
129.9500901259
 30
0.0
 11
-169.0135125079
 21
130.1416147507
 31
0.0
  0
LINE
  5
C5
330
1F
100
AcDbEntity
  8
0
  6
Continuous
 62
     7
370
    15
100
AcDbLine
 10
-169.937240147
 20
129.758565501
 30
0.0
 11
-169.4753758618
 21
129.9500901259
 31
0.0
  0
LINE
  5
C6
330
1F
100
AcDbEntity
  8
0
  6
Continuous
 62
     7
370
    15
100
AcDbLine
 10
-171.4694362142
 20
133.4534774541
 30
0.0
 11
-174.2074603224
 21
132.3180816143
 31
0.0
  0
LINE
  5
C7
330
1F
100
AcDbEntity
  8
0
  6
Continuous
 62
     7
370
    15
100
AcDbLine
 10
-172.6048329854
 20
136.1915015622
 30
0.0
 11
-171.4694362142
 21
133.4534774541
 31
0.0
  0
LINE
  5
C8
330
1F
100
AcDbEntity
  8
0
  6
Continuous
 62
     7
370
    15
100
AcDbLine
 10
-173.8244110727
 20
131.394353044
 30
0.0
 11
-171.0863869646
 21
132.5297498151
 31
0.0
  0
LINE
  5
C9
330
1F
100
AcDbEntity
  8
0
  6
Continuous
 62
     7
370
    15
100
AcDbLine
 10
-171.0863869646
 20
132.5297498151
 30
0.0
 11
-169.9509911248
 21
129.7917261726
 31
0.0
  0
LINE
  5
CA
330
1F
100
AcDbEntity
  8
0
  6
Continuous
 62
     7
370
    15
100
AcDbLine
 10
-170.1626593256
 20
132.9127990647
 30
0.0
 11
-167.4246352175
 21
134.0481949046
 31
0.0
  0
LINE
  5
CB
330
1F
100
AcDbEntity
  8
0
  6
Continuous
 62
     7
370
    15
100
AcDbLine
 10
-169.0272625544
 20
130.1747749566
 30
0.0
 11
-170.1626593256
 21
132.9127990647
 31
0.0
  0
LINE
  5
CC
330
1F
100
AcDbEntity
  8
0
  6
Continuous
 62
     7
370
    15
100
AcDbLine
 10
-170.5457085752
 20
133.8365267038
 30
0.0
 11
-171.681104415
 21
136.5745508119
 31
0.0
  0
LINE
  5
CD
330
1F
100
AcDbEntity
  8
0
  6
Continuous
 62
     7
370
    15
100
AcDbLine
 10
-167.8076844671
 20
134.9719225436
 30
0.0
 11
-170.5457085752
 21
133.8365267038
 31
0.0
  0
ELLIPSE
  5
CE
330
1F
100
AcDbEntity
  8
0
  6
Continuous
 62
     7
370
    15
100
AcDbEllipse
 10
-149.3340669507
 20
328.7596198052
 30
0.0
 11
277.7820738903984
 21
286.5528814444743
 31
0.0
210
0.0
220
0.0
230
1.0
 40
0.1227442151
 41
4.455621331229329
 42
4.455840527978296
  0
LWPOLYLINE
  5
CF
330
1F
100
AcDbEntity
  8
0
  6
Continuous
 62
     7
370
    15
100
AcDbPolyline
 90
       10
 70
   128
 43
0.0
 10
-158.767722967
 20
249.6587012901
 10
-159.1237161317
 20
249.8375599279
 10
-159.787917464
 20
249.8132710352
 10
-160.6937802405
 20
249.5244567289
 10
-161.8236714983
 20
248.9767347469
 10
-163.1555973561
 20
248.1807743206
 10
-164.6636307248
 20
247.1520503058
 10
-166.3184177139
 20
245.9106047644
 10
-168.0877462038
 20
244.4805924787
 10
-169.8471635589
 20
242.9693837657
  0
LWPOLYLINE
  5
D0
330
1F
100
AcDbEntity
  8
0
  6
Continuous
 62
     7
370
    15
100
AcDbPolyline
 90
       10
 70
   128
 43
0.0
 10
-178.9484677845
 20
233.8680748834
 10
-179.1108550513
 20
233.6835314526
 10
-180.6799119347
 20
231.8436180248
 10
-182.0839570844
 20
230.0889615908
 10
-183.2956580454
 20
228.4537230625
 10
-184.2914300048
 20
226.9697238698
 10
-185.0518884146
 20
225.6658648147
 10
-185.5622326964
 20
224.5675151243
 10
-185.8125256383
 20
223.6960654154
 10
-185.797898286
 20
223.0684657588
  0
LINE
  5
D1
330
1F
100
AcDbEntity
  8
0
  6
Continuous
 62
     7
370
    15
100
AcDbLine
 10
-157.7977466638
 20
248.6804847612
 30
0.0
 11
-158.7141053294
 21
249.59684657
 31
0.0
  0
LINE
  5
D2
330
1F
100
AcDbEntity
  8
0
  6
Continuous
 62
     7
370
    15
100
AcDbLine
 10
-170.4639999205
 20
231.8230320706
 30
0.0
 11
-182.5680864984
 21
219.7189454927
 31
0.0
  0
LINE
  5
D3
330
1F
100
AcDbEntity
  8
0
  6
Continuous
 62
     7
370
    15
100
AcDbLine
 10
-185.858750903
 20
223.0096061721
 30
0.0
 11
-182.5680864984
 21
219.7189454927
 31
0.0
  0
LINE
  5
D4
330
1F
100
AcDbEntity
  8
0
  6
Continuous
 62
     7
370
    15
100
AcDbLine
 10
-182.5680864984
 20
219.7189454927
 30
0.0
 11
-174.2944085979
 21
211.4452620044
 31
0.0
  0
LINE
  5
D5
330
1F
100
AcDbEntity
  8
0
  6
Continuous
 62
     7
370
    15
100
AcDbLine
 10
-185.797898286
 20
223.0684657588
 30
0.0
 11
-189.9196414286
 21
227.5692720904
 31
0.0
  0
SPLINE
  5
D6
330
1F
100
AcDbEntity
  8
0
  6
Continuous
 62
     7
370
    15
100
AcDbSpline
210
0.0
220
0.0
230
1.0
 70
     8
 71
     3
 72
    10
 73
     6
 74
     0
 42
0.00000001
 43
0.00000001
 12
1.0
 22
0.0
 32
0.0
 13
1.0
 23
0.0
 33
0.0
 40
0.0
 40
0.0
 40
0.0
 40
0.0
 40
0.0090221910736806
 40
0.5044787813471389
 40
1.0
 40
1.0
 40
1.0
 40
1.0
 10
-175.3665657722669
 20
265.4645119800421
 30
0.0
 10
-175.3138553030391
 20
265.4199423275772
 30
0.0
 10
-172.3665320793246
 20
262.9278155507349
 30
0.0
 10
-166.8145805319783
 20
257.6236041642503
 30
0.0
 10
-161.4143811248014
 20
252.2725487609471
 30
0.0
 10
-158.7141053294109
 20
249.5968465700003
 30
0.0
  0
ARC
  5
D7
330
1F
100
AcDbEntity
  8
0
  6
Continuous
 62
     7
370
    15
100
AcDbCircle
 10
-149.3340669507
 20
213.3549817695
 30
0.0
 40
74.16198487095664
100
AcDbArc
 50
253.7585995464
 51
256.2414004536
  0
ARC
  5
D8
330
1F
100
AcDbEntity
  8
0
  6
Continuous
 62
     7
370
    15
100
AcDbCircle
 10
-170.8160476942
 20
133.1831381876
 30
0.0
 40
9.000000000000044
100
AcDbArc
 50
85.2837392676
 51
64.7162607324
  0
ARC
  5
D9
330
1F
100
AcDbEntity
  8
0
  6
Continuous
 62
     7
370
    15
100
AcDbCircle
 10
-149.3340669507
 20
213.3549817695
 30
0.0
 40
91.99999999999997
100
AcDbArc
 50
243.8228772853
 51
255.0
  0
ARC
  5
DA
330
1F
100
AcDbEntity
  8
0
  6
Continuous
 62
     7
370
    15
100
AcDbCircle
 10
-149.3340669507
 20
213.3549817695
 30
0.0
 40
91.99999999999997
100
AcDbArc
 50
333.8100834705
 51
353.0726296195
  0
ARC
  5
DB
330
1F
100
AcDbEntity
  8
0
  6
Continuous
 62
     7
370
    15
100
AcDbCircle
 10
-149.3340669507
 20
213.3549817695
 30
0.0
 40
91.99999999999999
100
AcDbArc
 50
255.0
 51
316.1899165295
  0
SPLINE
  5
DC
330
1F
100
AcDbEntity
  8
0
  6
Continuous
 62
     7
370
    15
100
AcDbSpline
210
0.0
220
0.0
230
1.0
 70
     8
 71
     3
 72
    11
 73
     7
 74
     0
 42
0.00000001
 43
0.00000001
 12
1.0
 22
0.0
 32
0.0
 13
1.0
 23
0.0
 33
0.0
 40
0.0
 40
0.0
 40
0.0
 40
0.0
 40
0.3822070736351477
 40
0.6131514685559437
 40
0.8507286971401237
 40
1.0
 40
1.0
 40
1.0
 40
1.0
 10
-66.77914615807106
 20
172.7509696974607
 30
0.0
 10
-67.29333777317036
 20
171.9309844731402
 30
0.0
 10
-68.11822398189149
 20
170.6155322505939
 30
0.0
 10
-69.82269789517291
 20
169.2951503042126
 30
0.0
 10
-71.17312556446657
 20
168.531312955481
 30
0.0
 10
-72.06498709557265
 20
168.1489375032145
 30
0.0
 10
-72.40912523207238
 20
168.0013922049852
 30
0.0
  0
SPLINE
  5
DD
330
1F
100
AcDbEntity
  8
0
  6
Continuous
 62
     7
370
    15
100
AcDbSpline
210
0.0
220
0.0
230
1.0
 70
     8
 71
     3
 72
    15
 73
    11
 74
     0
 42
0.00000001
 43
0.00000001
 12
1.0
 22
0.0
 32
0.0
 13
1.0
 23
0.0
 33
0.0
 40
0.0
 40
0.0
 40
0.0
 40
0.0
 40
0.130015288405772
 40
0.2924168677643634
 40
0.4814547001628569
 40
0.6072519072688544
 40
0.7551835381171805
 40
0.7983979344595336
 40
0.9508001681747649
 40
1.0
 40
1.0
 40
1.0
 40
1.0
 10
-72.40912523207238
 20
168.0013922049852
 30
0.0
 10
-72.83998392047015
 20
167.8099908908053
 30
0.0
 10
-73.80902648196587
 20
167.3795109567547
 30
0.0
 10
-75.91511419508122
 20
165.9797762586744
 30
0.0
 10
-77.75262949087546
 20
164.0325080713868
 30
0.0
 10
-79.10844298402117
 20
161.838002717589
 30
0.0
 10
-79.74863903041039
 20
160.2127412051979
 30
0.0
 10
-80.19958384666425
 20
158.5362680267772
 30
0.0
 10
-80.35920921687125
 20
157.4237790850584
 30
0.0
 10
-80.3966212399602
 20
156.7463465861735
 30
0.0
 10
-80.40575143036416
 20
156.5810230567308
 30
0.0
  0
SPLINE
  5
DE
330
1F
100
AcDbEntity
  8
0
  6
Continuous
 62
     7
370
    15
100
AcDbSpline
210
0.0
220
0.0
230
1.0
 70
     8
 71
     3
 72
    11
 73
     7
 74
     0
 42
0.00000001
 43
0.00000001
 12
1.0
 22
0.0
 32
0.0
 13
1.0
 23
0.0
 33
0.0
 40
0.0
 40
0.0
 40
0.0
 40
0.0
 40
0.245239623152756
 40
0.4946447314383099
 40
0.8803375587319533
 40
0.9999999999999999
 40
0.9999999999999999
 40
0.9999999999999999
 40
0.9999999999999999
 10
-80.40575143036416
 20
156.5810230567308
 30
0.0
 10
-80.44535126819758
 20
155.9663640119822
 30
0.0
 10
-80.52522356166426
 20
154.7266057127027
 30
0.0
 10
-81.03215150640916
 20
152.5703265674239
 30
0.0
 10
-81.89751537393204
 20
150.8349857033244
 30
0.0
 10
-82.7431099454916
 20
149.8899080562479
 30
0.0
 10
-82.94333722528985
 20
149.6661243035646
 30
0.0
  0
ARC
  5
DF
330
1F
100
AcDbEntity
  8
0
  6
Continuous
 62
     7
370
    15
100
AcDbCircle
 10
-67.4188625218
 20
155.9973381344
 30
0.0
 40
9.000000000000004
100
AcDbArc
 50
245.0633443132
 51
44.9366556868
  0
ARC
  5
E0
330
1F
100
AcDbEntity
  8
0
  6
Continuous
 62
     7
370
    15
100
AcDbCircle
 10
-75.4295668987
 20
138.7686232844
 30
0.0
 40
10.00000000000002
100
AcDbArc
 50
65.0633443132
 51
134.7369041014
  0
ARC
  5
E1
330
1F
100
AcDbEntity
  8
0
  6
Continuous
 62
     7
370
    15
100
AcDbCircle
 10
-149.3340669507
 20
213.3549817695
 30
0.0
 40
94.99999999999999
100
AcDbArc
 50
244.7089533533
 51
314.7369041014
  0
ARC
  5
E2
330
1F
100
AcDbEntity
  8
0
  6
Continuous
 62
     7
370
    15
100
AcDbCircle
 10
-53.9689885707
 20
169.4175054471
 30
0.0
 40
10.0
100
AcDbArc
 50
155.2630958986
 51
224.9366556868
  0
ARC
  5
E3
330
1F
100
AcDbEntity
  8
0
  6
Continuous
 62
     7
370
    15
100
AcDbCircle
 10
-149.3340669507
 20
213.3549817695
 30
0.0
 40
95.0
100
AcDbArc
 50
335.2630958986
 51
344.0186618379
  0
LINE
  5
E4
330
1F
100
AcDbEntity
  8
0
  6
Continuous
 62
     7
370
    15
100
AcDbLine
 10
-11.4769583577
 20
-177.1450067864
 30
0.0
 11
-67.3598146075
 21
-177.1450067864
 31
0.0
  0
LINE
  5
E5
330
1F
100
AcDbEntity
  8
0
  6
Continuous
 62
     7
370
    15
100
AcDbLine
 10
-245.3083192938
 20
-177.1450067864
 30
0.0
 11
-301.1911755436
 21
-177.1450067864
 31
0.0
  0
LINE
  5
E6
330
1F
100
AcDbEntity
  8
0
  6
Continuous
 62
     7
370
    15
100
AcDbLine
 10
-187.5083094471
 20
116.8549817993
 30
0.0
 11
-176.8340675169
 21
116.8549817993
 31
0.0
  0
LINE
  5
E7
330
1F
100
AcDbEntity
  8
0
  6
Continuous
 62
     7
370
    15
100
AcDbLine
 10
-176.8340675169
 20
116.8549817993
 30
0.0
 11
-162.5678764665
 21
116.8549817993
 31
0.0
  0
LINE
  5
E8
330
1F
100
AcDbEntity
  8
0
  6
Continuous
 62
     7
370
    15
100
AcDbLine
 10
-189.9196414286
 20
116.8549817993
 30
0.0
 11
-187.5083094471
 21
116.8549817993
 31
0.0
  0
LINE
  5
E9
330
1F
100
AcDbEntity
  8
0
  6
Continuous
 62
     7
370
    15
100
AcDbLine
 10
-98.1598218912
 20
116.8549817993
 30
0.0
 11
-60.1180886858
 21
116.8549817993
 31
0.0
  0
LINE
  5
EA
330
1F
100
AcDbEntity
  8
0
  6
Continuous
 62
     7
370
    15
100
AcDbLine
 10
-108.8340675467
 20
116.8549817993
 30
0.0
 11
-98.1598218912
 21
116.8549817993
 31
0.0
  0
LINE
  5
EB
330
1F
100
AcDbEntity
  8
0
  6
Continuous
 62
     7
370
    15
100
AcDbLine
 10
-123.1002567345
 20
116.8549817993
 30
0.0
 11
-108.8340675467
 21
116.8549817993
 31
0.0
  0
ARC
  5
EC
330
1F
100
AcDbEntity
  8
0
  6
Continuous
 62
     7
370
    15
100
AcDbCircle
 10
-123.100257439
 20
110.2549817695
 30
0.0
 40
6.600000000000009
100
AcDbArc
 50
90.0
 51
135.0
  0
LINE
  5
ED
330
1F
100
AcDbEntity
  8
0
  6
Continuous
 62
     7
370
    15
100
AcDbLine
 10
-60.1180886858
 20
116.8549817993
 30
0.0
 11
-58.0056851738
 21
116.8549817993
 31
0.0
  0
ARC
  5
EE
330
1F
100
AcDbEntity
  8
0
  6
Continuous
 62
     7
370
    15
100
AcDbCircle
 10
-162.5678152576
 20
110.2549814366
 30
0.0
 40
6.600000362702173
100
AcDbArc
 50
45.1495083595
 51
89.9999937145
  0
LINE
  5
EF
330
1F
100
AcDbEntity
  8
0
  6
Continuous
 62
     7
370
    15
100
AcDbLine
 10
-326.3340687388
 20
-141.7524839745
 30
0.0
 11
-326.3340687388
 21
-110.5375464068
 31
0.0
  0
LINE
  5
F0
330
1F
100
AcDbEntity
  8
0
  6
Continuous
 62
     7
370
    15
100
AcDbLine
 10
13.6659348375
 20
-110.5375464068
 30
0.0
 11
13.6659348375
 21
-141.7524839745
 31
0.0
  0
LINE
  5
F1
330
1F
100
AcDbEntity
  8
0
  6
Continuous
 62
     7
370
    15
100
AcDbLine
 10
-176.7285989606
 20
116.8549817993
 30
0.0
 11
-176.829468646
 21
116.8549817993
 31
0.0
  0
LINE
  5
F2
330
1F
100
AcDbEntity
  8
0
  6
Continuous
 62
     7
370
    15
100
AcDbLine
 10
-326.3340687388
 20
-110.5375464068
 30
0.0
 11
-326.3340687388
 21
-100.4071558819
 31
0.0
  0
LINE
  5
F3
330
1F
100
AcDbEntity
  8
0
  6
Continuous
 62
     7
370
    15
100
AcDbLine
 10
-326.3340687388
 20
-151.8828894005
 30
0.0
 11
-326.3340687388
 21
-141.7524839745
 31
0.0
  0
LINE
  5
F4
330
1F
100
AcDbEntity
  8
0
  6
Continuous
 62
     7
370
    15
100
AcDbLine
 10
13.6659348375
 20
-100.4071558819
 30
0.0
 11
13.6659348375
 21
-110.5375464068
 31
0.0
  0
LINE
  5
F5
330
1F
100
AcDbEntity
  8
0
  6
Continuous
 62
     7
370
    15
100
AcDbLine
 10
13.6659348375
 20
-141.7524839745
 30
0.0
 11
13.6659348375
 21
-151.8828894005
 31
0.0
  0
LINE
  5
F6
330
1F
100
AcDbEntity
  8
0
  6
Continuous
 62
     7
370
    15
100
AcDbLine
 10
-326.3340687388
 20
-153.3688331947
 30
0.0
 11
-326.3340687388
 21
-151.8828894005
 31
0.0
  0
SPLINE
  5
F7
330
1F
100
AcDbEntity
  8
0
  6
Continuous
 62
     7
370
    15
100
AcDbSpline
210
0.0
220
0.0
230
1.0
 70
    24
 71
     3
 72
     8
 73
     4
 74
     0
 42
0.00000001
 43
0.00000001
 12
1.0
 22
0.0
 32
0.0
 13
1.0
 23
0.0
 33
0.0
 40
0.0
 40
0.0
 40
0.0
 40
0.0
 40
1.0
 40
1.0
 40
1.0
 40
1.0
 10
-326.3340669506506
 20
-100.4071605869391
 30
0.0
 10
-326.3340669506506
 20
-99.93112528674295
 30
0.0
 10
-326.3340669506507
 20
-99.43511045093449
 30
0.0
 10
-326.3340669506507
 20
-98.92121263688502
 30
0.0
  0
SPLINE
  5
F8
330
1F
100
AcDbEntity
  8
0
  6
Continuous
 62
     7
370
    15
100
AcDbSpline
210
0.0
220
0.0
230
1.0
 70
    24
 71
     3
 72
     8
 73
     4
 74
     0
 42
0.00000001
 43
0.00000001
 12
1.0
 22
0.0
 32
0.0
 13
1.0
 23
0.0
 33
0.0
 40
0.0
 40
0.0
 40
0.0
 40
0.0
 40
1.0
 40
1.0
 40
1.0
 40
1.0
 10
13.66593304934938
 20
-98.92121263688512
 30
0.0
 10
13.66593304934938
 20
-99.43511045093463
 30
0.0
 10
13.66593304934938
 20
-99.93112528674304
 30
0.0
 10
13.66593304934938
 20
-100.4071605869393
 30
0.0
  0
LINE
  5
F9
330
1F
100
AcDbEntity
  8
0
  6
Continuous
 62
     7
370
    15
100
AcDbLine
 10
13.6659348375
 20
-151.8828894005
 30
0.0
 11
13.6659348375
 21
-153.3688331947
 31
0.0
  0
SPLINE
  5
FA
330
1F
100
AcDbEntity
  8
0
  6
Continuous
 62
     7
370
    15
100
AcDbSpline
210
0.0
220
0.0
230
1.0
 70
    24
 71
     3
 72
    12
 73
     8
 74
     0
 42
0.00000001
 43
0.00000001
 12
1.0
 22
0.0
 32
0.0
 13
1.0
 23
0.0
 33
0.0
 40
0.0
 40
0.0
 40
0.0
 40
0.0
 40
0.5
 40
0.5
 40
0.75
 40
0.75
 40
1.0
 40
1.0
 40
1.0
 40
1.0
 10
13.66593304934938
 20
-98.92121263688345
 30
0.0
 10
13.66593304934938
 20
-98.10458632767634
 30
0.0
 10
13.66593304934932
 20
-97.41667851360424
 30
0.0
 10
13.66593304934935
 20
-96.59189420845026
 30
0.0
 10
13.66593304934935
 20
-96.35188067061571
 30
0.0
 10
13.66593304934941
 20
-95.94364753349251
 30
0.0
 10
13.66593304934935
 20
-95.77666067350839
 30
0.0
 10
13.66593304934932
 20
-95.64501823045295
 30
0.0
  0
SPLINE
  5
FB
330
1F
100
AcDbEntity
  8
0
  6
Continuous
 62
     7
370
    15
100
AcDbSpline
210
0.0
220
0.0
230
1.0
 70
    24
 71
     3
 72
    15
 73
    11
 74
     0
 42
0.00000001
 43
0.00000001
 12
1.0
 22
0.0
 32
0.0
 13
1.0
 23
0.0
 33
0.0
 40
0.0
 40
0.0
 40
0.0
 40
0.0
 40
0.0069300231530752
 40
0.0557019060685139
 40
0.1044632255186854
 40
0.2728009925105586
 40
0.5146910884199236
 40
0.5465695701115637
 40
0.8547042848394641
 40
1.0
 40
1.0
 40
1.0
 40
1.0
 10
-326.3340687387901
 20
-156.6450322971491
 30
0.0
 10
-326.3340687387901
 20
-156.6413861782023
 30
0.0
 10
-326.3340687387901
 20
-156.6120795264629
 30
0.0
 10
-326.3340687387901
 20
-156.5536166033934
 30
0.0
 10
-326.3340687387902
 20
-156.3894220109653
 30
0.0
 10
-326.33406873879
 20
-156.0472099834964
 30
0.0
 10
-326.3340687387899
 20
-155.6133462960757
 30
0.0
 10
-326.3340687387902
 20
-154.9535283919798
 30
0.0
 10
-326.3340687387901
 20
-154.319352804342
 30
0.0
 10
-326.3340687387901
 20
-153.5995002995535
 30
0.0
 10
-326.3340687387901
 20
-153.3688331947474
 30
0.0
  0
SPLINE
  5
FC
330
1F
100
AcDbEntity
  8
0
  6
Continuous
 62
     7
370
    15
100
AcDbSpline
210
0.0
220
0.0
230
1.0
 70
    24
 71
     3
 72
    14
 73
    10
 74
     0
 42
0.00000001
 43
0.00000001
 12
1.0
 22
0.0
 32
0.0
 13
1.0
 23
0.0
 33
0.0
 40
0.0
 40
0.0
 40
0.0
 40
0.0
 40
0.25
 40
0.25
 40
0.5
 40
0.5
 40
0.75
 40
0.75
 40
1.0
 40
1.0
 40
1.0
 40
1.0
 10
-326.3340669506507
 20
-98.92121263688342
 30
0.0
 10
-326.3340669506507
 20
-98.51287751245037
 30
0.0
 10
-326.3340669506507
 20
-98.13717987703323
 30
0.0
 10
-326.3340669506506
 20
-97.45164535789733
 30
0.0
 10
-326.3340669506507
 20
-97.14184042021164
 30
0.0
 10
-326.3340669506507
 20
-96.59194247541323
 30
0.0
 10
-326.3340669506507
 20
-96.35191185679678
 30
0.0
 10
-326.3340669506507
 20
-95.94365220888383
 30
0.0
 10
-326.3340669506506
 20
-95.7765479501402
 30
0.0
 10
-326.3340669506508
 20
-95.64501823045295
 30
0.0
  0
SPLINE
  5
FD
330
1F
100
AcDbEntity
  8
0
  6
Continuous
 62
     7
370
    15
100
AcDbSpline
210
0.0
220
0.0
230
1.0
 70
    24
 71
     3
 72
    15
 73
    11
 74
     0
 42
0.00000001
 43
0.00000001
 12
1.0
 22
0.0
 32
0.0
 13
1.0
 23
0.0
 33
0.0
 40
0.0
 40
0.0
 40
0.0
 40
0.0
 40
0.1399644362895275
 40
0.4489538661285266
 40
0.4852988259052781
 40
0.6444784495628519
 40
0.8421642204721664
 40
0.9577026236425528
 40
0.9930701244203728
 40
1.0
 40
1.0
 40
1.0
 40
1.0
 10
13.66593483748862
 20
-153.3688331947474
 30
0.0
 10
13.6659348374886
 20
-153.591244464674
 30
0.0
 10
13.66593483748862
 20
-154.3046571154247
 30
0.0
 10
13.66593483748871
 20
-154.9416998282459
 30
0.0
 10
13.6659348374886
 20
-155.514959022482
 30
0.0
 10
13.66593483748865
 20
-155.9187846363475
 30
0.0
 10
13.66593483748865
 20
-156.3085183486855
 30
0.0
 10
13.66593483748857
 20
-156.5320326673647
 30
0.0
 10
13.66593483748871
 20
-156.6191323099293
 30
0.0
 10
13.66593483748862
 20
-156.6413862742272
 30
0.0
 10
13.66593483748862
 20
-156.6450322971491
 30
0.0
  0
LINE
  5
FE
330
1F
100
AcDbEntity
  8
0
  6
Continuous
 62
     7
370
    15
100
AcDbLine
 10
-57.8697195285
 20
88.7590137317
 30
0.0
 11
-57.8697195285
 21
240.3549824848
 31
0.0
  0
SPLINE
  5
FF
330
1F
100
AcDbEntity
  8
0
  6
Continuous
 62
     7
370
    15
100
AcDbSpline
210
0.0
220
0.0
230
1.0
 70
     8
 71
     3
 72
    17
 73
    13
 74
     0
 42
0.00000001
 43
0.00000001
 12
1.0
 22
0.0
 32
0.0
 13
1.0
 23
0.0
 33
0.0
 40
0.0
 40
0.0
 40
0.0
 40
0.0
 40
0.0992475480933944
 40
0.1985136668766271
 40
0.297550157489453
 40
0.3966184155637615
 40
0.4999492755633765
 40
0.6033006528058221
 40
0.7137911492109432
 40
0.8242769724333282
 40
0.9121426489168504
 40
1.0
 40
1.0
 40
1.0
 40
1.0
 10
-57.86971952852776
 20
240.3549824848028
 30
0.0
 10
-57.93687170263203
 20
241.9520256961182
 30
0.0
 10
-58.07118861600935
 20
245.1464109492462
 30
0.0
 10
-59.11233996684649
 20
249.7937258953992
 30
0.0
 10
-60.74518748741738
 20
254.1604565028083
 30
0.0
 10
-62.98636522347917
 20
258.2113378773298
 30
0.0
 10
-65.80777279847578
 20
261.8296121749077
 30
0.0
 10
-69.2287463447394
 20
265.003240587716
 30
0.0
 10
-73.18749337586038
 20
267.5541865433175
 30
0.0
 10
-77.30960925828578
 20
269.2433531323878
 30
0.0
 10
-81.34177536325815
 20
270.1878634925682
 30
0.0
 10
-83.90009676229906
 20
270.2992787083288
 30
0.0
 10
-85.17919685778192
 20
270.3549836768957
 30
0.0
  0
LINE
  5
100
330
1F
100
AcDbEntity
  8
0
  6
Continuous
 62
     7
370
    15
100
AcDbLine
 10
-85.1791968578
 20
270.3549836769
 30
0.0
 11
-158.5402667531
 21
270.3549836769
 31
0.0
  0
SPLINE
  5
101
330
1F
100
AcDbEntity
  8
0
  6
Continuous
 62
     7
370
    15
100
AcDbSpline
210
0.0
220
0.0
230
1.0
 70
     8
 71
     3
 72
    16
 73
    12
 74
     0
 42
0.00000001
 43
0.00000001
 12
1.0
 22
0.0
 32
0.0
 13
1.0
 23
0.0
 33
0.0
 40
0.0
 40
0.0
 40
0.0
 40
0.0
 40
0.1112531497136427
 40
0.2225264559557403
 40
0.3336824747516582
 40
0.4448370482482027
 40
0.5578264259923054
 40
0.670777426165752
 40
0.7800396762822371
 40
0.8892563494099236
 40
1.0
 40
1.0
 40
1.0
 40
1.0
 10
-158.540266753109
 20
270.3549836768957
 30
0.0
 10
-160.329655962471
 20
270.2651290034938
 30
0.0
 10
-163.90875857763
 20
270.0854033770764
 30
0.0
 10
-169.1189819243929
 20
268.6977678944276
 30
0.0
 10
-174.0213598895581
 20
266.5278213923094
 30
0.0
 10
-178.522725117581
 20
263.5645263832344
 30
0.0
 10
-182.467906523274
 20
259.8596061740854
 30
0.0
 10
-185.7117357398215
 20
255.5533483867277
 30
0.0
 10
-188.0779109884357
 20
250.7773798848853
 30
0.0
 10
-189.6277019523159
 20
245.6784837793904
 30
0.0
 10
-189.821878940468
 20
242.1376764137692
 30
0.0
 10
-189.9196414285617
 20
240.3549824848028
 30
0.0
  0
LINE
  5
102
330
1F
100
AcDbEntity
  8
0
  6
Continuous
 62
     7
370
    15
100
AcDbLine
 10
-189.9196414286
 20
240.3549824848
 30
0.0
 11
-189.9196414286
 21
88.7590137317
 31
0.0
  0
SPLINE
  5
103
330
1F
100
AcDbEntity
  8
0
  6
Continuous
 62
     7
370
    15
100
AcDbSpline
210
0.0
220
0.0
230
1.0
 70
     8
 71
     3
 72
    17
 73
    13
 74
     0
 42
0.00000001
 43
0.00000001
 12
1.0
 22
0.0
 32
0.0
 13
1.0
 23
0.0
 33
0.0
 40
0.0
 40
0.0
 40
0.0
 40
0.0
 40
0.0991886692192392
 40
0.1983957906764047
 40
0.2973717254216923
 40
0.3963798950325942
 40
0.4996782797161847
 40
0.6029970266520345
 40
0.713508319163358
 40
0.8240147810684599
 40
0.9120115723408002
 40
1.0
 40
1.0
 40
1.0
 40
1.0
 10
-58.00568517384102
 20
240.3549824848028
 30
0.0
 10
-58.07275533023616
 20
241.9513754991139
 30
0.0
 10
-58.20690812020238
 20
245.1444585074613
 30
0.0
 10
-59.24673525818586
 20
249.7897856070658
 30
0.0
 10
-60.87740167785109
 20
254.1545812292954
 30
0.0
 10
-63.11567497552735
 20
258.2041363421151
 30
0.0
 10
-65.93368172271445
 20
261.8218536872827
 30
0.0
 10
-69.35161694600681
 20
264.9962321202588
 30
0.0
 10
-73.30783445962409
 20
267.548844285793
 30
0.0
 10
-77.43008436768528
 20
269.2405683256589
 30
0.0
 10
-81.4647658474668
 20
270.1873722507039
 30
0.0
 10
-84.02636814577583
 20
270.2991149716715
 30
0.0
 10
-85.3071084254699
 20
270.3549836768957
 30
0.0
  0
LINE
  5
104
330
1F
100
AcDbEntity
  8
0
  6
Continuous
 62
     7
370
    15
100
AcDbLine
 10
-58.0056851738
 20
88.7590137317
 30
0.0
 11
-58.0056851738
 21
240.3549824848
 31
0.0
  0
SPLINE
  5
105
330
1F
100
AcDbEntity
  8
0
  6
Continuous
 62
     7
370
    15
100
AcDbSpline
210
0.0
220
0.0
230
1.0
 70
     8
 71
     3
 72
    11
 73
     7
 74
     0
 42
0.00000001
 43
0.00000001
 12
1.0
 22
0.0
 32
0.0
 13
1.0
 23
0.0
 33
0.0
 40
0.0
 40
0.0
 40
0.0
 40
0.0
 40
0.2867636889970436
 40
0.5746270244910697
 40
0.8444486214298946
 40
1.0
 40
1.0
 40
1.0
 40
1.0
 10
-189.2540438109355
 20
82.32964696429688
 30
0.0
 10
-189.2241683871557
 20
82.38845480504826
 30
0.0
 10
-189.1643029769566
 20
82.50629599570212
 30
0.0
 10
-189.098174616569
 20
82.84608846445259
 30
0.0
 10
-189.0647822266129
 20
83.20425305549186
 30
0.0
 10
-189.061695789495
 20
83.43275080010073
 30
0.0
 10
-189.0605671339946
 20
83.51630838654954
 30
0.0
  0
SPLINE
  5
106
330
1F
100
AcDbEntity
  8
0
  6
Continuous
 62
     7
370
    15
100
AcDbSpline
210
0.0
220
0.0
230
1.0
 70
     8
 71
     3
 72
    12
 73
     8
 74
     0
 42
0.00000001
 43
0.00000001
 12
1.0
 22
0.0
 32
0.0
 13
1.0
 23
0.0
 33
0.0
 40
0.0
 40
0.0
 40
0.0
 40
0.0
 40
0.2234869367013389
 40
0.446819383150433
 40
0.6774356409061372
 40
0.9253069282477403
 40
0.9999999999999999
 40
0.9999999999999999
 40
0.9999999999999999
 40
0.9999999999999999
 10
-189.0605671339946
 20
84.10498248480279
 30
0.0
 10
-189.0633471490065
 20
84.23732868036673
 30
0.0
 10
-189.0689052572838
 20
84.5019295842809
 30
0.0
 10
-189.1118342307016
 20
84.85685670092138
 30
0.0
 10
-189.1758917806898
 20
85.1395797759769
 30
0.0
 10
-189.2387218782709
 20
85.280037117678
 30
0.0
 10
-189.2773581919002
 20
85.3203846634718
 30
0.0
 10
-189.2863048249202
 20
85.32972754977662
 30
0.0
  0
SPLINE
  5
107
330
1F
100
AcDbEntity
  8
0
  6
Continuous
 62
     7
370
    15
100
AcDbSpline
210
0.0
220
0.0
230
1.0
 70
     8
 71
     3
 72
    12
 73
     8
 74
     0
 42
0.00000001
 43
0.00000001
 12
1.0
 22
0.0
 32
0.0
 13
1.0
 23
0.0
 33
0.0
 40
0.0
 40
0.0
 40
0.0
 40
0.0
 40
0.228092770935279
 40
0.4560278677342657
 40
0.6913983444735334
 40
0.9443771027233713
 40
0.9999999999999999
 40
0.9999999999999999
 40
0.9999999999999999
 40
0.9999999999999999
 10
-189.0605671339946
 20
61.64501356028039
 30
0.0
 10
-189.0633469511298
 20
61.77736274179976
 30
0.0
 10
-189.0689046637905
 20
62.04196961556072
 30
0.0
 10
-189.1118367254539
 20
62.39685224345915
 30
0.0
 10
-189.1758823410378
 20
62.67975704247622
 30
0.0
 10
-189.2364525514704
 20
62.81455977703021
 30
0.0
 10
-189.2725177103499
 20
62.85537279361289
 30
0.0
 10
-189.2790181570964
 20
62.86272900246102
 30
0.0
  0
LINE
  5
108
330
1F
100
AcDbEntity
  8
0
  6
Continuous
 62
     7
370
    15
100
AcDbLine
 10
-330.1340734595
 20
60.5549824431
 30
0.0
 11
-189.060567134
 21
60.5549824431
 31
0.0
  0
LINE
  5
109
330
1F
100
AcDbEntity
  8
0
  6
Continuous
 62
     7
370
    15
100
AcDbLine
 10
-189.1056953007
 20
60.3549827828
 30
0.0
 11
-189.060567134
 21
60.5549824431
 31
0.0
  0
LINE
  5
10A
330
1F
100
AcDbEntity
  8
0
  6
Continuous
 62
     7
370
    15
100
AcDbLine
 10
-189.1056953007
 20
60.3549827828
 30
0.0
 11
-329.9340700739
 21
60.3549827828
 31
0.0
  0
LINE
  5
10B
330
1F
100
AcDbEntity
  8
0
  6
Continuous
 62
     7
370
    15
100
AcDbLine
 10
-189.060567134
 20
61.6450135603
 30
0.0
 11
-189.060567134
 21
60.5549824431
 31
0.0
  0
LINE
  5
10C
330
1F
100
AcDbEntity
  8
0
  6
Continuous
 62
     7
370
    15
100
AcDbLine
 10
-189.060567134
 20
84.1049824848
 30
0.0
 11
-189.060567134
 21
83.5163083865
 31
0.0
  0
SPLINE
  5
10D
330
1F
100
AcDbEntity
  8
0
  6
Continuous
 62
     7
370
    15
100
AcDbSpline
210
0.0
220
0.0
230
1.0
 70
     8
 71
     3
 72
    11
 73
     7
 74
     0
 42
0.00000001
 43
0.00000001
 12
1.0
 22
0.0
 32
0.0
 13
1.0
 23
0.0
 33
0.0
 40
0.0
 40
0.0
 40
0.0
 40
0.0
 40
0.2864172181985061
 40
0.5745799458646291
 40
0.8446081692425955
 40
1.0
 40
1.0
 40
1.0
 40
1.0
 10
-189.2540438109355
 20
82.32964696429688
 30
0.0
 10
-189.265982052813
 20
82.30615497630639
 30
0.0
 10
-189.289931291671
 20
82.25902783334784
 30
0.0
 10
-189.3164099750778
 20
82.12316024871846
 30
0.0
 10
-189.3297944046423
 20
81.97980451854481
 30
0.0
 10
-189.3310300720601
 20
81.88837706547234
 30
0.0
 10
-189.3314814203696
 20
81.85498165033775
 30
0.0
  0
SPLINE
  5
10E
330
1F
100
AcDbEntity
  8
0
  6
Continuous
 62
     7
370
    15
100
AcDbSpline
210
0.0
220
0.0
230
1.0
 70
     8
 71
     3
 72
    12
 73
     8
 74
     0
 42
0.00000001
 43
0.00000001
 12
1.0
 22
0.0
 32
0.0
 13
1.0
 23
0.0
 33
0.0
 40
0.0
 40
0.0
 40
0.0
 40
0.0
 40
0.2228577376109539
 40
0.4454712116211131
 40
0.6758071299410334
 40
0.9241541222210321
 40
1.0
 40
1.0
 40
1.0
 40
1.0
 10
-189.9196414285617
 20
88.75901373170335
 30
0.0
 10
-189.9118520210441
 20
88.38919546739344
 30
0.0
 10
-189.8962817436021
 20
87.64996427870864
 30
0.0
 10
-189.77619060067
 20
86.65807628315957
 30
0.0
 10
-189.5969338959851
 20
85.86604878057393
 30
0.0
 10
-189.4205680811946
 20
85.47020459660986
 30
0.0
 10
-189.3117606453392
 20
85.35636148207057
 30
0.0
 10
-189.2863048249202
 20
85.32972754977662
 30
0.0
  0
SPLINE
  5
10F
330
1F
100
AcDbEntity
  8
0
  6
Continuous
 62
     7
370
    15
100
AcDbSpline
210
0.0
220
0.0
230
1.0
 70
     8
 71
     3
 72
    12
 73
     8
 74
     0
 42
0.00000001
 43
0.00000001
 12
1.0
 22
0.0
 32
0.0
 13
1.0
 23
0.0
 33
0.0
 40
0.0
 40
0.0
 40
0.0
 40
0.0
 40
0.2275027886725783
 40
0.4551921027064154
 40
0.6904630212370649
 40
0.9435360243334758
 40
1.0
 40
1.0
 40
1.0
 40
1.0
 10
-189.3314814203696
 20
63.15498175166566
 30
0.0
 10
-189.3308162507313
 20
63.12329411876344
 30
0.0
 10
-189.3294853660941
 20
63.05989287285031
 30
0.0
 10
-189.3192021736551
 20
62.9747896507091
 30
0.0
 10
-189.3038425346194
 20
62.90685614581032
 30
0.0
 10
-189.2892864312711
 20
62.87436851242082
 30
0.0
 10
-189.2806022720451
 20
62.86452466173237
 30
0.0
 10
-189.2790181570964
 20
62.86272900246101
 30
0.0
  0
LINE
  5
110
330
1F
100
AcDbEntity
  8
0
  6
Continuous
 62
     7
370
    15
100
AcDbLine
 10
-189.3314814204
 20
81.8549816503
 30
0.0
 11
-189.3314814204
 21
63.1549817517
 31
0.0
  0
SPLINE
  5
111
330
1F
100
AcDbEntity
  8
0
  6
Continuous
 62
     7
370
    15
100
AcDbSpline
210
0.0
220
0.0
230
1.0
 70
     8
 71
     3
 72
    11
 73
     7
 74
     0
 42
0.00000001
 43
0.00000001
 12
1.0
 22
0.0
 32
0.0
 13
1.0
 23
0.0
 33
0.0
 40
0.0
 40
0.0
 40
0.0
 40
0.0
 40
0.2670417215246096
 40
0.5352536803830514
 40
0.7875011620762153
 40
1.0
 40
1.0
 40
1.0
 40
1.0
 10
-57.23637547430565
 20
85.32972754977662
 30
0.0
 10
-57.2046230126338
 20
85.28595621521448
 30
0.0
 10
-57.14097894280808
 20
85.19822173018382
 30
0.0
 10
-57.06584823843229
 20
84.88810169170901
 30
0.0
 10
-57.01868649819441
 20
84.50575748313213
 30
0.0
 10
-57.0131632241688
 20
84.23073343402058
 30
0.0
 10
-57.01063778338006
 20
84.10498248480279
 30
0.0
  0
SPLINE
  5
112
330
1F
100
AcDbEntity
  8
0
  6
Continuous
 62
     7
370
    15
100
AcDbSpline
210
0.0
220
0.0
230
1.0
 70
     8
 71
     3
 72
    11
 73
     7
 74
     0
 42
0.00000001
 43
0.00000001
 12
1.0
 22
0.0
 32
0.0
 13
1.0
 23
0.0
 33
0.0
 40
0.0
 40
0.0
 40
0.0
 40
0.0
 40
0.2712217961309392
 40
0.5435879889728369
 40
0.7994679982327613
 40
1.0
 40
1.0
 40
1.0
 40
1.0
 10
-57.22909625706246
 20
62.86272900246102
 30
0.0
 10
-57.19772012288503
 20
62.81548403661219
 30
0.0
 10
-57.13483546566884
 20
62.72079475890213
 30
0.0
 10
-57.06165937153825
 20
62.40350248005461
 30
0.0
 10
-57.01770905845473
 20
62.02572435732215
 30
0.0
 10
-57.01279628839441
 20
61.76122543943345
 30
0.0
 10
-57.01063778338006
 20
61.64501356028039
 30
0.0
  0
SPLINE
  5
113
330
1F
100
AcDbEntity
  8
0
  6
Continuous
 62
     7
370
    15
100
AcDbSpline
210
0.0
220
0.0
230
1.0
 70
     8
 71
     3
 72
    11
 73
     7
 74
     0
 42
0.00000001
 43
0.00000001
 12
1.0
 22
0.0
 32
0.0
 13
1.0
 23
0.0
 33
0.0
 40
0.0
 40
0.0
 40
0.0
 40
0.0
 40
0.2456425622292848
 40
0.4911172611262007
 40
0.7445961867630345
 40
1.0
 40
1.0
 40
1.0
 40
1.0
 10
-57.01063778338004
 20
83.51630838654953
 30
0.0
 10
-57.01341343435374
 20
83.38384107469996
 30
0.0
 10
-57.01896283952067
 20
83.11899697441905
 30
0.0
 10
-57.06198076817311
 20
82.76590388318198
 30
0.0
 10
-57.12426782675458
 20
82.48220830676372
 30
0.0
 10
-57.17743188343842
 20
82.38062882248995
 30
0.0
 10
-57.20411446032097
 20
82.32964696429688
 30
0.0
  0
LINE
  5
114
330
1F
100
AcDbEntity
  8
0
  6
Continuous
 62
     7
370
    15
100
AcDbLine
 10
-57.0106377834
 20
60.5549824431
 30
0.0
 11
17.4659395582
 21
60.5549824431
 31
0.0
  0
LINE
  5
115
330
1F
100
AcDbEntity
  8
0
  6
Continuous
 62
     7
370
    15
100
AcDbLine
 10
-57.0106377834
 20
60.5549824431
 30
0.0
 11
-57.0106377834
 21
61.6450135603
 31
0.0
  0
LINE
  5
116
330
1F
100
AcDbEntity
  8
0
  6
Continuous
 62
     7
370
    15
100
AcDbLine
 10
17.2659361726
 20
60.3549827828
 30
0.0
 11
-57.0557659501
 21
60.3549827828
 31
0.0
  0
LINE
  5
117
330
1F
100
AcDbEntity
  8
0
  6
Continuous
 62
     7
370
    15
100
AcDbLine
 10
-57.0106377834
 20
60.5549824431
 30
0.0
 11
-57.0557659501
 21
60.3549827828
 31
0.0
  0
LINE
  5
118
330
1F
100
AcDbEntity
  8
0
  6
Continuous
 62
     7
370
    15
100
AcDbLine
 10
-57.0106377834
 20
83.5163083865
 30
0.0
 11
-57.0106377834
 21
84.1049824848
 31
0.0
  0
LINE
  5
119
330
1F
100
AcDbEntity
  8
0
  6
Continuous
 62
     7
370
    15
100
AcDbLine
 10
-57.1009090179
 20
60.3549827828
 30
0.0
 11
-57.1460520857
 21
60.5549824431
 31
0.0
  0
SPLINE
  5
11A
330
1F
100
AcDbEntity
  8
0
  6
Continuous
 62
     7
370
    15
100
AcDbSpline
210
0.0
220
0.0
230
1.0
 70
     8
 71
     3
 72
    11
 73
     7
 74
     0
 42
0.00000001
 43
0.00000001
 12
1.0
 22
0.0
 32
0.0
 13
1.0
 23
0.0
 33
0.0
 40
0.0
 40
0.0
 40
0.0
 40
0.0
 40
0.2666290425289817
 40
0.5349912165877387
 40
0.7873669683046672
 40
1.0
 40
1.0
 40
1.0
 40
1.0
 10
-57.26348068651726
 20
84.74185066364724
 30
0.0
 10
-57.24699501071782
 20
84.71913540140866
 30
0.0
 10
-57.21391649958275
 20
84.67355722408462
 30
0.0
 10
-57.17481388036239
 20
84.5124398154918
 30
0.0
 10
-57.15025392699361
 20
84.31354159908834
 30
0.0
 10
-57.14737055549718
 20
84.17042495864303
 30
0.0
 10
-57.14605208572915
 20
84.10498248480279
 30
0.0
  0
SPLINE
  5
11B
330
1F
100
AcDbEntity
  8
0
  6
Continuous
 62
     7
370
    15
100
AcDbSpline
210
0.0
220
0.0
230
1.0
 70
     8
 71
     3
 72
    11
 73
     7
 74
     0
 42
0.00000001
 43
0.00000001
 12
1.0
 22
0.0
 32
0.0
 13
1.0
 23
0.0
 33
0.0
 40
0.0
 40
0.0
 40
0.0
 40
0.0
 40
0.2708717785241034
 40
0.5433969128530248
 40
0.7993838165256524
 40
0.9999999999999999
 40
0.9999999999999999
 40
0.9999999999999999
 40
0.9999999999999999
 10
-57.25969579157402
 20
62.27822722934205
 30
0.0
 10
-57.24339797574364
 20
62.25370064272706
 30
0.0
 10
-57.2107028649545
 20
62.20449776333509
 30
0.0
 10
-57.17263466443064
 20
62.0396270025936
 30
0.0
 10
-57.14973578516026
 20
61.84309643665091
 30
0.0
 10
-57.14717653498676
 20
61.7054783586292
 30
0.0
 10
-57.14605208572915
 20
61.64501356028039
 30
0.0
  0
SPLINE
  5
11C
330
1F
100
AcDbEntity
  8
0
  6
Continuous
 62
     7
370
    15
100
AcDbSpline
210
0.0
220
0.0
230
1.0
 70
     8
 71
     3
 72
    11
 73
     7
 74
     0
 42
0.00000001
 43
0.00000001
 12
1.0
 22
0.0
 32
0.0
 13
1.0
 23
0.0
 33
0.0
 40
0.0
 40
0.0
 40
0.0
 40
0.0
 40
0.2453914778143793
 40
0.4907236018273294
 40
0.7441328074299275
 40
1.0
 40
1.0
 40
1.0
 40
1.0
 10
-57.14605208572915
 20
83.51630838654954
 30
0.0
 10
-57.14749581146368
 20
83.44748479400744
 30
0.0
 10
-57.15038291373309
 20
83.30985425555612
 30
0.0
 10
-57.17272857117791
 20
83.12631915882402
 30
0.0
 10
-57.20513030901505
 20
82.97868635424486
 30
0.0
 10
-57.23280024001718
 20
82.92580975377584
 30
0.0
 10
-57.24670197901299
 20
82.89924385093171
 30
0.0
  0
LINE
  5
11D
330
1F
100
AcDbEntity
  8
0
  6
Continuous
 62
     7
370
    15
100
AcDbLine
 10
-57.1460520857
 20
60.5549824431
 30
0.0
 11
-57.1460520857
 21
61.6450135603
 31
0.0
  0
LINE
  5
11E
330
1F
100
AcDbEntity
  8
0
  6
Continuous
 62
     7
370
    15
100
AcDbLine
 10
-57.1460520857
 20
83.5163083865
 30
0.0
 11
-57.1460520857
 21
84.1049824848
 31
0.0
  0
SPLINE
  5
11F
330
1F
100
AcDbEntity
  8
0
  6
Continuous
 62
     7
370
    15
100
AcDbSpline
210
0.0
220
0.0
230
1.0
 70
     8
 71
     3
 72
    11
 73
     7
 74
     0
 42
0.00000001
 43
0.00000001
 12
1.0
 22
0.0
 32
0.0
 13
1.0
 23
0.0
 33
0.0
 40
0.0
 40
0.0
 40
0.0
 40
0.0
 40
0.2680445352160556
 40
0.5368672551079033
 40
0.7897181841343115
 40
1.0
 40
1.0
 40
1.0
 40
1.0
 10
-57.23637547430565
 20
85.32972754977662
 30
0.0
 10
-57.32568202708106
 20
85.45298037552149
 30
0.0
 10
-57.50455440667663
 20
85.69984385359467
 30
0.0
 10
-57.71559065778906
 20
86.57174008672003
 30
0.0
 10
-57.84741376424744
 20
87.642412088456
 30
0.0
 10
-57.86275428469362
 20
88.41034140588306
 30
0.0
 10
-57.86971952852775
 20
88.75901373170333
 30
0.0
  0
SPLINE
  5
120
330
1F
100
AcDbEntity
  8
0
  6
Continuous
 62
     7
370
    15
100
AcDbSpline
210
0.0
220
0.0
230
1.0
 70
     8
 71
     3
 72
    11
 73
     7
 74
     0
 42
0.00000001
 43
0.00000001
 12
1.0
 22
0.0
 32
0.0
 13
1.0
 23
0.0
 33
0.0
 40
0.0
 40
0.0
 40
0.0
 40
0.0
 40
0.2452267837005901
 40
0.4904710123793065
 40
0.7438492674299871
 40
1.0
 40
1.0
 40
1.0
 40
1.0
 10
-57.28155579504539
 20
81.85498165033775
 30
0.0
 10
-57.2804487255933
 20
81.90789039216986
 30
0.0
 10
-57.27823450793425
 20
82.01371163966373
 30
0.0
 10
-57.26103414963509
 20
82.15483723696637
 30
0.0
 10
-57.23612762769729
 20
82.26846330331364
 30
0.0
 10
-57.21482415532674
 20
82.30917856325543
 30
0.0
 10
-57.20411446032097
 20
82.32964696429688
 30
0.0
  0
SPLINE
  5
121
330
1F
100
AcDbEntity
  8
0
  6
Continuous
 62
     7
370
    15
100
AcDbSpline
210
0.0
220
0.0
230
1.0
 70
     8
 71
     3
 72
    11
 73
     7
 74
     0
 42
0.00000001
 43
0.00000001
 12
1.0
 22
0.0
 32
0.0
 13
1.0
 23
0.0
 33
0.0
 40
0.0
 40
0.0
 40
0.0
 40
0.0
 40
0.2726410823704645
 40
0.5448309105709058
 40
0.7972679019128928
 40
1.0
 40
1.0
 40
1.0
 40
1.0
 10
-57.26348068651726
 20
84.74185066364724
 30
0.0
 10
-57.36988899887141
 20
84.88955894425754
 30
0.0
 10
-57.5825295048736
 20
85.18473103029856
 30
0.0
 10
-57.83062105057435
 20
86.2269138370555
 30
0.0
 10
-57.98104258908491
 20
87.4813750208529
 30
0.0
 10
-57.99809156707346
 20
88.36530965978048
 30
0.0
 10
-58.00568517384102
 20
88.75901373170335
 30
0.0
  0
SPLINE
  5
122
330
1F
100
AcDbEntity
  8
0
  6
Continuous
 62
     7
370
    15
100
AcDbSpline
210
0.0
220
0.0
230
1.0
 70
     8
 71
     3
 72
    11
 73
     7
 74
     0
 42
0.00000001
 43
0.00000001
 12
1.0
 22
0.0
 32
0.0
 13
1.0
 23
0.0
 33
0.0
 40
0.0
 40
0.0
 40
0.0
 40
0.0
 40
0.2697872375598189
 40
0.5424788644668002
 40
0.7986885444085244
 40
1.0
 40
1.0
 40
1.0
 40
1.0
 10
-57.22909625706246
 20
62.86272900246102
 30
0.0
 10
-57.2365877811369
 20
62.87399450893486
 30
0.0
 10
-57.25165147914496
 20
62.89664680047706
 30
0.0
 10
-57.2692399233075
 20
62.97254875144765
 30
0.0
 10
-57.27983685447641
 20
63.06332349968118
 30
0.0
 10
-57.28103055929859
 20
63.12697485526657
 30
0.0
 10
-57.28155579504539
 20
63.15498175166564
 30
0.0
  0
SPLINE
  5
123
330
1F
100
AcDbEntity
  8
0
  6
Continuous
 62
     7
370
    15
100
AcDbSpline
210
0.0
220
0.0
230
1.0
 70
     8
 71
     3
 72
    11
 73
     7
 74
     0
 42
0.00000001
 43
0.00000001
 12
1.0
 22
0.0
 32
0.0
 13
1.0
 23
0.0
 33
0.0
 40
0.0
 40
0.0
 40
0.0
 40
0.0
 40
0.2452669361511455
 40
0.490367522297035
 40
0.743705177075907
 40
1.0
 40
1.0
 40
1.0
 40
1.0
 10
-57.41714146074822
 20
81.85498165033776
 30
0.0
 10
-57.41469928860421
 20
81.97141719087007
 30
0.0
 10
-57.40981660069658
 20
82.20420930061842
 30
0.0
 10
-57.3719836203762
 20
82.5146456119151
 30
0.0
 10
-57.31715473511627
 20
82.76459480617766
 30
0.0
 10
-57.27027690137864
 20
82.85418754721478
 30
0.0
 10
-57.24670197901299
 20
82.89924385093171
 30
0.0
  0
SPLINE
  5
124
330
1F
100
AcDbEntity
  8
0
  6
Continuous
 62
     7
370
    15
100
AcDbSpline
210
0.0
220
0.0
230
1.0
 70
     8
 71
     3
 72
    11
 73
     7
 74
     0
 42
0.00000001
 43
0.00000001
 12
1.0
 22
0.0
 32
0.0
 13
1.0
 23
0.0
 33
0.0
 40
0.0
 40
0.0
 40
0.0
 40
0.0
 40
0.2713539171956013
 40
0.5440692570418525
 40
0.8002326802770868
 40
1.0
 40
1.0
 40
1.0
 40
1.0
 10
-57.25969579157402
 20
62.27822722934205
 30
0.0
 10
-57.28230406219333
 20
62.31227256808513
 30
0.0
 10
-57.32763403246229
 20
62.38053405606041
 30
0.0
 10
-57.38041667602216
 20
62.60920071735288
 30
0.0
 10
-57.41205437666583
 20
62.88129040269036
 30
0.0
 10
-57.41559161149568
 20
63.07159796524331
 30
0.0
 10
-57.41714146074822
 20
63.15498175166566
 30
0.0
  0
LINE
  5
125
330
1F
100
AcDbEntity
  8
0
  6
Continuous
 62
     7
370
    15
100
AcDbLine
 10
-57.281555795
 20
63.1549817517
 30
0.0
 11
-57.281555795
 21
81.8549816503
 31
0.0
  0
LINE
  5
126
330
1F
100
AcDbEntity
  8
0
  6
Continuous
 62
     7
370
    15
100
AcDbLine
 10
-57.4171414607
 20
63.1549817517
 30
0.0
 11
-57.4171414607
 21
81.8549816503
 31
0.0
  0
LINE
  5
127
330
1F
100
AcDbEntity
  8
0
  6
Continuous
 62
     7
370
    15
100
AcDbLine
 10
-57.0557659501
 20
60.3549827828
 30
0.0
 11
-57.1009090179
 21
60.3549827828
 31
0.0
  0
LINE
  5
128
330
1F
100
AcDbEntity
  8
0
  6
Continuous
 62
     7
370
    15
100
AcDbLine
 10
-6.0805028313
 20
-186.6450036869
 30
0.0
 11
-15.0805061692
 21
-186.6450036869
 31
0.0
  0
SPLINE
  5
129
330
1F
100
AcDbEntity
  8
0
  6
Continuous
 62
     7
370
    15
100
AcDbSpline
210
0.0
220
0.0
230
1.0
 70
     8
 71
     3
 72
    10
 73
     6
 74
     0
 42
0.00000001
 43
0.00000001
 12
1.0
 22
0.0
 32
0.0
 13
1.0
 23
0.0
 33
0.0
 40
0.0
 40
0.0
 40
0.0
 40
0.0
 40
0.3971551627464459
 40
0.7941270068958134
 40
0.9999999999999999
 40
0.9999999999999999
 40
0.9999999999999999
 40
0.9999999999999999
 10
-14.03861697849798
 20
-184.21545876123
 30
0.0
 10
-13.87026766179542
 20
-184.0623131925284
 30
0.0
 10
-13.53364673494786
 20
-183.7560927439478
 30
0.0
 10
-12.97623380880553
 20
-183.5687156044058
 30
0.0
 10
-12.63390569597642
 20
-183.5510563839652
 30
0.0
 10
-12.51699980434945
 20
-183.5450257167963
 30
0.0
  0
LINE
  5
12A
330
1F
100
AcDbEntity
  8
0
  6
Continuous
 62
     7
370
    15
100
AcDbLine
 10
-12.5169998043
 20
-183.5450257168
 30
0.0
 11
-11.0805129641
 21
-183.5450257168
 31
0.0
  0
SPLINE
  5
12B
330
1F
100
AcDbEntity
  8
0
  6
Continuous
 62
     7
370
    15
100
AcDbSpline
210
0.0
220
0.0
230
1.0
 70
    24
 71
     3
 72
    10
 73
     6
 74
     0
 42
0.00000001
 43
0.00000001
 12
1.0
 22
0.0
 32
0.0
 13
1.0
 23
0.0
 33
0.0
 40
0.0
 40
0.0
 40
0.0
 40
0.0
 40
0.4119477543375938
 40
0.8219666491244644
 40
1.0
 40
1.0
 40
1.0
 40
1.0
 10
-11.08051296410134
 20
-183.5450257167963
 30
0.0
 10
-11.08051296410137
 20
-183.568033405633
 30
0.0
 10
-11.08051296410131
 20
-183.6139410545963
 30
0.0
 10
-11.08051296410128
 20
-183.905946101931
 30
0.0
 10
-11.08051296410137
 20
-184.1435300157707
 30
0.0
 10
-11.08051296410134
 20
-184.2154587612299
 30
0.0
  0
LINE
  5
12C
330
1F
100
AcDbEntity
  8
0
  6
Continuous
 62
     7
370
    15
100
AcDbLine
 10
-11.0805129641
 20
-184.2154587612
 30
0.0
 11
-10.0805109375
 21
-184.2154587612
 31
0.0
  0
SPLINE
  5
12D
330
1F
100
AcDbEntity
  8
0
  6
Continuous
 62
     7
370
    15
100
AcDbSpline
210
0.0
220
0.0
230
1.0
 70
    24
 71
     3
 72
    10
 73
     6
 74
     0
 42
0.00000001
 43
0.00000001
 12
1.0
 22
0.0
 32
0.0
 13
1.0
 23
0.0
 33
0.0
 40
0.0
 40
0.0
 40
0.0
 40
0.0
 40
0.3971608446820787
 40
0.7941232618021328
 40
1.0
 40
1.0
 40
1.0
 40
1.0
 10
-10.08051093754342
 20
-184.2154587612299
 30
0.0
 10
-10.08051093754339
 20
-184.0623139346292
 30
0.0
 10
-10.08051093754336
 20
-183.7561007948981
 30
0.0
 10
-10.08051093754347
 20
-183.5687132255507
 30
0.0
 10
-10.08051093754339
 20
-183.5510559025236
 30
0.0
 10
-10.08051093754342
 20
-183.5450257167963
 30
0.0
  0
LINE
  5
12E
330
1F
100
AcDbEntity
  8
0
  6
Continuous
 62
     7
370
    15
100
AcDbLine
 10
-10.0805109375
 20
-183.5450257168
 30
0.0
 11
-8.6440240973
 21
-183.5450257168
 31
0.0
  0
SPLINE
  5
12F
330
1F
100
AcDbEntity
  8
0
  6
Continuous
 62
     7
370
    15
100
AcDbSpline
210
0.0
220
0.0
230
1.0
 70
     8
 71
     3
 72
    10
 73
     6
 74
     0
 42
0.00000001
 43
0.00000001
 12
1.0
 22
0.0
 32
0.0
 13
1.0
 23
0.0
 33
0.0
 40
0.0
 40
0.0
 40
0.0
 40
0.0
 40
0.4119546550284572
 40
0.8219642306047416
 40
1.0
 40
1.0
 40
1.0
 40
1.0
 10
-8.644024097295311
 20
-183.5450257167963
 30
0.0
 10
-8.409117756887241
 20
-183.5680314546632
 30
0.0
 10
-7.940414206627944
 20
-183.6139343068205
 30
0.0
 10
-7.428642756377446
 20
-183.9059534244951
 30
0.0
 10
-7.193564100376221
 20
-184.1435303195491
 30
0.0
 10
-7.122392021985529
 20
-184.21545876123
 30
0.0
  0
LINE
  5
130
330
1F
100
AcDbEntity
  8
0
  6
Continuous
 62
     7
370
    15
100
AcDbLine
 10
-155.8340669269
 20
177.6022066369
 30
0.0
 11
-149.3340667346
 21
173.8494274213
 31
0.0
  0
LINE
  5
131
330
1F
100
AcDbEntity
  8
0
  6
Continuous
 62
     7
370
    15
100
AcDbLine
 10
-149.3340667346
 20
173.8494274213
 30
0.0
 11
-142.8340666005
 21
177.6022066369
 31
0.0
  0
LINE
  5
132
330
1F
100
AcDbEntity
  8
0
  6
Continuous
 62
     7
370
    15
100
AcDbLine
 10
-142.8340666005
 20
177.6022066369
 30
0.0
 11
-142.8340666005
 21
185.1077576175
 31
0.0
  0
LINE
  5
133
330
1F
100
AcDbEntity
  8
0
  6
Continuous
 62
     7
370
    15
100
AcDbLine
 10
-142.8340666005
 20
185.1077576175
 30
0.0
 11
-149.3340667346
 21
188.8605331077
 31
0.0
  0
LINE
  5
134
330
1F
100
AcDbEntity
  8
0
  6
Continuous
 62
     7
370
    15
100
AcDbLine
 10
-155.8340669269
 20
185.1077576175
 30
0.0
 11
-155.8340669269
 21
177.6022066369
 31
0.0
  0
LINE
  5
135
330
1F
100
AcDbEntity
  8
0
  6
Continuous
 62
     7
370
    15
100
AcDbLine
 10
-149.3340667346
 20
188.8605331077
 30
0.0
 11
-155.8340669269
 21
185.1077576175
 31
0.0
  0
LINE
  5
136
330
1F
100
AcDbEntity
  8
0
  6
Continuous
 62
     7
370
    15
100
AcDbLine
 10
-73.9188661807
 20
152.2445616319
 30
0.0
 11
-67.4188604587
 21
148.491784279
 31
0.0
  0
LINE
  5
137
330
1F
100
AcDbEntity
  8
0
  6
Continuous
 62
     7
370
    15
100
AcDbLine
 10
-60.9188621872
 20
159.7501163378
 30
0.0
 11
-67.4188604587
 21
163.502891828
 31
0.0
  0
LINE
  5
138
330
1F
100
AcDbEntity
  8
0
  6
Continuous
 62
     7
370
    15
100
AcDbLine
 10
-67.4188604587
 20
148.491784279
 30
0.0
 11
-60.9188621872
 21
152.2445616319
 31
0.0
  0
LINE
  5
139
330
1F
100
AcDbEntity
  8
0
  6
Continuous
 62
     7
370
    15
100
AcDbLine
 10
-67.4188604587
 20
163.502891828
 30
0.0
 11
-73.9188661807
 21
159.7501163378
 31
0.0
  0
LINE
  5
13A
330
1F
100
AcDbEntity
  8
0
  6
Continuous
 62
     7
370
    15
100
AcDbLine
 10
-60.9188621872
 20
152.2445616319
 30
0.0
 11
-60.9188621872
 21
159.7501163378
 31
0.0
  0
LINE
  5
13B
330
1F
100
AcDbEntity
  8
0
  6
Continuous
 62
     7
370
    15
100
AcDbLine
 10
-73.9188661807
 20
159.7501163378
 30
0.0
 11
-73.9188661807
 21
152.2445616319
 31
0.0
  0
LINE
  5
13C
330
1F
100
AcDbEntity
  8
0
  6
Continuous
 62
     7
370
    15
100
AcDbLine
 10
-337.0340710515
 20
-133.6468185291
 30
0.0
 11
-330.0340717667
 21
-133.6468185291
 31
0.0
  0
LINE
  5
13D
330
1F
100
AcDbEntity
  8
0
  6
Continuous
 62
     7
370
    15
100
AcDbLine
 10
-337.0340710515
 20
-133.6468185291
 30
0.0
 11
-337.0340710515
 21
-129.690083395
 31
0.0
  0
LINE
  5
13E
330
1F
100
AcDbEntity
  8
0
  6
Continuous
 62
     7
370
    15
100
AcDbLine
 10
-337.0340710515
 20
-129.690083395
 30
0.0
 11
-330.0340717667
 21
-129.690083395
 31
0.0
  0
LINE
  5
13F
330
1F
100
AcDbEntity
  8
0
  6
Continuous
 62
     7
370
    15
100
AcDbLine
 10
-337.0340710515
 20
-122.1883024082
 30
0.0
 11
-330.0340717667
 21
-122.1883024082
 31
0.0
  0
LINE
  5
140
330
1F
100
AcDbEntity
  8
0
  6
Continuous
 62
     7
370
    15
100
AcDbLine
 10
-337.0340710515
 20
-129.690083395
 30
0.0
 11
-337.0340710515
 21
-122.1883024082
 31
0.0
  0
LINE
  5
141
330
1F
100
AcDbEntity
  8
0
  6
Continuous
 62
     7
370
    15
100
AcDbLine
 10
-337.0340710515
 20
-118.6432267532
 30
0.0
 11
-330.0340717667
 21
-118.6432267532
 31
0.0
  0
LINE
  5
142
330
1F
100
AcDbEntity
  8
0
  6
Continuous
 62
     7
370
    15
100
AcDbLine
 10
-337.0340710515
 20
-122.1883024082
 30
0.0
 11
-337.0340710515
 21
-118.6432267532
 31
0.0
  0
LINE
  5
143
330
1F
100
AcDbEntity
  8
0
  6
Continuous
 62
     7
370
    15
100
AcDbLine
 10
24.3659371501
 20
-119.5720012293
 30
0.0
 11
17.3659378654
 21
-119.5720012293
 31
0.0
  0
LINE
  5
144
330
1F
100
AcDbEntity
  8
0
  6
Continuous
 62
     7
370
    15
100
AcDbLine
 10
24.3659371501
 20
-119.5720012293
 30
0.0
 11
24.3659371501
 21
-125.9964282618
 31
0.0
  0
LINE
  5
145
330
1F
100
AcDbEntity
  8
0
  6
Continuous
 62
     7
370
    15
100
AcDbLine
 10
24.3659371501
 20
-125.9964282618
 30
0.0
 11
17.3659378654
 21
-125.9964282618
 31
0.0
  0
LINE
  5
146
330
1F
100
AcDbEntity
  8
0
  6
Continuous
 62
     7
370
    15
100
AcDbLine
 10
24.3659371501
 20
-132.5694347725
 30
0.0
 11
17.3659378654
 21
-132.5694347725
 31
0.0
  0
LINE
  5
147
330
1F
100
AcDbEntity
  8
0
  6
Continuous
 62
     7
370
    15
100
AcDbLine
 10
24.3659371501
 20
-125.9964282618
 30
0.0
 11
24.3659371501
 21
-132.5694347725
 31
0.0
  0
LINE
  5
148
330
1F
100
AcDbEntity
  8
0
  6
Continuous
 62
     7
370
    15
100
AcDbLine
 10
24.3659371501
 20
-132.7180291519
 30
0.0
 11
17.3659378654
 21
-132.7180291519
 31
0.0
  0
LINE
  5
149
330
1F
100
AcDbEntity
  8
0
  6
Continuous
 62
     7
370
    15
100
AcDbLine
 10
24.3659371501
 20
-132.5694347725
 30
0.0
 11
24.3659371501
 21
-132.7180291519
 31
0.0
  0
LINE
  5
14A
330
1F
100
AcDbEntity
  8
0
  6
Continuous
 62
     7
370
    15
100
AcDbLine
 10
-110.8340678745
 20
189.1077582731
 30
0.0
 11
-110.8340678745
 21
181.6022035673
 31
0.0
  0
LINE
  5
14B
330
1F
100
AcDbEntity
  8
0
  6
Continuous
 62
     7
370
    15
100
AcDbLine
 10
-104.3340658778
 20
192.8605337634
 30
0.0
 11
-110.8340678745
 21
189.1077582731
 31
0.0
  0
LINE
  5
14C
330
1F
100
AcDbEntity
  8
0
  6
Continuous
 62
     7
370
    15
100
AcDbLine
 10
-97.8340676063
 20
189.1077582731
 30
0.0
 11
-104.3340658778
 21
192.8605337634
 31
0.0
  0
LINE
  5
14D
330
1F
100
AcDbEntity
  8
0
  6
Continuous
 62
     7
370
    15
100
AcDbLine
 10
-97.8340676063
 20
181.6022035673
 30
0.0
 11
-97.8340676063
 21
189.1077582731
 31
0.0
  0
LINE
  5
14E
330
1F
100
AcDbEntity
  8
0
  6
Continuous
 62
     7
370
    15
100
AcDbLine
 10
-110.8340678745
 20
181.6022035673
 30
0.0
 11
-104.3340658778
 21
177.849428077
 31
0.0
  0
LINE
  5
14F
330
1F
100
AcDbEntity
  8
0
  6
Continuous
 62
     7
370
    15
100
AcDbLine
 10
-104.3340658778
 20
177.849428077
 30
0.0
 11
-97.8340676063
 21
181.6022035673
 31
0.0
  0
LINE
  5
150
330
1F
100
AcDbEntity
  8
0
  6
Continuous
 62
     7
370
    15
100
AcDbLine
 10
-155.8340669269
 20
249.1077606573
 30
0.0
 11
-155.8340669269
 21
241.6022022261
 31
0.0
  0
LINE
  5
151
330
1F
100
AcDbEntity
  8
0
  6
Continuous
 62
     7
370
    15
100
AcDbLine
 10
-149.3340667346
 20
252.860528697
 30
0.0
 11
-155.8340669269
 21
249.1077606573
 31
0.0
  0
LINE
  5
152
330
1F
100
AcDbEntity
  8
0
  6
Continuous
 62
     7
370
    15
100
AcDbLine
 10
-149.3340667346
 20
237.8494267359
 30
0.0
 11
-142.8340666005
 21
241.6022022261
 31
0.0
  0
LINE
  5
153
330
1F
100
AcDbEntity
  8
0
  6
Continuous
 62
     7
370
    15
100
AcDbLine
 10
-142.8340666005
 20
241.6022022261
 30
0.0
 11
-142.8340666005
 21
249.1077606573
 31
0.0
  0
LINE
  5
154
330
1F
100
AcDbEntity
  8
0
  6
Continuous
 62
     7
370
    15
100
AcDbLine
 10
-142.8340666005
 20
249.1077606573
 30
0.0
 11
-149.3340667346
 21
252.860528697
 31
0.0
  0
LINE
  5
155
330
1F
100
AcDbEntity
  8
0
  6
Continuous
 62
     7
370
    15
100
AcDbLine
 10
-155.8340669269
 20
241.6022022261
 30
0.0
 11
-149.3340667346
 21
237.8494267359
 31
0.0
  0
LINE
  5
156
330
1F
100
AcDbEntity
  8
0
  6
Continuous
 62
     7
370
    15
100
AcDbLine
 10
-110.8340678745
 20
245.1077600016
 30
0.0
 11
-110.8340678745
 21
237.6022015705
 31
0.0
  0
LINE
  5
157
330
1F
100
AcDbEntity
  8
0
  6
Continuous
 62
     7
370
    15
100
AcDbLine
 10
-97.8340676063
 20
245.1077600016
 30
0.0
 11
-104.3340658778
 21
248.8605354919
 31
0.0
  0
LINE
  5
158
330
1F
100
AcDbEntity
  8
0
  6
Continuous
 62
     7
370
    15
100
AcDbLine
 10
-104.3340658778
 20
233.8494260802
 30
0.0
 11
-97.8340676063
 21
237.6022015705
 31
0.0
  0
LINE
  5
159
330
1F
100
AcDbEntity
  8
0
  6
Continuous
 62
     7
370
    15
100
AcDbLine
 10
-104.3340658778
 20
248.8605354919
 30
0.0
 11
-110.8340678745
 21
245.1077600016
 31
0.0
  0
LINE
  5
15A
330
1F
100
AcDbEntity
  8
0
  6
Continuous
 62
     7
370
    15
100
AcDbLine
 10
-110.8340678745
 20
237.6022015705
 30
0.0
 11
-104.3340658778
 21
233.8494260802
 31
0.0
  0
LINE
  5
15B
330
1F
100
AcDbEntity
  8
0
  6
Continuous
 62
     7
370
    15
100
AcDbLine
 10
-97.8340676063
 20
237.6022015705
 30
0.0
 11
-97.8340676063
 21
245.1077600016
 31
0.0
  0
LINE
  5
15C
330
1F
100
AcDbEntity
  8
0
  6
Continuous
 62
     7
370
    15
100
AcDbLine
 10
-330.0340717667
 20
-115.0306935415
 30
0.0
 11
-330.0340717667
 21
-137.2593368397
 31
0.0
  0
LINE
  5
15D
330
1F
100
AcDbEntity
  8
0
  6
Continuous
 62
     7
370
    15
100
AcDbLine
 10
-326.8340623015
 20
-115.0306935415
 30
0.0
 11
-326.8340623015
 21
-137.2593368397
 31
0.0
  0
LINE
  5
15E
330
1F
100
AcDbEntity
  8
0
  6
Continuous
 62
     7
370
    15
100
AcDbLine
 10
-330.0340717667
 20
-104.3794776306
 30
0.0
 11
-330.0340717667
 21
-115.0306935415
 31
0.0
  0
LINE
  5
15F
330
1F
100
AcDbEntity
  8
0
  6
Continuous
 62
     7
370
    15
100
AcDbLine
 10
-326.8340623015
 20
-104.3794776306
 30
0.0
 11
-326.8340623015
 21
-115.0306935415
 31
0.0
  0
LINE
  5
160
330
1F
100
AcDbEntity
  8
0
  6
Continuous
 62
     7
370
    15
100
AcDbLine
 10
-330.0340717667
 20
-137.2593368397
 30
0.0
 11
-330.0340717667
 21
-147.9105676518
 31
0.0
  0
LINE
  5
161
330
1F
100
AcDbEntity
  8
0
  6
Continuous
 62
     7
370
    15
100
AcDbLine
 10
-326.8340623015
 20
-137.2593368397
 30
0.0
 11
-326.8340623015
 21
-147.9105676518
 31
0.0
  0
LINE
  5
162
330
1F
100
AcDbEntity
  8
0
  6
Continuous
 62
     7
370
    15
100
AcDbLine
 10
-330.0340717667
 20
-102.64501227
 30
0.0
 11
-330.0340717667
 21
-104.3794776306
 31
0.0
  0
LINE
  5
163
330
1F
100
AcDbEntity
  8
0
  6
Continuous
 62
     7
370
    15
100
AcDbLine
 10
-326.8340623015
 20
-102.64501227
 30
0.0
 11
-326.8340623015
 21
-104.3794776306
 31
0.0
  0
LINE
  5
164
330
1F
100
AcDbEntity
  8
0
  6
Continuous
 62
     7
370
    15
100
AcDbLine
 10
-330.0340717667
 20
-147.9105676518
 30
0.0
 11
-330.0340717667
 21
-149.6450330124
 31
0.0
  0
LINE
  5
165
330
1F
100
AcDbEntity
  8
0
  6
Continuous
 62
     7
370
    15
100
AcDbLine
 10
-326.8340623015
 20
-147.9105676518
 30
0.0
 11
-326.8340623015
 21
-149.6450330124
 31
0.0
  0
LINE
  5
166
330
1F
100
AcDbEntity
  8
0
  6
Continuous
 62
     7
370
    15
100
AcDbLine
 10
17.3659378654
 20
-115.0306935415
 30
0.0
 11
17.3659378654
 21
-137.2593368397
 31
0.0
  0
LINE
  5
167
330
1F
100
AcDbEntity
  8
0
  6
Continuous
 62
     7
370
    15
100
AcDbLine
 10
14.1659284002
 20
-115.0306935415
 30
0.0
 11
14.1659284002
 21
-137.2593368397
 31
0.0
  0
LINE
  5
168
330
1F
100
AcDbEntity
  8
0
  6
Continuous
 62
     7
370
    15
100
AcDbLine
 10
17.3659378654
 20
-104.3794776306
 30
0.0
 11
17.3659378654
 21
-115.0306935415
 31
0.0
  0
LINE
  5
169
330
1F
100
AcDbEntity
  8
0
  6
Continuous
 62
     7
370
    15
100
AcDbLine
 10
14.1659284002
 20
-104.3794776306
 30
0.0
 11
14.1659284002
 21
-115.0306935415
 31
0.0
  0
LINE
  5
16A
330
1F
100
AcDbEntity
  8
0
  6
Continuous
 62
     7
370
    15
100
AcDbLine
 10
17.3659378654
 20
-137.2593368397
 30
0.0
 11
17.3659378654
 21
-147.9105676518
 31
0.0
  0
LINE
  5
16B
330
1F
100
AcDbEntity
  8
0
  6
Continuous
 62
     7
370
    15
100
AcDbLine
 10
14.1659284002
 20
-137.2593368397
 30
0.0
 11
14.1659284002
 21
-147.9105676518
 31
0.0
  0
LINE
  5
16C
330
1F
100
AcDbEntity
  8
0
  6
Continuous
 62
     7
370
    15
100
AcDbLine
 10
17.3659378654
 20
-102.64501227
 30
0.0
 11
17.3659378654
 21
-104.3794776306
 31
0.0
  0
LINE
  5
16D
330
1F
100
AcDbEntity
  8
0
  6
Continuous
 62
     7
370
    15
100
AcDbLine
 10
14.1659284002
 20
-102.64501227
 30
0.0
 11
14.1659284002
 21
-104.3794776306
 31
0.0
  0
LINE
  5
16E
330
1F
100
AcDbEntity
  8
0
  6
Continuous
 62
     7
370
    15
100
AcDbLine
 10
17.3659378654
 20
-147.9105676518
 30
0.0
 11
17.3659378654
 21
-149.6450330124
 31
0.0
  0
LINE
  5
16F
330
1F
100
AcDbEntity
  8
0
  6
Continuous
 62
     7
370
    15
100
AcDbLine
 10
14.1659284002
 20
-147.9105676518
 30
0.0
 11
14.1659284002
 21
-149.6450330124
 31
0.0
  0
SPLINE
  5
170
330
1F
100
AcDbEntity
  8
0
  6
Continuous
 62
     7
370
    15
100
AcDbSpline
210
0.0
220
0.0
230
1.0
 70
     8
 71
     3
 72
    11
 73
     7
 74
     0
 42
0.00000001
 43
0.00000001
 12
1.0
 22
0.0
 32
0.0
 13
1.0
 23
0.0
 33
0.0
 40
0.0
 40
0.0
 40
0.0
 40
0.0
 40
0.3155011455125601
 40
0.6351777684826826
 40
0.9687306136162587
 40
1.0
 40
1.0
 40
1.0
 40
1.0
 10
23.86592868628928
 20
-110.1790393695978
 30
0.0
 10
23.6454285487446
 20
-110.1772708528732
 30
0.0
 10
23.20151008027688
 20
-110.1737104141153
 30
0.0
 10
22.63073041923733
 20
-110.1560339203389
 30
0.0
 10
22.27684647582287
 20
-110.1413842943117
 30
0.0
 10
22.18449924279567
 20
-110.1457898058955
 30
0.0
 10
22.17658404174277
 20
-110.1461674080042
 30
0.0
  0
SPLINE
  5
171
330
1F
100
AcDbEntity
  8
0
  6
Continuous
 62
     7
370
    15
100
AcDbSpline
210
0.0
220
0.0
230
1.0
 70
     8
 71
     3
 72
    11
 73
     7
 74
     0
 42
0.00000001
 43
0.00000001
 12
1.0
 22
0.0
 32
0.0
 13
1.0
 23
0.0
 33
0.0
 40
0.0
 40
0.0
 40
0.0
 40
0.0
 40
0.3155011061287736
 40
0.6351779426115979
 40
0.9687306096172956
 40
1.0
 40
1.0
 40
1.0
 40
1.0
 10
23.86592868628928
 20
-142.1110059127955
 30
0.0
 10
23.64542849374762
 20
-142.1127654543538
 30
0.0
 10
23.20150973744733
 20
-142.1163078254112
 30
0.0
 10
22.63073090093917
 20
-142.1340310973208
 30
0.0
 10
22.27684640830496
 20
-142.1486303256385
 30
0.0
 10
22.1844992418774
 20
-142.1442256064838
 30
0.0
 10
22.17658404174277
 20
-142.1438480720667
 30
0.0
  0
LINE
  5
172
330
1F
100
AcDbEntity
  8
0
  6
Continuous
 62
     7
370
    15
100
AcDbLine
 10
22.8659266597
 20
-112.5887806521
 30
0.0
 11
22.8659266597
 21
-119.5720012293
 31
0.0
  0
LINE
  5
173
330
1F
100
AcDbEntity
  8
0
  6
Continuous
 62
     7
370
    15
100
AcDbLine
 10
29.8659259445
 20
-127.0438755856
 30
0.0
 11
29.8659259445
 21
-130.2485491142
 31
0.0
  0
LINE
  5
174
330
1F
100
AcDbEntity
  8
0
  6
Continuous
 62
     7
370
    15
100
AcDbLine
 10
29.8659259445
 20
-124.0620489226
 30
0.0
 11
29.8659259445
 21
-127.0438755856
 31
0.0
  0
LINE
  5
175
330
1F
100
AcDbEntity
  8
0
  6
Continuous
 62
     7
370
    15
100
AcDbLine
 10
22.8659266597
 20
-132.7180291519
 30
0.0
 11
22.8659266597
 21
-141.106727253
 31
0.0
  0
LINE
  5
176
330
1F
100
AcDbEntity
  8
0
  6
Continuous
 62
     7
370
    15
100
AcDbLine
 10
29.8659259445
 20
-117.1818847761
 30
0.0
 11
29.8659259445
 21
-124.0620489226
 31
0.0
  0
LINE
  5
177
330
1F
100
AcDbEntity
  8
0
  6
Continuous
 62
     7
370
    15
100
AcDbLine
 10
29.8659259445
 20
-111.739041935
 30
0.0
 11
29.8659259445
 21
-117.1818847761
 31
0.0
  0
ARC
  5
178
330
1F
100
AcDbEntity
  8
0
  6
Continuous
 62
     7
370
    15
100
AcDbCircle
 10
28.8669960392
 20
-111.1779692765
 30
0.0
 40
0.9989304663599766
100
AcDbArc
 50
0.0607266607
 51
90.0606391171
  0
LINE
  5
179
330
1F
100
AcDbEntity
  8
0
  6
Continuous
 62
     7
370
    15
100
AcDbLine
 10
29.8659259445
 20
-111.1769105301
 30
0.0
 11
29.8659259445
 21
-111.739041935
 31
0.0
  0
LINE
  5
17A
330
1F
100
AcDbEntity
  8
0
  6
Continuous
 62
     7
370
    15
100
AcDbLine
 10
23.8659286863
 20
-110.1769085035
 30
0.0
 11
23.8659286863
 21
-110.1790393696
 31
0.0
  0
LINE
  5
17B
330
1F
100
AcDbEntity
  8
0
  6
Continuous
 62
     7
370
    15
100
AcDbLine
 10
28.8659388191
 20
-110.1790393696
 30
0.0
 11
28.8659388191
 21
-110.1769085035
 31
0.0
  0
LINE
  5
17C
330
1F
100
AcDbEntity
  8
0
  6
Continuous
 62
     7
370
    15
100
AcDbLine
 10
29.8659259445
 20
-134.4489778385
 30
0.0
 11
29.8659259445
 21
-141.1131347523
 31
0.0
  0
LINE
  5
17D
330
1F
100
AcDbEntity
  8
0
  6
Continuous
 62
     7
370
    15
100
AcDbLine
 10
29.8659259445
 20
-130.2485491142
 30
0.0
 11
29.8659259445
 21
-134.4489778385
 31
0.0
  0
LINE
  5
17E
330
1F
100
AcDbEntity
  8
0
  6
Continuous
 62
     7
370
    15
100
AcDbLine
 10
-244.7224130863
 20
-199.645015131
 30
0.0
 11
-67.945720815
 21
-199.645015131
 31
0.0
  0
LINE
  5
17F
330
1F
100
AcDbEntity
  8
0
  6
Continuous
 62
     7
370
    15
100
AcDbLine
 10
-244.7224130863
 20
-201.6450191841
 30
0.0
 11
-67.945720815
 21
-201.6450191841
 31
0.0
  0
SPLINE
  5
180
330
1F
100
AcDbEntity
  8
0
  6
Continuous
 62
     7
370
    15
100
AcDbSpline
210
0.0
220
0.0
230
1.0
 70
    24
 71
     3
 72
    13
 73
     9
 74
     0
 42
0.00000001
 43
0.00000001
 12
1.0
 22
0.0
 32
0.0
 13
1.0
 23
0.0
 33
0.0
 40
0.0
 40
0.0
 40
0.0
 40
0.0
 40
0.1163831778228673
 40
0.3491371433359481
 40
0.5825794320610629
 40
0.7909414895254109
 40
0.8954894061196542
 40
1.0
 40
1.0
 40
1.0
 40
1.0
 10
-182.0646358662563
 20
-177.1450067863611
 30
0.0
 10
-180.0785475294327
 20
-177.1450067863611
 30
0.0
 10
-174.120493957577
 20
-177.1450067863611
 30
0.0
 10
-164.103353002802
 20
-177.1450067863611
 30
0.0
 10
-152.5034871306711
 20
-177.1450067863611
 30
0.0
 10
-143.1136611165534
 20
-177.145006786361
 30
0.0
 10
-135.9510008405347
 20
-177.1450067863613
 30
0.0
 10
-132.3857868071748
 20
-177.1450067863611
 30
0.0
 10
-130.6034980350452
 20
-177.1450067863611
 30
0.0
  0
LINE
  5
181
330
1F
100
AcDbEntity
  8
0
  6
Continuous
 62
     7
370
    15
100
AcDbLine
 10
-130.603498035
 20
-177.1450067864
 30
0.0
 11
-74.2981677884
 21
-177.1450067864
 31
0.0
  0
LINE
  5
182
330
1F
100
AcDbEntity
  8
0
  6
Continuous
 62
     7
370
    15
100
AcDbLine
 10
-238.3699661129
 20
-177.1450067864
 30
0.0
 11
-182.0646358663
 21
-177.1450067864
 31
0.0
  0
LINE
  5
183
330
1F
100
AcDbEntity
  8
0
  6
Continuous
 62
     7
370
    15
100
AcDbLine
 10
-67.945720815
 20
-199.645015131
 30
0.0
 11
12.8017121917
 21
-199.645015131
 31
0.0
  0
LINE
  5
184
330
1F
100
AcDbEntity
  8
0
  6
Continuous
 62
     7
370
    15
100
AcDbLine
 10
-67.945720815
 20
-201.6450191841
 30
0.0
 11
12.8017121917
 21
-201.6450191841
 31
0.0
  0
LINE
  5
185
330
1F
100
AcDbEntity
  8
0
  6
Continuous
 62
     7
370
    15
100
AcDbLine
 10
-325.469846093
 20
-199.645015131
 30
0.0
 11
-244.7224130863
 21
-199.645015131
 31
0.0
  0
LINE
  5
186
330
1F
100
AcDbEntity
  8
0
  6
Continuous
 62
     7
370
    15
100
AcDbLine
 10
-325.469846093
 20
-201.6450191841
 30
0.0
 11
-244.7224130863
 21
-201.6450191841
 31
0.0
  0
LINE
  5
187
330
1F
100
AcDbEntity
  8
0
  6
Continuous
 62
     7
370
    15
100
AcDbLine
 10
-74.4859671229
 20
-187.4450172291
 30
0.0
 11
-68.9179917806
 21
-187.4450172291
 31
0.0
  0
LINE
  5
188
330
1F
100
AcDbEntity
  8
0
  6
Continuous
 62
     7
370
    15
100
AcDbLine
 10
-243.7501421207
 20
-187.4450172291
 30
0.0
 11
-238.1821667784
 21
-187.4450172291
 31
0.0
  0
LINE
  5
189
330
1F
100
AcDbEntity
  8
0
  6
Continuous
 62
     7
370
    15
100
AcDbLine
 10
-68.9179917806
 20
-187.4450172291
 30
0.0
 11
7.3883289463
 21
-187.4450172291
 31
0.0
  0
LINE
  5
18A
330
1F
100
AcDbEntity
  8
0
  6
Continuous
 62
     7
370
    15
100
AcDbLine
 10
-320.0564628476
 20
-187.4450172291
 30
0.0
 11
-243.7501421207
 21
-187.4450172291
 31
0.0
  0
LINE
  5
18B
330
1F
100
AcDbEntity
  8
0
  6
Continuous
 62
     7
370
    15
100
AcDbLine
 10
-245.3083192938
 20
-177.1450067864
 30
0.0
 11
-238.3699661129
 21
-177.1450067864
 31
0.0
  0
SPLINE
  5
18C
330
1F
100
AcDbEntity
  8
0
  6
Continuous
 62
     7
370
    15
100
AcDbSpline
210
0.0
220
0.0
230
1.0
 70
     8
 71
     3
 72
    11
 73
     7
 74
     0
 42
0.00000001
 43
0.00000001
 12
1.0
 22
0.0
 32
0.0
 13
1.0
 23
0.0
 33
0.0
 40
0.0
 40
0.0
 40
0.0
 40
0.0
 40
0.348683207609874
 40
0.6589511473904569
 40
0.846582280770051
 40
1.0
 40
1.0
 40
1.0
 40
1.0
 10
-74.29816778835824
 20
-177.1450067863611
 30
0.0
 10
-74.18950139140047
 20
-177.1467851144405
 30
0.0
 10
-73.98414063586272
 20
-177.1501458479166
 30
0.0
 10
-73.71277965094147
 20
-177.1819475132253
 30
0.0
 10
-73.51258007960743
 20
-177.2251773619724
 30
0.0
 10
-73.42255073100148
 20
-177.2576330190045
 30
0.0
 10
-73.38205184874109
 20
-177.2722329006342
 30
0.0
  0
LINE
  5
18D
330
1F
100
AcDbEntity
  8
0
  6
Continuous
 62
     7
370
    15
100
AcDbLine
 10
-74.2981677884
 20
-177.1450067864
 30
0.0
 11
-67.3598146075
 21
-177.1450067864
 31
0.0
  0
LINE
  5
18E
330
1F
100
AcDbEntity
  8
0
  6
Continuous
 62
     7
370
    15
100
AcDbLine
 10
-11.4769583577
 20
-177.1450067864
 30
0.0
 11
-4.7956055039
 21
-177.1450067864
 31
0.0
  0
LINE
  5
18F
330
1F
100
AcDbEntity
  8
0
  6
Continuous
 62
     7
370
    15
100
AcDbLine
 10
-307.8725283974
 20
-177.1450067864
 30
0.0
 11
-301.1911755436
 21
-177.1450067864
 31
0.0
  0
LINE
  5
190
330
1F
100
AcDbEntity
  8
0
  6
Continuous
 62
     7
370
    15
100
AcDbLine
 10
12.8017121917
 20
-199.645015131
 30
0.0
 11
20.6762159235
 21
-199.645015131
 31
0.0
  0
LINE
  5
191
330
1F
100
AcDbEntity
  8
0
  6
Continuous
 62
     7
370
    15
100
AcDbLine
 10
12.8017121917
 20
-201.6450191841
 30
0.0
 11
20.6762159235
 21
-201.6450191841
 31
0.0
  0
LINE
  5
192
330
1F
100
AcDbEntity
  8
0
  6
Continuous
 62
     7
370
    15
100
AcDbLine
 10
-333.3443498248
 20
-199.645015131
 30
0.0
 11
-325.469846093
 21
-199.645015131
 31
0.0
  0
LINE
  5
193
330
1F
100
AcDbEntity
  8
0
  6
Continuous
 62
     7
370
    15
100
AcDbLine
 10
-333.3443498248
 20
-201.6450191841
 30
0.0
 11
-325.469846093
 21
-201.6450191841
 31
0.0
  0
LINE
  5
194
330
1F
100
AcDbEntity
  8
0
  6
Continuous
 62
     7
370
    15
100
AcDbLine
 10
7.3883289463
 20
-187.4450172291
 30
0.0
 11
8.3555633194
 21
-187.4450172291
 31
0.0
  0
LINE
  5
195
330
1F
100
AcDbEntity
  8
0
  6
Continuous
 62
     7
370
    15
100
AcDbLine
 10
-321.0236972207
 20
-187.4450172291
 30
0.0
 11
-320.0564628476
 21
-187.4450172291
 31
0.0
  0
LINE
  5
196
330
1F
100
AcDbEntity
  8
0
  6
Continuous
 62
     7
370
    15
100
AcDbLine
 10
-4.7956055039
 20
-177.1450067864
 30
0.0
 11
14.0529328949
 21
-177.1450067864
 31
0.0
  0
LINE
  5
197
330
1F
100
AcDbEntity
  8
0
  6
Continuous
 62
     7
370
    15
100
AcDbLine
 10
-326.7210667962
 20
-177.1450067864
 30
0.0
 11
-307.8725283974
 21
-177.1450067864
 31
0.0
  0
SPLINE
  5
198
330
1F
100
AcDbEntity
  8
0
  6
Continuous
 62
     7
370
    15
100
AcDbSpline
210
0.0
220
0.0
230
1.0
 70
    24
 71
     3
 72
    10
 73
     6
 74
     0
 42
0.00000001
 43
0.00000001
 12
1.0
 22
0.0
 32
0.0
 13
1.0
 23
0.0
 33
0.0
 40
0.0
 40
0.0
 40
0.0
 40
0.0
 40
0.2327709637010267
 40
0.6982881103471995
 40
1.0
 40
1.0
 40
1.0
 40
1.0
 10
14.05293289485404
 20
-177.1450067863611
 30
0.0
 10
14.29989268718507
 20
-177.1450067863611
 30
0.0
 10
15.040745772882
 20
-177.145006786361
 30
0.0
 10
15.49262535759385
 20
-177.1450067863612
 30
0.0
 10
15.49181117344062
 20
-177.1450067863611
 30
0.0
 10
15.49149099650809
 20
-177.1450067863611
 30
0.0
  0
SPLINE
  5
199
330
1F
100
AcDbEntity
  8
0
  6
Continuous
 62
     7
370
    15
100
AcDbSpline
210
0.0
220
0.0
230
1.0
 70
    24
 71
     3
 72
    11
 73
     7
 74
     0
 42
0.00000001
 43
0.00000001
 12
1.0
 22
0.0
 32
0.0
 13
1.0
 23
0.0
 33
0.0
 40
0.0
 40
0.0
 40
0.0
 40
0.0
 40
0.1651753907454737
 40
0.5818912561495697
 40
0.7909829500498372
 40
1.0
 40
1.0
 40
1.0
 40
1.0
 10
-328.1596248978095
 20
-177.1450067863611
 30
0.0
 10
-328.1775087886789
 20
-177.1450067863611
 30
0.0
 10
-328.2405113926131
 20
-177.1450067863611
 30
0.0
 10
-327.9087282439651
 20
-177.1450067863612
 30
0.0
 10
-327.4213669111265
 20
-177.1450067863611
 30
0.0
 10
-326.9544723832929
 20
-177.1450067863611
 30
0.0
 10
-326.7210667961555
 20
-177.1450067863611
 30
0.0
  0
LINE
  5
19A
330
1F
100
AcDbEntity
  8
0
  6
Continuous
 62
     7
370
     0
100
AcDbLine
 10
-83.3340669506
 20
145.0249005461
 30
0.0
 11
-83.3340669506
 21
129.8549817695
 31
0.0
  0
LINE
  5
19B
330
1F
100
AcDbEntity
  8
0
  6
Continuous
 62
     7
370
     0
100
AcDbLine
 10
-57.8697160716
 20
129.8549817695
 30
0.0
 11
-83.3340669506
 21
129.8549817695
 31
0.0
  0
LINE
  5
19C
330
1F
100
AcDbEntity
  8
0
  6
Continuous
 62
     7
370
     0
100
AcDbLine
 10
-329.8523127872
 20
84.8955511846
 30
0.0
 11
-189.1241455022
 21
84.8955511846
 31
0.0
  0
LINE
  5
19D
330
1F
100
AcDbEntity
  8
0
  6
Continuous
 62
     7
370
     0
100
AcDbLine
 10
-57.2363787832
 20
85.3297266409
 30
0.0
 11
16.4659330493
 21
85.3297266409
 31
0.0
  0
LINE
  5
19E
330
1F
100
AcDbEntity
  8
0
  6
Continuous
 62
     7
370
     0
100
AcDbLine
 10
17.2292374035
 20
82.7843814874
 30
0.0
 11
-57.0640507421
 21
82.7843814874
 31
0.0
  0
LINE
  5
19F
330
1F
100
AcDbEntity
  8
0
  6
Continuous
 62
     7
370
     0
100
AcDbLine
 10
-189.1139771239
 20
82.7843814874
 30
0.0
 11
-329.9653437131
 21
82.7843814874
 31
0.0
  0
LINE
  5
1A0
330
1F
100
AcDbEntity
  8
0
  6
Continuous
 62
     7
370
     0
100
AcDbLine
 10
-189.33148079
 20
77.6863669136
 30
0.0
 11
-57.2815546909
 21
77.6863669136
 31
0.0
  0
DIMENSION
  5
1A1
330
1F
100
AcDbEntity
  8
0
  6
Continuous
 62
     7
370
     0
100
AcDbDimension
  2
_D
 10
-149.3340669506
 20
379.5234781924
 30
0.0
 11
-194.2116619359
 21
379.5234781924
 31
0.0
 70
   160
  1
<>
 71
     2
 42
-1.0
  3
SLDDIMSTYLE0
100
AcDbAlignedDimension
 13
-156.3340669507
 23
400.1378791854
 33
0.0
 14
-149.3340669506
 24
245.3549817695
 34
0.0
100
AcDbRotatedDimension
  0
INSERT
  5
1B9
330
1F
100
AcDbEntity
  8
0
  6
Continuous
 62
     7
370
     0
100
AcDbBlockReference
  2
SW_CENTERMARKSYMBOL_0
 10
-149.3340669506
 20
213.3549817695
 30
0.0
  0
INSERT
  5
1C5
330
1F
100
AcDbEntity
  8
0
  6
Continuous
 62
     7
370
     0
100
AcDbBlockReference
  2
SW_CENTERMARKSYMBOL_1
 10
-104.3340669507
 20
213.3549817695
 30
0.0
  0
LINE
  5
1C6
330
1F
100
AcDbEntity
  8
0
  6
Continuous
 62
     7
370
    15
100
AcDbLine
 10
-82.334065997
 20
473.2595256723
 30
0.0
 11
-82.334065997
 21
486.2595222152
 31
0.0
  0
LINE
  5
1C7
330
1F
100
AcDbEntity
  8
0
  6
Continuous
 62
     7
370
    15
100
AcDbLine
 10
-174.3340661758
 20
486.2595222152
 30
0.0
 11
-174.3340661758
 21
473.2595256723
 31
0.0
  0
LINE
  5
1C8
330
1F
100
AcDbEntity
  8
0
  6
Continuous
 62
     7
370
    15
100
AcDbLine
 10
-172.3340677106
 20
473.2595256723
 30
0.0
 11
-172.3340677106
 21
437.259527222
 31
0.0
  0
LINE
  5
1C9
330
1F
100
AcDbEntity
  8
0
  6
Continuous
 62
     7
370
    15
100
AcDbLine
 10
-126.3340676212
 20
437.259527222
 30
0.0
 11
-126.3340676212
 21
473.2595256723
 31
0.0
  0
LINE
  5
1CA
330
1F
100
AcDbEntity
  8
0
  6
Continuous
 62
     7
370
    15
100
AcDbLine
 10
-124.3340654307
 20
473.2595256723
 30
0.0
 11
-124.3340654307
 21
441.2595204271
 31
0.0
  0
LINE
  5
1CB
330
1F
100
AcDbEntity
  8
0
  6
Continuous
 62
     7
370
    15
100
AcDbLine
 10
-84.3340700501
 20
441.2595204271
 30
0.0
 11
-84.3340700501
 21
473.2595256723
 31
0.0
  0
LINE
  5
1CC
330
1F
100
AcDbEntity
  8
0
  6
Continuous
 62
     7
370
    15
100
AcDbLine
 10
-82.334065997
 20
489.2595282949
 30
0.0
 11
-82.334065997
 21
502.3105166114
 31
0.0
  0
LINE
  5
1CD
330
1F
100
AcDbEntity
  8
0
  6
Continuous
 62
     7
370
    15
100
AcDbLine
 10
-93.0352976554
 20
814.6200797714
 30
0.0
 11
-104.9976145857
 21
824.6576509632
 31
0.0
  0
LINE
  5
1CE
330
1F
100
AcDbEntity
  8
0
  6
Continuous
 62
     7
370
    15
100
AcDbLine
 10
-207.6705193156
 20
824.6576509632
 30
0.0
 11
-214.066842758
 21
819.2905060209
 31
0.0
  0
LINE
  5
1CF
330
1F
100
AcDbEntity
  8
0
  6
Continuous
 62
     7
370
    15
100
AcDbLine
 10
12.9640603429
 20
706.6959760345
 30
0.0
 11
7.5969154007
 21
713.0922994769
 31
0.0
  0
LINE
  5
1D0
330
1F
100
AcDbEntity
  8
0
  6
Continuous
 62
     7
370
    15
100
AcDbLine
 10
-320.265049302
 20
713.0922994769
 30
0.0
 11
-325.6321942442
 21
706.6959760345
 31
0.0
  0
LINE
  5
1D1
330
1F
100
AcDbEntity
  8
0
  6
Continuous
 62
     7
370
    15
100
AcDbLine
 10
7.5969154007
 20
597.6267478622
 30
0.0
 11
12.9640603429
 21
604.0230713046
 31
0.0
  0
LINE
  5
1D2
330
1F
100
AcDbEntity
  8
0
  6
Continuous
 62
     7
370
    15
100
AcDbLine
 10
-325.6321942442
 20
604.0230713046
 30
0.0
 11
-320.265049302
 21
597.6267478622
 31
0.0
  0
ARC
  5
1D3
330
1F
100
AcDbEntity
  8
0
  6
Continuous
 62
     7
370
    15
100
AcDbCircle
 10
-205.7421562479
 20
822.3595236696
 30
0.0
 40
3.000000000000016
100
AcDbArc
 50
90.0
 51
130.0
  0
ARC
  5
1D4
330
1F
100
AcDbEntity
  8
0
  6
Continuous
 62
     7
370
    15
100
AcDbCircle
 10
-106.9259776535
 20
822.3595236696
 30
0.0
 40
2.999999999999961
100
AcDbArc
 50
50.0
 51
90.0
  0
ARC
  5
1D5
330
1F
100
AcDbEntity
  8
0
  6
Continuous
 62
     7
370
    15
100
AcDbCircle
 10
10.6659330493
 20
704.7676129668
 30
0.0
 40
3.000000000000033
100
AcDbArc
 50
0.0
 51
40.0
  0
ARC
  5
1D6
330
1F
100
AcDbEntity
  8
0
  6
Continuous
 62
     7
370
    15
100
AcDbCircle
 10
-323.3340669507
 20
704.7676129668
 30
0.0
 40
3.0
100
AcDbArc
 50
140.0
 51
180.0
  0
ARC
  5
1D7
330
1F
100
AcDbEntity
  8
0
  6
Continuous
 62
     7
370
    15
100
AcDbCircle
 10
-323.3340669507
 20
605.9514343724
 30
0.0
 40
3.0
100
AcDbArc
 50
180.0
 51
220.0
  0
ARC
  5
1D8
330
1F
100
AcDbEntity
  8
0
  6
Continuous
 62
     7
370
    15
100
AcDbCircle
 10
10.6659330493
 20
605.9514343724
 30
0.0
 40
3.000000000000033
100
AcDbArc
 50
320.0
 51
0.0
  0
LINE
  5
1D9
330
1F
100
AcDbEntity
  8
0
  6
Continuous
 62
     7
370
    15
100
AcDbLine
 10
-326.8340623015
 20
618.859524206
 30
0.0
 11
-326.3340687388
 21
618.859524206
 31
0.0
  0
LINE
  5
1DA
330
1F
100
AcDbEntity
  8
0
  6
Continuous
 62
     7
370
    15
100
AcDbLine
 10
-326.3340687388
 20
691.8595231331
 30
0.0
 11
-326.8340623015
 21
691.8595231331
 31
0.0
  0
LINE
  5
1DB
330
1F
100
AcDbEntity
  8
0
  6
Continuous
 62
     7
370
    15
100
AcDbLine
 10
13.6659348375
 20
618.859524206
 30
0.0
 11
14.1659284002
 21
618.859524206
 31
0.0
  0
LINE
  5
1DC
330
1F
100
AcDbEntity
  8
0
  6
Continuous
 62
     7
370
    15
100
AcDbLine
 10
14.1659284002
 20
691.8595231331
 30
0.0
 11
13.6659348375
 21
691.8595231331
 31
0.0
  0
LINE
  5
1DD
330
1F
100
AcDbEntity
  8
0
  6
Continuous
 62
     7
370
    15
100
AcDbLine
 10
-100.3340652221
 20
486.2595222152
 30
0.0
 11
-100.3340652221
 21
489.2595282949
 31
0.0
  0
LINE
  5
1DE
330
1F
100
AcDbEntity
  8
0
  6
Continuous
 62
     7
370
    15
100
AcDbLine
 10
-108.3340665334
 20
489.2595282949
 30
0.0
 11
-108.3340665334
 21
486.2595222152
 31
0.0
  0
LINE
  5
1DF
330
1F
100
AcDbEntity
  8
0
  6
Continuous
 62
     7
370
    15
100
AcDbLine
 10
-326.8340623015
 20
697.8595241166
 30
0.0
 11
-330.0340717667
 21
697.8595241166
 31
0.0
  0
LINE
  5
1E0
330
1F
100
AcDbEntity
  8
0
  6
Continuous
 62
     7
370
    15
100
AcDbLine
 10
-330.0340717667
 20
612.8595232225
 30
0.0
 11
-326.8340623015
 21
612.8595232225
 31
0.0
  0
LINE
  5
1E1
330
1F
100
AcDbEntity
  8
0
  6
Continuous
 62
     7
370
    15
100
AcDbLine
 10
17.3659378654
 20
697.8595241166
 30
0.0
 11
14.1659284002
 21
697.8595241166
 31
0.0
  0
LINE
  5
1E2
330
1F
100
AcDbEntity
  8
0
  6
Continuous
 62
     7
370
    15
100
AcDbLine
 10
14.1659284002
 20
612.8595232225
 30
0.0
 11
17.3659378654
 21
612.8595232225
 31
0.0
  0
LINE
  5
1E3
330
1F
100
AcDbEntity
  8
0
  6
Continuous
 62
     7
370
    15
100
AcDbLine
 10
22.2932303316
 20
671.3595244295
 30
0.0
 11
17.3659378654
 21
671.3595244295
 31
0.0
  0
LINE
  5
1E4
330
1F
100
AcDbEntity
  8
0
  6
Continuous
 62
     7
370
    15
100
AcDbLine
 10
17.3659378654
 20
639.3595229096
 30
0.0
 11
22.2932303316
 21
639.3595229096
 31
0.0
  0
SPLINE
  5
1E5
330
1F
100
AcDbEntity
  8
0
  6
Continuous
 62
     7
370
    15
100
AcDbSpline
210
0.0
220
0.0
230
1.0
 70
     8
 71
     3
 72
    13
 73
     9
 74
     0
 42
0.00000001
 43
0.00000001
 12
1.0
 22
0.0
 32
0.0
 13
1.0
 23
0.0
 33
0.0
 40
0.0
 40
0.0
 40
0.0
 40
0.0
 40
0.0172164378502149
 40
0.2184217280921621
 40
0.4332234266932122
 40
0.6637562452607043
 40
0.8992013646701376
 40
1.0
 40
1.0
 40
1.0
 40
1.0
 10
23.86431936088038
 20
655.3844883296114
 30
0.0
 10
23.85460020714583
 20
655.3836913463306
 30
0.0
 10
23.73129512088049
 20
655.3735801684572
 30
0.0
 10
23.48541606678742
 20
655.44389938565
 30
0.0
 10
23.17498793633549
 20
655.645183267729
 30
0.0
 10
22.9467538315847
 20
655.9671261284108
 30
0.0
 10
22.85961608136927
 20
656.2855755243313
 30
0.0
 10
22.86820858943581
 20
656.4738878293689
 30
0.0
 10
22.87078443828056
 20
656.5303398023678
 30
0.0
  0
LINE
  5
1E6
330
1F
100
AcDbEntity
  8
0
  6
Continuous
 62
     7
370
    15
100
AcDbLine
 10
28.8659388191
 20
655.3818388551
 30
0.0
 11
23.8659286863
 21
655.3818388551
 31
0.0
  0
ARC
  5
1E7
330
1F
100
AcDbEntity
  8
0
  6
Continuous
 62
     7
370
    15
100
AcDbCircle
 10
28.8659330493
 20
654.3818388553
 30
0.0
 40
1.000000000000028
100
AcDbArc
 50
0.0
 51
90.0
  0
LINE
  5
1E8
330
1F
100
AcDbEntity
  8
0
  6
Continuous
 62
     7
370
    15
100
AcDbLine
 10
28.8659388191
 20
671.3325682289
 30
0.0
 11
23.8659286863
 21
671.3325682289
 31
0.0
  0
ARC
  5
1E9
330
1F
100
AcDbEntity
  8
0
  6
Continuous
 62
     7
370
    15
100
AcDbCircle
 10
28.8659330493
 20
640.3864792988
 30
0.0
 40
1.0
100
AcDbArc
 50
270.0
 51
0.0
  0
LINE
  5
1EA
330
1F
100
AcDbEntity
  8
0
  6
Continuous
 62
     7
370
    15
100
AcDbLine
 10
23.8659286863
 20
639.3864791102
 30
0.0
 11
28.8659388191
 21
639.3864791102
 31
0.0
  0
ARC
  5
1EB
330
1F
100
AcDbEntity
  8
0
  6
Continuous
 62
     7
370
    15
100
AcDbCircle
 10
28.8659330493
 20
656.3372084839
 30
0.0
 40
1.000000000000004
100
AcDbArc
 50
282.126872765
 51
0.0
  0
LINE
  5
1EC
330
1F
100
AcDbEntity
  8
0
  6
Continuous
 62
     7
370
    15
100
AcDbLine
 10
-326.8340623015
 20
697.8595241166
 30
0.0
 11
-330.0340717667
 21
697.8595241166
 31
0.0
  0
LINE
  5
1ED
330
1F
100
AcDbEntity
  8
0
  6
Continuous
 62
     7
370
    15
100
AcDbLine
 10
-330.0340717667
 20
612.8595232225
 30
0.0
 11
-326.8340623015
 21
612.8595232225
 31
0.0
  0
LINE
  5
1EE
330
1F
100
AcDbEntity
  8
0
  6
Continuous
 62
     7
370
    15
100
AcDbLine
 10
-173.8340670252
 20
848.3595273651
 30
0.0
 11
-173.8340670252
 21
835.3595308221
 31
0.0
  0
LINE
  5
1EF
330
1F
100
AcDbEntity
  8
0
  6
Continuous
 62
     7
370
    15
100
AcDbLine
 10
-138.8340668761
 20
835.3595308221
 30
0.0
 11
-138.8340668761
 21
848.3595273651
 31
0.0
  0
LINE
  5
1F0
330
1F
100
AcDbEntity
  8
0
  6
Continuous
 62
     7
370
    15
100
AcDbLine
 10
-198.8340673977
 20
835.3595308221
 30
0.0
 11
-198.8340673977
 21
827.3595295108
 31
0.0
  0
LINE
  5
1F1
330
1F
100
AcDbEntity
  8
0
  6
Continuous
 62
     7
370
    15
100
AcDbLine
 10
-113.8340665036
 20
827.3595295108
 30
0.0
 11
-113.8340665036
 21
835.3595308221
 31
0.0
  0
LINE
  5
1F2
330
1F
100
AcDbEntity
  8
0
  6
Continuous
 62
     7
370
    15
100
AcDbLine
 10
-82.334065997
 20
473.2595256723
 30
0.0
 11
-105.618434214
 21
473.2595256723
 31
0.0
  0
LINE
  5
1F3
330
1F
100
AcDbEntity
  8
0
  6
Continuous
 62
     7
370
    15
100
AcDbLine
 10
-105.618434214
 20
473.2595256723
 30
0.0
 11
-105.618434214
 21
486.2595222152
 31
0.0
  0
LINE
  5
1F4
330
1F
100
AcDbEntity
  8
0
  6
Continuous
 62
     7
370
    15
100
AcDbLine
 10
-82.334065997
 20
486.2595222152
 30
0.0
 11
-105.618434214
 21
486.2595222152
 31
0.0
  0
LINE
  5
1F5
330
1F
100
AcDbEntity
  8
0
  6
Continuous
 62
     7
370
    15
100
AcDbLine
 10
-105.618434214
 20
473.2595256723
 30
0.0
 11
-151.0497002871
 21
473.2595256723
 31
0.0
  0
LINE
  5
1F6
330
1F
100
AcDbEntity
  8
0
  6
Continuous
 62
     7
370
    15
100
AcDbLine
 10
-151.0497002871
 20
473.2595256723
 30
0.0
 11
-151.0497002871
 21
485.4416719831
 31
0.0
  0
LINE
  5
1F7
330
1F
100
AcDbEntity
  8
0
  6
Continuous
 62
     7
370
    15
100
AcDbLine
 10
-105.618434214
 20
486.2595222152
 30
0.0
 11
-138.8643795633
 21
486.2595222152
 31
0.0
  0
LINE
  5
1F8
330
1F
100
AcDbEntity
  8
0
  6
Continuous
 62
     7
370
    15
100
AcDbLine
 10
-151.0497002871
 20
473.2595256723
 30
0.0
 11
-174.3340661758
 21
473.2595256723
 31
0.0
  0
LINE
  5
1F9
330
1F
100
AcDbEntity
  8
0
  6
Continuous
 62
     7
370
    15
100
AcDbLine
 10
-173.803754338
 20
486.2595222152
 30
0.0
 11
-174.3340661758
 21
486.2595222152
 31
0.0
  0
LINE
  5
1FA
330
1F
100
AcDbEntity
  8
0
  6
Continuous
 62
     7
370
    15
100
AcDbLine
 10
-126.3340676212
 20
437.259527222
 30
0.0
 11
-172.3340677106
 21
437.259527222
 31
0.0
  0
LINE
  5
1FB
330
1F
100
AcDbEntity
  8
0
  6
Continuous
 62
     7
370
    15
100
AcDbLine
 10
-84.3340700501
 20
441.2595204271
 30
0.0
 11
-124.3340654307
 21
441.2595204271
 31
0.0
  0
LINE
  5
1FC
330
1F
100
AcDbEntity
  8
0
  6
Continuous
 62
     7
370
    15
100
AcDbLine
 10
-82.334065997
 20
489.2595282949
 30
0.0
 11
-105.618434214
 21
489.2595282949
 31
0.0
  0
LINE
  5
1FD
330
1F
100
AcDbEntity
  8
0
  6
Continuous
 62
     7
370
    15
100
AcDbLine
 10
-105.618434214
 20
489.2595282949
 30
0.0
 11
-105.618434214
 21
493.100704924
 31
0.0
  0
LINE
  5
1FE
330
1F
100
AcDbEntity
  8
0
  6
Continuous
 62
     7
370
    15
100
AcDbLine
 10
-105.618434214
 20
489.2595282949
 30
0.0
 11
-120.1292334133
 21
489.2595282949
 31
0.0
  0
LINE
  5
1FF
330
1F
100
AcDbEntity
  8
0
  6
Continuous
 62
     7
370
    15
100
AcDbLine
 10
-120.1893595987
 20
825.3595254577
 30
0.0
 11
-117.3309555286
 21
825.3595254577
 31
0.0
  0
LINE
  5
200
330
1F
100
AcDbEntity
  8
0
  6
Continuous
 62
     7
370
    15
100
AcDbLine
 10
-195.3371783727
 20
825.3595254577
 30
0.0
 11
-192.4787743026
 21
825.3595254577
 31
0.0
  0
LINE
  5
201
330
1F
100
AcDbEntity
  8
0
  6
Continuous
 62
     7
370
    15
100
AcDbLine
 10
-326.3340687388
 20
691.5042310215
 30
0.0
 11
-326.3340687388
 21
694.3626350916
 31
0.0
  0
LINE
  5
202
330
1F
100
AcDbEntity
  8
0
  6
Continuous
 62
     7
370
    15
100
AcDbLine
 10
13.6659348375
 20
694.3626350916
 30
0.0
 11
13.6659348375
 21
691.5042310215
 31
0.0
  0
LINE
  5
203
330
1F
100
AcDbEntity
  8
0
  6
Continuous
 62
     7
370
    15
100
AcDbLine
 10
-326.3340687388
 20
616.3564122475
 30
0.0
 11
-326.3340687388
 21
619.2148163176
 31
0.0
  0
LINE
  5
204
330
1F
100
AcDbEntity
  8
0
  6
Continuous
 62
     7
370
    15
100
AcDbLine
 10
13.6659348375
 20
619.2148163176
 30
0.0
 11
13.6659348375
 21
616.3564122475
 31
0.0
  0
LINE
  5
205
330
1F
100
AcDbEntity
  8
0
  6
Continuous
 62
     7
370
    15
100
AcDbLine
 10
-205.7421563202
 20
825.3595254577
 30
0.0
 11
-195.3371783727
 21
825.3595254577
 31
0.0
  0
LINE
  5
206
330
1F
100
AcDbEntity
  8
0
  6
Continuous
 62
     7
370
    15
100
AcDbLine
 10
-117.3309555286
 20
825.3595254577
 30
0.0
 11
-106.9259775811
 21
825.3595254577
 31
0.0
  0
LINE
  5
207
330
1F
100
AcDbEntity
  8
0
  6
Continuous
 62
     7
370
    15
100
AcDbLine
 10
13.6659348375
 20
704.7676130391
 30
0.0
 11
13.6659348375
 21
694.3626350916
 31
0.0
  0
LINE
  5
208
330
1F
100
AcDbEntity
  8
0
  6
Continuous
 62
     7
370
    15
100
AcDbLine
 10
-326.3340687388
 20
694.3626350916
 30
0.0
 11
-326.3340687388
 21
704.7676130391
 31
0.0
  0
LINE
  5
209
330
1F
100
AcDbEntity
  8
0
  6
Continuous
 62
     7
370
    15
100
AcDbLine
 10
-326.3340687388
 20
605.9514343
 30
0.0
 11
-326.3340687388
 21
616.3564122475
 31
0.0
  0
LINE
  5
20A
330
1F
100
AcDbEntity
  8
0
  6
Continuous
 62
     7
370
    15
100
AcDbLine
 10
13.6659348375
 20
616.3564122475
 30
0.0
 11
13.6659348375
 21
605.9514343
 31
0.0
  0
CIRCLE
  5
20B
330
1F
100
AcDbEntity
  8
0
  6
Continuous
 62
     7
370
    15
100
AcDbCircle
 10
-156.3340669507
 20
655.3595236696
 30
0.0
 40
169.9999999999999
  0
SPLINE
  5
20C
330
1F
100
AcDbEntity
  8
0
  6
Continuous
 62
     7
370
    15
100
AcDbSpline
210
0.0
220
0.0
230
1.0
 70
     8
 71
     3
 72
     9
 73
     5
 74
     0
 42
0.00000001
 43
0.00000001
 12
1.0
 22
0.0
 32
0.0
 13
1.0
 23
0.0
 33
0.0
 40
0.0
 40
0.0
 40
0.0
 40
0.0
 40
0.7406514169536317
 40
1.0
 40
1.0
 40
1.0
 40
1.0
 10
-108.4936505192237
 20
818.4892109788342
 30
0.0
 10
-108.533153311145
 20
818.5295343372235
 30
0.0
 10
-108.5864885117765
 20
818.5839774361853
 30
0.0
 10
-108.5314203295793
 20
818.7574211923952
 30
0.0
 10
-108.5171384745555
 20
818.8024035848065
 30
0.0
  0
SPLINE
  5
20D
330
1F
100
AcDbEntity
  8
0
  6
Continuous
 62
     7
370
    15
100
AcDbSpline
210
0.0
220
0.0
230
1.0
 70
     8
 71
     3
 72
     9
 73
     5
 74
     0
 42
0.00000001
 43
0.00000001
 12
1.0
 22
0.0
 32
0.0
 13
1.0
 23
0.0
 33
0.0
 40
0.0
 40
0.0
 40
0.0
 40
0.0
 40
0.7406450515850542
 40
1.0
 40
1.0
 40
1.0
 40
1.0
 10
-93.38884260592035
 20
813.593315259306
 30
0.0
 10
-93.43720361197475
 20
813.4851508239688
 30
0.0
 10
-93.50249940508232
 20
813.3391099706533
 30
0.0
 10
-93.58005023253686
 20
813.3564731321242
 30
0.0
 10
-93.6001634233909
 20
813.3609763539715
 30
0.0
  0
SPLINE
  5
20E
330
1F
100
AcDbEntity
  8
0
  6
Continuous
 62
     7
370
    15
100
AcDbSpline
210
0.0
220
0.0
230
1.0
 70
     8
 71
     3
 72
    11
 73
     7
 74
     0
 42
0.00000001
 43
0.00000001
 12
1.0
 22
0.0
 32
0.0
 13
1.0
 23
0.0
 33
0.0
 40
0.0
 40
0.0
 40
0.0
 40
0.0
 40
0.2552649404738942
 40
0.4764542940080144
 40
0.8282849527631319
 40
1.0
 40
1.0
 40
1.0
 40
1.0
 10
-92.57206525740197
 20
815.9654013074322
 30
0.0
 10
-92.66173848386529
 20
815.7049683560075
 30
0.0
 10
-92.82911436292913
 20
815.2188679233466
 30
0.0
 10
-93.08528631227003
 20
814.4748989122111
 30
0.0
 10
-93.27621366616829
 20
813.9203791654652
 30
0.0
 10
-93.36102558386071
 20
813.6740932894693
 30
0.0
 10
-93.38884260592035
 20
813.593315259306
 30
0.0
  0
SPLINE
  5
20F
330
1F
100
AcDbEntity
  8
0
  6
Continuous
 62
     7
370
    15
100
AcDbSpline
210
0.0
220
0.0
230
1.0
 70
     8
 71
     3
 72
    11
 73
     7
 74
     0
 42
0.00000001
 43
0.00000001
 12
1.0
 22
0.0
 32
0.0
 13
1.0
 23
0.0
 33
0.0
 40
0.0
 40
0.0
 40
0.0
 40
0.0
 40
0.2680445352160556
 40
0.5368672551079033
 40
0.7897181841343115
 40
1.0
 40
1.0
 40
1.0
 40
1.0
 10
-57.23637547430565
 20
513.7986264384671
 30
0.0
 10
-57.32568202708106
 20
514.2187756459822
 30
0.0
 10
-57.50455440667663
 20
515.0602938347139
 30
0.0
 10
-57.71559065778906
 20
516.0531499637302
 30
0.0
 10
-57.84741376424744
 20
516.673317768879
 30
0.0
 10
-57.86275428469362
 20
516.7454820842574
 30
0.0
 10
-57.86971952852775
 20
516.7782477296277
 30
0.0
  0
SPLINE
  5
210
330
1F
100
AcDbEntity
  8
0
  6
Continuous
 62
     7
370
    15
100
AcDbSpline
210
0.0
220
0.0
230
1.0
 70
     8
 71
     3
 72
    11
 73
     7
 74
     0
 42
0.00000001
 43
0.00000001
 12
1.0
 22
0.0
 32
0.0
 13
1.0
 23
0.0
 33
0.0
 40
0.0
 40
0.0
 40
0.0
 40
0.0
 40
0.3044570164800762
 40
0.5240955941102445
 40
0.8765627746975434
 40
1.0
 40
1.0
 40
1.0
 40
1.0
 10
-108.5171384745555
 20
818.8024035848065
 30
0.0
 10
-108.4641877706448
 20
818.9561858112193
 30
0.0
 10
-108.373037857447
 20
819.2209081955058
 30
0.0
 10
-108.1377908952545
 20
819.9040913327026
 30
0.0
 10
-107.9117066180024
 20
820.5606771294001
 30
0.0
 10
-107.7438887232382
 20
821.0480720634719
 30
0.0
 10
-107.7003611260372
 20
821.1744896329327
 30
0.0
  0
SPLINE
  5
211
330
1F
100
AcDbEntity
  8
0
  6
Continuous
 62
     7
370
    15
100
AcDbSpline
210
0.0
220
0.0
230
1.0
 70
     8
 71
     3
 72
    12
 73
     8
 74
     0
 42
0.00000001
 43
0.00000001
 12
1.0
 22
0.0
 32
0.0
 13
1.0
 23
0.0
 33
0.0
 40
0.0
 40
0.0
 40
0.0
 40
0.0
 40
0.2228577376109539
 40
0.4454712116211131
 40
0.6758071299410334
 40
0.9241541222210321
 40
1.0
 40
1.0
 40
1.0
 40
1.0
 10
-189.9196414285617
 20
488.7101671851559
 30
0.0
 10
-189.9118520210441
 20
488.6735183917849
 30
0.0
 10
-189.8962817436021
 20
488.600260974015
 30
0.0
 10
-189.77619060067
 20
488.0352767984978
 30
0.0
 10
-189.5969338959851
 20
487.1919415609772
 30
0.0
 10
-189.4205680811946
 20
486.3621917261452
 30
0.0
 10
-189.3117606453392
 20
485.8503036245746
 30
0.0
 10
-189.2863048249202
 20
485.7305458939953
 30
0.0
  0
ARC
  5
212
330
1F
100
AcDbEntity
  8
0
  6
Continuous
 62
     7
370
    15
100
AcDbCircle
 10
-156.3340669507
 20
655.3595236696
 30
0.0
 40
173.8000000000001
100
AcDbArc
 50
304.8535769231
 51
68.3617476901
  0
SPLINE
  5
213
330
1F
100
AcDbEntity
  8
0
  6
Continuous
 62
     7
370
    15
100
AcDbSpline
210
0.0
220
0.0
230
1.0
 70
     8
 71
     3
 72
    12
 73
     8
 74
     0
 42
0.00000001
 43
0.00000001
 12
1.0
 22
0.0
 32
0.0
 13
1.0
 23
0.0
 33
0.0
 40
0.0
 40
0.0
 40
0.0
 40
0.0
 40
0.2268846579638455
 40
0.4733078426252272
 40
0.6277173998931944
 40
0.8735048819099112
 40
1.0
 40
1.0
 40
1.0
 40
1.0
 10
-92.57206525740197
 20
815.9654013074322
 30
0.0
 10
-92.53151689840061
 20
816.0831588313432
 30
0.0
 10
-92.44692829512893
 20
816.3288147522652
 30
0.0
 10
-92.35508064787673
 20
816.5955515946142
 30
0.0
 10
-92.28572384679948
 20
816.7970139283985
 30
0.0
 10
-92.25094013967552
 20
816.8980105035674
 30
0.0
 10
-92.2473626337353
 20
816.9083946985722
 30
0.0
 10
-92.24614705977014
 20
816.9119230664654
 30
0.0
  0
SPLINE
  5
214
330
1F
100
AcDbEntity
  8
0
  6
Continuous
 62
     7
370
    15
100
AcDbSpline
210
0.0
220
0.0
230
1.0
 70
     8
 71
     3
 72
    11
 73
     7
 74
     0
 42
0.00000001
 43
0.00000001
 12
1.0
 22
0.0
 32
0.0
 13
1.0
 23
0.0
 33
0.0
 40
0.0
 40
0.0
 40
0.0
 40
0.0
 40
0.2670417215246096
 40
0.5352536803830514
 40
0.7875011620762153
 40
1.0
 40
1.0
 40
1.0
 40
1.0
 10
-57.23637547430565
 20
513.7986264384671
 30
0.0
 10
-57.2046230126338
 20
513.649239573861
 30
0.0
 10
-57.14097894280808
 20
513.3498111975578
 30
0.0
 10
-57.06584823843229
 20
512.9963424832498
 30
0.0
 10
-57.01868649819441
 20
512.7744447650855
 30
0.0
 10
-57.0131632241688
 20
512.7484784967172
 30
0.0
 10
-57.01063778338006
 20
512.7366057790204
 30
0.0
  0
ARC
  5
215
330
1F
100
AcDbEntity
  8
0
  6
Continuous
 62
     7
370
    15
100
AcDbCircle
 10
-156.3340669507
 20
655.3595236696
 30
0.0
 40
173.8
100
AcDbArc
 50
73.6382523099
 51
259.1464230769
  0
SPLINE
  5
216
330
1F
100
AcDbEntity
  8
0
  6
Continuous
 62
     7
370
    15
100
AcDbSpline
210
0.0
220
0.0
230
1.0
 70
     8
 71
     3
 72
    12
 73
     8
 74
     0
 42
0.00000001
 43
0.00000001
 12
1.0
 22
0.0
 32
0.0
 13
1.0
 23
0.0
 33
0.0
 40
0.0
 40
0.0
 40
0.0
 40
0.0
 40
0.2190578677191966
 40
0.3724775527474984
 40
0.6185673886959635
 40
0.8646425426907534
 40
1.0
 40
1.0
 40
1.0
 40
1.0
 10
-107.3744466536956
 20
822.1210113919659
 30
0.0
 10
-107.3779435418611
 20
822.110850845023
 30
0.0
 10
-107.3838895156792
 20
822.0935742427293
 30
0.0
 10
-107.4308417815974
 20
821.9572475982362
 30
0.0
 10
-107.5068987281299
 20
821.7363289153767
 30
0.0
 10
-107.6075905800151
 20
821.4439219507851
 30
0.0
 10
-107.67606270007
 20
821.2450592426763
 30
0.0
 10
-107.7003611260372
 20
821.1744896329327
 30
0.0
  0
SPLINE
  5
217
330
1F
100
AcDbEntity
  8
0
  6
Continuous
 62
     7
370
    15
100
AcDbSpline
210
0.0
220
0.0
230
1.0
 70
     8
 71
     3
 72
    12
 73
     8
 74
     0
 42
0.00000001
 43
0.00000001
 12
1.0
 22
0.0
 32
0.0
 13
1.0
 23
0.0
 33
0.0
 40
0.0
 40
0.0
 40
0.0
 40
0.0
 40
0.2234869367013389
 40
0.446819383150433
 40
0.6774356409061372
 40
0.9253069282477403
 40
0.9999999999999999
 40
0.9999999999999999
 40
0.9999999999999999
 40
0.9999999999999999
 10
-189.0605671339946
 20
484.6685252345486
 30
0.0
 10
-189.0633471490065
 20
484.6816066425719
 30
0.0
 10
-189.0689052572838
 20
484.7077604158077
 30
0.0
 10
-189.1118342307016
 20
484.9097254423527
 30
0.0
 10
-189.1758917806898
 20
485.2111006062211
 30
0.0
 10
-189.2387218782709
 20
485.5066885085928
 30
0.0
 10
-189.2773581919002
 20
485.6884558172546
 30
0.0
 10
-189.2863048249202
 20
485.7305458939953
 30
0.0
  0
CIRCLE
  5
218
330
1F
100
AcDbEntity
  8
0
  6
Continuous
 62
     7
370
    15
100
AcDbCircle
 10
-10.5805083872
 20
541.4257702595
 30
0.0
 40
4.000000000000115
  0
LINE
  5
219
330
1F
100
AcDbEntity
  8
0
  6
Continuous
 62
     7
370
    15
100
AcDbLine
 10
-14.0386169785
 20
541.9257677353
 30
0.0
 11
-14.0386169785
 21
540.9257731594
 31
0.0
  0
SPLINE
  5
21A
330
1F
100
AcDbEntity
  8
0
  6
Continuous
 62
     7
370
    15
100
AcDbSpline
210
0.0
220
0.0
230
1.0
 70
    24
 71
     3
 72
    10
 73
     6
 74
     0
 42
0.00000001
 43
0.00000001
 12
1.0
 22
0.0
 32
0.0
 13
1.0
 23
0.0
 33
0.0
 40
0.0
 40
0.0
 40
0.0
 40
0.0
 40
0.3971551627464459
 40
0.7941270068958134
 40
0.9999999999999999
 40
0.9999999999999999
 40
0.9999999999999999
 40
0.9999999999999999
 10
-14.03861697849798
 20
540.9257731593533
 30
0.0
 10
-13.87026766179542
 20
540.9257731593533
 30
0.0
 10
-13.53364673494786
 20
540.9257731593533
 30
0.0
 10
-12.97623380880553
 20
540.9257731593533
 30
0.0
 10
-12.63390569597642
 20
540.9257731593533
 30
0.0
 10
-12.51699980434945
 20
540.9257731593533
 30
0.0
  0
SPLINE
  5
21B
330
1F
100
AcDbEntity
  8
0
  6
Continuous
 62
     7
370
    15
100
AcDbSpline
210
0.0
220
0.0
230
1.0
 70
    24
 71
     3
 72
    10
 73
     6
 74
     0
 42
0.00000001
 43
0.00000001
 12
1.0
 22
0.0
 32
0.0
 13
1.0
 23
0.0
 33
0.0
 40
0.0
 40
0.0
 40
0.0
 40
0.0
 40
0.4119477543375938
 40
0.8219666491244644
 40
1.0
 40
1.0
 40
1.0
 40
1.0
 10
-11.08051296410134
 20
539.4892788685246
 30
0.0
 10
-11.08051296410137
 20
539.2543784281178
 30
0.0
 10
-11.08051296410131
 20
538.7856774196861
 30
0.0
 10
-11.08051296410128
 20
538.2738993134116
 30
0.0
 10
-11.08051296410137
 20
538.0388236224906
 30
0.0
 10
-11.08051296410134
 20
537.9676542437954
 30
0.0
  0
LINE
  5
21C
330
1F
100
AcDbEntity
  8
0
  6
Continuous
 62
     7
370
    15
100
AcDbLine
 10
-11.0805129641
 20
537.9676542438
 30
0.0
 11
-10.0805109375
 21
537.9676542438
 31
0.0
  0
SPLINE
  5
21D
330
1F
100
AcDbEntity
  8
0
  6
Continuous
 62
     7
370
    15
100
AcDbSpline
210
0.0
220
0.0
230
1.0
 70
    24
 71
     3
 72
    10
 73
     6
 74
     0
 42
0.00000001
 43
0.00000001
 12
1.0
 22
0.0
 32
0.0
 13
1.0
 23
0.0
 33
0.0
 40
0.0
 40
0.0
 40
0.0
 40
0.0
 40
0.3971608446820787
 40
0.7941232618021328
 40
1.0
 40
1.0
 40
1.0
 40
1.0
 10
-10.08051093754342
 20
537.9676542437954
 30
0.0
 10
-10.08051093754339
 20
538.136008933599
 30
0.0
 10
-10.08051093754336
 20
538.472634200658
 30
0.0
 10
-10.08051093754347
 20
539.0300440083837
 30
0.0
 10
-10.08051093754339
 20
539.3723703524058
 30
0.0
 10
-10.08051093754342
 20
539.4892788685246
 30
0.0
  0
SPLINE
  5
21E
330
1F
100
AcDbEntity
  8
0
  6
Continuous
 62
     7
370
    15
100
AcDbSpline
210
0.0
220
0.0
230
1.0
 70
    24
 71
     3
 72
    10
 73
     6
 74
     0
 42
0.00000001
 43
0.00000001
 12
1.0
 22
0.0
 32
0.0
 13
1.0
 23
0.0
 33
0.0
 40
0.0
 40
0.0
 40
0.0
 40
0.0
 40
0.4119546550284572
 40
0.8219642306047416
 40
1.0
 40
1.0
 40
1.0
 40
1.0
 10
-8.644024097295311
 20
540.9257731593533
 30
0.0
 10
-8.409117756887241
 20
540.9257731593533
 30
0.0
 10
-7.940414206627944
 20
540.9257731593533
 30
0.0
 10
-7.428642756377446
 20
540.9257731593533
 30
0.0
 10
-7.193564100376221
 20
540.9257731593533
 30
0.0
 10
-7.122392021985529
 20
540.9257731593533
 30
0.0
  0
LINE
  5
21F
330
1F
100
AcDbEntity
  8
0
  6
Continuous
 62
     7
370
    15
100
AcDbLine
 10
-7.122392022
 20
540.9257731594
 30
0.0
 11
-7.122392022
 21
541.9257677353
 31
0.0
  0
SPLINE
  5
220
330
1F
100
AcDbEntity
  8
0
  6
Continuous
 62
     7
370
    15
100
AcDbSpline
210
0.0
220
0.0
230
1.0
 70
    24
 71
     3
 72
    10
 73
     6
 74
     0
 42
0.00000001
 43
0.00000001
 12
1.0
 22
0.0
 32
0.0
 13
1.0
 23
0.0
 33
0.0
 40
0.0
 40
0.0
 40
0.0
 40
0.0
 40
0.3971591160950372
 40
0.7941198054916782
 40
1.0
 40
1.0
 40
1.0
 40
1.0
 10
-7.122392021985558
 20
541.9257677353306
 30
0.0
 10
-7.290746712969809
 20
541.9257677353306
 30
0.0
 10
-7.627371982389636
 20
541.9257677353306
 30
0.0
 10
-8.184784201314354
 20
541.9257677353306
 30
0.0
 10
-8.52711308602791
 20
541.9257677353306
 30
0.0
 10
-8.644024097295311
 20
541.9257677353306
 30
0.0
  0
SPLINE
  5
221
330
1F
100
AcDbEntity
  8
0
  6
Continuous
 62
     7
370
    15
100
AcDbSpline
210
0.0
220
0.0
230
1.0
 70
    24
 71
     3
 72
    10
 73
     6
 74
     0
 42
0.00000001
 43
0.00000001
 12
1.0
 22
0.0
 32
0.0
 13
1.0
 23
0.0
 33
0.0
 40
0.0
 40
0.0
 40
0.0
 40
0.0
 40
0.4119477543375938
 40
0.8219666491244644
 40
1.0
 40
1.0
 40
1.0
 40
1.0
 10
-10.08051093754342
 20
543.3622620261593
 30
0.0
 10
-10.08051093754345
 20
543.5971624665663
 30
0.0
 10
-10.08051093754342
 20
544.0658634749979
 30
0.0
 10
-10.08051093754336
 20
544.5776415812725
 30
0.0
 10
-10.08051093754342
 20
544.8127172721934
 30
0.0
 10
-10.08051093754342
 20
544.8838866508885
 30
0.0
  0
LINE
  5
222
330
1F
100
AcDbEntity
  8
0
  6
Continuous
 62
     7
370
    15
100
AcDbLine
 10
-10.0805109375
 20
544.8838866509
 30
0.0
 11
-11.0805129641
 21
544.8838866509
 31
0.0
  0
SPLINE
  5
223
330
1F
100
AcDbEntity
  8
0
  6
Continuous
 62
     7
370
    15
100
AcDbSpline
210
0.0
220
0.0
230
1.0
 70
    24
 71
     3
 72
    10
 73
     6
 74
     0
 42
0.00000001
 43
0.00000001
 12
1.0
 22
0.0
 32
0.0
 13
1.0
 23
0.0
 33
0.0
 40
0.0
 40
0.0
 40
0.0
 40
0.0
 40
0.3971608446820787
 40
0.7941232618021328
 40
1.0
 40
1.0
 40
1.0
 40
1.0
 10
-11.08051296410134
 20
544.8838866508885
 30
0.0
 10
-11.08051296410131
 20
544.7155319610849
 30
0.0
 10
-11.08051296410131
 20
544.3789066940259
 30
0.0
 10
-11.08051296410137
 20
543.8214968863003
 30
0.0
 10
-11.08051296410134
 20
543.4791705422781
 30
0.0
 10
-11.08051296410134
 20
543.3622620261593
 30
0.0
  0
SPLINE
  5
224
330
1F
100
AcDbEntity
  8
0
  6
Continuous
 62
     7
370
    15
100
AcDbSpline
210
0.0
220
0.0
230
1.0
 70
    24
 71
     3
 72
    10
 73
     6
 74
     0
 42
0.00000001
 43
0.00000001
 12
1.0
 22
0.0
 32
0.0
 13
1.0
 23
0.0
 33
0.0
 40
0.0
 40
0.0
 40
0.0
 40
0.0
 40
0.4119490555545057
 40
0.821969245465611
 40
0.9999999999999999
 40
0.9999999999999999
 40
0.9999999999999999
 40
0.9999999999999999
 10
-12.51699980434945
 20
541.9257677353306
 30
0.0
 10
-12.75189996656093
 20
541.9257677353306
 30
0.0
 10
-13.22060041990422
 20
541.9257677353306
 30
0.0
 10
-13.73238027672316
 20
541.9257677353306
 30
0.0
 10
-13.96745022023227
 20
541.9257677353306
 30
0.0
 10
-14.03861697849801
 20
541.9257677353306
 30
0.0
  0
LINE
  5
225
330
1F
100
AcDbEntity
  8
0
  6
Continuous
 62
     7
370
    15
100
AcDbLine
 10
-8.6440240973
 20
541.9257677353
 30
0.0
 11
-10.0805109375
 21
541.9257677353
 31
0.0
  0
LINE
  5
226
330
1F
100
AcDbEntity
  8
0
  6
Continuous
 62
     7
370
    15
100
AcDbLine
 10
-10.0805109375
 20
541.9257677353
 30
0.0
 11
-10.0805109375
 21
543.3622620262
 31
0.0
  0
LINE
  5
227
330
1F
100
AcDbEntity
  8
0
  6
Continuous
 62
     7
370
    15
100
AcDbLine
 10
-10.0805109375
 20
539.4892788685
 30
0.0
 11
-10.0805109375
 21
540.9257731594
 31
0.0
  0
LINE
  5
228
330
1F
100
AcDbEntity
  8
0
  6
Continuous
 62
     7
370
    15
100
AcDbLine
 10
-10.0805109375
 20
540.9257731594
 30
0.0
 11
-8.6440240973
 21
540.9257731594
 31
0.0
  0
LINE
  5
229
330
1F
100
AcDbEntity
  8
0
  6
Continuous
 62
     7
370
    15
100
AcDbLine
 10
-12.5169998043
 20
540.9257731594
 30
0.0
 11
-11.0805129641
 21
540.9257731594
 31
0.0
  0
LINE
  5
22A
330
1F
100
AcDbEntity
  8
0
  6
Continuous
 62
     7
370
    15
100
AcDbLine
 10
-11.0805129641
 20
540.9257731594
 30
0.0
 11
-11.0805129641
 21
539.4892788685
 31
0.0
  0
LINE
  5
22B
330
1F
100
AcDbEntity
  8
0
  6
Continuous
 62
     7
370
    15
100
AcDbLine
 10
-11.0805129641
 20
543.3622620262
 30
0.0
 11
-11.0805129641
 21
541.9257677353
 31
0.0
  0
LINE
  5
22C
330
1F
100
AcDbEntity
  8
0
  6
Continuous
 62
     7
370
    15
100
AcDbLine
 10
-11.0805129641
 20
541.9257677353
 30
0.0
 11
-12.5169998043
 21
541.9257677353
 31
0.0
  0
CIRCLE
  5
22D
330
1F
100
AcDbEntity
  8
0
  6
Continuous
 62
     7
370
    15
100
AcDbCircle
 10
-10.5805083872
 20
541.4257702595
 30
0.0
 40
4.500000000000142
  0
LINE
  5
22E
330
1F
100
AcDbEntity
  8
0
  6
Continuous
 62
     7
370
    15
100
AcDbLine
 10
-195.3340677553
 20
842.3595301069
 30
0.0
 11
-195.3340677553
 21
835.3595308221
 31
0.0
  0
LINE
  5
22F
330
1F
100
AcDbEntity
  8
0
  6
Continuous
 62
     7
370
    15
100
AcDbLine
 10
-188.8340657586
 20
842.3595301069
 30
0.0
 11
-188.8340657586
 21
835.3595308221
 31
0.0
  0
LINE
  5
230
330
1F
100
AcDbEntity
  8
0
  6
Continuous
 62
     7
370
    15
100
AcDbLine
 10
-195.3340677553
 20
842.3595301069
 30
0.0
 11
-188.8340657586
 21
842.3595301069
 31
0.0
  0
LINE
  5
231
330
1F
100
AcDbEntity
  8
0
  6
Continuous
 62
     7
370
    15
100
AcDbLine
 10
-182.3340674871
 20
842.3595301069
 30
0.0
 11
-182.3340674871
 21
835.3595308221
 31
0.0
  0
LINE
  5
232
330
1F
100
AcDbEntity
  8
0
  6
Continuous
 62
     7
370
    15
100
AcDbLine
 10
-188.8340657586
 20
842.3595301069
 30
0.0
 11
-182.3340674871
 21
842.3595301069
 31
0.0
  0
LINE
  5
233
330
1F
100
AcDbEntity
  8
0
  6
Continuous
 62
     7
370
    15
100
AcDbLine
 10
-337.0340710515
 20
616.4816118039
 30
0.0
 11
-330.0340717667
 21
616.4816118039
 31
0.0
  0
LINE
  5
234
330
1F
100
AcDbEntity
  8
0
  6
Continuous
 62
     7
370
    15
100
AcDbLine
 10
-337.0340710515
 20
623.0971834815
 30
0.0
 11
-330.0340717667
 21
623.0971834815
 31
0.0
  0
LINE
  5
235
330
1F
100
AcDbEntity
  8
0
  6
Continuous
 62
     7
370
    15
100
AcDbLine
 10
-337.0340710515
 20
616.4816118039
 30
0.0
 11
-337.0340710515
 21
623.0971834815
 31
0.0
  0
LINE
  5
236
330
1F
100
AcDbEntity
  8
0
  6
Continuous
 62
     7
370
    15
100
AcDbLine
 10
-337.0340710515
 20
629.4750946767
 30
0.0
 11
-330.0340717667
 21
629.4750946767
 31
0.0
  0
LINE
  5
237
330
1F
100
AcDbEntity
  8
0
  6
Continuous
 62
     7
370
    15
100
AcDbLine
 10
-337.0340710515
 20
623.0971834815
 30
0.0
 11
-337.0340710515
 21
629.4750946767
 31
0.0
  0
LINE
  5
238
330
1F
100
AcDbEntity
  8
0
  6
Continuous
 62
     7
370
    15
100
AcDbLine
 10
-337.0340710515
 20
616.243953184
 30
0.0
 11
-330.0340717667
 21
616.243953184
 31
0.0
  0
LINE
  5
239
330
1F
100
AcDbEntity
  8
0
  6
Continuous
 62
     7
370
    15
100
AcDbLine
 10
-337.0340710515
 20
616.243953184
 30
0.0
 11
-337.0340710515
 21
616.4816118039
 31
0.0
  0
LINE
  5
23A
330
1F
100
AcDbEntity
  8
0
  6
Continuous
 62
     7
370
    15
100
AcDbLine
 10
-337.0340710515
 20
682.2704526789
 30
0.0
 11
-330.0340717667
 21
682.2704526789
 31
0.0
  0
LINE
  5
23B
330
1F
100
AcDbEntity
  8
0
  6
Continuous
 62
     7
370
    15
100
AcDbLine
 10
-337.0340710515
 20
689.4033870853
 30
0.0
 11
-330.0340717667
 21
689.4033870853
 31
0.0
  0
LINE
  5
23C
330
1F
100
AcDbEntity
  8
0
  6
Continuous
 62
     7
370
    15
100
AcDbLine
 10
-337.0340710515
 20
682.2704526789
 30
0.0
 11
-337.0340710515
 21
689.4033870853
 31
0.0
  0
LINE
  5
23D
330
1F
100
AcDbEntity
  8
0
  6
Continuous
 62
     7
370
    15
100
AcDbLine
 10
-337.0340710515
 20
694.9924587465
 30
0.0
 11
-330.0340717667
 21
694.9924587465
 31
0.0
  0
LINE
  5
23E
330
1F
100
AcDbEntity
  8
0
  6
Continuous
 62
     7
370
    15
100
AcDbLine
 10
-337.0340710515
 20
689.4033870853
 30
0.0
 11
-337.0340710515
 21
694.9924587465
 31
0.0
  0
LINE
  5
23F
330
1F
100
AcDbEntity
  8
0
  6
Continuous
 62
     7
370
    15
100
AcDbLine
 10
-337.0340710515
 20
680.7265880711
 30
0.0
 11
-330.0340717667
 21
680.7265880711
 31
0.0
  0
LINE
  5
240
330
1F
100
AcDbEntity
  8
0
  6
Continuous
 62
     7
370
    15
100
AcDbLine
 10
-337.0340710515
 20
680.7265880711
 30
0.0
 11
-337.0340710515
 21
682.2704526789
 31
0.0
  0
LINE
  5
241
330
1F
100
AcDbEntity
  8
0
  6
Continuous
 62
     7
370
    15
100
AcDbLine
 10
24.3659371501
 20
626.7402491725
 30
0.0
 11
17.3659378654
 21
626.7402491725
 31
0.0
  0
LINE
  5
242
330
1F
100
AcDbEntity
  8
0
  6
Continuous
 62
     7
370
    15
100
AcDbLine
 10
24.3659371501
 20
626.7402491725
 30
0.0
 11
24.3659371501
 21
619.2361659563
 31
0.0
  0
LINE
  5
243
330
1F
100
AcDbEntity
  8
0
  6
Continuous
 62
     7
370
    15
100
AcDbLine
 10
24.3659371501
 20
619.2361659563
 30
0.0
 11
17.3659378654
 21
619.2361659563
 31
0.0
  0
LINE
  5
244
330
1F
100
AcDbEntity
  8
0
  6
Continuous
 62
     7
370
    15
100
AcDbLine
 10
24.3659371501
 20
615.3554416455
 30
0.0
 11
17.3659378654
 21
615.3554416455
 31
0.0
  0
LINE
  5
245
330
1F
100
AcDbEntity
  8
0
  6
Continuous
 62
     7
370
    15
100
AcDbLine
 10
24.3659371501
 20
619.2361659563
 30
0.0
 11
24.3659371501
 21
615.3554416455
 31
0.0
  0
LINE
  5
246
330
1F
100
AcDbEntity
  8
0
  6
Continuous
 62
     7
370
    15
100
AcDbLine
 10
24.3659371501
 20
630.3636062152
 30
0.0
 11
17.3659378654
 21
630.3636062152
 31
0.0
  0
LINE
  5
247
330
1F
100
AcDbEntity
  8
0
  6
Continuous
 62
     7
370
    15
100
AcDbLine
 10
24.3659371501
 20
630.3636062152
 30
0.0
 11
24.3659371501
 21
626.7402491725
 31
0.0
  0
LINE
  5
248
330
1F
100
AcDbEntity
  8
0
  6
Continuous
 62
     7
370
    15
100
AcDbLine
 10
24.3659371501
 20
694.3595244742
 30
0.0
 11
17.3659378654
 21
694.3595244742
 31
0.0
  0
LINE
  5
249
330
1F
100
AcDbEntity
  8
0
  6
Continuous
 62
     7
370
    15
100
AcDbLine
 10
24.3659371501
 20
694.3595244742
 30
0.0
 11
24.3659371501
 21
687.8595224775
 31
0.0
  0
LINE
  5
24A
330
1F
100
AcDbEntity
  8
0
  6
Continuous
 62
     7
370
    15
100
AcDbLine
 10
24.3659371501
 20
687.8595224775
 30
0.0
 11
17.3659378654
 21
687.8595224775
 31
0.0
  0
LINE
  5
24B
330
1F
100
AcDbEntity
  8
0
  6
Continuous
 62
     7
370
    15
100
AcDbLine
 10
24.3659371501
 20
681.359524206
 30
0.0
 11
17.3659378654
 21
681.359524206
 31
0.0
  0
LINE
  5
24C
330
1F
100
AcDbEntity
  8
0
  6
Continuous
 62
     7
370
    15
100
AcDbLine
 10
24.3659371501
 20
687.8595224775
 30
0.0
 11
24.3659371501
 21
681.359524206
 31
0.0
  0
LINE
  5
24D
330
1F
100
AcDbEntity
  8
0
  6
Continuous
 62
     7
370
    15
100
AcDbLine
 10
-130.3340664142
 20
842.3595301069
 30
0.0
 11
-130.3340664142
 21
835.3595308221
 31
0.0
  0
LINE
  5
24E
330
1F
100
AcDbEntity
  8
0
  6
Continuous
 62
     7
370
    15
100
AcDbLine
 10
-130.3340664142
 20
842.3595301069
 30
0.0
 11
-123.8340681427
 21
842.3595301069
 31
0.0
  0
LINE
  5
24F
330
1F
100
AcDbEntity
  8
0
  6
Continuous
 62
     7
370
    15
100
AcDbLine
 10
-123.8340681427
 20
842.3595301069
 30
0.0
 11
-123.8340681427
 21
835.3595308221
 31
0.0
  0
LINE
  5
250
330
1F
100
AcDbEntity
  8
0
  6
Continuous
 62
     7
370
    15
100
AcDbLine
 10
-117.334066146
 20
842.3595301069
 30
0.0
 11
-117.334066146
 21
835.3595308221
 31
0.0
  0
LINE
  5
251
330
1F
100
AcDbEntity
  8
0
  6
Continuous
 62
     7
370
    15
100
AcDbLine
 10
-123.8340681427
 20
842.3595301069
 30
0.0
 11
-117.334066146
 21
842.3595301069
 31
0.0
  0
LINE
  5
252
330
1F
100
AcDbEntity
  8
0
  6
Continuous
 62
     7
370
    15
100
AcDbLine
 10
-149.3340667346
 20
466.2595263875
 30
0.0
 11
-149.3340667346
 21
473.2595256723
 31
0.0
  0
LINE
  5
253
330
1F
100
AcDbEntity
  8
0
  6
Continuous
 62
     7
370
    15
100
AcDbLine
 10
-149.3340667346
 20
466.2595263875
 30
0.0
 11
-155.8340669269
 21
466.2595263875
 31
0.0
  0
LINE
  5
254
330
1F
100
AcDbEntity
  8
0
  6
Continuous
 62
     7
370
    15
100
AcDbLine
 10
-155.8340669269
 20
466.2595263875
 30
0.0
 11
-155.8340669269
 21
473.2595256723
 31
0.0
  0
LINE
  5
255
330
1F
100
AcDbEntity
  8
0
  6
Continuous
 62
     7
370
    15
100
AcDbLine
 10
-142.8340666005
 20
466.2595263875
 30
0.0
 11
-142.8340666005
 21
473.2595256723
 31
0.0
  0
LINE
  5
256
330
1F
100
AcDbEntity
  8
0
  6
Continuous
 62
     7
370
    15
100
AcDbLine
 10
-142.8340666005
 20
466.2595263875
 30
0.0
 11
-149.3340667346
 21
466.2595263875
 31
0.0
  0
LINE
  5
257
330
1F
100
AcDbEntity
  8
0
  6
Continuous
 62
     7
370
    15
100
AcDbLine
 10
-104.3340658778
 20
466.2595263875
 30
0.0
 11
-104.3340658778
 21
473.2595256723
 31
0.0
  0
LINE
  5
258
330
1F
100
AcDbEntity
  8
0
  6
Continuous
 62
     7
370
    15
100
AcDbLine
 10
-104.3340658778
 20
466.2595263875
 30
0.0
 11
-110.8340678745
 21
466.2595263875
 31
0.0
  0
LINE
  5
259
330
1F
100
AcDbEntity
  8
0
  6
Continuous
 62
     7
370
    15
100
AcDbLine
 10
-110.8340678745
 20
466.2595263875
 30
0.0
 11
-110.8340678745
 21
473.2595256723
 31
0.0
  0
LINE
  5
25A
330
1F
100
AcDbEntity
  8
0
  6
Continuous
 62
     7
370
    15
100
AcDbLine
 10
-97.8340676063
 20
466.2595263875
 30
0.0
 11
-97.8340676063
 21
473.2595256723
 31
0.0
  0
LINE
  5
25B
330
1F
100
AcDbEntity
  8
0
  6
Continuous
 62
     7
370
    15
100
AcDbLine
 10
-97.8340676063
 20
466.2595263875
 30
0.0
 11
-104.3340658778
 21
466.2595263875
 31
0.0
  0
LINE
  5
25C
330
1F
100
AcDbEntity
  8
0
  6
Continuous
 62
     7
370
    15
100
AcDbLine
 10
-330.0340717667
 20
664.2201797298
 30
0.0
 11
-330.0340717667
 21
661.254436542
 31
0.0
  0
LINE
  5
25D
330
1F
100
AcDbEntity
  8
0
  6
Continuous
 62
     7
370
    15
100
AcDbLine
 10
-330.0340717667
 20
649.4646107971
 30
0.0
 11
-330.0340717667
 21
646.4988676093
 31
0.0
  0
LINE
  5
25E
330
1F
100
AcDbEntity
  8
0
  6
Continuous
 62
     7
370
    15
100
AcDbLine
 10
-326.8340623015
 20
690.3841144598
 30
0.0
 11
-326.8340623015
 21
689.0669412173
 31
0.0
  0
LINE
  5
25F
330
1F
100
AcDbEntity
  8
0
  6
Continuous
 62
     7
370
    15
100
AcDbLine
 10
-330.0340717667
 20
690.3841144598
 30
0.0
 11
-330.0340717667
 21
664.2201797298
 31
0.0
  0
LINE
  5
260
330
1F
100
AcDbEntity
  8
0
  6
Continuous
 62
     7
370
    15
100
AcDbLine
 10
-326.8340623015
 20
621.6521061219
 30
0.0
 11
-326.8340623015
 21
620.3349328793
 31
0.0
  0
LINE
  5
261
330
1F
100
AcDbEntity
  8
0
  6
Continuous
 62
     7
370
    15
100
AcDbLine
 10
-330.0340717667
 20
646.4988676093
 30
0.0
 11
-330.0340717667
 21
620.3349328793
 31
0.0
  0
LINE
  5
262
330
1F
100
AcDbEntity
  8
0
  6
Continuous
 62
     7
370
    15
100
AcDbLine
 10
-326.8340623015
 20
697.8595241166
 30
0.0
 11
-326.8340623015
 21
690.3841144598
 31
0.0
  0
LINE
  5
263
330
1F
100
AcDbEntity
  8
0
  6
Continuous
 62
     7
370
    15
100
AcDbLine
 10
-330.0340717667
 20
697.8595241166
 30
0.0
 11
-330.0340717667
 21
690.3841144598
 31
0.0
  0
LINE
  5
264
330
1F
100
AcDbEntity
  8
0
  6
Continuous
 62
     7
370
    15
100
AcDbLine
 10
-326.8340623015
 20
620.3349328793
 30
0.0
 11
-326.8340623015
 21
612.8595232225
 31
0.0
  0
LINE
  5
265
330
1F
100
AcDbEntity
  8
0
  6
Continuous
 62
     7
370
    15
100
AcDbLine
 10
-330.0340717667
 20
620.3349328793
 30
0.0
 11
-330.0340717667
 21
612.8595232225
 31
0.0
  0
LINE
  5
266
330
1F
100
AcDbEntity
  8
0
  6
Continuous
 62
     7
370
    15
100
AcDbLine
 10
17.3659378654
 20
664.2201797298
 30
0.0
 11
17.3659378654
 21
661.254436542
 31
0.0
  0
LINE
  5
267
330
1F
100
AcDbEntity
  8
0
  6
Continuous
 62
     7
370
    15
100
AcDbLine
 10
17.3659378654
 20
649.4646107971
 30
0.0
 11
17.3659378654
 21
646.4988676093
 31
0.0
  0
LINE
  5
268
330
1F
100
AcDbEntity
  8
0
  6
Continuous
 62
     7
370
    15
100
AcDbLine
 10
17.3659378654
 20
690.3841144598
 30
0.0
 11
17.3659378654
 21
664.2201797298
 31
0.0
  0
LINE
  5
269
330
1F
100
AcDbEntity
  8
0
  6
Continuous
 62
     7
370
    15
100
AcDbLine
 10
14.1659284002
 20
690.3841144598
 30
0.0
 11
14.1659284002
 21
689.0669412173
 31
0.0
  0
LINE
  5
26A
330
1F
100
AcDbEntity
  8
0
  6
Continuous
 62
     7
370
    15
100
AcDbLine
 10
17.3659378654
 20
646.4988676093
 30
0.0
 11
17.3659378654
 21
620.3349328793
 31
0.0
  0
LINE
  5
26B
330
1F
100
AcDbEntity
  8
0
  6
Continuous
 62
     7
370
    15
100
AcDbLine
 10
14.1659284002
 20
621.6521061219
 30
0.0
 11
14.1659284002
 21
620.3349328793
 31
0.0
  0
LINE
  5
26C
330
1F
100
AcDbEntity
  8
0
  6
Continuous
 62
     7
370
    15
100
AcDbLine
 10
17.3659378654
 20
697.8595241166
 30
0.0
 11
17.3659378654
 21
690.3841144598
 31
0.0
  0
LINE
  5
26D
330
1F
100
AcDbEntity
  8
0
  6
Continuous
 62
     7
370
    15
100
AcDbLine
 10
14.1659284002
 20
697.8595241166
 30
0.0
 11
14.1659284002
 21
690.3841144598
 31
0.0
  0
LINE
  5
26E
330
1F
100
AcDbEntity
  8
0
  6
Continuous
 62
     7
370
    15
100
AcDbLine
 10
17.3659378654
 20
620.3349328793
 30
0.0
 11
17.3659378654
 21
612.8595232225
 31
0.0
  0
LINE
  5
26F
330
1F
100
AcDbEntity
  8
0
  6
Continuous
 62
     7
370
    15
100
AcDbLine
 10
14.1659284002
 20
620.3349328793
 30
0.0
 11
14.1659284002
 21
612.8595232225
 31
0.0
  0
SPLINE
  5
270
330
1F
100
AcDbEntity
  8
0
  6
Continuous
 62
     7
370
    15
100
AcDbSpline
210
0.0
220
0.0
230
1.0
 70
     8
 71
     3
 72
    11
 73
     7
 74
     0
 42
0.00000001
 43
0.00000001
 12
1.0
 22
0.0
 32
0.0
 13
1.0
 23
0.0
 33
0.0
 40
0.0
 40
0.0
 40
0.0
 40
0.0
 40
0.3159626301488082
 40
0.6359060288973108
 40
0.9747470255920887
 40
1.0
 40
1.0
 40
1.0
 40
1.0
 10
23.86592868628928
 20
639.3882765627785
 30
0.0
 10
23.66177769012487
 20
639.3867361453642
 30
0.0
 10
23.25090362819804
 20
639.3836359030339
 30
0.0
 10
22.7200944840949
 20
639.368637347329
 30
0.0
 10
22.39515511231238
 20
639.356001432509
 30
0.0
 10
22.29984115492087
 20
639.360100976511
 30
0.0
 10
22.29323033156821
 20
639.3603853143139
 30
0.0
  0
SPLINE
  5
271
330
1F
100
AcDbEntity
  8
0
  6
Continuous
 62
     7
370
    15
100
AcDbSpline
210
0.0
220
0.0
230
1.0
 70
     8
 71
     3
 72
    11
 73
     7
 74
     0
 42
0.00000001
 43
0.00000001
 12
1.0
 22
0.0
 32
0.0
 13
1.0
 23
0.0
 33
0.0
 40
0.0
 40
0.0
 40
0.0
 40
0.0
 40
0.3159613791245536
 40
0.6359074704930735
 40
0.9747471255788607
 40
0.9999999999999999
 40
0.9999999999999999
 40
0.9999999999999999
 40
0.9999999999999999
 10
23.86592868628928
 20
671.3307707763596
 30
0.0
 10
23.66177699312619
 20
671.33231121599
 30
0.0
 10
23.25089897013516
 20
671.335411522336
 30
0.0
 10
22.72009911892037
 20
671.3504098574857
 30
0.0
 10
22.39515507470791
 20
671.3630459074647
 30
0.0
 10
22.29984115248182
 20
671.3589463626812
 30
0.0
 10
22.29323033156821
 20
671.3586620248242
 30
0.0
  0
LINE
  5
272
330
1F
100
AcDbEntity
  8
0
  6
Continuous
 62
     7
370
    15
100
AcDbLine
 10
22.8659266597
 20
669.0935998417
 30
0.0
 11
22.8659266597
 21
656.4305026044
 31
0.0
  0
LINE
  5
273
330
1F
100
AcDbEntity
  8
0
  6
Continuous
 62
     7
370
    15
100
AcDbLine
 10
29.8659259445
 20
654.3818388095
 30
0.0
 11
29.8659259445
 21
651.1800767116
 31
0.0
  0
LINE
  5
274
330
1F
100
AcDbEntity
  8
0
  6
Continuous
 62
     7
370
    15
100
AcDbLine
 10
29.8659259445
 20
651.1800767116
 30
0.0
 11
29.8659259445
 21
649.954170753
 31
0.0
  0
LINE
  5
275
330
1F
100
AcDbEntity
  8
0
  6
Continuous
 62
     7
370
    15
100
AcDbLine
 10
22.8659266597
 20
648.9385853715
 30
0.0
 11
22.8659266597
 21
640.4344926781
 31
0.0
  0
LINE
  5
276
330
1F
100
AcDbEntity
  8
0
  6
Continuous
 62
     7
370
    15
100
AcDbLine
 10
29.8659259445
 20
649.954170753
 30
0.0
 11
29.8659259445
 21
645.1020001627
 31
0.0
  0
LINE
  5
277
330
1F
100
AcDbEntity
  8
0
  6
Continuous
 62
     7
370
    15
100
AcDbLine
 10
29.8659259445
 20
669.7873094312
 30
0.0
 11
29.8659259445
 21
664.0136831633
 31
0.0
  0
ARC
  5
278
330
1F
100
AcDbEntity
  8
0
  6
Continuous
 62
     7
370
    15
100
AcDbCircle
 10
28.8668390486
 20
670.3316838948
 30
0.0
 40
0.9990872871019064
100
AcDbArc
 50
0.0507055059
 51
90.0516264798
  0
LINE
  5
279
330
1F
100
AcDbEntity
  8
0
  6
Continuous
 62
     7
370
    15
100
AcDbLine
 10
29.8659259445
 20
670.332568065
 30
0.0
 11
29.8659259445
 21
669.7873094312
 31
0.0
  0
LINE
  5
27A
330
1F
100
AcDbEntity
  8
0
  6
Continuous
 62
     7
370
    15
100
AcDbLine
 10
29.8659259445
 20
645.1020001627
 30
0.0
 11
29.8659259445
 21
640.3864792741
 31
0.0
  0
LINE
  5
27B
330
1F
100
AcDbEntity
  8
0
  6
Continuous
 62
     7
370
    15
100
AcDbLine
 10
29.8659259445
 20
664.0136831633
 30
0.0
 11
29.8659259445
 21
657.8381928343
 31
0.0
  0
LINE
  5
27C
330
1F
100
AcDbEntity
  8
0
  6
Continuous
 62
     7
370
    15
100
AcDbLine
 10
23.8659286863
 20
671.3325682289
 30
0.0
 11
23.8659286863
 21
671.3307707764
 31
0.0
  0
LINE
  5
27D
330
1F
100
AcDbEntity
  8
0
  6
Continuous
 62
     7
370
    15
100
AcDbLine
 10
28.8659388191
 20
671.3307707764
 30
0.0
 11
28.8659388191
 21
671.3325682289
 31
0.0
  0
LINE
  5
27E
330
1F
100
AcDbEntity
  8
0
  6
Continuous
 62
     7
370
    15
100
AcDbLine
 10
29.8659259445
 20
657.8381928343
 30
0.0
 11
29.8659259445
 21
656.3372085297
 31
0.0
  0
LINE
  5
27F
330
1F
100
AcDbEntity
  8
0
  6
Continuous
 62
     7
370
    15
100
AcDbLine
 10
-147.4734108904
 20
835.3595308221
 30
0.0
 11
-165.1947230109
 21
835.3595308221
 31
0.0
  0
LINE
  5
280
330
1F
100
AcDbEntity
  8
0
  6
Continuous
 62
     7
370
    15
100
AcDbLine
 10
-191.3586577409
 20
827.3595295108
 30
0.0
 11
-181.2828147793
 21
827.3595295108
 31
0.0
  0
LINE
  5
281
330
1F
100
AcDbEntity
  8
0
  6
Continuous
 62
     7
370
    15
100
AcDbLine
 10
-165.1947230109
 20
835.3595308221
 30
0.0
 11
-191.3586577409
 21
835.3595308221
 31
0.0
  0
LINE
  5
282
330
1F
100
AcDbEntity
  8
0
  6
Continuous
 62
     7
370
    15
100
AcDbLine
 10
-131.385319122
 20
827.3595295108
 30
0.0
 11
-121.3094761604
 21
827.3595295108
 31
0.0
  0
LINE
  5
283
330
1F
100
AcDbEntity
  8
0
  6
Continuous
 62
     7
370
    15
100
AcDbLine
 10
-121.3094761604
 20
835.3595308221
 30
0.0
 11
-147.4734108904
 21
835.3595308221
 31
0.0
  0
LINE
  5
284
330
1F
100
AcDbEntity
  8
0
  6
Continuous
 62
     7
370
    15
100
AcDbLine
 10
-173.8340670252
 20
848.3595273651
 30
0.0
 11
-138.8340668761
 21
848.3595273651
 31
0.0
  0
LINE
  5
285
330
1F
100
AcDbEntity
  8
0
  6
Continuous
 62
     7
370
    15
100
AcDbLine
 10
-198.8340673977
 20
827.3595295108
 30
0.0
 11
-191.3586577409
 21
827.3595295108
 31
0.0
  0
LINE
  5
286
330
1F
100
AcDbEntity
  8
0
  6
Continuous
 62
     7
370
    15
100
AcDbLine
 10
-191.3586577409
 20
835.3595308221
 30
0.0
 11
-198.8340673977
 21
835.3595308221
 31
0.0
  0
LINE
  5
287
330
1F
100
AcDbEntity
  8
0
  6
Continuous
 62
     7
370
    15
100
AcDbLine
 10
-121.3094761604
 20
827.3595295108
 30
0.0
 11
-113.8340665036
 21
827.3595295108
 31
0.0
  0
LINE
  5
288
330
1F
100
AcDbEntity
  8
0
  6
Continuous
 62
     7
370
    15
100
AcDbLine
 10
-113.8340665036
 20
835.3595308221
 30
0.0
 11
-121.3094761604
 21
835.3595308221
 31
0.0
  0
LINE
  5
289
330
1F
100
AcDbEntity
  8
0
  6
Continuous
 62
     7
370
    15
100
AcDbLine
 10
-196.3340660566
 20
825.3595254577
 30
0.0
 11
-196.3340660566
 21
827.3595295108
 31
0.0
  0
LINE
  5
28A
330
1F
100
AcDbEntity
  8
0
  6
Continuous
 62
     7
370
    15
100
AcDbLine
 10
-191.3586577409
 20
827.3595295108
 30
0.0
 11
-196.3340660566
 21
827.3595295108
 31
0.0
  0
LINE
  5
28B
330
1F
100
AcDbEntity
  8
0
  6
Continuous
 62
     7
370
    15
100
AcDbLine
 10
-116.3340678447
 20
825.3595254577
 30
0.0
 11
-116.3340678447
 21
827.3595295108
 31
0.0
  0
LINE
  5
28C
330
1F
100
AcDbEntity
  8
0
  6
Continuous
 62
     7
370
    15
100
AcDbLine
 10
-116.3340678447
 20
827.3595295108
 30
0.0
 11
-121.3094761604
 21
827.3595295108
 31
0.0
  0
SPLINE
  5
28D
330
1F
100
AcDbEntity
  8
0
  6
Continuous
 62
     7
370
    15
100
AcDbSpline
210
0.0
220
0.0
230
1.0
 70
     8
 71
     3
 72
     9
 73
     5
 74
     0
 42
0.00000001
 43
0.00000001
 12
1.0
 22
0.0
 32
0.0
 13
1.0
 23
0.0
 33
0.0
 40
0.0
 40
0.0
 40
0.0
 40
0.0
 40
0.5626570608477104
 40
1.0
 40
1.0
 40
1.0
 40
1.0
 10
-232.098819875093
 20
823.5609105981274
 30
0.0
 10
-225.887896667435
 20
824.4663715807094
 30
0.0
 10
-214.8493375879478
 20
826.0756306580196
 30
0.0
 10
-203.707062662447
 20
827.0575870517894
 30
0.0
 10
-198.8340673976855
 20
827.48703874716
 30
0.0
  0
SPLINE
  5
28E
330
1F
100
AcDbEntity
  8
0
  6
Continuous
 62
     7
370
    15
100
AcDbSpline
210
0.0
220
0.0
230
1.0
 70
     8
 71
     3
 72
     9
 73
     5
 74
     0
 42
0.00000001
 43
0.00000001
 12
1.0
 22
0.0
 32
0.0
 13
1.0
 23
0.0
 33
0.0
 40
0.0
 40
0.0
 40
0.0
 40
0.0
 40
0.4317114250414837
 40
1.0
 40
1.0
 40
1.0
 40
1.0
 10
-113.9895750218349
 20
827.4950108683987
 30
0.0
 10
-109.1565158437832
 20
827.0732209899629
 30
0.0
 10
-97.96140054752414
 20
826.0962028848819
 30
0.0
 10
-86.87154961127298
 20
824.4796048127946
 30
0.0
 10
-80.56931402620843
 20
823.5609105981274
 30
0.0
  0
SPLINE
  5
28F
330
1F
100
AcDbEntity
  8
0
  6
Continuous
 62
     7
370
    15
100
AcDbSpline
210
0.0
220
0.0
230
1.0
 70
     8
 71
     3
 72
     9
 73
     5
 74
     0
 42
0.00000001
 43
0.00000001
 12
1.0
 22
0.0
 32
0.0
 13
1.0
 23
0.0
 33
0.0
 40
0.0
 40
0.0
 40
0.0
 40
0.0
 40
0.5626570608477104
 40
1.0
 40
1.0
 40
1.0
 40
1.0
 10
-324.5354538792091
 20
579.5947707451268
 30
0.0
 10
-325.4409148617909
 20
585.8056939527848
 30
0.0
 10
-327.0501739391012
 20
596.8442530322719
 30
0.0
 10
-328.032130332871
 20
607.9865279577729
 30
0.0
 10
-328.4615820282417
 20
612.8595232225342
 30
0.0
  0
SPLINE
  5
290
330
1F
100
AcDbEntity
  8
0
  6
Continuous
 62
     7
370
    15
100
AcDbSpline
210
0.0
220
0.0
230
1.0
 70
     8
 71
     3
 72
     9
 73
     5
 74
     0
 42
0.00000001
 43
0.00000001
 12
1.0
 22
0.0
 32
0.0
 13
1.0
 23
0.0
 33
0.0
 40
0.0
 40
0.0
 40
0.0
 40
0.0
 40
0.4871280286679916
 40
1.0
 40
1.0
 40
1.0
 40
1.0
 10
-330.0340717667061
 20
639.3536127365513
 30
0.0
 10
-330.186590060798
 20
644.6106608372717
 30
0.0
 10
-330.499686998597
 20
655.4025836816527
 30
0.0
 10
-330.1919179072832
 20
666.1949652962038
 30
0.0
 10
-330.034071766706
 20
671.730075330226
 30
0.0
  0
SPLINE
  5
291
330
1F
100
AcDbEntity
  8
0
  6
Continuous
 62
     7
370
    15
100
AcDbSpline
210
0.0
220
0.0
230
1.0
 70
     8
 71
     3
 72
     9
 73
     5
 74
     0
 42
0.00000001
 43
0.00000001
 12
1.0
 22
0.0
 32
0.0
 13
1.0
 23
0.0
 33
0.0
 40
0.0
 40
0.0
 40
0.0
 40
0.0
 40
0.4290642814298591
 40
1.0
 40
1.0
 40
1.0
 40
1.0
 10
-328.4546827906089
 20
697.8595241166039
 30
0.0
 10
-328.0371823710098
 20
702.6406371664796
 30
0.0
 10
-327.064133721498
 20
713.7837531442125
 30
0.0
 10
-325.4544689768511
 20
724.8220936980719
 30
0.0
 10
-324.5354538792091
 20
731.1242765940113
 30
0.0
  0
SPLINE
  5
292
330
1F
100
AcDbEntity
  8
0
  6
Continuous
 62
     7
370
    15
100
AcDbSpline
210
0.0
220
0.0
230
1.0
 70
     8
 71
     3
 72
     9
 73
     5
 74
     0
 42
0.00000001
 43
0.00000001
 12
1.0
 22
0.0
 32
0.0
 13
1.0
 23
0.0
 33
0.0
 40
0.0
 40
0.0
 40
0.0
 40
0.0
 40
0.5626570608477104
 40
1.0
 40
1.0
 40
1.0
 40
1.0
 10
11.86731997790763
 20
731.1242765940113
 30
0.0
 10
12.77278096048951
 20
724.9133533863533
 30
0.0
 10
14.38204003779978
 20
713.8747943068662
 30
0.0
 10
15.36399643156955
 20
702.7325193813654
 30
0.0
 10
15.79344812694022
 20
697.8595241166039
 30
0.0
  0
LINE
  5
293
330
1F
100
AcDbEntity
  8
0
  6
Continuous
 62
     7
370
    15
100
AcDbLine
 10
17.3728520042
 20
639.3595229096
 30
0.0
 11
17.3659378654
 21
638.9889720089
 31
0.0
  0
SPLINE
  5
294
330
1F
100
AcDbEntity
  8
0
  6
Continuous
 62
     7
370
    15
100
AcDbSpline
210
0.0
220
0.0
230
1.0
 70
     8
 71
     3
 72
     9
 73
     5
 74
     0
 42
0.00000001
 43
0.00000001
 12
1.0
 22
0.0
 32
0.0
 13
1.0
 23
0.0
 33
0.0
 40
0.0
 40
0.0
 40
0.0
 40
0.0
 40
0.4290642814298591
 40
1.0
 40
1.0
 40
1.0
 40
1.0
 10
15.78654888930747
 20
612.8595232225342
 30
0.0
 10
15.36904846970838
 20
608.0784101726587
 30
0.0
 10
14.39599982019651
 20
596.9352941949256
 30
0.0
 10
12.78633507554966
 20
585.8969536410663
 30
0.0
 10
11.86731997790766
 20
579.5947707451268
 30
0.0
  0
LINE
  5
295
330
1F
100
AcDbEntity
  8
0
  6
Continuous
 62
     7
370
    15
100
AcDbLine
 10
-80.5693140262
 20
487.158136741
 30
0.0
 11
-87.2311389082
 21
486.2595222152
 31
0.0
  0
SPLINE
  5
296
330
1F
100
AcDbEntity
  8
0
  6
Continuous
 62
     7
370
    15
100
AcDbSpline
210
0.0
220
0.0
230
1.0
 70
     8
 71
     3
 72
    11
 73
     7
 74
     0
 42
0.00000001
 43
0.00000001
 12
1.0
 22
0.0
 32
0.0
 13
1.0
 23
0.0
 33
0.0
 40
0.0
 40
0.0
 40
0.0
 40
0.0
 40
0.0134951167842436
 40
0.3404580302004344
 40
0.6702262382406373
 40
0.9999999999999999
 40
0.9999999999999999
 40
0.9999999999999999
 40
0.9999999999999999
 10
-174.3340661757903
 20
481.6899619258328
 30
0.0
 10
-174.5957502254151
 20
481.6946729193895
 30
0.0
 10
-181.1975779453606
 20
481.8135229902892
 30
0.0
 10
-194.1620599640276
 20
482.7299238885599
 30
0.0
 10
-213.185667559742
 20
484.4421353571712
 30
0.0
 10
-225.7944003790713
 20
486.2527978641276
 30
0.0
 10
-232.098819875093
 20
487.1581367410107
 30
0.0
  0
LINE
  5
297
330
1F
100
AcDbEntity
  8
0
  6
Continuous
 62
     7
370
    15
100
AcDbLine
 10
-73.8552829259
 20
811.2554273761
 30
0.0
 11
-71.9176029795
 21
807.8473529972
 31
0.0
  0
LINE
  5
298
330
1F
100
AcDbEntity
  8
0
  6
Continuous
 62
     7
370
    15
100
AcDbLine
 10
-240.7505309218
 20
807.8473529972
 30
0.0
 11
-238.8128509754
 21
811.2554273761
 31
0.0
  0
LINE
  5
299
330
1F
100
AcDbEntity
  8
0
  6
Continuous
 62
     7
370
    15
100
AcDbLine
 10
-312.2299706572
 20
737.8383076943
 30
0.0
 11
-308.8218962782
 21
739.7759876407
 31
0.0
  0
LINE
  5
29A
330
1F
100
AcDbEntity
  8
0
  6
Continuous
 62
     7
370
    15
100
AcDbLine
 10
-3.8462376231
 20
739.7759876407
 30
0.0
 11
-0.4381632441
 21
737.8383076943
 31
0.0
  0
LINE
  5
29B
330
1F
100
AcDbEntity
  8
0
  6
Continuous
 62
     7
370
    15
100
AcDbLine
 10
-0.4381632441
 20
572.8807396449
 30
0.0
 11
-3.8462376231
 21
570.9430596984
 31
0.0
  0
LINE
  5
29C
330
1F
100
AcDbEntity
  8
0
  6
Continuous
 62
     7
370
    15
100
AcDbLine
 10
-308.8218962782
 20
570.9430596984
 30
0.0
 11
-312.2299706572
 21
572.8807396449
 31
0.0
  0
LINE
  5
29D
330
1F
100
AcDbEntity
  8
0
  6
Continuous
 62
     7
370
    15
100
AcDbLine
 10
-238.8128509754
 20
499.463619963
 30
0.0
 11
-240.7505309218
 21
502.871694342
 31
0.0
  0
LINE
  5
29E
330
1F
100
AcDbEntity
  8
0
  6
Continuous
 62
     7
370
    15
100
AcDbLine
 10
-71.9176029795
 20
502.871694342
 30
0.0
 11
-73.8552829259
 21
499.463619963
 31
0.0
  0
LWPOLYLINE
  5
29F
330
1F
100
AcDbEntity
  8
0
  6
Continuous
 62
     7
370
    15
100
AcDbPolyline
 90
        3
 70
   128
 43
0.0
 10
-71.9176029795
 20
807.8473529972
 10
-71.3128840559
 20
807.0359102643
 10
-71.1811428898
 20
806.8699858344
  0
LWPOLYLINE
  5
2A0
330
1F
100
AcDbEntity
  8
0
  6
Continuous
 62
     7
370
    15
100
AcDbPolyline
 90
        3
 70
   128
 43
0.0
 10
-308.8218962782
 20
739.7759876407
 10
-308.0104535454
 20
740.3807065643
 10
-307.8445291155
 20
740.5124477304
  0
LWPOLYLINE
  5
2A1
330
1F
100
AcDbEntity
  8
0
  6
Continuous
 62
     7
370
    15
100
AcDbPolyline
 90
        3
 70
   128
 43
0.0
 10
-3.8462376231
 20
570.9430596984
 10
-4.6576803559
 20
570.3383407749
 10
-4.8236047858
 20
570.2065996087
  0
LWPOLYLINE
  5
2A2
330
1F
100
AcDbEntity
  8
0
  6
Continuous
 62
     7
370
    15
100
AcDbPolyline
 90
        3
 70
   128
 43
0.0
 10
-240.7505309218
 20
502.871694342
 10
-241.3552498454
 20
503.6831370748
 10
-241.4869910115
 20
503.8490615047
  0
LWPOLYLINE
  5
2A3
330
1F
100
AcDbEntity
  8
0
  6
Continuous
 62
     7
370
    15
100
AcDbPolyline
 90
        3
 70
   128
 43
0.0
 10
-241.4869910115
 20
806.8699858344
 10
-241.3552498454
 20
807.0359102643
 10
-240.7505309218
 20
807.8473529972
  0
LWPOLYLINE
  5
2A4
330
1F
100
AcDbEntity
  8
0
  6
Continuous
 62
     7
370
    15
100
AcDbPolyline
 90
        3
 70
   128
 43
0.0
 10
-4.8236047858
 20
740.5124477304
 10
-4.6576803559
 20
740.3807065643
 10
-3.8462376231
 20
739.7759876407
  0
ARC
  5
2A5
330
1F
100
AcDbEntity
  8
0
  6
Continuous
 62
     7
370
    15
100
AcDbCircle
 10
-55.5838143996
 20
491.3301463895
 30
0.0
 40
19.99999999999997
100
AcDbArc
 50
121.5591107101
 51
144.7547680276
  0
LWPOLYLINE
  5
2A6
330
1F
100
AcDbEntity
  8
0
  6
Continuous
 62
     7
370
    15
100
AcDbPolyline
 90
        3
 70
   128
 43
0.0
 10
-307.8445291155
 20
570.2065996087
 10
-308.0104535454
 20
570.3383407749
 10
-308.8218962782
 20
570.9430596984
  0
LWPOLYLINE
  5
2A7
330
1F
100
AcDbEntity
  8
0
  6
Continuous
 62
     7
370
    15
100
AcDbPolyline
 90
        3
 70
   128
 43
0.0
 10
-57.3722964161
 20
514.0696934617
 10
-59.2569654816
 20
512.7681962408
 10
-66.0513734454
 20
508.3721599735
  0
LINE
  5
2A8
330
1F
100
AcDbEntity
  8
0
  6
Continuous
 62
     7
370
    15
100
AcDbLine
 10
-238.8128509754
 20
811.2554273761
 30
0.0
 11
-234.4618832701
 21
821.0296801485
 31
0.0
  0
LINE
  5
2A9
330
1F
100
AcDbEntity
  8
0
  6
Continuous
 62
     7
370
    15
100
AcDbLine
 10
-78.2062506312
 20
821.0296801485
 30
0.0
 11
-73.8552829259
 21
811.2554273761
 31
0.0
  0
LINE
  5
2AA
330
1F
100
AcDbEntity
  8
0
  6
Continuous
 62
     7
370
    15
100
AcDbLine
 10
-0.4381632441
 20
737.8383076943
 30
0.0
 11
9.3360895282
 21
733.487339989
 31
0.0
  0
LINE
  5
2AB
330
1F
100
AcDbEntity
  8
0
  6
Continuous
 62
     7
370
    15
100
AcDbLine
 10
-322.0042234295
 20
733.487339989
 30
0.0
 11
-312.2299706572
 21
737.8383076943
 31
0.0
  0
LINE
  5
2AC
330
1F
100
AcDbEntity
  8
0
  6
Continuous
 62
     7
370
    15
100
AcDbLine
 10
-312.2299706572
 20
572.8807396449
 30
0.0
 11
-322.0042234295
 21
577.2317073501
 31
0.0
  0
LINE
  5
2AD
330
1F
100
AcDbEntity
  8
0
  6
Continuous
 62
     7
370
    15
100
AcDbLine
 10
9.3360895282
 20
577.2317073501
 30
0.0
 11
-0.4381632441
 21
572.8807396449
 31
0.0
  0
LINE
  5
2AE
330
1F
100
AcDbEntity
  8
0
  6
Continuous
 62
     7
370
    15
100
AcDbLine
 10
-73.8552829259
 20
499.463619963
 30
0.0
 11
-78.2062506312
 21
489.6893671907
 31
0.0
  0
LINE
  5
2AF
330
1F
100
AcDbEntity
  8
0
  6
Continuous
 62
     7
370
    15
100
AcDbLine
 10
-234.4618832701
 20
489.6893671907
 30
0.0
 11
-238.8128509754
 21
499.463619963
 31
0.0
  0
SPLINE
  5
2B0
330
1F
100
AcDbEntity
  8
0
  6
Continuous
 62
     7
370
    15
100
AcDbSpline
210
0.0
220
0.0
230
1.0
 70
     8
 71
     3
 72
     9
 73
     5
 74
     0
 42
0.00000001
 43
0.00000001
 12
1.0
 22
0.0
 32
0.0
 13
1.0
 23
0.0
 33
0.0
 40
0.0
 40
0.0
 40
0.0
 40
0.0
 40
0.7415168135553853
 40
1.0
 40
1.0
 40
1.0
 40
1.0
 10
-322.0042234295326
 20
577.2317073501034
 30
0.0
 10
-322.1734588302688
 20
577.3070485777287
 30
0.0
 10
-322.4016875064668
 20
577.4086527844679
 30
0.0
 10
-322.5894391675023
 20
577.4922163556703
 30
0.0
 10
-322.6379698151069
 20
577.5138161338253
 30
0.0
  0
SPLINE
  5
2B1
330
1F
100
AcDbEntity
  8
0
  6
Continuous
 62
     7
370
    15
100
AcDbSpline
210
0.0
220
0.0
230
1.0
 70
     8
 71
     3
 72
     9
 73
     5
 74
     0
 42
0.00000001
 43
0.00000001
 12
1.0
 22
0.0
 32
0.0
 13
1.0
 23
0.0
 33
0.0
 40
0.0
 40
0.0
 40
0.0
 40
0.0
 40
0.7415168135553853
 40
1.0
 40
1.0
 40
1.0
 40
1.0
 10
-78.20625063118507
 20
489.6893671906872
 30
0.0
 10
-78.28159185881026
 20
489.5201317899509
 30
0.0
 10
-78.3831960655496
 20
489.2919031137531
 30
0.0
 10
-78.46675963675192
 20
489.1041514527176
 30
0.0
 10
-78.48835941490701
 20
489.0556208051129
 30
0.0
  0
SPLINE
  5
2B2
330
1F
100
AcDbEntity
  8
0
  6
Continuous
 62
     7
370
    15
100
AcDbSpline
210
0.0
220
0.0
230
1.0
 70
     8
 71
     3
 72
     9
 73
     5
 74
     0
 42
0.00000001
 43
0.00000001
 12
1.0
 22
0.0
 32
0.0
 13
1.0
 23
0.0
 33
0.0
 40
0.0
 40
0.0
 40
0.0
 40
0.0
 40
0.7415168135553853
 40
1.0
 40
1.0
 40
1.0
 40
1.0
 10
-234.4618832701163
 20
821.0296801484509
 30
0.0
 10
-234.3865420424912
 20
821.1989155491872
 30
0.0
 10
-234.2849378357518
 20
821.4271442253852
 30
0.0
 10
-234.2013742645495
 20
821.6148958864206
 30
0.0
 10
-234.1797744863944
 20
821.6634265340252
 30
0.0
  0
SPLINE
  5
2B3
330
1F
100
AcDbEntity
  8
0
  6
Continuous
 62
     7
370
    15
100
AcDbSpline
210
0.0
220
0.0
230
1.0
 70
     8
 71
     3
 72
     9
 73
     5
 74
     0
 42
0.00000001
 43
0.00000001
 12
1.0
 22
0.0
 32
0.0
 13
1.0
 23
0.0
 33
0.0
 40
0.0
 40
0.0
 40
0.0
 40
0.0
 40
0.7412699723273551
 40
1.0
 40
1.0
 40
1.0
 40
1.0
 10
-78.48835941490701
 20
821.6634265340252
 30
0.0
 10
-78.42297532595636
 20
821.5165389047213
 30
0.0
 10
-78.33476982540793
 20
821.3183821807376
 30
0.0
 10
-78.23266755454969
 20
821.0890224086343
 30
0.0
 10
-78.20625063118509
 20
821.0296801484509
 30
0.0
  0
SPLINE
  5
2B4
330
1F
100
AcDbEntity
  8
0
  6
Continuous
 62
     7
370
    15
100
AcDbSpline
210
0.0
220
0.0
230
1.0
 70
     8
 71
     3
 72
     9
 73
     5
 74
     0
 42
0.00000001
 43
0.00000001
 12
1.0
 22
0.0
 32
0.0
 13
1.0
 23
0.0
 33
0.0
 40
0.0
 40
0.0
 40
0.0
 40
0.0
 40
0.7415168135553853
 40
1.0
 40
1.0
 40
1.0
 40
1.0
 10
9.336089528231145
 20
733.4873399890347
 30
0.0
 10
9.505324928967413
 20
733.4119987614094
 30
0.0
 10
9.733553605165369
 20
733.3103945546702
 30
0.0
 10
9.921305266200802
 20
733.2268309834678
 30
0.0
 10
9.969835913805458
 20
733.2052312053128
 30
0.0
  0
SPLINE
  5
2B5
330
1F
100
AcDbEntity
  8
0
  6
Continuous
 62
     7
370
    15
100
AcDbSpline
210
0.0
220
0.0
230
1.0
 70
     8
 71
     3
 72
     9
 73
     5
 74
     0
 42
0.00000001
 43
0.00000001
 12
1.0
 22
0.0
 32
0.0
 13
1.0
 23
0.0
 33
0.0
 40
0.0
 40
0.0
 40
0.0
 40
0.0
 40
0.7412699723273551
 40
1.0
 40
1.0
 40
1.0
 40
1.0
 10
-322.6379698151069
 20
733.2052312053128
 30
0.0
 10
-322.491082185803
 20
733.2706152942634
 30
0.0
 10
-322.2929254618192
 20
733.3588207948119
 30
0.0
 10
-322.0635656897159
 20
733.4609230656702
 30
0.0
 10
-322.0042234295325
 20
733.4873399890347
 30
0.0
  0
SPLINE
  5
2B6
330
1F
100
AcDbEntity
  8
0
  6
Continuous
 62
     7
370
    15
100
AcDbSpline
210
0.0
220
0.0
230
1.0
 70
     8
 71
     3
 72
     9
 73
     5
 74
     0
 42
0.00000001
 43
0.00000001
 12
1.0
 22
0.0
 32
0.0
 13
1.0
 23
0.0
 33
0.0
 40
0.0
 40
0.0
 40
0.0
 40
0.0
 40
0.7412699723273551
 40
1.0
 40
1.0
 40
1.0
 40
1.0
 10
9.969835913805458
 20
577.5138161338253
 30
0.0
 10
9.822948284501532
 20
577.4484320448747
 30
0.0
 10
9.624791560517792
 20
577.3602265443263
 30
0.0
 10
9.395431788414399
 20
577.258124273468
 30
0.0
 10
9.336089528231117
 20
577.2317073501034
 30
0.0
  0
SPLINE
  5
2B7
330
1F
100
AcDbEntity
  8
0
  6
Continuous
 62
     7
370
    15
100
AcDbSpline
210
0.0
220
0.0
230
1.0
 70
     8
 71
     3
 72
     9
 73
     5
 74
     0
 42
0.00000001
 43
0.00000001
 12
1.0
 22
0.0
 32
0.0
 13
1.0
 23
0.0
 33
0.0
 40
0.0
 40
0.0
 40
0.0
 40
0.0
 40
0.7412699723273551
 40
1.0
 40
1.0
 40
1.0
 40
1.0
 10
-234.1797744863944
 20
489.0556208051129
 30
0.0
 10
-234.2451585753451
 20
489.2025084344168
 30
0.0
 10
-234.3333640758935
 20
489.4006651584006
 30
0.0
 10
-234.4354663467518
 20
489.630024930504
 30
0.0
 10
-234.4618832701163
 20
489.6893671906872
 30
0.0
  0
SPLINE
  5
2B8
330
1F
100
AcDbEntity
  8
0
  6
Continuous
 62
     7
370
    15
100
AcDbSpline
210
0.0
220
0.0
230
1.0
 70
     8
 71
     3
 72
    10
 73
     6
 74
     0
 42
0.00000001
 43
0.00000001
 12
1.0
 22
0.0
 32
0.0
 13
1.0
 23
0.0
 33
0.0
 40
0.0
 40
0.0
 40
0.0
 40
0.0
 40
0.3625000683546823
 40
0.7681747872906617
 40
1.0
 40
1.0
 40
1.0
 40
1.0
 10
9.969835913805458
 20
733.2052312053128
 30
0.0
 10
10.03022433794873
 20
733.1796069466258
 30
0.0
 10
10.1581935962213
 20
733.1253065169575
 30
0.0
 10
10.23028665238121
 20
733.1002070508181
 30
0.0
 10
10.23935037389451
 20
733.0968419674826
 30
0.0
 10
10.24264637294245
 20
733.0956182635708
 30
0.0
  0
ARC
  5
2B9
330
1F
100
AcDbEntity
  8
0
  6
Continuous
 62
     7
370
    15
100
AcDbCircle
 10
9.396494559
 20
730.7433621458
 30
0.0
 40
2.499816340418042
100
AcDbArc
 50
8.821724292
 51
70.2153650113
  0
SPLINE
  5
2BA
330
1F
100
AcDbEntity
  8
0
  6
Continuous
 62
     7
370
    15
100
AcDbSpline
210
0.0
220
0.0
230
1.0
 70
     8
 71
     3
 72
    10
 73
     6
 74
     0
 42
0.00000001
 43
0.00000001
 12
1.0
 22
0.0
 32
0.0
 13
1.0
 23
0.0
 33
0.0
 40
0.0
 40
0.0
 40
0.0
 40
0.0
 40
0.3625000683546823
 40
0.7681747872906617
 40
1.0
 40
1.0
 40
1.0
 40
1.0
 10
-234.1797744863944
 20
821.6634265340252
 30
0.0
 10
-234.1541502277074
 20
821.7238149581685
 30
0.0
 10
-234.0998497980392
 20
821.8517842164412
 30
0.0
 10
-234.0747503318998
 20
821.923877272601
 30
0.0
 10
-234.0713852485642
 20
821.9329409941143
 30
0.0
 10
-234.0701615446525
 20
821.9362369931622
 30
0.0
  0
ARC
  5
2BB
330
1F
100
AcDbEntity
  8
0
  6
Continuous
 62
     7
370
    15
100
AcDbCircle
 10
-231.7179054269
 20
821.0900851792
 30
0.0
 40
2.499816340417911
100
AcDbArc
 50
98.821724292
 51
160.2153650113
  0
SPLINE
  5
2BC
330
1F
100
AcDbEntity
  8
0
  6
Continuous
 62
     7
370
    15
100
AcDbSpline
210
0.0
220
0.0
230
1.0
 70
     8
 71
     3
 72
    10
 73
     6
 74
     0
 42
0.00000001
 43
0.00000001
 12
1.0
 22
0.0
 32
0.0
 13
1.0
 23
0.0
 33
0.0
 40
0.0
 40
0.0
 40
0.0
 40
0.0
 40
0.4115584338952435
 40
0.7944357401752777
 40
1.0
 40
1.0
 40
1.0
 40
1.0
 10
-322.9107802742439
 20
733.0956182635708
 30
0.0
 10
-322.9017930652171
 20
733.0988744991754
 30
0.0
 10
-322.8844449574705
 20
733.1051600463289
 30
0.0
 10
-322.7777867677518
 20
733.1446926264642
 30
0.0
 10
-322.6741677464605
 20
733.1895580606764
 30
0.0
 10
-322.6379698151069
 20
733.2052312053128
 30
0.0
  0
ARC
  5
2BD
330
1F
100
AcDbEntity
  8
0
  6
Continuous
 62
     7
370
    15
100
AcDbCircle
 10
-322.0646284603
 20
730.7433621458
 30
0.0
 40
2.499816340418048
100
AcDbArc
 50
109.7846349887
 51
171.178275708
  0
SPLINE
  5
2BE
330
1F
100
AcDbEntity
  8
0
  6
Continuous
 62
     7
370
    15
100
AcDbSpline
210
0.0
220
0.0
230
1.0
 70
     8
 71
     3
 72
    10
 73
     6
 74
     0
 42
0.00000001
 43
0.00000001
 12
1.0
 22
0.0
 32
0.0
 13
1.0
 23
0.0
 33
0.0
 40
0.0
 40
0.0
 40
0.0
 40
0.0
 40
0.3625000683546823
 40
0.7681747872906617
 40
1.0
 40
1.0
 40
1.0
 40
1.0
 10
-78.48835941490701
 20
489.0556208051129
 30
0.0
 10
-78.51398367359407
 20
488.9952323809696
 30
0.0
 10
-78.56828410326229
 20
488.8672631226971
 30
0.0
 10
-78.59338356940168
 20
488.7951700665371
 30
0.0
 10
-78.59674865273726
 20
488.7861063450238
 30
0.0
 10
-78.59797235664894
 20
488.7828103459759
 30
0.0
  0
ARC
  5
2BF
330
1F
100
AcDbEntity
  8
0
  6
Continuous
 62
     7
370
    15
100
AcDbCircle
 10
-80.9502284744
 20
489.6289621599
 30
0.0
 40
2.499816340417992
100
AcDbArc
 50
278.821724292
 51
340.2153650113
  0
SPLINE
  5
2C0
330
1F
100
AcDbEntity
  8
0
  6
Continuous
 62
     7
370
    15
100
AcDbSpline
210
0.0
220
0.0
230
1.0
 70
     8
 71
     3
 72
    10
 73
     6
 74
     0
 42
0.00000001
 43
0.00000001
 12
1.0
 22
0.0
 32
0.0
 13
1.0
 23
0.0
 33
0.0
 40
0.0
 40
0.0
 40
0.0
 40
0.0
 40
0.3625000683546823
 40
0.7681747872906617
 40
1.0
 40
1.0
 40
1.0
 40
1.0
 10
-322.6379698151069
 20
577.5138161338253
 30
0.0
 10
-322.6983582392502
 20
577.5394403925125
 30
0.0
 10
-322.8263274975227
 20
577.5937408221806
 30
0.0
 10
-322.8984205536827
 20
577.61884028832
 30
0.0
 10
-322.9074842751959
 20
577.6222053716557
 30
0.0
 10
-322.9107802742439
 20
577.6234290755673
 30
0.0
  0
ARC
  5
2C1
330
1F
100
AcDbEntity
  8
0
  6
Continuous
 62
     7
370
    15
100
AcDbCircle
 10
-322.0646284603
 20
579.9756851933
 30
0.0
 40
2.499816340417985
100
AcDbArc
 50
188.821724292
 51
250.2153650113
  0
SPLINE
  5
2C2
330
1F
100
AcDbEntity
  8
0
  6
Continuous
 62
     7
370
    15
100
AcDbSpline
210
0.0
220
0.0
230
1.0
 70
     8
 71
     3
 72
    10
 73
     6
 74
     0
 42
0.00000001
 43
0.00000001
 12
1.0
 22
0.0
 32
0.0
 13
1.0
 23
0.0
 33
0.0
 40
0.0
 40
0.0
 40
0.0
 40
0.0
 40
0.4115584338952435
 40
0.7944357401752777
 40
1.0
 40
1.0
 40
1.0
 40
1.0
 10
-78.59797235664894
 20
821.9362369931622
 30
0.0
 10
-78.59471612104439
 20
821.9272497841356
 30
0.0
 10
-78.58843057389086
 20
821.9099016763889
 30
0.0
 10
-78.54889799375565
 20
821.8032434866702
 30
0.0
 10
-78.50403255954332
 20
821.699624465379
 30
0.0
 10
-78.48835941490701
 20
821.6634265340252
 30
0.0
  0
ARC
  5
2C3
330
1F
100
AcDbEntity
  8
0
  6
Continuous
 62
     7
370
    15
100
AcDbCircle
 10
-80.9502284744
 20
821.0900851792
 30
0.0
 40
2.499816340417924
100
AcDbArc
 50
19.7846349887
 51
81.178275708
  0
SPLINE
  5
2C4
330
1F
100
AcDbEntity
  8
0
  6
Continuous
 62
     7
370
    15
100
AcDbSpline
210
0.0
220
0.0
230
1.0
 70
     8
 71
     3
 72
    10
 73
     6
 74
     0
 42
0.00000001
 43
0.00000001
 12
1.0
 22
0.0
 32
0.0
 13
1.0
 23
0.0
 33
0.0
 40
0.0
 40
0.0
 40
0.0
 40
0.0
 40
0.4115584338952435
 40
0.7944357401752777
 40
1.0
 40
1.0
 40
1.0
 40
1.0
 10
-234.0701615446525
 20
488.7828103459759
 30
0.0
 10
-234.073417780257
 20
488.7917975550026
 30
0.0
 10
-234.0797033274106
 20
488.8091456627494
 30
0.0
 10
-234.1192359075458
 20
488.915803852468
 30
0.0
 10
-234.1641013417581
 20
489.0194228737593
 30
0.0
 10
-234.1797744863944
 20
489.0556208051129
 30
0.0
  0
ARC
  5
2C5
330
1F
100
AcDbEntity
  8
0
  6
Continuous
 62
     7
370
    15
100
AcDbCircle
 10
-231.7179054269
 20
489.6289621599
 30
0.0
 40
2.499816340417989
100
AcDbArc
 50
199.7846349887
 51
261.178275708
  0
SPLINE
  5
2C6
330
1F
100
AcDbEntity
  8
0
  6
Continuous
 62
     7
370
    15
100
AcDbSpline
210
0.0
220
0.0
230
1.0
 70
     8
 71
     3
 72
    10
 73
     6
 74
     0
 42
0.00000001
 43
0.00000001
 12
1.0
 22
0.0
 32
0.0
 13
1.0
 23
0.0
 33
0.0
 40
0.0
 40
0.0
 40
0.0
 40
0.0
 40
0.4115584338952435
 40
0.7944357401752777
 40
1.0
 40
1.0
 40
1.0
 40
1.0
 10
10.24264637294245
 20
577.6234290755673
 30
0.0
 10
10.23365916391575
 20
577.6201728399628
 30
0.0
 10
10.21631105616905
 20
577.6138872928093
 30
0.0
 10
10.10965286645038
 20
577.574354712674
 30
0.0
 10
10.00603384515908
 20
577.5294892784617
 30
0.0
 10
9.969835913805458
 20
577.5138161338253
 30
0.0
  0
ARC
  5
2C7
330
1F
100
AcDbEntity
  8
0
  6
Continuous
 62
     7
370
    15
100
AcDbCircle
 10
9.396494559
 20
579.9756851933
 30
0.0
 40
2.499816340417966
100
AcDbArc
 50
289.7846349887
 51
351.178275708
  0
ARC
  5
2C8
330
1F
100
AcDbEntity
  8
0
  6
Continuous
 62
     7
370
    15
100
AcDbCircle
 10
-231.7177243551
 20
821.0901583723
 30
0.0
 40
2.499970071137702
100
AcDbArc
 50
98.7683566125
 51
160.2173262975
  0
ARC
  5
2C9
330
1F
100
AcDbEntity
  8
0
  6
Continuous
 62
     7
370
    15
100
AcDbCircle
 10
9.3965677521
 20
730.7431810741
 30
0.0
 40
2.499970071137708
100
AcDbArc
 50
8.7683566125
 51
70.2173262975
  0
ARC
  5
2CA
330
1F
100
AcDbEntity
  8
0
  6
Continuous
 62
     7
370
    15
100
AcDbCircle
 10
-80.9504095462
 20
821.0901583723
 30
0.0
 40
2.499970071137689
100
AcDbArc
 50
19.7826737025
 51
81.2316433875
  0
ARC
  5
2CB
330
1F
100
AcDbEntity
  8
0
  6
Continuous
 62
     7
370
    15
100
AcDbCircle
 10
-322.0647016534
 20
730.7431810741
 30
0.0
 40
2.499970071137683
100
AcDbArc
 50
109.7826737025
 51
171.2316433875
  0
ARC
  5
2CC
330
1F
100
AcDbEntity
  8
0
  6
Continuous
 62
     7
370
    15
100
AcDbCircle
 10
9.3965677521
 20
579.9758662651
 30
0.0
 40
2.499970071137815
100
AcDbArc
 50
289.7826737025
 51
351.2316433875
  0
ARC
  5
2CD
330
1F
100
AcDbEntity
  8
0
  6
Continuous
 62
     7
370
    15
100
AcDbCircle
 10
-80.9504095462
 20
489.6288889668
 30
0.0
 40
2.499970071137683
100
AcDbArc
 50
278.7683566125
 51
340.2173262975
  0
ARC
  5
2CE
330
1F
100
AcDbEntity
  8
0
  6
Continuous
 62
     7
370
    15
100
AcDbCircle
 10
-231.7177243551
 20
489.6288889668
 30
0.0
 40
2.499970071137683
100
AcDbArc
 50
199.7826737025
 51
261.2316433875
  0
ARC
  5
2CF
330
1F
100
AcDbEntity
  8
0
  6
Continuous
 62
     7
370
    15
100
AcDbCircle
 10
-322.0647016534
 20
579.9758662651
 30
0.0
 40
2.499970071137664
100
AcDbArc
 50
188.7683566125
 51
250.2173262975
  0
SPLINE
  5
2D0
330
1F
100
AcDbEntity
  8
0
  6
Continuous
 62
     7
370
    15
100
AcDbSpline
210
0.0
220
0.0
230
1.0
 70
     8
 71
     3
 72
     9
 73
     5
 74
     0
 42
0.00000001
 43
0.00000001
 12
1.0
 22
0.0
 32
0.0
 13
1.0
 23
0.0
 33
0.0
 40
0.0
 40
0.0
 40
0.0
 40
0.0
 40
0.5546959762779875
 40
1.0
 40
1.0
 40
1.0
 40
1.0
 10
-80.56931402620843
 20
823.5609105981274
 30
0.0
 10
-80.51937305796616
 20
823.5532596773927
 30
0.0
 10
-80.42934001215727
 20
823.5394666789541
 30
0.0
 10
-79.92070382358058
 20
823.4603584361564
 30
0.0
 10
-79.69420608219674
 20
823.4251312173291
 30
0.0
  0
SPLINE
  5
2D1
330
1F
100
AcDbEntity
  8
0
  6
Continuous
 62
     7
370
    15
100
AcDbSpline
210
0.0
220
0.0
230
1.0
 70
     8
 71
     3
 72
     9
 73
     5
 74
     0
 42
0.00000001
 43
0.00000001
 12
1.0
 22
0.0
 32
0.0
 13
1.0
 23
0.0
 33
0.0
 40
0.0
 40
0.0
 40
0.0
 40
0.0
 40
0.5568919973007546
 40
1.0
 40
1.0
 40
1.0
 40
1.0
 10
-232.9739278191047
 20
823.4251312173291
 30
0.0
 10
-232.6979927758418
 20
823.4680138583466
 30
0.0
 10
-232.2025016490157
 20
823.5450173728975
 30
0.0
 10
-232.1306554852298
 20
823.5560305647032
 30
0.0
 10
-232.098819875093
 20
823.5609105981274
 30
0.0
  0
SPLINE
  5
2D2
330
1F
100
AcDbEntity
  8
0
  6
Continuous
 62
     7
370
    15
100
AcDbSpline
210
0.0
220
0.0
230
1.0
 70
     8
 71
     3
 72
     9
 73
     5
 74
     0
 42
0.00000001
 43
0.00000001
 12
1.0
 22
0.0
 32
0.0
 13
1.0
 23
0.0
 33
0.0
 40
0.0
 40
0.0
 40
0.0
 40
0.0
 40
0.5546959762779875
 40
1.0
 40
1.0
 40
1.0
 40
1.0
 10
-324.5354538792091
 20
731.1242765940113
 30
0.0
 10
-324.5278029584744
 20
731.1742175622536
 30
0.0
 10
-324.5140099600358
 20
731.2642506080625
 30
0.0
 10
-324.4349017172381
 20
731.7728867966392
 30
0.0
 10
-324.3996744984107
 20
731.999384538023
 30
0.0
  0
SPLINE
  5
2D3
330
1F
100
AcDbEntity
  8
0
  6
Continuous
 62
     7
370
    15
100
AcDbSpline
210
0.0
220
0.0
230
1.0
 70
     8
 71
     3
 72
     9
 73
     5
 74
     0
 42
0.00000001
 43
0.00000001
 12
1.0
 22
0.0
 32
0.0
 13
1.0
 23
0.0
 33
0.0
 40
0.0
 40
0.0
 40
0.0
 40
0.0
 40
0.5568919973007546
 40
1.0
 40
1.0
 40
1.0
 40
1.0
 10
11.73154059710929
 20
731.999384538023
 30
0.0
 10
11.77442323812675
 20
731.7234494947601
 30
0.0
 10
11.85142675267767
 20
731.2279583679341
 30
0.0
 10
11.86243994448333
 20
731.1561122041481
 30
0.0
 10
11.86731997790763
 20
731.1242765940113
 30
0.0
  0
SPLINE
  5
2D4
330
1F
100
AcDbEntity
  8
0
  6
Continuous
 62
     7
370
    15
100
AcDbSpline
210
0.0
220
0.0
230
1.0
 70
     8
 71
     3
 72
     9
 73
     5
 74
     0
 42
0.00000001
 43
0.00000001
 12
1.0
 22
0.0
 32
0.0
 13
1.0
 23
0.0
 33
0.0
 40
0.0
 40
0.0
 40
0.0
 40
0.0
 40
0.5546959762779875
 40
1.0
 40
1.0
 40
1.0
 40
1.0
 10
11.86731997790763
 20
579.5947707451268
 30
0.0
 10
11.85966905717292
 20
579.5448297768845
 30
0.0
 10
11.8458760587343
 20
579.4547967310756
 30
0.0
 10
11.76676781593664
 20
578.9461605424989
 30
0.0
 10
11.73154059710929
 20
578.7196628011151
 30
0.0
  0
SPLINE
  5
2D5
330
1F
100
AcDbEntity
  8
0
  6
Continuous
 62
     7
370
    15
100
AcDbSpline
210
0.0
220
0.0
230
1.0
 70
     8
 71
     3
 72
     9
 73
     5
 74
     0
 42
0.00000001
 43
0.00000001
 12
1.0
 22
0.0
 32
0.0
 13
1.0
 23
0.0
 33
0.0
 40
0.0
 40
0.0
 40
0.0
 40
0.0
 40
0.5568919973007546
 40
1.0
 40
1.0
 40
1.0
 40
1.0
 10
-324.3996744984107
 20
578.7196628011151
 30
0.0
 10
-324.4425571394282
 20
578.995597844378
 30
0.0
 10
-324.5195606539791
 20
579.491088971204
 30
0.0
 10
-324.5305738457848
 20
579.56293513499
 30
0.0
 10
-324.5354538792091
 20
579.5947707451268
 30
0.0
  0
SPLINE
  5
2D6
330
1F
100
AcDbEntity
  8
0
  6
Continuous
 62
     7
370
    15
100
AcDbSpline
210
0.0
220
0.0
230
1.0
 70
     8
 71
     3
 72
     9
 73
     5
 74
     0
 42
0.00000001
 43
0.00000001
 12
1.0
 22
0.0
 32
0.0
 13
1.0
 23
0.0
 33
0.0
 40
0.0
 40
0.0
 40
0.0
 40
0.0
 40
0.5546959762779875
 40
1.0
 40
1.0
 40
1.0
 40
1.0
 10
-232.098819875093
 20
487.1581367410107
 30
0.0
 10
-232.1487608433353
 20
487.1657876617455
 30
0.0
 10
-232.2387938891442
 20
487.1795806601841
 30
0.0
 10
-232.7474300777208
 20
487.2586889029818
 30
0.0
 10
-232.9739278191047
 20
487.293916121809
 30
0.0
  0
SPLINE
  5
2D7
330
1F
100
AcDbEntity
  8
0
  6
Continuous
 62
     7
370
    15
100
AcDbSpline
210
0.0
220
0.0
230
1.0
 70
     8
 71
     3
 72
     9
 73
     5
 74
     0
 42
0.00000001
 43
0.00000001
 12
1.0
 22
0.0
 32
0.0
 13
1.0
 23
0.0
 33
0.0
 40
0.0
 40
0.0
 40
0.0
 40
0.0
 40
0.5568919973007546
 40
1.0
 40
1.0
 40
1.0
 40
1.0
 10
-79.69420608219674
 20
487.293916121809
 30
0.0
 10
-79.97014112545969
 20
487.2510334807916
 30
0.0
 10
-80.46563225228573
 20
487.1740299662407
 30
0.0
 10
-80.53747841607164
 20
487.1630167744351
 30
0.0
 10
-80.56931402620843
 20
487.1581367410107
 30
0.0
  0
SPLINE
  5
2D8
330
1F
100
AcDbEntity
  8
0
  6
Continuous
 62
     7
370
    15
100
AcDbSpline
210
0.0
220
0.0
230
1.0
 70
     8
 71
     3
 72
    10
 73
     6
 74
     0
 42
0.00000001
 43
0.00000001
 12
1.0
 22
0.0
 32
0.0
 13
1.0
 23
0.0
 33
0.0
 40
0.0
 40
0.0
 40
0.0
 40
0.0
 40
0.4311094121184107
 40
0.8289212513178853
 40
1.0
 40
1.0
 40
1.0
 40
1.0
 10
-238.5959645741897
 20
822.514670268385
 30
0.0
 10
-237.669724368442
 20
822.6685221612519
 30
0.0
 10
-235.8887839185536
 20
822.964342897167
 30
0.0
 10
-233.9707147834731
 20
823.2691475869617
 30
0.0
 10
-233.204382053004
 20
823.3890682577178
 30
0.0
 10
-232.9739278191047
 20
823.4251312173291
 30
0.0
  0
SPLINE
  5
2D9
330
1F
100
AcDbEntity
  8
0
  6
Continuous
 62
     7
370
    15
100
AcDbSpline
210
0.0
220
0.0
230
1.0
 70
     8
 71
     3
 72
    10
 73
     6
 74
     0
 42
0.00000001
 43
0.00000001
 12
1.0
 22
0.0
 32
0.0
 13
1.0
 23
0.0
 33
0.0
 40
0.0
 40
0.0
 40
0.0
 40
0.0
 40
0.4311094121184107
 40
0.8289212513178853
 40
1.0
 40
1.0
 40
1.0
 40
1.0
 10
-323.4892135494666
 20
573.0976260460301
 30
0.0
 10
-323.6430654423335
 20
574.0238662517778
 30
0.0
 10
-323.9388861782485
 20
575.8048067016662
 30
0.0
 10
-324.2436908680434
 20
577.7228758367468
 30
0.0
 10
-324.3636115387993
 20
578.4892085672158
 30
0.0
 10
-324.3996744984107
 20
578.7196628011151
 30
0.0
  0
SPLINE
  5
2DA
330
1F
100
AcDbEntity
  8
0
  6
Continuous
 62
     7
370
    15
100
AcDbSpline
210
0.0
220
0.0
230
1.0
 70
     8
 71
     3
 72
    10
 73
     6
 74
     0
 42
0.00000001
 43
0.00000001
 12
1.0
 22
0.0
 32
0.0
 13
1.0
 23
0.0
 33
0.0
 40
0.0
 40
0.0
 40
0.0
 40
0.0
 40
0.4311094121184107
 40
0.8289212513178853
 40
1.0
 40
1.0
 40
1.0
 40
1.0
 10
10.8210796481652
 20
737.621421293108
 30
0.0
 10
10.97493154103205
 20
736.6951810873604
 30
0.0
 10
11.2707522769471
 20
734.9142406374721
 30
0.0
 10
11.5755569667419
 20
732.9961715023913
 30
0.0
 10
11.6954776374979
 20
732.2298387719223
 30
0.0
 10
11.73154059710929
 20
731.999384538023
 30
0.0
  0
SPLINE
  5
2DB
330
1F
100
AcDbEntity
  8
0
  6
Continuous
 62
     7
370
    15
100
AcDbSpline
210
0.0
220
0.0
230
1.0
 70
     8
 71
     3
 72
    10
 73
     6
 74
     0
 42
0.00000001
 43
0.00000001
 12
1.0
 22
0.0
 32
0.0
 13
1.0
 23
0.0
 33
0.0
 40
0.0
 40
0.0
 40
0.0
 40
0.0
 40
0.4311094121184107
 40
0.8289212513178853
 40
1.0
 40
1.0
 40
1.0
 40
1.0
 10
-74.07216932711175
 20
488.2043770707531
 30
0.0
 10
-74.99840953285941
 20
488.0505251778864
 30
0.0
 10
-76.7793499827478
 20
487.7547044419713
 30
0.0
 10
-78.69741911782836
 20
487.4498997521765
 30
0.0
 10
-79.46375184829742
 20
487.3299790814205
 30
0.0
 10
-79.69420608219674
 20
487.293916121809
 30
0.0
  0
SPLINE
  5
2DC
330
1F
100
AcDbEntity
  8
0
  6
Continuous
 62
     7
370
    15
100
AcDbSpline
210
0.0
220
0.0
230
1.0
 70
     8
 71
     3
 72
    10
 73
     6
 74
     0
 42
0.00000001
 43
0.00000001
 12
1.0
 22
0.0
 32
0.0
 13
1.0
 23
0.0
 33
0.0
 40
0.0
 40
0.0
 40
0.0
 40
0.0
 40
0.3127332807631187
 40
0.6244278319846872
 40
1.0
 40
1.0
 40
1.0
 40
1.0
 10
-79.69420608219674
 20
823.4251312173291
 30
0.0
 10
-79.24499793124602
 20
823.3547012715234
 30
0.0
 10
-78.34807365403596
 20
823.2140753098125
 30
0.0
 10
-76.35398508224934
 20
822.894245308339
 30
0.0
 10
-74.87848766985147
 20
822.6487995540085
 30
0.0
 10
-74.07216932711174
 20
822.514670268385
 30
0.0
  0
SPLINE
  5
2DD
330
1F
100
AcDbEntity
  8
0
  6
Continuous
 62
     7
370
    15
100
AcDbSpline
210
0.0
220
0.0
230
1.0
 70
     8
 71
     3
 72
    10
 73
     6
 74
     0
 42
0.00000001
 43
0.00000001
 12
1.0
 22
0.0
 32
0.0
 13
1.0
 23
0.0
 33
0.0
 40
0.0
 40
0.0
 40
0.0
 40
0.0
 40
0.3127332807631187
 40
0.6244278319846872
 40
1.0
 40
1.0
 40
1.0
 40
1.0
 10
11.73154059710929
 20
578.7196628011151
 30
0.0
 10
11.66111065130354
 20
578.2704546501643
 30
0.0
 10
11.52048468959269
 20
577.3735303729544
 30
0.0
 10
11.20065468811915
 20
575.3794418011678
 30
0.0
 10
10.95520893378871
 20
573.9039443887698
 30
0.0
 10
10.82107964816523
 20
573.0976260460301
 30
0.0
  0
SPLINE
  5
2DE
330
1F
100
AcDbEntity
  8
0
  6
Continuous
 62
     7
370
    15
100
AcDbSpline
210
0.0
220
0.0
230
1.0
 70
     8
 71
     3
 72
    10
 73
     6
 74
     0
 42
0.00000001
 43
0.00000001
 12
1.0
 22
0.0
 32
0.0
 13
1.0
 23
0.0
 33
0.0
 40
0.0
 40
0.0
 40
0.0
 40
0.0
 40
0.3127332807631187
 40
0.6244278319846872
 40
1.0
 40
1.0
 40
1.0
 40
1.0
 10
-324.3996744984107
 20
731.999384538023
 30
0.0
 10
-324.329244552605
 20
732.4485926889738
 30
0.0
 10
-324.1886185908941
 20
733.3455169661839
 30
0.0
 10
-323.8687885894206
 20
735.3396055379706
 30
0.0
 10
-323.6233428350902
 20
736.8151029503683
 30
0.0
 10
-323.4892135494667
 20
737.621421293108
 30
0.0
  0
SPLINE
  5
2DF
330
1F
100
AcDbEntity
  8
0
  6
Continuous
 62
     7
370
    15
100
AcDbSpline
210
0.0
220
0.0
230
1.0
 70
     8
 71
     3
 72
    10
 73
     6
 74
     0
 42
0.00000001
 43
0.00000001
 12
1.0
 22
0.0
 32
0.0
 13
1.0
 23
0.0
 33
0.0
 40
0.0
 40
0.0
 40
0.0
 40
0.0
 40
0.3127332807631187
 40
0.6244278319846872
 40
1.0
 40
1.0
 40
1.0
 40
1.0
 10
-232.9739278191047
 20
487.293916121809
 30
0.0
 10
-233.4231359700554
 20
487.3643460676148
 30
0.0
 10
-234.3200602472655
 20
487.5049720293257
 30
0.0
 10
-236.3141488190521
 20
487.8248020307993
 30
0.0
 10
-237.78964623145
 20
488.0702477851297
 30
0.0
 10
-238.5959645741897
 20
488.2043770707531
 30
0.0
  0
ARC
  5
2E0
330
1F
100
AcDbEntity
  8
0
  6
Continuous
 62
     7
370
    15
100
AcDbCircle
 10
-156.3340669507
 20
332.3698080876
 30
0.0
 40
497.0
100
AcDbArc
 50
99.5272629363
 51
100.1820674032
  0
ARC
  5
2E1
330
1F
100
AcDbEntity
  8
0
  6
Continuous
 62
     7
370
    15
100
AcDbCircle
 10
-156.3340669507
 20
332.3698080876
 30
0.0
 40
497.0000000000001
100
AcDbArc
 50
79.8179325968
 51
80.4727370637
  0
ARC
  5
2E2
330
1F
100
AcDbEntity
  8
0
  6
Continuous
 62
     7
370
    15
100
AcDbCircle
 10
-85.623388832
 20
726.0702017882
 30
0.0
 40
96.99999999999999
100
AcDbArc
 50
10.1820674032
 51
79.8179325968
  0
CIRCLE
  5
2E3
330
1F
100
AcDbEntity
  8
0
  6
Continuous
 62
     7
370
    15
100
AcDbCircle
 10
-287.1488214702
 20
786.1742781891
 30
0.0
 40
6.0
  0
ARC
  5
2E4
330
1F
100
AcDbEntity
  8
0
  6
Continuous
 62
     7
370
    15
100
AcDbCircle
 10
-227.0447450693
 20
726.0702017882
 30
0.0
 40
97.00000000000009
100
AcDbArc
 50
100.1820674032
 51
169.8179325968
  0
CIRCLE
  5
2E5
330
1F
100
AcDbEntity
  8
0
  6
Continuous
 62
     7
370
    15
100
AcDbCircle
 10
-25.5193124311
 20
786.1742781891
 30
0.0
 40
6.000000000000004
  0
ARC
  5
2E6
330
1F
100
AcDbEntity
  8
0
  6
Continuous
 62
     7
370
    15
100
AcDbCircle
 10
-479.3237825326
 20
655.3595236696
 30
0.0
 40
497.0000000000001
100
AcDbArc
 50
9.5272629363
 51
10.1820674032
  0
ARC
  5
2E7
330
1F
100
AcDbEntity
  8
0
  6
Continuous
 62
     7
370
    15
100
AcDbCircle
 10
166.6556486313
 20
655.3595236696
 30
0.0
 40
497.0
100
AcDbArc
 50
169.8179325968
 51
170.4727370637
  0
CIRCLE
  5
2E8
330
1F
100
AcDbEntity
  8
0
  6
Continuous
 62
     7
370
    15
100
AcDbCircle
 10
-25.5193124311
 20
524.5447691501
 30
0.0
 40
6.0
  0
ARC
  5
2E9
330
1F
100
AcDbEntity
  8
0
  6
Continuous
 62
     7
370
    15
100
AcDbCircle
 10
-227.0447450693
 20
584.6488455509
 30
0.0
 40
97.00000000000007
100
AcDbArc
 50
190.1820674032
 51
259.8179325968
  0
ARC
  5
2EA
330
1F
100
AcDbEntity
  8
0
  6
Continuous
 62
     7
370
    15
100
AcDbCircle
 10
166.6556486313
 20
655.3595236696
 30
0.0
 40
496.9999999999999
100
AcDbArc
 50
189.5272629363
 51
190.1820674032
  0
CIRCLE
  5
2EB
330
1F
100
AcDbEntity
  8
0
  6
Continuous
 62
     7
370
    15
100
AcDbCircle
 10
-287.1488214702
 20
524.5447691501
 30
0.0
 40
6.0
  0
ARC
  5
2EC
330
1F
100
AcDbEntity
  8
0
  6
Continuous
 62
     7
370
    15
100
AcDbCircle
 10
-85.623388832
 20
584.6488455509
 30
0.0
 40
97.00000000000004
100
AcDbArc
 50
280.1820674032
 51
349.8179325968
  0
ARC
  5
2ED
330
1F
100
AcDbEntity
  8
0
  6
Continuous
 62
     7
370
    15
100
AcDbCircle
 10
-479.3237825326
 20
655.3595236696
 30
0.0
 40
497.0
100
AcDbArc
 50
349.8179325968
 51
350.4727370637
  0
ARC
  5
2EE
330
1F
100
AcDbEntity
  8
0
  6
Continuous
 62
     7
370
    15
100
AcDbCircle
 10
-156.3340669507
 20
978.3492392515
 30
0.0
 40
496.9999999999999
100
AcDbArc
 50
279.5272629363
 51
280.1820674032
  0
ARC
  5
2EF
330
1F
100
AcDbEntity
  8
0
  6
Continuous
 62
     7
370
    15
100
AcDbCircle
 10
-156.3340669507
 20
978.3492392515
 30
0.0
 40
497.0
100
AcDbArc
 50
259.8179325968
 51
260.4727370637
  0
ARC
  5
2F0
330
1F
100
AcDbEntity
  8
0
  6
Continuous
 62
     7
370
    15
100
AcDbCircle
 10
-85.623388832
 20
726.0702017882
 30
0.0
 40
100.0
100
AcDbArc
 50
10.1820674032
 51
79.8179325968
  0
ARC
  5
2F1
330
1F
100
AcDbEntity
  8
0
  6
Continuous
 62
     7
370
    15
100
AcDbCircle
 10
-479.3237825326
 20
655.3595236696
 30
0.0
 40
499.9999999999999
100
AcDbArc
 50
349.8179325968
 51
355.410964943
  0
LWPOLYLINE
  5
2F2
330
1F
100
AcDbEntity
  8
0
  6
Continuous
 62
     7
370
    15
100
AcDbPolyline
 90
        3
 70
   128
 43
0.0
 10
20.0510377056
 20
630.3636062152
 10
20.2558243639
 20
634.8602011062
 10
20.4201543695
 20
639.3595229096
  0
LWPOLYLINE
  5
2F3
330
1F
100
AcDbEntity
  8
0
  6
Continuous
 62
     7
370
    15
100
AcDbPolyline
 90
        3
 70
   128
 43
0.0
 10
20.4201543695
 20
671.3595244295
 10
20.2558243639
 20
675.858846233
 10
19.9997628099
 20
681.359524206
  0
ARC
  5
2F4
330
1F
100
AcDbEntity
  8
0
  6
Continuous
 62
     7
370
    15
100
AcDbCircle
 10
-479.3237825326
 20
655.3595236696
 30
0.0
 40
500.0000000000001
100
AcDbArc
 50
4.4736148916
 51
10.1820674032
  0
ARC
  5
2F5
330
1F
100
AcDbEntity
  8
0
  6
Continuous
 62
     7
370
    15
100
AcDbCircle
 10
-85.623388832
 20
584.6488455509
 30
0.0
 40
100.0
100
AcDbArc
 50
280.1820674032
 51
349.8179325968
  0
ARC
  5
2F6
330
1F
100
AcDbEntity
  8
0
  6
Continuous
 62
     7
370
    15
100
AcDbCircle
 10
-156.3340669507
 20
978.3492392515
 30
0.0
 40
500.0000000000001
100
AcDbArc
 50
259.8179325968
 51
267.9369061455
  0
LWPOLYLINE
  5
2F7
330
1F
100
AcDbEntity
  8
0
  6
Continuous
 62
     7
370
    15
100
AcDbPolyline
 90
        3
 70
   128
 43
0.0
 10
-82.334065997
 20
483.8555625833
 10
-81.431830489
 20
483.9914164699
 10
-67.945720815
 20
486.2237445272
  0
ARC
  5
2F8
330
1F
100
AcDbEntity
  8
0
  6
Continuous
 62
     7
370
    15
100
AcDbCircle
 10
-227.0447450693
 20
584.6488455509
 30
0.0
 40
100.0
100
AcDbArc
 50
190.1820674032
 51
259.8179325968
  0
ARC
  5
2F9
330
1F
100
AcDbEntity
  8
0
  6
Continuous
 62
     7
370
    15
100
AcDbCircle
 10
166.6556486313
 20
655.3595236696
 30
0.0
 40
500.0000000000001
100
AcDbArc
 50
169.8179325968
 51
175.4536308052
  0
ARC
  5
2FA
330
1F
100
AcDbEntity
  8
0
  6
Continuous
 62
     7
370
    15
100
AcDbCircle
 10
166.6556486313
 20
655.3595236696
 30
0.0
 40
500.0000000000001
100
AcDbArc
 50
177.0919000272
 51
182.9674636479
  0
ARC
  5
2FB
330
1F
100
AcDbEntity
  8
0
  6
Continuous
 62
     7
370
    15
100
AcDbCircle
 10
166.6556486313
 20
655.3595236696
 30
0.0
 40
499.9999999999999
100
AcDbArc
 50
184.4868988525
 51
190.1820674032
  0
ARC
  5
2FC
330
1F
100
AcDbEntity
  8
0
  6
Continuous
 62
     7
370
    15
100
AcDbCircle
 10
-227.0447450693
 20
726.0702017882
 30
0.0
 40
100.0000000000001
100
AcDbArc
 50
100.1820674032
 51
169.8179325968
  0
ARC
  5
2FD
330
1F
100
AcDbEntity
  8
0
  6
Continuous
 62
     7
370
    15
100
AcDbCircle
 10
-156.3340669507
 20
332.3698080876
 30
0.0
 40
500.0000000000001
100
AcDbArc
 50
79.8179325968
 51
85.1239751304
  0
ARC
  5
2FE
330
1F
100
AcDbEntity
  8
0
  6
Continuous
 62
     7
370
    15
100
AcDbCircle
 10
-156.3340669507
 20
332.3698080876
 30
0.0
 40
499.9999999999999
100
AcDbArc
 50
94.8760248696
 51
100.1820674032
  0
INSERT
  5
322
330
1F
100
AcDbEntity
  8
0
  6
Continuous
 62
     7
370
     0
100
AcDbBlockReference
  2
SW_CENTERMARKSYMBOL_2
 10
-25.5193124311
 20
786.1742781891
 30
0.0
  0
INSERT
  5
32E
330
1F
100
AcDbEntity
  8
0
  6
Continuous
 62
     7
370
     0
100
AcDbBlockReference
  2
SW_CENTERMARKSYMBOL_3
 10
-156.3340669507
 20
655.3595236696
 30
0.0
  0
LINE
  5
32F
330
1F
100
AcDbEntity
  8
0
  6
Continuous
 62
     7
370
    15
100
AcDbLine
 10
289.0299187718
 20
-41.0194023156
 30
0.0
 11
289.0299187718
 21
-36.0193996334
 31
0.0
  0
LINE
  5
330
330
1F
100
AcDbEntity
  8
0
  6
Continuous
 62
     7
370
    15
100
AcDbLine
 10
283.029919651
 20
-36.0193996334
 30
0.0
 11
283.029919651
 21
-41.0194023156
 31
0.0
  0
LINE
  5
331
330
1F
100
AcDbEntity
  8
0
  6
Continuous
 62
     7
370
    15
100
AcDbLine
 10
330.0299199043
 20
10.9805987572
 30
0.0
 11
330.0299199043
 21
13.4805987014
 31
0.0
  0
LINE
  5
332
330
1F
100
AcDbEntity
  8
0
  6
Continuous
 62
     7
370
    15
100
AcDbLine
 10
330.0299199043
 20
31.4805993235
 30
0.0
 11
330.0299199043
 21
32.980598638
 31
0.0
  0
LINE
  5
333
330
1F
100
AcDbEntity
  8
0
  6
Continuous
 62
     7
370
    15
100
AcDbLine
 10
324.0299189208
 20
32.980598638
 30
0.0
 11
324.0299189208
 21
31.4805993235
 31
0.0
  0
LINE
  5
334
330
1F
100
AcDbEntity
  8
0
  6
Continuous
 62
     7
370
    15
100
AcDbLine
 10
324.0299189208
 20
13.4805987014
 30
0.0
 11
324.0299189208
 21
10.9805987572
 31
0.0
  0
LINE
  5
335
330
1F
100
AcDbEntity
  8
0
  6
Continuous
 62
     7
370
    15
100
AcDbLine
 10
285.0299199788
 20
10.9805987572
 30
0.0
 11
285.0299199788
 21
13.4805987014
 31
0.0
  0
LINE
  5
336
330
1F
100
AcDbEntity
  8
0
  6
Continuous
 62
     7
370
    15
100
AcDbLine
 10
285.0299199788
 20
31.4805993235
 30
0.0
 11
285.0299199788
 21
32.980598638
 31
0.0
  0
LINE
  5
337
330
1F
100
AcDbEntity
  8
0
  6
Continuous
 62
     7
370
    15
100
AcDbLine
 10
279.0299189953
 20
32.980598638
 30
0.0
 11
279.0299189953
 21
31.4805993235
 31
0.0
  0
LINE
  5
338
330
1F
100
AcDbEntity
  8
0
  6
Continuous
 62
     7
370
    15
100
AcDbLine
 10
279.0299189953
 20
13.4805987014
 30
0.0
 11
279.0299189953
 21
10.9805987572
 31
0.0
  0
LINE
  5
339
330
1F
100
AcDbEntity
  8
0
  6
Continuous
 62
     7
370
    15
100
AcDbLine
 10
349.0299192933
 20
13.4805987014
 30
0.0
 11
349.0299192933
 21
26.4805985039
 31
0.0
  0
LINE
  5
33A
330
1F
100
AcDbEntity
  8
0
  6
Continuous
 62
     7
370
    15
100
AcDbLine
 10
257.0299191145
 20
26.4805985039
 30
0.0
 11
257.0299191145
 21
13.4805987014
 31
0.0
  0
LINE
  5
33B
330
1F
100
AcDbEntity
  8
0
  6
Continuous
 62
     7
370
    15
100
AcDbLine
 10
305.0299192989
 20
26.4805985039
 30
0.0
 11
305.0299192989
 21
62.4805988168
 31
0.0
  0
LINE
  5
33C
330
1F
100
AcDbEntity
  8
0
  6
Continuous
 62
     7
370
    15
100
AcDbLine
 10
259.0299194424
 20
62.4805988168
 30
0.0
 11
259.0299194424
 21
26.4805985039
 31
0.0
  0
LINE
  5
33D
330
1F
100
AcDbEntity
  8
0
  6
Continuous
 62
     7
370
    15
100
AcDbLine
 10
347.0299189655
 20
26.4805985039
 30
0.0
 11
347.0299189655
 21
58.4805981612
 31
0.0
  0
LINE
  5
33E
330
1F
100
AcDbEntity
  8
0
  6
Continuous
 62
     7
370
    15
100
AcDbLine
 10
307.0299193939
 20
58.4805981612
 30
0.0
 11
307.0299193939
 21
26.4805985039
 31
0.0
  0
ARC
  5
33F
330
1F
100
AcDbEntity
  8
0
  6
Continuous
 62
     7
370
    15
100
AcDbCircle
 10
305.6299192039
 20
-92.0194012428
 30
0.0
 40
2.0
100
AcDbArc
 50
270.0
 51
0.0
  0
ARC
  5
340
330
1F
100
AcDbEntity
  8
0
  6
Continuous
 62
     7
370
    15
100
AcDbCircle
 10
266.4299192039
 20
-92.0194012428
 30
0.0
 40
2.000000000000057
100
AcDbArc
 50
180.0
 51
270.0
  0
LINE
  5
341
330
1F
100
AcDbEntity
  8
0
  6
Continuous
 62
     7
370
    15
100
AcDbLine
 10
264.4299177198
 20
-72.9587896371
 30
0.0
 11
264.4299177198
 21
-92.019401362
 31
0.0
  0
LINE
  5
342
330
1F
100
AcDbEntity
  8
0
  6
Continuous
 62
     7
370
    15
100
AcDbLine
 10
307.629919306
 20
-92.019401362
 30
0.0
 11
307.629919306
 21
-72.9587896371
 31
0.0
  0
LINE
  5
343
330
1F
100
AcDbEntity
  8
0
  6
Continuous
 62
     7
370
    15
100
AcDbLine
 10
310.02991942
 20
-70.0194014812
 30
0.0
 11
310.02991942
 21
-59.0194015408
 31
0.0
  0
ARC
  5
344
330
1F
100
AcDbEntity
  8
0
  6
Continuous
 62
     7
370
    15
100
AcDbCircle
 10
309.0299192039
 20
-70.0194012428
 30
0.0
 40
1.000000000000569
100
AcDbArc
 50
281.5369590327
 51
0.0
  0
ARC
  5
345
330
1F
100
AcDbEntity
  8
0
  6
Continuous
 62
     7
370
    15
100
AcDbCircle
 10
263.0299192039
 20
-70.0194012428
 30
0.0
 40
1.000000000001239
100
AcDbArc
 50
180.0
 51
258.4630409675
  0
LINE
  5
346
330
1F
100
AcDbEntity
  8
0
  6
Continuous
 62
     7
370
    15
100
AcDbLine
 10
262.0299180714
 20
-59.0194015408
 30
0.0
 11
262.0299180714
 21
-70.0194014812
 31
0.0
  0
ARC
  5
347
330
1F
100
AcDbEntity
  8
0
  6
Continuous
 62
     7
370
    15
100
AcDbCircle
 10
309.6299192039
 20
-72.9587889341
 30
0.0
 40
2.0
100
AcDbArc
 50
101.5369590329
 51
180.0
  0
ARC
  5
348
330
1F
100
AcDbEntity
  8
0
  6
Continuous
 62
     7
370
    15
100
AcDbCircle
 10
262.4299192039
 20
-72.9587889341
 30
0.0
 40
2.0
100
AcDbArc
 50
0.0
 51
78.463040967
  0
LINE
  5
349
330
1F
100
AcDbEntity
  8
0
  6
Continuous
 62
     7
370
    15
100
AcDbLine
 10
257.0299191145
 20
10.9805987572
 30
0.0
 11
257.0299191145
 21
-2.019401511
 31
0.0
  0
LINE
  5
34A
330
1F
100
AcDbEntity
  8
0
  6
Continuous
 62
     7
370
    15
100
AcDbLine
 10
349.0299192933
 20
-2.019401511
 30
0.0
 11
349.0299192933
 21
10.9805987572
 31
0.0
  0
LINE
  5
34B
330
1F
100
AcDbEntity
  8
0
  6
Continuous
 62
     7
370
    15
100
AcDbLine
 10
265.0299204258
 20
-2.019401511
 30
0.0
 11
265.0299204258
 21
-46.0194012726
 31
0.0
  0
LINE
  5
34C
330
1F
100
AcDbEntity
  8
0
  6
Continuous
 62
     7
370
    15
100
AcDbLine
 10
307.0299193939
 20
-5.5366213078
 30
0.0
 11
307.0299193939
 21
-2.019401511
 31
0.0
  0
LINE
  5
34D
330
1F
100
AcDbEntity
  8
0
  6
Continuous
 62
     7
370
    15
100
AcDbLine
 10
307.0299193939
 20
-46.0194012726
 30
0.0
 11
307.0299193939
 21
-36.6836710477
 31
0.0
  0
SPLINE
  5
34E
330
1F
100
AcDbEntity
  8
0
  6
Continuous
 62
     7
370
    15
100
AcDbSpline
210
0.0
220
0.0
230
1.0
 70
     8
 71
     3
 72
    10
 73
     6
 74
     0
 42
0.00000001
 43
0.00000001
 12
1.0
 22
0.0
 32
0.0
 13
1.0
 23
0.0
 33
0.0
 40
0.0
 40
0.0
 40
0.0
 40
0.0
 40
0.1161341892277131
 40
0.5001615288946712
 40
1.0
 40
1.0
 40
1.0
 40
1.0
 10
308.8325706055469
 20
-1.998129172052887
 30
0.0
 10
308.7708136900353
 20
-2.139213620801292
 30
0.0
 10
308.5048417700731
 20
-2.746829810818353
 30
0.0
 10
307.9084656785427
 20
-3.933562461980901
 30
0.0
 10
307.3146221748775
 20
-4.94500563674595
 30
0.0
 10
306.9787953725166
 20
-5.516990890528706
 30
0.0
  0
SPLINE
  5
34F
330
1F
100
AcDbEntity
  8
0
  6
Continuous
 62
     7
370
    15
100
AcDbSpline
210
0.0
220
0.0
230
1.0
 70
     8
 71
     3
 72
    30
 73
    26
 74
     0
 42
0.00000001
 43
0.00000001
 12
1.0
 22
0.0
 32
0.0
 13
1.0
 23
0.0
 33
0.0
 40
0.0
 40
0.0
 40
0.0
 40
0.0
 40
0.0404442426951536
 40
0.0796859136099256
 40
0.1066834144734803
 40
0.1276567808425589
 40
0.151096322125762
 40
0.1858166499739897
 40
0.2278797599795743
 40
0.2772451178190605
 40
0.3141417766664608
 40
0.3399393443605566
 40
0.3633492353712675
 40
0.388830557513253
 40
0.416987824318633
 40
0.4482151723922488
 40
0.5250440072169914
 40
0.5994671654303582
 40
0.6731358224285613
 40
0.7101964460181504
 40
0.7483343657126571
 40
0.7958063444555306
 40
0.8546833017853854
 40
0.9251739319148815
 40
1.0
 40
1.0
 40
1.0
 40
1.0
 10
307.0244436828501
 20
-36.68630110266402
 30
0.0
 10
307.6126968001098
 20
-36.40839598274825
 30
0.0
 10
308.7717118776337
 20
-35.86084899208555
 30
0.0
 10
310.2846447161054
 20
-35.04991961050103
 30
0.0
 10
311.5076897955647
 20
-34.36300417052346
 30
0.0
 10
312.4990737153087
 20
-33.78283342781061
 30
0.0
 10
313.5879265508697
 20
-33.12361440329731
 30
0.0
 10
314.9503185853538
 20
-32.26152847006513
 30
0.0
 10
316.6350993077981
 20
-31.13050274452897
 30
0.0
 10
318.3071607281077
 20
-29.91968039358681
 30
0.0
 10
319.7243777848187
 20
-28.80510478155056
 30
0.0
 10
320.7882397007103
 20
-27.91938722549536
 30
0.0
 10
321.6956301270949
 20
-27.13180937299104
 30
0.0
 10
322.6154088086496
 20
-26.30180720968816
 30
0.0
 10
323.6090708421401
 20
-25.36633997074327
 30
0.0
 10
325.1700313071317
 20
-23.82860674990502
 30
0.0
 10
327.1767268545594
 20
-21.68412965247835
 30
0.0
 10
329.4845677210718
 20
-18.89539729420949
 30
0.0
 10
331.2443896707846
 20
-16.4906211695282
 30
0.0
 10
332.5755131454616
 20
-14.49994731557445
 30
0.0
 10
333.6256775193944
 20
-12.82922967693222
 30
0.0
 10
334.8014695911264
 20
-10.82400927154366
 30
0.0
 10
336.141615006777
 20
-8.314684220099695
 30
0.0
 10
337.5593354449432
 20
-5.34810616701233
 30
0.0
 10
338.3789180507759
 20
-3.158752417156289
 30
0.0
 10
338.8009352354414
 20
-2.031416503514794
 30
0.0
  0
LINE
  5
350
330
1F
100
AcDbEntity
  8
0
  6
Continuous
 62
     7
370
    15
100
AcDbLine
 10
316.0485673441
 20
10.9885760171
 30
0.0
 11
316.0478530197
 21
10.9805987572
 31
0.0
  0
LINE
  5
351
330
1F
100
AcDbEntity
  8
0
  6
Continuous
 62
     7
370
    15
100
AcDbLine
 10
310.02991942
 20
-59.0194015408
 30
0.0
 11
310.02991942
 21
-46.0194012726
 31
0.0
  0
LINE
  5
352
330
1F
100
AcDbEntity
  8
0
  6
Continuous
 62
     7
370
    15
100
AcDbLine
 10
262.0299180714
 20
-46.0194012726
 30
0.0
 11
262.0299180714
 21
-59.0194015408
 31
0.0
  0
LINE
  5
353
330
1F
100
AcDbEntity
  8
0
  6
Continuous
 62
     7
370
    15
100
AcDbLine
 10
290.0299189357
 20
10.9805987572
 30
0.0
 11
290.0299189357
 21
13.4805987014
 31
0.0
  0
LINE
  5
354
330
1F
100
AcDbEntity
  8
0
  6
Continuous
 62
     7
370
    15
100
AcDbLine
 10
290.0299189357
 20
62.4805988168
 30
0.0
 11
290.0299189357
 21
92.9806010222
 31
0.0
  0
LINE
  5
355
330
1F
100
AcDbEntity
  8
0
  6
Continuous
 62
     7
370
    15
100
AcDbLine
 10
274.0299200384
 20
92.9806010222
 30
0.0
 11
274.0299200384
 21
62.4805988168
 31
0.0
  0
LINE
  5
356
330
1F
100
AcDbEntity
  8
0
  6
Continuous
 62
     7
370
    15
100
AcDbLine
 10
274.0299200384
 20
13.4805987014
 30
0.0
 11
274.0299200384
 21
10.9805987572
 31
0.0
  0
LINE
  5
357
330
1F
100
AcDbEntity
  8
0
  6
Continuous
 62
     7
370
    15
100
AcDbLine
 10
278.6106971769
 20
31.4805993235
 30
0.0
 11
278.6106971769
 21
26.4805985039
 31
0.0
  0
LINE
  5
358
330
1F
100
AcDbEntity
  8
0
  6
Continuous
 62
     7
370
    15
100
AcDbLine
 10
278.6106971769
 20
31.4805993235
 30
0.0
 11
284.3491641549
 21
31.4805993235
 31
0.0
  0
LINE
  5
359
330
1F
100
AcDbEntity
  8
0
  6
Continuous
 62
     7
370
    15
100
AcDbLine
 10
284.3491641549
 20
31.4805993235
 30
0.0
 11
284.3491641549
 21
26.4805985039
 31
0.0
  0
LINE
  5
35A
330
1F
100
AcDbEntity
  8
0
  6
Continuous
 62
     7
370
    15
100
AcDbLine
 10
287.7683873965
 20
31.4805993235
 30
0.0
 11
287.7683873965
 21
26.4805985039
 31
0.0
  0
LINE
  5
35B
330
1F
100
AcDbEntity
  8
0
  6
Continuous
 62
     7
370
    15
100
AcDbLine
 10
284.3491641549
 20
31.4805993235
 30
0.0
 11
287.7683873965
 21
31.4805993235
 31
0.0
  0
LINE
  5
35C
330
1F
100
AcDbEntity
  8
0
  6
Continuous
 62
     7
370
    15
100
AcDbLine
 10
276.2914506463
 20
31.4805993235
 30
0.0
 11
276.2914506463
 21
26.4805985039
 31
0.0
  0
LINE
  5
35D
330
1F
100
AcDbEntity
  8
0
  6
Continuous
 62
     7
370
    15
100
AcDbLine
 10
276.2914506463
 20
31.4805993235
 30
0.0
 11
278.6106971769
 21
31.4805993235
 31
0.0
  0
LINE
  5
35E
330
1F
100
AcDbEntity
  8
0
  6
Continuous
 62
     7
370
    15
100
AcDbLine
 10
323.6106971024
 20
31.4805993235
 30
0.0
 11
323.6106971024
 21
26.4805985039
 31
0.0
  0
LINE
  5
35F
330
1F
100
AcDbEntity
  8
0
  6
Continuous
 62
     7
370
    15
100
AcDbLine
 10
323.6106971024
 20
31.4805993235
 30
0.0
 11
329.3491640804
 21
31.4805993235
 31
0.0
  0
LINE
  5
360
330
1F
100
AcDbEntity
  8
0
  6
Continuous
 62
     7
370
    15
100
AcDbLine
 10
329.3491640804
 20
31.4805993235
 30
0.0
 11
329.3491640804
 21
26.4805985039
 31
0.0
  0
LINE
  5
361
330
1F
100
AcDbEntity
  8
0
  6
Continuous
 62
     7
370
    15
100
AcDbLine
 10
332.7683882533
 20
31.4805993235
 30
0.0
 11
332.7683882533
 21
26.4805985039
 31
0.0
  0
LINE
  5
362
330
1F
100
AcDbEntity
  8
0
  6
Continuous
 62
     7
370
    15
100
AcDbLine
 10
329.3491640804
 20
31.4805993235
 30
0.0
 11
332.7683882533
 21
31.4805993235
 31
0.0
  0
LINE
  5
363
330
1F
100
AcDbEntity
  8
0
  6
Continuous
 62
     7
370
    15
100
AcDbLine
 10
321.2914505718
 20
31.4805993235
 30
0.0
 11
321.2914505718
 21
26.4805985039
 31
0.0
  0
LINE
  5
364
330
1F
100
AcDbEntity
  8
0
  6
Continuous
 62
     7
370
    15
100
AcDbLine
 10
321.2914505718
 20
31.4805993235
 30
0.0
 11
323.6106971024
 21
31.4805993235
 31
0.0
  0
LINE
  5
365
330
1F
100
AcDbEntity
  8
0
  6
Continuous
 62
     7
370
    15
100
AcDbLine
 10
282.6106959699
 20
-41.0194023156
 30
0.0
 11
282.6106959699
 21
-46.0194012726
 31
0.0
  0
LINE
  5
366
330
1F
100
AcDbEntity
  8
0
  6
Continuous
 62
     7
370
    15
100
AcDbLine
 10
282.6106959699
 20
-41.0194023156
 30
0.0
 11
288.3491648106
 21
-41.0194023156
 31
0.0
  0
LINE
  5
367
330
1F
100
AcDbEntity
  8
0
  6
Continuous
 62
     7
370
    15
100
AcDbLine
 10
288.3491648106
 20
-41.0194023156
 30
0.0
 11
288.3491648106
 21
-46.0194012726
 31
0.0
  0
LINE
  5
368
330
1F
100
AcDbEntity
  8
0
  6
Continuous
 62
     7
370
    15
100
AcDbLine
 10
291.7683871208
 20
-41.0194023156
 30
0.0
 11
291.7683871208
 21
-46.0194012726
 31
0.0
  0
LINE
  5
369
330
1F
100
AcDbEntity
  8
0
  6
Continuous
 62
     7
370
    15
100
AcDbLine
 10
288.3491648106
 20
-41.0194023156
 30
0.0
 11
291.7683871208
 21
-41.0194023156
 31
0.0
  0
LINE
  5
36A
330
1F
100
AcDbEntity
  8
0
  6
Continuous
 62
     7
370
    15
100
AcDbLine
 10
280.291451302
 20
-41.0194023156
 30
0.0
 11
280.291451302
 21
-46.0194012726
 31
0.0
  0
LINE
  5
36B
330
1F
100
AcDbEntity
  8
0
  6
Continuous
 62
     7
370
    15
100
AcDbLine
 10
280.291451302
 20
-41.0194023156
 30
0.0
 11
282.6106959699
 21
-41.0194023156
 31
0.0
  0
LINE
  5
36C
330
1F
100
AcDbEntity
  8
0
  6
Continuous
 62
     7
370
    15
100
AcDbLine
 10
291.0299190996
 20
-76.0193987394
 30
0.0
 11
291.0299190996
 21
-71.0194035077
 31
0.0
  0
LINE
  5
36D
330
1F
100
AcDbEntity
  8
0
  6
Continuous
 62
     7
370
    15
100
AcDbLine
 10
291.0299190996
 20
-76.0193987394
 30
0.0
 11
286.0299182801
 21
-76.0193987394
 31
0.0
  0
LINE
  5
36E
330
1F
100
AcDbEntity
  8
0
  6
Continuous
 62
     7
370
    15
100
AcDbLine
 10
286.0299182801
 20
-76.0193987394
 30
0.0
 11
286.0299182801
 21
-71.0194035077
 31
0.0
  0
LINE
  5
36F
330
1F
100
AcDbEntity
  8
0
  6
Continuous
 62
     7
370
    15
100
AcDbLine
 10
281.0299193231
 20
-76.0193987394
 30
0.0
 11
281.0299193231
 21
-71.0194035077
 31
0.0
  0
LINE
  5
370
330
1F
100
AcDbEntity
  8
0
  6
Continuous
 62
     7
370
    15
100
AcDbLine
 10
286.0299182801
 20
-76.0193987394
 30
0.0
 11
281.0299193231
 21
-76.0193987394
 31
0.0
  0
LINE
  5
371
330
1F
100
AcDbEntity
  8
0
  6
Continuous
 62
     7
370
    15
100
AcDbLine
 10
289.0299187718
 20
-36.0193996334
 30
0.0
 11
283.029919651
 21
-36.0193996334
 31
0.0
  0
LINE
  5
372
330
1F
100
AcDbEntity
  8
0
  6
Continuous
 62
     7
370
    15
100
AcDbLine
 10
327.0299194126
 20
-7.0194004679
 30
0.0
 11
327.0299194126
 21
-2.019401511
 31
0.0
  0
LINE
  5
373
330
1F
100
AcDbEntity
  8
0
  6
Continuous
 62
     7
370
    15
100
AcDbLine
 10
327.0299194126
 20
-7.0194004679
 30
0.0
 11
322.029918593
 21
-7.0194004679
 31
0.0
  0
LINE
  5
374
330
1F
100
AcDbEntity
  8
0
  6
Continuous
 62
     7
370
    15
100
AcDbLine
 10
322.029918593
 20
-7.0194004679
 30
0.0
 11
322.029918593
 21
-2.019401511
 31
0.0
  0
LINE
  5
375
330
1F
100
AcDbEntity
  8
0
  6
Continuous
 62
     7
370
    15
100
AcDbLine
 10
332.0299183695
 20
-7.0194004679
 30
0.0
 11
332.0299183695
 21
-2.019401511
 31
0.0
  0
LINE
  5
376
330
1F
100
AcDbEntity
  8
0
  6
Continuous
 62
     7
370
    15
100
AcDbLine
 10
332.0299183695
 20
-7.0194004679
 30
0.0
 11
327.0299194126
 21
-7.0194004679
 31
0.0
  0
LINE
  5
377
330
1F
100
AcDbEntity
  8
0
  6
Continuous
 62
     7
370
    15
100
AcDbLine
 10
330.0299199043
 20
32.980598638
 30
0.0
 11
324.0299189208
 21
32.980598638
 31
0.0
  0
LINE
  5
378
330
1F
100
AcDbEntity
  8
0
  6
Continuous
 62
     7
370
    15
100
AcDbLine
 10
282.0299194871
 20
-7.0194004679
 30
0.0
 11
282.0299194871
 21
-2.019401511
 31
0.0
  0
LINE
  5
379
330
1F
100
AcDbEntity
  8
0
  6
Continuous
 62
     7
370
    15
100
AcDbLine
 10
282.0299194871
 20
-7.0194004679
 30
0.0
 11
277.0299186675
 21
-7.0194004679
 31
0.0
  0
LINE
  5
37A
330
1F
100
AcDbEntity
  8
0
  6
Continuous
 62
     7
370
    15
100
AcDbLine
 10
277.0299186675
 20
-7.0194004679
 30
0.0
 11
277.0299186675
 21
-2.019401511
 31
0.0
  0
LINE
  5
37B
330
1F
100
AcDbEntity
  8
0
  6
Continuous
 62
     7
370
    15
100
AcDbLine
 10
287.029918444
 20
-7.0194004679
 30
0.0
 11
287.029918444
 21
-2.019401511
 31
0.0
  0
LINE
  5
37C
330
1F
100
AcDbEntity
  8
0
  6
Continuous
 62
     7
370
    15
100
AcDbLine
 10
287.029918444
 20
-7.0194004679
 30
0.0
 11
282.0299194871
 21
-7.0194004679
 31
0.0
  0
LINE
  5
37D
330
1F
100
AcDbEntity
  8
0
  6
Continuous
 62
     7
370
    15
100
AcDbLine
 10
285.0299199788
 20
32.980598638
 30
0.0
 11
279.0299189953
 21
32.980598638
 31
0.0
  0
LINE
  5
37E
330
1F
100
AcDbEntity
  8
0
  6
Continuous
 62
     7
370
    15
100
AcDbLine
 10
325.745552939
 20
26.4805985039
 30
0.0
 11
325.745552939
 21
13.4805987014
 31
0.0
  0
LINE
  5
37F
330
1F
100
AcDbEntity
  8
0
  6
Continuous
 62
     7
370
    15
100
AcDbLine
 10
325.745552939
 20
26.4805985039
 30
0.0
 11
349.0299192933
 21
26.4805985039
 31
0.0
  0
LINE
  5
380
330
1F
100
AcDbEntity
  8
0
  6
Continuous
 62
     7
370
    15
100
AcDbLine
 10
325.745552939
 20
13.4805987014
 30
0.0
 11
349.0299192933
 21
13.4805987014
 31
0.0
  0
LINE
  5
381
330
1F
100
AcDbEntity
  8
0
  6
Continuous
 62
     7
370
    15
100
AcDbLine
 10
280.3142854689
 20
26.4805985039
 30
0.0
 11
280.3142854689
 21
13.4805987014
 31
0.0
  0
LINE
  5
382
330
1F
100
AcDbEntity
  8
0
  6
Continuous
 62
     7
370
    15
100
AcDbLine
 10
280.3142854689
 20
13.4805987014
 30
0.0
 11
325.745552939
 21
13.4805987014
 31
0.0
  0
LINE
  5
383
330
1F
100
AcDbEntity
  8
0
  6
Continuous
 62
     7
370
    15
100
AcDbLine
 10
280.3142854689
 20
26.4805985039
 30
0.0
 11
325.745552939
 21
26.4805985039
 31
0.0
  0
LINE
  5
384
330
1F
100
AcDbEntity
  8
0
  6
Continuous
 62
     7
370
    15
100
AcDbLine
 10
257.0299191145
 20
13.4805987014
 30
0.0
 11
280.3142854689
 21
13.4805987014
 31
0.0
  0
LINE
  5
385
330
1F
100
AcDbEntity
  8
0
  6
Continuous
 62
     7
370
    15
100
AcDbLine
 10
257.0299191145
 20
26.4805985039
 30
0.0
 11
280.3142854689
 21
26.4805985039
 31
0.0
  0
LINE
  5
386
330
1F
100
AcDbEntity
  8
0
  6
Continuous
 62
     7
370
    15
100
AcDbLine
 10
259.0299194424
 20
62.4805988168
 30
0.0
 11
305.0299192989
 21
62.4805988168
 31
0.0
  0
LINE
  5
387
330
1F
100
AcDbEntity
  8
0
  6
Continuous
 62
     7
370
    15
100
AcDbLine
 10
307.0299193939
 20
58.4805981612
 30
0.0
 11
347.0299189655
 21
58.4805981612
 31
0.0
  0
LINE
  5
388
330
1F
100
AcDbEntity
  8
0
  6
Continuous
 62
     7
370
    15
100
AcDbLine
 10
293.989818704
 20
-71.0194035077
 30
0.0
 11
278.0700197188
 21
-71.0194035077
 31
0.0
  0
ARC
  5
389
330
1F
100
AcDbEntity
  8
0
  6
Continuous
 62
     7
370
    15
100
AcDbCircle
 10
278.1315857581
 20
-70.0738403518
 30
0.0
 40
0.947565332357785
100
AcDbArc
 50
176.7064688539
 51
266.2747045747
  0
LINE
  5
38A
330
1F
100
AcDbEntity
  8
0
  6
Continuous
 62
     7
370
    15
100
AcDbLine
 10
277.1855855106
 20
-70.0194014812
 30
0.0
 11
294.8742519809
 21
-70.0194014812
 31
0.0
  0
ARC
  5
38B
330
1F
100
AcDbEntity
  8
0
  6
Continuous
 62
     7
370
    15
100
AcDbCircle
 10
293.9282547154
 20
-70.0738430466
 30
0.0
 40
0.9475625100445374
100
AcDbArc
 50
273.7251822732
 51
3.2937041794
  0
LINE
  5
38C
330
1F
100
AcDbEntity
  8
0
  6
Continuous
 62
     7
370
    15
100
AcDbLine
 10
294.8742519809
 20
-59.0194015408
 30
0.0
 11
277.1855855106
 21
-59.0194015408
 31
0.0
  0
LINE
  5
38D
330
1F
100
AcDbEntity
  8
0
  6
Continuous
 62
     7
370
    15
100
AcDbLine
 10
294.8742519809
 20
-70.0194014812
 30
0.0
 11
294.8742519809
 21
-59.0194015408
 31
0.0
  0
LINE
  5
38E
330
1F
100
AcDbEntity
  8
0
  6
Continuous
 62
     7
370
    15
100
AcDbLine
 10
277.1855855106
 20
-70.0194014812
 30
0.0
 11
277.1855855106
 21
-59.0194015408
 31
0.0
  0
LINE
  5
38F
330
1F
100
AcDbEntity
  8
0
  6
Continuous
 62
     7
370
    15
100
AcDbLine
 10
307.2563178582
 20
-70.0194014812
 30
0.0
 11
307.2563178582
 21
-59.0194015408
 31
0.0
  0
LINE
  5
390
330
1F
100
AcDbEntity
  8
0
  6
Continuous
 62
     7
370
    15
100
AcDbLine
 10
294.8742519809
 20
-70.0194014812
 30
0.0
 11
307.2563178582
 21
-70.0194014812
 31
0.0
  0
LINE
  5
391
330
1F
100
AcDbEntity
  8
0
  6
Continuous
 62
     7
370
    15
100
AcDbLine
 10
307.2563178582
 20
-59.0194015408
 30
0.0
 11
294.8742519809
 21
-59.0194015408
 31
0.0
  0
ARC
  5
392
330
1F
100
AcDbEntity
  8
0
  6
Continuous
 62
     7
370
    15
100
AcDbCircle
 10
306.2796748021
 20
-70.0595024212
 30
0.0
 40
0.9774659811903764
100
AcDbArc
 50
285.9798903603
 51
2.3512425637
  0
SPLINE
  5
393
330
1F
100
AcDbEntity
  8
0
  6
Continuous
 62
     7
370
    15
100
AcDbSpline
210
0.0
220
0.0
230
1.0
 70
     8
 71
     3
 72
    10
 73
     6
 74
     0
 42
0.00000001
 43
0.00000001
 12
1.0
 22
0.0
 32
0.0
 13
1.0
 23
0.0
 33
0.0
 40
0.0
 40
0.0
 40
0.0
 40
0.0
 40
0.3779384860819385
 40
0.9700254573240051
 40
1.0
 40
1.0
 40
1.0
 40
1.0
 10
303.9042811585671
 20
-71.01940350773528
 30
0.0
 10
304.2545210760085
 20
-71.01716840733563
 30
0.0
 10
305.1534547612525
 20
-71.01143174815115
 30
0.0
 10
306.0111754480118
 20
-70.99934339585042
 30
0.0
 10
306.5240575023794
 20
-70.99920423856405
 30
0.0
 10
306.5487711435265
 20
-70.99919753315642
 30
0.0
  0
LINE
  5
394
330
1F
100
AcDbEntity
  8
0
  6
Continuous
 62
     7
370
    15
100
AcDbLine
 10
303.9042811586
 20
-71.0194035077
 30
0.0
 11
293.989818704
 21
-71.0194035077
 31
0.0
  0
LINE
  5
395
330
1F
100
AcDbEntity
  8
0
  6
Continuous
 62
     7
370
    15
100
AcDbLine
 10
264.8035196332
 20
-70.0194014812
 30
0.0
 11
277.1855855106
 21
-70.0194014812
 31
0.0
  0
LINE
  5
396
330
1F
100
AcDbEntity
  8
0
  6
Continuous
 62
     7
370
    15
100
AcDbLine
 10
264.8035196332
 20
-70.0194014812
 30
0.0
 11
264.8035196332
 21
-59.0194015408
 31
0.0
  0
LINE
  5
397
330
1F
100
AcDbEntity
  8
0
  6
Continuous
 62
     7
370
    15
100
AcDbLine
 10
277.1855855106
 20
-59.0194015408
 30
0.0
 11
264.8035196332
 21
-59.0194015408
 31
0.0
  0
SPLINE
  5
398
330
1F
100
AcDbEntity
  8
0
  6
Continuous
 62
     7
370
    15
100
AcDbSpline
210
0.0
220
0.0
230
1.0
 70
     8
 71
     3
 72
     9
 73
     5
 74
     0
 42
0.00000001
 43
0.00000001
 12
1.0
 22
0.0
 32
0.0
 13
1.0
 23
0.0
 33
0.0
 40
0.0
 40
0.0
 40
0.0
 40
0.0
 40
0.377936368497293
 40
1.0
 40
1.0
 40
1.0
 40
1.0
 10
265.5110677449114
 20
-70.99919753315642
 30
0.0
 10
265.8263607629285
 20
-71.00074912100281
 30
0.0
 10
266.6606097114239
 20
-71.00485454185063
 30
0.0
 10
267.5822433977197
 20
-71.0138239593273
 30
0.0
 10
268.155558195532
 20
-71.01940350773528
 30
0.0
  0
ARC
  5
399
330
1F
100
AcDbEntity
  8
0
  6
Continuous
 62
     7
370
    15
100
AcDbCircle
 10
265.7801631072
 20
-70.0595017358
 30
0.0
 40
0.9774663705766249
100
AcDbArc
 50
177.6487985847
 51
254.0201758758
  0
LINE
  5
39A
330
1F
100
AcDbEntity
  8
0
  6
Continuous
 62
     7
370
    15
100
AcDbLine
 10
278.0700197188
 20
-71.0194035077
 30
0.0
 11
268.1555581955
 21
-71.0194035077
 31
0.0
  0
ARC
  5
39B
330
1F
100
AcDbEntity
  8
0
  6
Continuous
 62
     7
370
    15
100
AcDbCircle
 10
267.8740922223
 20
-72.8062167171
 30
0.0
 40
1.808846190045193
100
AcDbArc
 50
353.2316171244
 51
81.0480992448
  0
ARC
  5
39C
330
1F
100
AcDbEntity
  8
0
  6
Continuous
 62
     7
370
    15
100
AcDbCircle
 10
304.185744638
 20
-72.8062171808
 30
0.0
 40
1.808846260004434
100
AcDbArc
 50
98.9518204381
 51
186.7683678228
  0
LINE
  5
39D
330
1F
100
AcDbEntity
  8
0
  6
Continuous
 62
     7
370
    15
100
AcDbLine
 10
305.629919211
 20
-94.0193979645
 30
0.0
 11
266.4299180476
 21
-94.0193979645
 31
0.0
  0
SPLINE
  5
39E
330
1F
100
AcDbEntity
  8
0
  6
Continuous
 62
     7
370
    15
100
AcDbSpline
210
0.0
220
0.0
230
1.0
 70
     8
 71
     3
 72
     9
 73
     5
 74
     0
 42
0.00000001
 43
0.00000001
 12
1.0
 22
0.0
 32
0.0
 13
1.0
 23
0.0
 33
0.0
 40
0.0
 40
0.0
 40
0.0
 40
0.0
 40
0.4968105203927683
 40
1.0
 40
1.0
 40
1.0
 40
1.0
 10
269.6703320114023
 20
-73.01940011027052
 30
0.0
 10
269.1592631864038
 20
-73.00763620735779
 30
0.0
 10
268.130563503083
 20
-72.9839573550995
 30
0.0
 10
267.3293316714032
 20
-72.9672144771547
 30
0.0
 10
266.9261602429754
 20
-72.95878963711455
 30
0.0
  0
SPLINE
  5
39F
330
1F
100
AcDbEntity
  8
0
  6
Continuous
 62
     7
370
    15
100
AcDbSpline
210
0.0
220
0.0
230
1.0
 70
     8
 71
     3
 72
     9
 73
     5
 74
     0
 42
0.00000001
 43
0.00000001
 12
1.0
 22
0.0
 32
0.0
 13
1.0
 23
0.0
 33
0.0
 40
0.0
 40
0.0
 40
0.0
 40
0.0
 40
0.4967923996785693
 40
1.0
 40
1.0
 40
1.0
 40
1.0
 10
305.1336779469705
 20
-72.95878963711455
 30
0.0
 10
304.7359005537816
 20
-72.9670037266092
 30
0.0
 10
303.9352091715335
 20
-72.98353797612663
 30
0.0
 10
302.9069383938639
 20
-73.00739504958491
 30
0.0
 10
302.3895047233521
 20
-73.01940011027052
 30
0.0
  0
ARC
  5
3A0
330
1F
100
AcDbEntity
  8
0
  6
Continuous
 62
     7
370
    15
100
AcDbCircle
 10
307.0869500126
 20
-72.8785775496
 30
0.0
 40
1.954918346445544
100
AcDbArc
 50
105.9795835052
 51
182.3515583675
  0
ARC
  5
3A1
330
1F
100
AcDbEntity
  8
0
  6
Continuous
 62
     7
370
    15
100
AcDbCircle
 10
264.9728919947
 20
-72.8785746011
 30
0.0
 40
1.954914653265056
100
AcDbArc
 50
357.6483506984
 51
74.0204805828
  0
LINE
  5
3A2
330
1F
100
AcDbEntity
  8
0
  6
Continuous
 62
     7
370
    15
100
AcDbLine
 10
310.02991942
 20
-59.0194015408
 30
0.0
 11
307.2563178582
 21
-59.0194015408
 31
0.0
  0
LINE
  5
3A3
330
1F
100
AcDbEntity
  8
0
  6
Continuous
 62
     7
370
    15
100
AcDbLine
 10
264.8035196332
 20
-59.0194015408
 30
0.0
 11
262.0299180714
 21
-59.0194015408
 31
0.0
  0
LINE
  5
3A4
330
1F
100
AcDbEntity
  8
0
  6
Continuous
 62
     7
370
    15
100
AcDbLine
 10
277.1855855106
 20
-46.0194012726
 30
0.0
 11
277.1855855106
 21
-59.0194015408
 31
0.0
  0
LINE
  5
3A5
330
1F
100
AcDbEntity
  8
0
  6
Continuous
 62
     7
370
    15
100
AcDbLine
 10
294.8742519809
 20
-46.0194012726
 30
0.0
 11
294.8742519809
 21
-59.0194015408
 31
0.0
  0
LINE
  5
3A6
330
1F
100
AcDbEntity
  8
0
  6
Continuous
 62
     7
370
    15
100
AcDbLine
 10
294.8742519809
 20
-46.0194012726
 30
0.0
 11
277.1855855106
 21
-46.0194012726
 31
0.0
  0
LINE
  5
3A7
330
1F
100
AcDbEntity
  8
0
  6
Continuous
 62
     7
370
    15
100
AcDbLine
 10
280.3142854689
 20
-2.019401511
 30
0.0
 11
280.3142854689
 21
10.9805987572
 31
0.0
  0
LINE
  5
3A8
330
1F
100
AcDbEntity
  8
0
  6
Continuous
 62
     7
370
    15
100
AcDbLine
 10
280.3142854689
 20
10.9805987572
 30
0.0
 11
257.0299191145
 21
10.9805987572
 31
0.0
  0
LINE
  5
3A9
330
1F
100
AcDbEntity
  8
0
  6
Continuous
 62
     7
370
    15
100
AcDbLine
 10
280.3142854689
 20
-2.019401511
 30
0.0
 11
257.0299191145
 21
-2.019401511
 31
0.0
  0
LINE
  5
3AA
330
1F
100
AcDbEntity
  8
0
  6
Continuous
 62
     7
370
    15
100
AcDbLine
 10
325.745552939
 20
-2.019401511
 30
0.0
 11
325.745552939
 21
10.9805987572
 31
0.0
  0
LINE
  5
3AB
330
1F
100
AcDbEntity
  8
0
  6
Continuous
 62
     7
370
    15
100
AcDbLine
 10
349.0299192933
 20
10.9805987572
 30
0.0
 11
325.745552939
 21
10.9805987572
 31
0.0
  0
LINE
  5
3AC
330
1F
100
AcDbEntity
  8
0
  6
Continuous
 62
     7
370
    15
100
AcDbLine
 10
349.0299192933
 20
-2.019401511
 30
0.0
 11
325.745552939
 21
-2.019401511
 31
0.0
  0
LINE
  5
3AD
330
1F
100
AcDbEntity
  8
0
  6
Continuous
 62
     7
370
    15
100
AcDbLine
 10
325.745552939
 20
10.9805987572
 30
0.0
 11
280.3142854689
 21
10.9805987572
 31
0.0
  0
LINE
  5
3AE
330
1F
100
AcDbEntity
  8
0
  6
Continuous
 62
     7
370
    15
100
AcDbLine
 10
325.745552939
 20
-2.019401511
 30
0.0
 11
280.3142854689
 21
-2.019401511
 31
0.0
  0
LINE
  5
3AF
330
1F
100
AcDbEntity
  8
0
  6
Continuous
 62
     7
370
    15
100
AcDbLine
 10
307.2563178582
 20
-46.0194012726
 30
0.0
 11
307.2563178582
 21
-59.0194015408
 31
0.0
  0
LINE
  5
3B0
330
1F
100
AcDbEntity
  8
0
  6
Continuous
 62
     7
370
    15
100
AcDbLine
 10
307.2563178582
 20
-46.0194012726
 30
0.0
 11
294.8742519809
 21
-46.0194012726
 31
0.0
  0
LINE
  5
3B1
330
1F
100
AcDbEntity
  8
0
  6
Continuous
 62
     7
370
    15
100
AcDbLine
 10
264.8035196332
 20
-46.0194012726
 30
0.0
 11
264.8035196332
 21
-59.0194015408
 31
0.0
  0
LINE
  5
3B2
330
1F
100
AcDbEntity
  8
0
  6
Continuous
 62
     7
370
    15
100
AcDbLine
 10
277.1855855106
 20
-46.0194012726
 30
0.0
 11
264.8035196332
 21
-46.0194012726
 31
0.0
  0
SPLINE
  5
3B3
330
1F
100
AcDbEntity
  8
0
  6
Continuous
 62
     7
370
    15
100
AcDbSpline
210
0.0
220
0.0
230
1.0
 70
     8
 71
     3
 72
    15
 73
    11
 74
     0
 42
0.00000001
 43
0.00000001
 12
1.0
 22
0.0
 32
0.0
 13
1.0
 23
0.0
 33
0.0
 40
0.0
 40
0.0
 40
0.0
 40
0.0
 40
0.1342407092816155
 40
0.4032974472031196
 40
0.5553668355587904
 40
0.7096486167241846
 40
0.8279842627965285
 40
0.8870513914897292
 40
0.9479838137147868
 40
1.0
 40
1.0
 40
1.0
 40
1.0
 10
304.2857115367509
 20
-18.42066446485713
 30
0.0
 10
304.4206475391764
 20
-17.68073304934292
 30
0.0
 10
304.8260338456496
 20
-15.45776765695772
 30
0.0
 10
305.4719880962023
 20
-12.54573654695148
 30
0.0
 10
306.1100513201316
 20
-9.743308207905258
 30
0.0
 10
306.5331723477538
 20
-7.83717634660816
 30
0.0
 10
306.8056393632582
 20
-6.562510441536999
 30
0.0
 10
306.945955844778
 20
-5.892326849285274
 30
0.0
 10
307.0207728999929
 20
-5.526700114196935
 30
0.0
 10
307.0190795744788
 20
-5.5334929878443
 30
0.0
 10
307.0182997478253
 20
-5.536621307756454
 30
0.0
  0
SPLINE
  5
3B4
330
1F
100
AcDbEntity
  8
0
  6
Continuous
 62
     7
370
    15
100
AcDbSpline
210
0.0
220
0.0
230
1.0
 70
     8
 71
     3
 72
    21
 73
    17
 74
     0
 42
0.00000001
 43
0.00000001
 12
1.0
 22
0.0
 32
0.0
 13
1.0
 23
0.0
 33
0.0
 40
0.0
 40
0.0
 40
0.0
 40
0.0
 40
0.0063464718642598
 40
0.0799267054138386
 40
0.1556361086221732
 40
0.2292644355309467
 40
0.3050589146220458
 40
0.3781090592728626
 40
0.4533614967215924
 40
0.5245162284933298
 40
0.5979361106127056
 40
0.6664183325916261
 40
0.7363835201831331
 40
0.8167878402581751
 40
0.9078694260031411
 40
0.9999999999999999
 40
0.9999999999999999
 40
0.9999999999999999
 40
0.9999999999999999
 10
307.0231426252133
 20
-36.6836710477133
 30
0.0
 10
307.0253684147957
 20
-36.68715213156495
 30
0.0
 10
307.0533997418177
 20
-36.73099248404448
 30
0.0
 10
306.9453933827019
 20
-36.56285350444612
 30
0.0
 10
306.6941619409679
 20
-36.16084886819059
 30
0.0
 10
306.2790513042814
 20
-35.4546523270628
 30
0.0
 10
305.7709941547918
 20
-34.50102304661176
 30
0.0
 10
305.2067851420324
 20
-33.28828965264956
 30
0.0
 10
304.6609482698693
 20
-31.87640356688054
 30
0.0
 10
304.1868055135933
 20
-30.26514848693769
 30
0.0
 10
303.8466210430313
 20
-28.56087427883192
 30
0.0
 10
303.6510177355422
 20
-26.78527319828233
 30
0.0
 10
303.5920005508775
 20
-24.91762856358868
 30
0.0
 10
303.678966920181
 20
-22.86105320368754
 30
0.0
 10
303.9164166575645
 20
-20.65134599834271
 30
0.0
 10
304.162144269398
 20
-19.16705775911149
 30
0.0
 10
304.2857115367509
 20
-18.42066446485713
 30
0.0
  0
LINE
  5
3B5
330
1F
100
AcDbEntity
  8
0
  6
Continuous
 62
     7
370
    15
100
AcDbLine
 10
310.02991942
 20
-46.0194012726
 30
0.0
 11
307.2563178582
 21
-46.0194012726
 31
0.0
  0
LINE
  5
3B6
330
1F
100
AcDbEntity
  8
0
  6
Continuous
 62
     7
370
    15
100
AcDbLine
 10
264.8035196332
 20
-46.0194012726
 30
0.0
 11
262.0299180714
 21
-46.0194012726
 31
0.0
  0
LINE
  5
3B7
330
1F
100
AcDbEntity
  8
0
  6
Continuous
 62
     7
370
    15
100
AcDbLine
 10
274.0299200384
 20
92.9806010222
 30
0.0
 11
290.0299189357
 21
92.9806010222
 31
0.0
  0
LINE
  5
3B8
330
1F
100
AcDbEntity
  8
0
  6
Continuous
 62
     8
370
    15
100
AcDbLine
 10
302.3895047234
 20
-73.0194001103
 30
0.0
 11
291.0299190996
 21
-73.0194001103
 31
0.0
  0
LINE
  5
3B9
330
1F
100
AcDbEntity
  8
0
  6
Continuous
 62
     8
370
    15
100
AcDbLine
 10
281.0299193231
 20
-73.0194001103
 30
0.0
 11
269.6703320114
 21
-73.0194001103
 31
0.0
  0
LINE
  5
3BA
330
1F
100
AcDbEntity
  8
0
  6
Continuous
 62
     8
370
    15
100
AcDbLine
 10
264.4299177198
 20
-92.019401362
 30
0.0
 11
307.629919306
 21
-92.019401362
 31
0.0
  0
LINE
  5
3BB
330
1F
100
AcDbEntity
  8
0
  6
Continuous
 62
     8
370
    15
100
AcDbLine
 10
266.926160243
 20
-72.9587896371
 30
0.0
 11
264.4299177198
 21
-72.9587896371
 31
0.0
  0
LINE
  5
3BC
330
1F
100
AcDbEntity
  8
0
  6
Continuous
 62
     8
370
    15
100
AcDbLine
 10
307.629919306
 20
-72.9587896371
 30
0.0
 11
305.133677947
 21
-72.9587896371
 31
0.0
  0
LINE
  5
3BD
330
1F
100
AcDbEntity
  8
0
  6
Continuous
 62
     8
370
    15
100
AcDbLine
 10
307.2563178582
 20
-70.0194014812
 30
0.0
 11
310.02991942
 21
-70.0194014812
 31
0.0
  0
LINE
  5
3BE
330
1F
100
AcDbEntity
  8
0
  6
Continuous
 62
     8
370
    15
100
AcDbLine
 10
306.5487711435
 20
-70.9991975332
 30
0.0
 11
309.229919382
 21
-70.9991975332
 31
0.0
  0
LINE
  5
3BF
330
1F
100
AcDbEntity
  8
0
  6
Continuous
 62
     8
370
    15
100
AcDbLine
 10
262.0299180714
 20
-70.0194014812
 30
0.0
 11
264.8035196332
 21
-70.0194014812
 31
0.0
  0
LINE
  5
3C0
330
1F
100
AcDbEntity
  8
0
  6
Continuous
 62
     8
370
    15
100
AcDbLine
 10
262.8299204378
 20
-70.9991975332
 30
0.0
 11
265.5110677449
 21
-70.9991975332
 31
0.0
  0
LINE
  5
3C1
330
1F
100
AcDbEntity
  8
0
  6
CENTERX2
 62
     7
370
     0
100
AcDbLine
 10
282.0299192039
 20
94.9805987572
 30
0.0
 11
282.0299192039
 21
-4.0194012428
 31
0.0
  0
LINE
  5
3C2
330
1F
100
AcDbEntity
  8
0
  6
CENTERX2
 62
     7
370
     0
100
AcDbLine
 10
286.0299192039
 20
-44.0194012428
 30
0.0
 11
286.0299192039
 21
-59.0194012428
 31
0.0
  0
LINE
  5
3C3
330
1F
100
AcDbEntity
  8
0
  6
CENTERX2
 62
     7
370
     0
100
AcDbLine
 10
286.0299192039
 20
-100.6784660513
 30
0.0
 11
286.0299192039
 21
-59.0194012428
 31
0.0
  0
LINE
  5
3C4
330
1F
100
AcDbEntity
  8
0
  6
CENTERX2
 62
     7
370
     0
100
AcDbLine
 10
327.0299192039
 20
60.4805987572
 30
0.0
 11
327.0299192039
 21
-4.0194012428
 31
0.0
  0
LINE
  5
3C5
330
1F
100
AcDbEntity
  8
0
  6
CENTERX2
 62
     7
370
     0
100
AcDbLine
 10
303.0299192039
 20
28.4805987572
 30
0.0
 11
303.0299192039
 21
-4.0194012428
 31
0.0
  0
CIRCLE
  5
3C6
330
1F
100
AcDbEntity
  8
0
  6
Continuous
 62
     7
370
    15
100
AcDbCircle
 10
327.0299192039
 20
223.0408948969
 30
0.0
 40
3.0
  0
CIRCLE
  5
3C7
330
1F
100
AcDbEntity
  8
0
  6
Continuous
 62
     7
370
    15
100
AcDbCircle
 10
327.0299192039
 20
167.0408948969
 30
0.0
 40
2.999999999999943
  0
CIRCLE
  5
3C8
330
1F
100
AcDbEntity
  8
0
  6
Continuous
 62
     7
370
    15
100
AcDbCircle
 10
282.0299192039
 20
227.0408948969
 30
0.0
 40
3.0
  0
CIRCLE
  5
3C9
330
1F
100
AcDbEntity
  8
0
  6
Continuous
 62
     7
370
    15
100
AcDbCircle
 10
282.0299192039
 20
163.0408948969
 30
0.0
 40
3.0
  0
CIRCLE
  5
3CA
330
1F
100
AcDbEntity
  8
0
  6
Continuous
 62
     7
370
    15
100
AcDbCircle
 10
282.0299192039
 20
195.0408948969
 30
0.0
 40
19.30000000000007
  0
CIRCLE
  5
3CB
330
1F
100
AcDbEntity
  8
0
  6
Continuous
 62
     7
370
    15
100
AcDbCircle
 10
282.0299192039
 20
195.0408948969
 30
0.0
 40
23.00000000000006
  0
CIRCLE
  5
3CC
330
1F
100
AcDbEntity
  8
0
  6
Continuous
 62
     7
370
    15
100
AcDbCircle
 10
327.0299192039
 20
195.0408948969
 30
0.0
 40
16.27499999999998
  0
CIRCLE
  5
3CD
330
1F
100
AcDbEntity
  8
0
  6
Continuous
 62
     7
370
    15
100
AcDbCircle
 10
327.0299192039
 20
195.0408948969
 30
0.0
 40
19.99999999999994
  0
CIRCLE
  5
3CE
330
1F
100
AcDbEntity
  8
0
  6
Continuous
 62
     7
370
    15
100
AcDbCircle
 10
327.0299192039
 20
167.0408948969
 30
0.0
 40
3.499999999999943
  0
LINE
  5
3CF
330
1F
100
AcDbEntity
  8
0
  6
Continuous
 62
     7
370
    15
100
AcDbLine
 10
280.3142854689
 20
155.040895791
 30
0.0
 11
325.745552939
 21
155.040895791
 31
0.0
  0
LINE
  5
3D0
330
1F
100
AcDbEntity
  8
0
  6
Continuous
 62
     7
370
    15
100
AcDbLine
 10
325.745552939
 20
235.0408940028
 30
0.0
 11
280.3142854689
 21
235.0408940028
 31
0.0
  0
ARC
  5
3D1
330
1F
100
AcDbEntity
  8
0
  6
Continuous
 62
     7
370
    15
100
AcDbCircle
 10
303.0299192039
 20
195.0408948969
 30
0.0
 40
46.00000000000001
100
AcDbArc
 50
299.591845794
 51
60.408154206
  0
CIRCLE
  5
3D2
330
1F
100
AcDbEntity
  8
0
  6
Continuous
 62
     7
370
    15
100
AcDbCircle
 10
282.0299192039
 20
227.0408948969
 30
0.0
 40
3.5
  0
CIRCLE
  5
3D3
330
1F
100
AcDbEntity
  8
0
  6
Continuous
 62
     7
370
    15
100
AcDbCircle
 10
282.0299192039
 20
163.0408948969
 30
0.0
 40
3.5
  0
CIRCLE
  5
3D4
330
1F
100
AcDbEntity
  8
0
  6
Continuous
 62
     7
370
    15
100
AcDbCircle
 10
327.0299192039
 20
223.0408948969
 30
0.0
 40
3.5
  0
ARC
  5
3D5
330
1F
100
AcDbEntity
  8
0
  6
Continuous
 62
     7
370
    15
100
AcDbCircle
 10
303.0299192039
 20
195.0408948969
 30
0.0
 40
45.99999999999999
100
AcDbArc
 50
119.591845794
 51
240.4081542061
  0
INSERT
  5
3E1
330
1F
100
AcDbEntity
  8
0
  6
Continuous
 62
     7
370
     0
100
AcDbBlockReference
  2
SW_CENTERMARKSYMBOL_4
 10
282.0299192039
 20
195.0408948969
 30
0.0
  0
INSERT
  5
3ED
330
1F
100
AcDbEntity
  8
0
  6
Continuous
 62
     7
370
     0
100
AcDbBlockReference
  2
SW_CENTERMARKSYMBOL_5
 10
327.0299192039
 20
195.0408948969
 30
0.0
  0
ENDSEC
  0
SECTION
  2
OBJECTS
  0
DICTIONARY
  5
C
330
0
100
AcDbDictionary
281
     1
  3
ACAD_GROUP
350
D
  3
ACAD_LAYOUT
350
1A
  3
ACAD_MLINESTYLE
350
17
  3
ACAD_PLOTSETTINGS
350
19
  3
ACAD_PLOTSTYLENAME
350
E
  0
DICTIONARY
  5
D
102
{ACAD_REACTORS
330
C
102
}
330
C
100
AcDbDictionary
281
     1
  0
DICTIONARY
  5
1A
102
{ACAD_REACTORS
330
C
102
}
330
C
100
AcDbDictionary
281
     1
  3
Layout1
350
1E
  3
Layout2
350
26
  3
Model
350
22
  0
DICTIONARY
  5
17
102
{ACAD_REACTORS
330
C
102
}
330
C
100
AcDbDictionary
281
     1
  3
Standard
350
18
  0
DICTIONARY
  5
19
102
{ACAD_REACTORS
330
C
102
}
330
C
100
AcDbDictionary
281
     1
  0
ACDBDICTIONARYWDFLT
  5
E
102
{ACAD_REACTORS
330
C
102
}
330
C
100
AcDbDictionary
281
     1
  3
Normal
350
F
100
AcDbDictionaryWithDefault
340
F
  0
LAYOUT
  5
1E
102
{ACAD_REACTORS
330
1A
102
}
330
1A
100
AcDbPlotSettings
  1

  2
none_device
  4

  6

 40
0.0
 41
0.0
 42
0.0
 43
0.0
 44
0.0
 45
0.0
 46
0.0
 47
0.0
 48
0.0
 49
0.0
140
0.0
141
0.0
142
1.0
143
1.0
 70
   688
 72
     0
 73
     0
 74
     5
  7

 75
    16
147
1.0
148
0.0
149
0.0
100
AcDbLayout
  1
Layout1
 70
     1
 71
     1
 10
0.0
 20
0.0
 11
420.0
 21
297.0
 12
0.0
 22
0.0
 32
0.0
 14
1.0000000000E+20
 24
1.0000000000E+20
 34
1.0000000000E+20
 15
-1.0000000000E+20
 25
-1.0000000000E+20
 35
-1.0000000000E+20
146
0.0
 13
0.0
 23
0.0
 33
0.0
 16
1.0
 26
0.0
 36
0.0
 17
0.0
 27
1.0
 37
0.0
 76
     0
330
1B
  0
LAYOUT
  5
26
102
{ACAD_REACTORS
330
1A
102
}
330
1A
100
AcDbPlotSettings
  1

  2
none_device
  4

  6

 40
0.0
 41
0.0
 42
0.0
 43
0.0
 44
0.0
 45
0.0
 46
0.0
 47
0.0
 48
0.0
 49
0.0
140
0.0
141
0.0
142
1.0
143
1.0
 70
   688
 72
     0
 73
     0
 74
     5
  7

 75
    16
147
1.0
148
0.0
149
0.0
100
AcDbLayout
  1
Layout2
 70
     1
 71
     2
 10
0.0
 20
0.0
 11
0.0
 21
0.0
 12
0.0
 22
0.0
 32
0.0
 14
0.0
 24
0.0
 34
0.0
 15
0.0
 25
0.0
 35
0.0
146
0.0
 13
0.0
 23
0.0
 33
0.0
 16
1.0
 26
0.0
 36
0.0
 17
0.0
 27
1.0
 37
0.0
 76
     0
330
23
  0
LAYOUT
  5
22
102
{ACAD_REACTORS
330
1A
102
}
330
1A
100
AcDbPlotSettings
  1

  2
none_device
  4

  6

 40
0.0
 41
0.0
 42
0.0
 43
0.0
 44
0.0
 45
0.0
 46
0.0
 47
0.0
 48
0.0
 49
0.0
140
0.0
141
0.0
142
1.0
143
1.0
 70
  1712
 72
     0
 73
     0
 74
     0
  7

 75
     0
147
1.0
148
0.0
149
0.0
100
AcDbLayout
  1
Model
 70
     1
 71
     0
 10
0.0
 20
0.0
 11
210.0
 21
297.0
 12
0.0
 22
0.0
 32
0.0
 14
0.0
 24
0.0
 34
0.0
 15
210.0
 25
297.0
 35
0.0
146
0.0
 13
0.0
 23
0.0
 33
0.0
 16
1.0
 26
0.0
 36
0.0
 17
0.0
 27
1.0
 37
0.0
 76
     0
330
1F
331
29
  0
MLINESTYLE
  5
18
102
{ACAD_REACTORS
330
17
102
}
330
17
100
AcDbMlineStyle
  2
Standard
 70
     0
  3

 62
   256
 51
90.0
 52
90.0
 71
     2
 49
0.5
 62
   256
  6
BYLAYER
 49
-0.5
 62
   256
  6
BYLAYER
  0
ACDBPLACEHOLDER
  5
F
102
{ACAD_REACTORS
330
E
102
}
330
E
  0
ENDSEC
  0
EOF
