  0
SECTION
  2
HEADER
  9
$ACADVER
  1
AC1015
  9
$ACADMAINTVER
 70
     6
  9
$DWGCODEPAGE
  3
DOS932
  9
$INSBASE
 10
0.0
 20
0.0
 30
0.0
  9
$EXTMIN
 10
0.0
 20
0.0
 30
0.0
  9
$EXTMAX
 10
210.0
 20
297.0
 30
0.0
  9
$LIMMIN
 10
0.0
 20
0.0
  9
$LIMMAX
 10
210.0
 20
297.0
  9
$ORTHOMODE
 70
     0
  9
$REGENMODE
 70
     1
  9
$FILLMODE
 70
     1
  9
$QTEXTMODE
 70
     0
  9
$MIRRTEXT
 70
     1
  9
$LTSCALE
 40
1.0
  9
$ATTMODE
 70
     1
  9
$TEXTSIZE
 40
3.5
  9
$TRACEWID
 40
1.0
  9
$TEXTSTYLE
  7
Standard
  9
$CLAYER
  8
0
  9
$CELTYPE
  6
ByLayer
  9
$CECOLOR
 62
   256
  9
$CELTSCALE
 40
1.0
  9
$DISPSILH
 70
     0
  9
$DIMSCALE
 40
1.0
  9
$DIMASZ
 40
6.0
  9
$DIMEXO
 40
1.0
  9
$DIMDLI
 40
3.75
  9
$DIMRND
 40
0.0
  9
$DIMDLE
 40
0.0
  9
$DIMEXE
 40
1.0
  9
$DIMTP
 40
0.0
  9
$DIMTM
 40
0.0
  9
$DIMTXT
 40
3.5
  9
$DIMCEN
 40
2.5
  9
$DIMTSZ
 40
0.0
  9
$DIMTOL
 70
     0
  9
$DIMLIM
 70
     0
  9
$DIMTIH
 70
     1
  9
$DIMTOH
 70
     1
  9
$DIMSE1
 70
     0
  9
$DIMSE2
 70
     0
  9
$DIMTAD
 70
     1
  9
$DIMZIN
 70
     0
  9
$DIMBLK
  1

  9
$DIMASO
 70
     1
  9
$DIMSHO
 70
     1
  9
$DIMPOST
  1

  9
$DIMAPOST
  1

  9
$DIMALT
 70
     0
  9
$DIMALTD
 70
     3
  9
$DIMALTF
 40
0.0393700787
  9
$DIMLFAC
 40
1.0
  9
$DIMTOFL
 70
     1
  9
$DIMTVP
 40
0.0
  9
$DIMTIX
 70
     0
  9
$DIMSOXD
 70
     0
  9
$DIMSAH
 70
     0
  9
$DIMBLK1
  1

  9
$DIMBLK2
  1

  9
$DIMSTYLE
  2
ISO-25
  9
$DIMCLRD
 70
     0
  9
$DIMCLRE
 70
     0
  9
$DIMCLRT
 70
     0
  9
$DIMTFAC
 40
1.0
  9
$DIMGAP
 40
1.524
  9
$DIMJUST
 70
     0
  9
$DIMSD1
 70
     0
  9
$DIMSD2
 70
     0
  9
$DIMTOLJ
 70
     0
  9
$DIMTZIN
 70
     0
  9
$DIMALTZ
 70
     0
  9
$DIMALTTZ
 70
     0
  9
$DIMUPT
 70
     0
  9
$DIMDEC
 70
     2
  9
$DIMTDEC
 70
     2
  9
$DIMALTU
 70
     2
  9
$DIMALTTD
 70
     3
  9
$DIMTXSTY
  7
Standard
  9
$DIMAUNIT
 70
     0
  9
$DIMADEC
 70
     2
  9
$DIMALTRND
 40
0.0
  9
$DIMAZIN
 70
     0
  9
$DIMDSEP
 70
    44
  9
$DIMATFIT
 70
     3
  9
$DIMFRAC
 70
     0
  9
$DIMLDRBLK
  1

  9
$DIMLUNIT
 70
     2
  9
$DIMLWD
 70
    -2
  9
$DIMLWE
 70
    -2
  9
$DIMTMOVE
 70
     0
  9
$LUNITS
 70
     2
  9
$LUPREC
 70
     2
  9
$SKETCHINC
 40
1.0
  9
$FILLETRAD
 40
10.0
  9
$AUNITS
 70
     0
  9
$AUPREC
 70
     2
  9
$MENU
  1
.
  9
$ELEVATION
 40
0.0
  9
$PELEVATION
 40
0.0
  9
$THICKNESS
 40
0.0
  9
$LIMCHECK
 70
     0
  9
$CHAMFERA
 40
10.0
  9
$CHAMFERB
 40
10.0
  9
$CHAMFERC
 40
20.0
  9
$CHAMFERD
 40
0.0
  9
$SKPOLY
 70
     0
  9
$TDCREATE
 40
2456457.659737766
  9
$TDUCREATE
 40
2456457.284737766
  9
$TDUPDATE
 40
2456457.659738125
  9
$TDUUPDATE
 40
2456457.284738125
  9
$TDINDWG
 40
0.0000000116
  9
$TDUSRTIMER
 40
0.0000000116
  9
$USRTIMER
 70
     1
  9
$ANGBASE
 50
0.0
  9
$ANGDIR
 70
     0
  9
$PDMODE
 70
     0
  9
$PDSIZE
 40
-1.0
  9
$PLINEWID
 40
0.0
  9
$SPLFRAME
 70
     0
  9
$SPLINETYPE
 70
     6
  9
$SPLINESEGS
 70
     8
  9
$HANDSEED
  5
214
  9
$SURFTAB1
 70
     6
  9
$SURFTAB2
 70
     6
  9
$SURFTYPE
 70
     6
  9
$SURFU
 70
     6
  9
$SURFV
 70
     6
  9
$UCSBASE
  2

  9
$UCSNAME
  2

  9
$UCSORG
 10
0.0
 20
0.0
 30
0.0
  9
$UCSXDIR
 10
1.0
 20
0.0
 30
0.0
  9
$UCSYDIR
 10
0.0
 20
1.0
 30
0.0
  9
$UCSORTHOREF
  2

  9
$UCSORTHOVIEW
 70
     0
  9
$UCSORGTOP
 10
0.0
 20
0.0
 30
0.0
  9
$UCSORGBOTTOM
 10
0.0
 20
0.0
 30
0.0
  9
$UCSORGLEFT
 10
0.0
 20
0.0
 30
0.0
  9
$UCSORGRIGHT
 10
0.0
 20
0.0
 30
0.0
  9
$UCSORGFRONT
 10
0.0
 20
0.0
 30
0.0
  9
$UCSORGBACK
 10
0.0
 20
0.0
 30
0.0
  9
$PUCSBASE
  2

  9
$PUCSNAME
  2

  9
$PUCSORG
 10
0.0
 20
0.0
 30
0.0
  9
$PUCSXDIR
 10
1.0
 20
0.0
 30
0.0
  9
$PUCSYDIR
 10
0.0
 20
1.0
 30
0.0
  9
$PUCSORTHOREF
  2

  9
$PUCSORTHOVIEW
 70
     0
  9
$PUCSORGTOP
 10
0.0
 20
0.0
 30
0.0
  9
$PUCSORGBOTTOM
 10
0.0
 20
0.0
 30
0.0
  9
$PUCSORGLEFT
 10
0.0
 20
0.0
 30
0.0
  9
$PUCSORGRIGHT
 10
0.0
 20
0.0
 30
0.0
  9
$PUCSORGFRONT
 10
0.0
 20
0.0
 30
0.0
  9
$PUCSORGBACK
 10
0.0
 20
0.0
 30
0.0
  9
$USERI1
 70
     0
  9
$USERI2
 70
     0
  9
$USERI3
 70
     0
  9
$USERI4
 70
     0
  9
$USERI5
 70
     0
  9
$USERR1
 40
0.0
  9
$USERR2
 40
0.0
  9
$USERR3
 40
0.0
  9
$USERR4
 40
0.0
  9
$USERR5
 40
0.0
  9
$WORLDVIEW
 70
     1
  9
$SHADEDGE
 70
     3
  9
$SHADEDIF
 70
    70
  9
$TILEMODE
 70
     1
  9
$MAXACTVP
 70
    64
  9
$PINSBASE
 10
0.0
 20
0.0
 30
0.0
  9
$PLIMCHECK
 70
     0
  9
$PEXTMIN
 10
1.0000000000E+20
 20
1.0000000000E+20
 30
1.0000000000E+20
  9
$PEXTMAX
 10
-1.0000000000E+20
 20
-1.0000000000E+20
 30
-1.0000000000E+20
  9
$PLIMMIN
 10
0.0
 20
0.0
  9
$PLIMMAX
 10
420.0
 20
297.0
  9
$UNITMODE
 70
     0
  9
$VISRETAIN
 70
     1
  9
$PLINEGEN
 70
     0
  9
$PSLTSCALE
 70
     1
  9
$TREEDEPTH
 70
  3020
  9
$CMLSTYLE
  2
Standard
  9
$CMLJUST
 70
     0
  9
$CMLSCALE
 40
20.0
  9
$PROXYGRAPHICS
 70
     1
  9
$MEASUREMENT
 70
     1
  9
$CELWEIGHT
370
    -1
  9
$ENDCAPS
280
     0
  9
$JOINSTYLE
280
     0
  9
$LWDISPLAY
290
     1
  9
$INSUNITS
 70
     4
  9
$HYPERLINKBASE
  1

  9
$STYLESHEET
  1

  9
$XEDIT
290
     1
  9
$CEPSNTYPE
380
     0
  9
$PSTYLEMODE
290
     1
  9
$FINGERPRINTGUID
  2
{B072C996-9F06-4326-A380-A51B5479E812}
  9
$VERSIONGUID
  2
{FAEB1C32-E019-11D5-929B-00C0DF256EC4}
  9
$EXTNAMES
290
     1
  9
$PSVPSCALE
 40
0.0
  9
$OLESTARTUP
290
     0
  0
ENDSEC
  0
SECTION
  2
CLASSES
  0
CLASS
  1
ACDBDICTIONARYWDFLT
  2
AcDbDictionaryWithDefault
  3
ObjectDBX Classes
 90
        0
280
     0
281
     0
  0
CLASS
  1
VISUALSTYLE
  2
AcDbVisualStyle
  3
ObjectDBX Classes
 90
     4095
280
     0
281
     0
  0
CLASS
  1
MATERIAL
  2
AcDbMaterial
  3
ObjectDBX Classes
 90
     1153
280
     0
281
     0
  0
CLASS
  1
ACDBPLACEHOLDER
  2
AcDbPlaceHolder
  3
ObjectDBX Classes
 90
        0
280
     0
281
     0
  0
CLASS
  1
LAYOUT
  2
AcDbLayout
  3
ObjectDBX Classes
 90
        0
280
     0
281
     0
  0
ENDSEC
  0
SECTION
  2
TABLES
  0
TABLE
  2
VPORT
  5
8
330
0
100
AcDbSymbolTable
 70
     1
  0
VPORT
  5
29
330
8
100
AcDbSymbolTableRecord
100
AcDbViewportTableRecord
  2
*Active
 70
     0
 10
0.0
 20
0.0
 11
1.0
 21
1.0
 12
105.0
 22
148.5
 13
0.0
 23
0.0
 14
10.0
 24
10.0
 15
10.0
 25
10.0
 16
0.0
 26
0.0
 36
1.0
 17
0.0
 27
0.0
 37
0.0
 40
297.0
 41
0.7070707071
 42
50.0
 43
0.0
 44
0.0
 50
0.0
 51
0.0
 71
     0
 72
  2000
 73
     1
 74
     3
 75
     0
 76
     0
 77
     0
 78
     0
281
     0
 65
     1
110
0.0
120
0.0
130
0.0
111
1.0
121
0.0
131
0.0
112
0.0
122
1.0
132
0.0
 79
     0
146
0.0
  0
ENDTAB
  0
TABLE
  2
LTYPE
  5
5
330
0
100
AcDbSymbolTable
 70
     6
  0
LTYPE
  5
14
330
5
100
AcDbSymbolTableRecord
100
AcDbLinetypeTableRecord
  2
ByBlock
 70
     0
  3

 72
    65
 73
     0
 40
0.0
  0
LTYPE
  5
15
330
5
100
AcDbSymbolTableRecord
100
AcDbLinetypeTableRecord
  2
ByLayer
 70
     0
  3

 72
    65
 73
     0
 40
0.0
  0
LTYPE
  5
16
330
5
100
AcDbSymbolTableRecord
100
AcDbLinetypeTableRecord
  2
Continuous
 70
     0
  3
Solid line
 72
    65
 73
     0
 40
0.0
  0
LTYPE
  5
3F
330
5
100
AcDbSymbolTableRecord
100
AcDbLinetypeTableRecord
  2
HIDDEN
 70
     0
  3
Hidden __ __ __ __ __ __ __ __ __ __ __ __ __ __
 72
    65
 73
     2
 40
1.905
 49
1.27
 74
     0
 49
-0.635
 74
     0
  0
LTYPE
  5
40
330
5
100
AcDbSymbolTableRecord
100
AcDbLinetypeTableRecord
  2
PHANTOM
 70
     0
  3
Phantom ______  __  __  ______  __  __  ______
 72
    65
 73
     6
 40
12.7
 49
6.35
 74
     0
 49
-1.27
 74
     0
 49
1.27
 74
     0
 49
-1.27
 74
     0
 49
1.27
 74
     0
 49
-1.27
 74
     0
  0
LTYPE
  5
41
330
5
100
AcDbSymbolTableRecord
100
AcDbLinetypeTableRecord
  2
CENTER
 70
     0
  3
Center ____ _ ____ _ ____ _ ____ _ ____ _ ____
 72
    65
 73
     4
 40
10.16
 49
6.35
 74
     0
 49
-1.27
 74
     0
 49
1.27
 74
     0
 49
-1.27
 74
     0
  0
LTYPE
  5
42
330
5
100
AcDbSymbolTableRecord
100
AcDbLinetypeTableRecord
  2
CENTERX2
 70
     0
  3
Center (2x) ________  __  ________  __  _____
 72
    65
 73
     4
 40
20.32
 49
12.7
 74
     0
 49
-2.54
 74
     0
 49
2.54
 74
     0
 49
-2.54
 74
     0
  0
LTYPE
  5
43
330
5
100
AcDbSymbolTableRecord
100
AcDbLinetypeTableRecord
  2
DOT2
 70
     0
  3
Dot (.5x) ........................................
 72
    65
 73
     2
 40
0.635
 49
0.0
 74
     0
 49
-0.635
 74
     0
  0
ENDTAB
  0
TABLE
  2
LAYER
  5
2
330
0
100
AcDbSymbolTable
 70
     2
  0
LAYER
  5
10
330
2
100
AcDbSymbolTableRecord
100
AcDbLayerTableRecord
  2
0
 70
     0
 62
     7
  6
Continuous
370
    -3
390
F
  0
LAYER
  5
44
330
2
100
AcDbSymbolTableRecord
100
AcDbLayerTableRecord
  2
FORMAT
 70
     0
 62
     7
  6
Continuous
370
    -3
390
F
  0
ENDTAB
  0
TABLE
  2
STYLE
  5
3
330
0
100
AcDbSymbolTable
 70
     2
  0
STYLE
  5
11
330
3
100
AcDbSymbolTableRecord
100
AcDbTextStyleTableRecord
  2
Standard
 70
     0
 40
0.0
 41
1.0
 50
0.0
 71
     0
 42
3.5
  3
txt
  4
bigfont
  0
STYLE
  5
14A
330
3
100
AcDbSymbolTableRecord
100
AcDbTextStyleTableRecord
  2
SLDTEXTSTYLE0
 70
     0
 40
0.0
 41
0.7
 50
0.0
 71
     0
 42
0.2
  3
TXT
  4
bigfont
  0
ENDTAB
  0
TABLE
  2
VIEW
  5
6
330
0
100
AcDbSymbolTable
 70
     0
  0
ENDTAB
  0
TABLE
  2
UCS
  5
7
330
0
100
AcDbSymbolTable
 70
     0
  0
ENDTAB
  0
TABLE
  2
APPID
  5
9
330
0
100
AcDbSymbolTable
 70
     1
  0
APPID
  5
12
330
9
100
AcDbSymbolTableRecord
100
AcDbRegAppTableRecord
  2
ACAD
 70
     0
  0
ENDTAB
  0
TABLE
  2
DIMSTYLE
  5
A
330
0
100
AcDbSymbolTable
 70
     2
100
AcDbDimStyleTable
  0
DIMSTYLE
105
27
330
A
100
AcDbSymbolTableRecord
100
AcDbDimStyleTableRecord
  2
ISO-25
 70
     0
 41
2.5
 42
0.625
 43
3.75
 44
1.25
 73
     0
 74
     0
 77
     1
 78
     8
140
2.5
141
2.5
143
0.0393700787
147
0.625
171
     3
172
     1
178
     0
271
     2
272
     2
274
     3
278
    44
283
     0
284
     8
340
11
  0
DIMSTYLE
105
14B
102
{ACAD_REACTORS
330
149
102
}
330
A
100
AcDbSymbolTableRecord
100
AcDbDimStyleTableRecord
  2
SLDDIMSTYLE0
 70
     0
 41
6.0
 44
0.0
 45
0.000000001
 73
     0
 74
     0
 77
     3
 78
    12
 79
     3
140
3.5
147
0.875
173
     1
178
     0
271
     2
272
     2
276
     2
284
    12
340
14A
341
14C
343
14C
344
14C
  0
ENDTAB
  0
TABLE
  2
BLOCK_RECORD
  5
1
330
0
100
AcDbSymbolTable
 70
     4
  0
BLOCK_RECORD
  5
1F
330
1
100
AcDbSymbolTableRecord
100
AcDbBlockTableRecord
  2
*Model_Space
340
22
  0
BLOCK_RECORD
  5
1B
330
1
100
AcDbSymbolTableRecord
100
AcDbBlockTableRecord
  2
*Paper_Space
340
1E
  0
BLOCK_RECORD
  5
23
330
1
100
AcDbSymbolTableRecord
100
AcDbBlockTableRecord
  2
*Paper_Space0
340
26
  0
BLOCK_RECORD
  5
14C
330
1
100
AcDbSymbolTableRecord
100
AcDbBlockTableRecord
  2
_OPEN30
340
0
102
{BLKREFS
331
155
331
156
102
}
  0
BLOCK_RECORD
  5
152
330
1
100
AcDbSymbolTableRecord
100
AcDbBlockTableRecord
  2
_D
340
0
  0
BLOCK_RECORD
  5
1E7
330
1
100
AcDbSymbolTableRecord
100
AcDbBlockTableRecord
  2
SW_CENTERMARKSYMBOL_0
340
0
102
{BLKREFS
331
212
102
}
  0
ENDTAB
  0
ENDSEC
  0
SECTION
  2
BLOCKS
  0
BLOCK
  5
20
330
1F
100
AcDbEntity
  8
0
100
AcDbBlockBegin
  2
*Model_Space
 70
     0
 10
0.0
 20
0.0
 30
0.0
  3
*Model_Space
  1

  0
ENDBLK
  5
21
330
1F
100
AcDbEntity
  8
0
100
AcDbBlockEnd
  0
BLOCK
  5
1C
330
1B
100
AcDbEntity
 67
     1
  8
0
100
AcDbBlockBegin
  2
*Paper_Space
 70
     0
 10
0.0
 20
0.0
 30
0.0
  3
*Paper_Space
  1

  0
ENDBLK
  5
1D
330
1B
100
AcDbEntity
 67
     1
  8
0
100
AcDbBlockEnd
  0
BLOCK
  5
24
330
23
100
AcDbEntity
  8
0
100
AcDbBlockBegin
  2
*Paper_Space0
 70
     0
 10
0.0
 20
0.0
 30
0.0
  3
*Paper_Space0
  1

  0
ENDBLK
  5
25
330
23
100
AcDbEntity
  8
0
100
AcDbBlockEnd
  0
BLOCK
  5
14D
330
14C
100
AcDbEntity
  8
0
100
AcDbBlockBegin
  2
_OPEN30
 70
     0
 10
0.0
 20
0.0
 30
0.0
  3
_OPEN30
  1

  0
LINE
  5
14F
330
14C
100
AcDbEntity
  8
0
  6
ByBlock
 62
     0
370
    -2
100
AcDbLine
 10
-1.0
 20
0.267949
 30
0.0
 11
0.0
 21
0.0
 31
0.0
  0
LINE
  5
150
330
14C
100
AcDbEntity
  8
0
  6
ByBlock
 62
     0
370
    -2
100
AcDbLine
 10
0.0
 20
0.0
 30
0.0
 11
-1.0
 21
-0.267949
 31
0.0
  0
LINE
  5
151
330
14C
100
AcDbEntity
  8
0
  6
ByBlock
 62
     0
370
    -2
100
AcDbLine
 10
0.0
 20
0.0
 30
0.0
 11
-1.0
 21
0.0
 31
0.0
  0
ENDBLK
  5
14E
330
14C
100
AcDbEntity
  8
0
100
AcDbBlockEnd
  0
BLOCK
  5
153
330
152
100
AcDbEntity
  8
0
100
AcDbBlockBegin
  2
_D
 70
     0
 10
0.0
 20
0.0
 30
0.0
  3
_D
  1

  0
INSERT
  5
155
330
152
100
AcDbEntity
  8
0
  6
Continuous
 62
     7
370
     0
100
AcDbBlockReference
  2
_OPEN30
 10
-66.9401840551
 20
-796.6631353465
 30
-50.3
 41
6.0
 42
6.0
 50
180.0
  0
INSERT
  5
156
330
152
100
AcDbEntity
  8
0
  6
Continuous
 62
     7
370
     0
100
AcDbBlockReference
  2
_OPEN30
 10
245.0598159449
 20
-796.6631353465
 30
-50.3
 41
6.0
 42
6.0
 50
0.0
  0
LINE
  5
157
330
152
100
AcDbEntity
  8
0
  6
Continuous
 62
     7
370
     0
100
AcDbLine
 10
-66.9401840551
 20
-738.9640115847
 30
0.0
 11
-66.9401840551
 21
-797.6631353465
 31
0.0
  0
LINE
  5
158
330
152
100
AcDbEntity
  8
0
  6
Continuous
 62
     7
370
     0
100
AcDbLine
 10
245.0598159449
 20
-738.9640115847
 30
0.0
 11
245.0598159449
 21
-797.6631353465
 31
0.0
  0
LINE
  5
159
330
152
100
AcDbEntity
  8
0
  6
Continuous
 62
     7
370
     0
100
AcDbLine
 10
-66.9401840551
 20
-796.6631353465
 30
0.0
 11
245.0598159449
 21
-796.6631353465
 31
0.0
  0
MTEXT
  5
15A
330
152
100
AcDbEntity
  8
0
  6
Continuous
 62
     7
370
     0
100
AcDbMText
 10
72.9329699408
 20
-792.1513980245
 30
-50.3
 40
3.5
 41
0.0
 71
     1
 72
     1
  1
%%c
  7
SLDTEXTSTYLE0
 73
     1
 44
1.0
  0
MTEXT
  5
15B
330
152
100
AcDbEntity
  8
0
  6
Continuous
 62
     7
370
     0
100
AcDbMText
 10
76.8029006887
 20
-792.1513980245
 30
-50.3
 40
3.5
 41
0.0
 71
     1
 72
     1
  1
312
  7
SLDTEXTSTYLE0
 73
     1
 44
1.0
  0
ENDBLK
  5
154
330
152
100
AcDbEntity
  8
0
100
AcDbBlockEnd
  0
BLOCK
  5
1E8
330
1E7
100
AcDbEntity
  8
0
100
AcDbBlockBegin
  2
SW_CENTERMARKSYMBOL_0
 70
     0
 10
0.0
 20
0.0
 30
0.0
  3
SW_CENTERMARKSYMBOL_0
  1

  0
ARC
  5
1EA
330
1E7
100
AcDbEntity
  8
0
  6
Continuous
 62
     0
370
     0
100
AcDbCircle
 10
121.6223663641
 20
-121.6223663641
 30
0.0
 40
172.0
100
AcDbArc
 50
135.0
 51
135.8327874929
  0
ARC
  5
1EB
330
1E7
100
AcDbEntity
  8
0
  6
Continuous
 62
     0
370
     0
100
AcDbCircle
 10
121.6223663641
 20
-121.6223663641
 30
0.0
 40
171.9999999999999
100
AcDbArc
 50
134.1672125071
 51
135.0
  0
ARC
  5
1EC
330
1E7
100
AcDbEntity
  8
0
  6
Continuous
 62
     0
370
     0
100
AcDbCircle
 10
121.6223663641
 20
-121.6223663641
 30
0.0
 40
172.0
100
AcDbArc
 50
136.6655749858
 51
137.8314774759
  0
ARC
  5
1ED
330
1E7
100
AcDbEntity
  8
0
  6
Continuous
 62
     0
370
     0
100
AcDbCircle
 10
121.6223663641
 20
-121.6223663641
 30
0.0
 40
172.0
100
AcDbArc
 50
132.1685225241
 51
133.3344250142
  0
ARC
  5
1EE
330
1E7
100
AcDbEntity
  8
0
  6
Continuous
 62
     0
370
     0
100
AcDbCircle
 10
121.6223663641
 20
-121.6223663641
 30
0.0
 40
172.0
100
AcDbArc
 50
225.0
 51
225.8327874929
  0
ARC
  5
1EF
330
1E7
100
AcDbEntity
  8
0
  6
Continuous
 62
     0
370
     0
100
AcDbCircle
 10
121.6223663641
 20
-121.6223663641
 30
0.0
 40
172.0
100
AcDbArc
 50
224.1672125071
 51
225.0
  0
ARC
  5
1F0
330
1E7
100
AcDbEntity
  8
0
  6
Continuous
 62
     0
370
     0
100
AcDbCircle
 10
121.6223663641
 20
-121.6223663641
 30
0.0
 40
172.0
100
AcDbArc
 50
226.6655749858
 51
227.8314774759
  0
ARC
  5
1F1
330
1E7
100
AcDbEntity
  8
0
  6
Continuous
 62
     0
370
     0
100
AcDbCircle
 10
121.6223663641
 20
-121.6223663641
 30
0.0
 40
172.0
100
AcDbArc
 50
222.1685225241
 51
223.3344250142
  0
ARC
  5
1F2
330
1E7
100
AcDbEntity
  8
0
  6
Continuous
 62
     0
370
     0
100
AcDbCircle
 10
121.6223663641
 20
-121.6223663641
 30
0.0
 40
172.0
100
AcDbArc
 50
315.0
 51
315.8327874929
  0
ARC
  5
1F3
330
1E7
100
AcDbEntity
  8
0
  6
Continuous
 62
     0
370
     0
100
AcDbCircle
 10
121.6223663641
 20
-121.6223663641
 30
0.0
 40
172.0
100
AcDbArc
 50
314.1672125071
 51
315.0
  0
ARC
  5
1F4
330
1E7
100
AcDbEntity
  8
0
  6
Continuous
 62
     0
370
     0
100
AcDbCircle
 10
121.6223663641
 20
-121.6223663641
 30
0.0
 40
172.0
100
AcDbArc
 50
316.6655749858
 51
317.8314774759
  0
ARC
  5
1F5
330
1E7
100
AcDbEntity
  8
0
  6
Continuous
 62
     0
370
     0
100
AcDbCircle
 10
121.6223663641
 20
-121.6223663641
 30
0.0
 40
172.0
100
AcDbArc
 50
312.1685225241
 51
313.3344250142
  0
ARC
  5
1F6
330
1E7
100
AcDbEntity
  8
0
  6
Continuous
 62
     0
370
     0
100
AcDbCircle
 10
121.6223663641
 20
-121.6223663641
 30
0.0
 40
172.0
100
AcDbArc
 50
45.0
 51
45.8327874929
  0
ARC
  5
1F7
330
1E7
100
AcDbEntity
  8
0
  6
Continuous
 62
     0
370
     0
100
AcDbCircle
 10
121.6223663641
 20
-121.6223663641
 30
0.0
 40
172.0
100
AcDbArc
 50
44.1672125071
 51
45.0
  0
ARC
  5
1F8
330
1E7
100
AcDbEntity
  8
0
  6
Continuous
 62
     0
370
     0
100
AcDbCircle
 10
121.6223663641
 20
-121.6223663641
 30
0.0
 40
172.0
100
AcDbArc
 50
46.6655749858
 51
48.992983434
  0
ARC
  5
1F9
330
1E7
100
AcDbEntity
  8
0
  6
Continuous
 62
     0
370
     0
100
AcDbCircle
 10
121.6223663641
 20
-121.6223663641
 30
0.0
 40
172.0
100
AcDbArc
 50
42.1685225241
 51
43.3344250142
  0
LINE
  5
1FA
330
1E7
100
AcDbEntity
  8
0
  6
Continuous
 62
     0
370
     0
100
AcDbLine
 10
0.0
 20
0.0
 30
0.0
 11
-1.767766953
 21
1.767766953
 31
0.0
  0
LINE
  5
1FB
330
1E7
100
AcDbEntity
  8
0
  6
Continuous
 62
     0
370
     0
100
AcDbLine
 10
0.0
 20
0.0
 30
0.0
 11
1.767766953
 21
-1.767766953
 31
0.0
  0
LINE
  5
1FC
330
1E7
100
AcDbEntity
  8
0
  6
Continuous
 62
     0
370
     0
100
AcDbLine
 10
-3.5355339059
 20
3.5355339059
 30
0.0
 11
-6.0104076401
 21
6.0104076401
 31
0.0
  0
LINE
  5
1FD
330
1E7
100
AcDbEntity
  8
0
  6
Continuous
 62
     0
370
     0
100
AcDbLine
 10
3.5355339059
 20
-3.5355339059
 30
0.0
 11
6.0104076401
 21
-6.0104076401
 31
0.0
  0
LINE
  5
1FE
330
1E7
100
AcDbEntity
  8
0
  6
Continuous
 62
     0
370
     0
100
AcDbLine
 10
0.0
 20
-243.2447327282
 30
0.0
 11
-1.767766953
 21
-245.0124996811
 31
0.0
  0
LINE
  5
1FF
330
1E7
100
AcDbEntity
  8
0
  6
Continuous
 62
     0
370
     0
100
AcDbLine
 10
0.0
 20
-243.2447327282
 30
0.0
 11
1.767766953
 21
-241.4769657752
 31
0.0
  0
LINE
  5
200
330
1E7
100
AcDbEntity
  8
0
  6
Continuous
 62
     0
370
     0
100
AcDbLine
 10
-3.5355339059
 20
-246.7802666341
 30
0.0
 11
-6.0104076401
 21
-249.2551403683
 31
0.0
  0
LINE
  5
201
330
1E7
100
AcDbEntity
  8
0
  6
Continuous
 62
     0
370
     0
100
AcDbLine
 10
3.5355339059
 20
-239.7091988222
 30
0.0
 11
6.0104076401
 21
-237.2343250881
 31
0.0
  0
LINE
  5
202
330
1E7
100
AcDbEntity
  8
0
  6
Continuous
 62
     0
370
     0
100
AcDbLine
 10
243.2447327282
 20
-243.2447327282
 30
0.0
 11
245.0124996811
 21
-245.0124996811
 31
0.0
  0
LINE
  5
203
330
1E7
100
AcDbEntity
  8
0
  6
Continuous
 62
     0
370
     0
100
AcDbLine
 10
243.2447327282
 20
-243.2447327282
 30
0.0
 11
241.4769657752
 21
-241.4769657752
 31
0.0
  0
LINE
  5
204
330
1E7
100
AcDbEntity
  8
0
  6
Continuous
 62
     0
370
     0
100
AcDbLine
 10
246.7802666341
 20
-246.7802666341
 30
0.0
 11
249.2551403683
 21
-249.2551403683
 31
0.0
  0
LINE
  5
205
330
1E7
100
AcDbEntity
  8
0
  6
Continuous
 62
     0
370
     0
100
AcDbLine
 10
239.7091988222
 20
-239.7091988222
 30
0.0
 11
237.2343250881
 21
-237.2343250881
 31
0.0
  0
LINE
  5
206
330
1E7
100
AcDbEntity
  8
0
  6
Continuous
 62
     0
370
     0
100
AcDbLine
 10
243.2447327282
 20
0.0
 30
0.0
 11
245.0124996811
 21
1.767766953
 31
0.0
  0
LINE
  5
207
330
1E7
100
AcDbEntity
  8
0
  6
Continuous
 62
     0
370
     0
100
AcDbLine
 10
243.2447327282
 20
0.0
 30
0.0
 11
241.4769657752
 21
-1.767766953
 31
0.0
  0
LINE
  5
208
330
1E7
100
AcDbEntity
  8
0
  6
Continuous
 62
     0
370
     0
100
AcDbLine
 10
246.7802666341
 20
3.5355339059
 30
0.0
 11
249.2551403683
 21
6.0104076401
 31
0.0
  0
LINE
  5
209
330
1E7
100
AcDbEntity
  8
0
  6
Continuous
 62
     0
370
     0
100
AcDbLine
 10
239.7091988222
 20
-3.5355339059
 30
0.0
 11
237.2343250881
 21
-6.0104076401
 31
0.0
  0
LINE
  5
20A
330
1E7
100
AcDbEntity
  8
0
  6
Continuous
 62
     0
370
     0
100
AcDbLine
 10
121.6223663641
 20
-121.6223663641
 30
0.0
 11
121.6223663641
 21
-119.1223663641
 31
0.0
  0
LINE
  5
20B
330
1E7
100
AcDbEntity
  8
0
  6
Continuous
 62
     0
370
     0
100
AcDbLine
 10
121.6223663641
 20
-121.6223663641
 30
0.0
 11
119.1223663641
 21
-121.6223663641
 31
0.0
  0
LINE
  5
20C
330
1E7
100
AcDbEntity
  8
0
  6
Continuous
 62
     0
370
     0
100
AcDbLine
 10
121.6223663641
 20
-121.6223663641
 30
0.0
 11
121.6223663641
 21
-124.1223663641
 31
0.0
  0
LINE
  5
20D
330
1E7
100
AcDbEntity
  8
0
  6
Continuous
 62
     0
370
     0
100
AcDbLine
 10
121.6223663641
 20
-121.6223663641
 30
0.0
 11
124.1223663641
 21
-121.6223663641
 31
0.0
  0
LINE
  5
20E
330
1E7
100
AcDbEntity
  8
0
  6
Continuous
 62
     0
370
     0
100
AcDbLine
 10
121.6223663641
 20
-116.6223663641
 30
0.0
 11
121.6223663641
 21
75.9359769981
 31
0.0
  0
LINE
  5
20F
330
1E7
100
AcDbEntity
  8
0
  6
Continuous
 62
     0
370
     0
100
AcDbLine
 10
116.6223663641
 20
-121.6223663641
 30
0.0
 11
-87.9324371998
 21
-121.6223663641
 31
0.0
  0
LINE
  5
210
330
1E7
100
AcDbEntity
  8
0
  6
Continuous
 62
     0
370
     0
100
AcDbLine
 10
121.6223663641
 20
-126.6223663641
 30
0.0
 11
121.6223663641
 21
-430.075388647
 31
0.0
  0
LINE
  5
211
330
1E7
100
AcDbEntity
  8
0
  6
Continuous
 62
     0
370
     0
100
AcDbLine
 10
126.6223663641
 20
-121.6223663641
 30
0.0
 11
331.6398252001
 21
-121.6223663641
 31
0.0
  0
ENDBLK
  5
1E9
330
1E7
100
AcDbEntity
  8
0
100
AcDbBlockEnd
  0
ENDSEC
  0
SECTION
  2
ENTITIES
  0
ARC
  5
45
330
1F
100
AcDbEntity
  8
0
  6
Continuous
 62
     7
370
    15
100
AcDbCircle
 10
-97.9401840551
 20
-61.9640115847
 30
0.0
 40
5.200000000000038
100
AcDbArc
 50
90.0
 51
180.0
  0
ARC
  5
46
330
1F
100
AcDbEntity
  8
0
  6
Continuous
 62
     7
370
    15
100
AcDbCircle
 10
276.0598159449
 20
-61.9640115847
 30
0.0
 40
5.199999999999982
100
AcDbArc
 50
0.0
 51
90.0
  0
LINE
  5
47
330
1F
100
AcDbEntity
  8
0
  6
Continuous
 62
     7
370
    15
100
AcDbLine
 10
281.2598209994
 20
-65.4640115288
 30
0.0
 11
281.2598209994
 21
-61.9640115372
 31
0.0
  0
LINE
  5
48
330
1F
100
AcDbEntity
  8
0
  6
Continuous
 62
     7
370
    15
100
AcDbLine
 10
-103.1401891096
 20
-61.9640115372
 30
0.0
 11
-103.1401891096
 21
-65.4640115288
 31
0.0
  0
ARC
  5
49
330
1F
100
AcDbEntity
  8
0
  6
Continuous
 62
     7
370
    15
100
AcDbCircle
 10
-74.7401840551
 20
-53.9640115847
 30
0.0
 40
2.800000000000026
100
AcDbArc
 50
310.3826960444
 51
0.0
  0
ARC
  5
4A
330
1F
100
AcDbEntity
  8
0
  6
Continuous
 62
     7
370
    15
100
AcDbCircle
 10
252.8598159449
 20
-53.9640115847
 30
0.0
 40
2.80000000000004
100
AcDbArc
 50
180.0
 51
229.6173039556
  0
ARC
  5
4B
330
1F
100
AcDbEntity
  8
0
  6
Continuous
 62
     7
370
    15
100
AcDbCircle
 10
244.8598159449
 20
-50.6732187623
 30
0.0
 40
5.200000000000056
100
AcDbArc
 50
0.0
 51
63.6232531581
  0
ARC
  5
4C
330
1F
100
AcDbEntity
  8
0
  6
Continuous
 62
     7
370
    15
100
AcDbCircle
 10
-66.7401840551
 20
-50.6732187623
 30
0.0
 40
5.200000000000069
100
AcDbArc
 50
116.3767468419
 51
180.0
  0
LINE
  5
4D
330
1F
100
AcDbEntity
  8
0
  6
Continuous
 62
     7
370
    15
100
AcDbLine
 10
250.0598143952
 20
-53.9640119721
 30
0.0
 11
250.0598143952
 21
-50.673219045
 31
0.0
  0
LINE
  5
4E
330
1F
100
AcDbEntity
  8
0
  6
Continuous
 62
     7
370
    15
100
AcDbLine
 10
-71.9401825054
 20
-50.673219045
 30
0.0
 11
-71.9401825054
 21
-53.9640119721
 31
0.0
  0
ARC
  5
4F
330
1F
100
AcDbEntity
  8
0
  6
Continuous
 62
     7
370
    15
100
AcDbCircle
 10
89.0598159449
 20
-364.8503752211
 30
0.0
 40
355.8863636363637
100
AcDbArc
 50
63.6232531581
 51
116.3767468419
  0
LINE
  5
50
330
1F
100
AcDbEntity
  8
0
  6
Continuous
 62
     7
370
    15
100
AcDbLine
 10
-86.4260930402
 20
-72.264011619
 30
0.0
 11
-86.4260930402
 21
-76.7640114253
 31
0.0
  0
LINE
  5
51
330
1F
100
AcDbEntity
  8
0
  6
Continuous
 62
     7
370
    15
100
AcDbLine
 10
-76.4260876758
 20
-76.7640114253
 30
0.0
 11
-76.4260876758
 21
-72.264011619
 31
0.0
  0
LINE
  5
52
330
1F
100
AcDbEntity
  8
0
  6
Continuous
 62
     7
370
    15
100
AcDbLine
 10
38.3782547133
 20
-72.264011619
 30
0.0
 11
38.3782547133
 21
-76.7640114253
 31
0.0
  0
LINE
  5
53
330
1F
100
AcDbEntity
  8
0
  6
Continuous
 62
     7
370
    15
100
AcDbLine
 10
48.3782526271
 20
-76.7640114253
 30
0.0
 11
48.3782526271
 21
-72.264011619
 31
0.0
  0
LINE
  5
54
330
1F
100
AcDbEntity
  8
0
  6
Continuous
 62
     7
370
    15
100
AcDbLine
 10
-40.7445270403
 20
-72.264011619
 30
0.0
 11
-40.7445270403
 21
-76.7640114253
 31
0.0
  0
LINE
  5
55
330
1F
100
AcDbEntity
  8
0
  6
Continuous
 62
     7
370
    15
100
AcDbLine
 10
-30.7445291264
 20
-76.7640114253
 30
0.0
 11
-30.7445291264
 21
-72.264011619
 31
0.0
  0
LINE
  5
56
330
1F
100
AcDbEntity
  8
0
  6
Continuous
 62
     7
370
    15
100
AcDbLine
 10
129.7413792627
 20
-72.264011619
 30
0.0
 11
129.7413792627
 21
-76.7640114253
 31
0.0
  0
LINE
  5
57
330
1F
100
AcDbEntity
  8
0
  6
Continuous
 62
     7
370
    15
100
AcDbLine
 10
139.7413771765
 20
-76.7640114253
 30
0.0
 11
139.7413771765
 21
-72.264011619
 31
0.0
  0
LINE
  5
58
330
1F
100
AcDbEntity
  8
0
  6
Continuous
 62
     7
370
    15
100
AcDbLine
 10
208.8641610162
 20
-72.264011619
 30
0.0
 11
208.8641610162
 21
-76.7640114253
 31
0.0
  0
LINE
  5
59
330
1F
100
AcDbEntity
  8
0
  6
Continuous
 62
     7
370
    15
100
AcDbLine
 10
218.86415893
 20
-76.7640114253
 30
0.0
 11
218.86415893
 21
-72.264011619
 31
0.0
  0
LINE
  5
5A
330
1F
100
AcDbEntity
  8
0
  6
Continuous
 62
     7
370
    15
100
AcDbLine
 10
254.5457195656
 20
-72.264011619
 30
0.0
 11
254.5457195656
 21
-76.7640114253
 31
0.0
  0
LINE
  5
5B
330
1F
100
AcDbEntity
  8
0
  6
Continuous
 62
     7
370
    15
100
AcDbLine
 10
264.54572493
 20
-76.7640114253
 30
0.0
 11
264.54572493
 21
-72.264011619
 31
0.0
  0
LINE
  5
5C
330
1F
100
AcDbEntity
  8
0
  6
Continuous
 62
     7
370
    15
100
AcDbLine
 10
102.2598158734
 20
-754.9639834513
 30
0.0
 11
102.2598158734
 21
-727.9640330424
 31
0.0
  0
LINE
  5
5D
330
1F
100
AcDbEntity
  8
0
  6
Continuous
 62
     7
370
    15
100
AcDbLine
 10
75.8598160164
 20
-727.9640330424
 30
0.0
 11
75.8598160164
 21
-754.9639834513
 31
0.0
  0
LINE
  5
5E
330
1F
100
AcDbEntity
  8
0
  6
Continuous
 62
     7
370
    15
100
AcDbLine
 10
107.05981517
 20
-718.9640297045
 30
0.0
 11
107.05981517
 21
-710.9640134921
 31
0.0
  0
LINE
  5
5F
330
1F
100
AcDbEntity
  8
0
  6
Continuous
 62
     7
370
    15
100
AcDbLine
 10
71.0598167197
 20
-710.9640134921
 30
0.0
 11
71.0598167197
 21
-718.9640297045
 31
0.0
  0
LINE
  5
60
330
1F
100
AcDbEntity
  8
0
  6
Continuous
 62
     7
370
    15
100
AcDbLine
 10
103.059816377
 20
-710.9640134921
 30
0.0
 11
103.059816377
 21
-680.9639824976
 31
0.0
  0
LINE
  5
61
330
1F
100
AcDbEntity
  8
0
  6
Continuous
 62
     7
370
    15
100
AcDbLine
 10
75.0598155128
 20
-680.9639824976
 30
0.0
 11
75.0598155128
 21
-710.9640134921
 31
0.0
  0
LINE
  5
62
330
1F
100
AcDbEntity
  8
0
  6
Continuous
 62
     7
370
    15
100
AcDbLine
 10
77.3615028875
 20
-718.9640297045
 30
0.0
 11
77.6128957214
 21
-727.9640330424
 31
0.0
  0
LINE
  5
63
330
1F
100
AcDbEntity
  8
0
  6
Continuous
 62
     7
370
    15
100
AcDbLine
 10
100.5067361684
 20
-727.9640330424
 30
0.0
 11
100.7581290023
 21
-718.9640297045
 31
0.0
  0
LINE
  5
64
330
1F
100
AcDbEntity
  8
0
  6
Continuous
 62
     7
370
    15
100
AcDbLine
 10
78.0598160045
 20
-218.9640148034
 30
0.0
 11
78.0598160045
 21
-680.9639824976
 31
0.0
  0
LINE
  5
65
330
1F
100
AcDbEntity
  8
0
  6
Continuous
 62
     7
370
    15
100
AcDbLine
 10
100.0598158853
 20
-680.9639824976
 30
0.0
 11
100.0598158853
 21
-218.9640148034
 31
0.0
  0
ARC
  5
66
330
1F
100
AcDbEntity
  8
0
  6
Continuous
 62
     7
370
    15
100
AcDbCircle
 10
76.5598159449
 20
-217.9640115847
 30
0.0
 40
1.000000000000909
100
AcDbArc
 50
180.0
 51
270.0
  0
ARC
  5
67
330
1F
100
AcDbEntity
  8
0
  6
Continuous
 62
     7
370
    15
100
AcDbCircle
 10
101.5598159449
 20
-217.9640115847
 30
0.0
 40
1.000000000000909
100
AcDbArc
 50
270.0
 51
0.0
  0
LINE
  5
68
330
1F
100
AcDbEntity
  8
0
  6
Continuous
 62
     7
370
    15
100
AcDbLine
 10
102.5598162951
 20
-217.9640127768
 30
0.0
 11
102.5598162951
 21
-198.4640105118
 31
0.0
  0
LINE
  5
69
330
1F
100
AcDbEntity
  8
0
  6
Continuous
 62
     7
370
    15
100
AcDbLine
 10
75.5598155947
 20
-198.4640105118
 30
0.0
 11
75.5598155947
 21
-217.9640127768
 31
0.0
  0
LINE
  5
6A
330
1F
100
AcDbEntity
  8
0
  6
Continuous
 62
     7
370
    15
100
AcDbLine
 10
59.9598150866
 20
-107.4640123596
 30
0.0
 11
59.9598150866
 21
-110.9640120019
 31
0.0
  0
LINE
  5
6B
330
1F
100
AcDbEntity
  8
0
  6
Continuous
 62
     7
370
    15
100
AcDbLine
 10
118.1598168032
 20
-110.9640120019
 30
0.0
 11
118.1598168032
 21
-107.4640123596
 31
0.0
  0
LINE
  5
6C
330
1F
100
AcDbEntity
  8
0
  6
Continuous
 62
     7
370
    15
100
AcDbLine
 10
60.0598167794
 20
-110.9640120019
 30
0.0
 11
60.0598167794
 21
-118.9640133132
 31
0.0
  0
LINE
  5
6D
330
1F
100
AcDbEntity
  8
0
  6
Continuous
 62
     7
370
    15
100
AcDbLine
 10
118.0598151104
 20
-118.9640133132
 30
0.0
 11
118.0598151104
 21
-110.9640120019
 31
0.0
  0
LINE
  5
6E
330
1F
100
AcDbEntity
  8
0
  6
Continuous
 62
     7
370
    15
100
AcDbLine
 10
66.0598159002
 20
-191.9640047898
 30
0.0
 11
66.0598159002
 21
-211.9640155186
 31
0.0
  0
LINE
  5
6F
330
1F
100
AcDbEntity
  8
0
  6
Continuous
 62
     7
370
    15
100
AcDbLine
 10
66.0598159002
 20
-118.9640133132
 30
0.0
 11
66.0598159002
 21
-145.9640084257
 31
0.0
  0
LINE
  5
70
330
1F
100
AcDbEntity
  8
0
  6
Continuous
 62
     7
370
    15
100
AcDbLine
 10
112.0598159896
 20
-148.9857925524
 30
0.0
 11
112.0598159896
 21
-118.9640133132
 31
0.0
  0
LINE
  5
71
330
1F
100
AcDbEntity
  8
0
  6
Continuous
 62
     7
370
    15
100
AcDbLine
 10
112.0598159896
 20
-211.9640155186
 30
0.0
 11
112.0598159896
 21
-188.9303518881
 31
0.0
  0
LINE
  5
72
330
1F
100
AcDbEntity
  8
0
  6
Continuous
 62
     7
370
    15
100
AcDbLine
 10
111.559816839
 20
-102.9640106906
 30
0.0
 11
111.559816839
 21
-99.9640120615
 31
0.0
  0
LINE
  5
73
330
1F
100
AcDbEntity
  8
0
  6
Continuous
 62
     7
370
    15
100
AcDbLine
 10
66.5598150508
 20
-99.9640120615
 30
0.0
 11
66.5598150508
 21
-102.9640106906
 31
0.0
  0
LINE
  5
74
330
1F
100
AcDbEntity
  8
0
  6
Continuous
 62
     7
370
    15
100
AcDbLine
 10
111.0598158257
 20
-93.9640110781
 30
0.0
 11
111.0598158257
 21
-86.1640112897
 31
0.0
  0
LINE
  5
75
330
1F
100
AcDbEntity
  8
0
  6
Continuous
 62
     7
370
    15
100
AcDbLine
 10
67.0598160641
 20
-86.1640112897
 30
0.0
 11
67.0598160641
 21
-93.9640110781
 31
0.0
  0
ARC
  5
76
330
1F
100
AcDbEntity
  8
0
  6
Continuous
 62
     7
370
    15
100
AcDbCircle
 10
67.5598159449
 20
-86.1640115847
 30
0.0
 40
0.5
100
AcDbArc
 50
90.0
 51
180.0
  0
ARC
  5
77
330
1F
100
AcDbEntity
  8
0
  6
Continuous
 62
     7
370
    15
100
AcDbCircle
 10
110.5598159449
 20
-86.1640115847
 30
0.0
 40
0.5
100
AcDbArc
 50
0.0
 51
90.0
  0
ARC
  5
78
330
1F
100
AcDbEntity
  8
0
  6
Continuous
 62
     7
370
    15
100
AcDbCircle
 10
67.0598159449
 20
-211.9640115847
 30
0.0
 40
1.0
100
AcDbArc
 50
180.0
 51
270.0
  0
ARC
  5
79
330
1F
100
AcDbEntity
  8
0
  6
Continuous
 62
     7
370
    15
100
AcDbCircle
 10
111.0598159449
 20
-211.9640115847
 30
0.0
 40
1.0
100
AcDbArc
 50
270.0
 51
0.0
  0
ARC
  5
7A
330
1F
100
AcDbEntity
  8
0
  6
Continuous
 62
     7
370
    15
100
AcDbCircle
 10
138.0598159449
 20
-149.9640115847
 30
0.0
 40
1.000000000010942
100
AcDbArc
 50
0.0
 51
90.0
  0
ARC
  5
7B
330
1F
100
AcDbEntity
  8
0
  6
Continuous
 62
     7
370
    15
100
AcDbCircle
 10
138.0598159449
 20
-187.9640115847
 30
0.0
 40
1.000000000010942
100
AcDbArc
 50
270.0
 51
0.0
  0
LINE
  5
7C
330
1F
100
AcDbEntity
  8
0
  6
Continuous
 62
     7
370
    15
100
AcDbLine
 10
69.0598163919
 20
-102.9640106906
 30
0.0
 11
69.0598163919
 21
-107.4640123596
 31
0.0
  0
LINE
  5
7D
330
1F
100
AcDbEntity
  8
0
  6
Continuous
 62
     7
370
    15
100
AcDbLine
 10
109.0598154979
 20
-107.4640123596
 30
0.0
 11
109.0598154979
 21
-102.9640106906
 31
0.0
  0
LINE
  5
7E
330
1F
100
AcDbEntity
  8
0
  6
Continuous
 62
     7
370
    15
100
AcDbLine
 10
10.059812309
 20
-188.9640136113
 30
0.0
 11
32.0598159151
 21
-188.9640136113
 31
0.0
  0
LINE
  5
7F
330
1F
100
AcDbEntity
  8
0
  6
Continuous
 62
     7
370
    15
100
AcDbLine
 10
25.0598129051
 20
-148.9640145053
 30
0.0
 11
10.059812309
 21
-148.9640145053
 31
0.0
  0
ARC
  5
80
330
1F
100
AcDbEntity
  8
0
  6
Continuous
 62
     7
370
    15
100
AcDbCircle
 10
10.0598159449
 20
-149.9640115847
 30
0.0
 40
1.0
100
AcDbArc
 50
90.0
 51
180.0
  0
ARC
  5
81
330
1F
100
AcDbEntity
  8
0
  6
Continuous
 62
     7
370
    15
100
AcDbCircle
 10
10.0598159449
 20
-187.9640115847
 30
0.0
 40
1.0
100
AcDbArc
 50
180.0
 51
270.0
  0
LINE
  5
82
330
1F
100
AcDbEntity
  8
0
  6
Continuous
 62
     7
370
    15
100
AcDbLine
 10
138.0598146634
 20
-148.9640145053
 30
0.0
 11
112.0409026907
 21
-148.9640145053
 31
0.0
  0
LINE
  5
83
330
1F
100
AcDbEntity
  8
0
  6
Continuous
 62
     7
370
    15
100
AcDbLine
 10
112.0305873619
 20
-188.9640136113
 30
0.0
 11
138.0598146634
 21
-188.9640136113
 31
0.0
  0
LINE
  5
84
330
1F
100
AcDbEntity
  8
0
  6
Continuous
 62
     7
370
    15
100
AcDbLine
 10
48.0598148124
 20
-116.9640129854
 30
0.0
 11
47.0598165111
 21
-115.9640109589
 31
0.0
  0
LINE
  5
85
330
1F
100
AcDbEntity
  8
0
  6
Continuous
 62
     7
370
    15
100
AcDbLine
 10
23.0598163025
 20
-115.9640109589
 30
0.0
 11
22.059814276
 21
-116.9640129854
 31
0.0
  0
LINE
  5
86
330
1F
100
AcDbEntity
  8
0
  6
Continuous
 62
     7
370
    15
100
AcDbLine
 10
22.059814276
 20
-131.9640098562
 30
0.0
 11
23.0598163025
 21
-132.9640118827
 31
0.0
  0
LINE
  5
87
330
1F
100
AcDbEntity
  8
0
  6
Continuous
 62
     7
370
    15
100
AcDbLine
 10
47.0598165111
 20
-132.9640118827
 30
0.0
 11
48.0598148124
 21
-131.9640098562
 31
0.0
  0
LINE
  5
88
330
1F
100
AcDbEntity
  8
0
  6
Continuous
 62
     7
370
    15
100
AcDbLine
 10
22.059814276
 20
-116.9640129854
 30
0.0
 11
22.059814276
 21
-131.9640098562
 31
0.0
  0
LINE
  5
89
330
1F
100
AcDbEntity
  8
0
  6
Continuous
 62
     7
370
    15
100
AcDbLine
 10
48.0598148124
 20
-131.9640098562
 30
0.0
 11
48.0598148124
 21
-116.9640129854
 31
0.0
  0
LINE
  5
8A
330
1F
100
AcDbEntity
  8
0
  6
Continuous
 62
     7
370
    15
100
AcDbLine
 10
24.0598183291
 20
-132.9640118827
 30
0.0
 11
24.0598183291
 21
-145.9640084257
 31
0.0
  0
LINE
  5
8B
330
1F
100
AcDbEntity
  8
0
  6
Continuous
 62
     7
370
    15
100
AcDbLine
 10
46.0598144846
 20
-145.9640084257
 30
0.0
 11
46.0598144846
 21
-132.9640118827
 31
0.0
  0
ARC
  5
8C
330
1F
100
AcDbEntity
  8
0
  6
Continuous
 62
     7
370
    15
100
AcDbCircle
 10
253.0598159449
 20
-70.9640115847
 30
0.0
 40
5.700000000000045
100
AcDbArc
 50
123.6499939323
 51
180.0
  0
ARC
  5
8D
330
1F
100
AcDbEntity
  8
0
  6
Continuous
 62
     7
370
    15
100
AcDbCircle
 10
-74.9401840551
 20
-70.9640115847
 30
0.0
 40
5.700000000000017
100
AcDbArc
 50
0.0
 51
69.307682355
  0
LINE
  5
8E
330
1F
100
AcDbEntity
  8
0
  6
Continuous
 62
     7
370
    15
100
AcDbLine
 10
247.3598133938
 20
-91.9640107502
 30
0.0
 11
247.3598133938
 21
-70.9640119647
 31
0.0
  0
LINE
  5
8F
330
1F
100
AcDbEntity
  8
0
  6
Continuous
 62
     7
370
    15
100
AcDbLine
 10
-69.240181504
 20
-70.9640119647
 30
0.0
 11
-69.240181504
 21
-92.9640109142
 31
0.0
  0
LINE
  5
90
330
1F
100
AcDbEntity
  8
0
  6
Continuous
 62
     7
370
    15
100
AcDbLine
 10
-66.9401872738
 20
-92.9640109142
 30
0.0
 11
-66.9401872738
 21
-737.9640235056
 31
0.0
  0
LINE
  5
91
330
1F
100
AcDbEntity
  8
0
  6
Continuous
 62
     7
370
    15
100
AcDbLine
 10
245.0598191635
 20
-737.9640235056
 30
0.0
 11
245.0598191635
 21
-101.9640123894
 31
0.0
  0
LINE
  5
92
330
1F
100
AcDbEntity
  8
0
  6
Continuous
 62
     7
370
    15
100
AcDbLine
 10
-64.6401781423
 20
-737.9640235056
 30
0.0
 11
-64.6401781423
 21
-764.9640335192
 31
0.0
  0
LINE
  5
93
330
1F
100
AcDbEntity
  8
0
  6
Continuous
 62
     7
370
    15
100
AcDbLine
 10
242.7598100321
 20
-764.9640335192
 30
0.0
 11
242.7598100321
 21
-737.9640235056
 31
0.0
  0
LINE
  5
94
330
1F
100
AcDbEntity
  8
0
  6
Continuous
 62
     7
370
    15
100
AcDbLine
 10
-64.4401896579
 20
-764.9640335192
 30
0.0
 11
-64.4401896579
 21
-789.9640096774
 31
0.0
  0
LINE
  5
95
330
1F
100
AcDbEntity
  8
0
  6
Continuous
 62
     7
370
    15
100
AcDbLine
 10
242.5598215477
 20
-789.9640096774
 30
0.0
 11
242.5598215477
 21
-764.9640335192
 31
0.0
  0
LINE
  5
96
330
1F
100
AcDbEntity
  8
0
  6
Continuous
 62
     7
370
    15
100
AcDbLine
 10
-97.9401904924
 20
-56.7640114066
 30
0.0
 11
276.0598223822
 21
-56.7640114066
 31
0.0
  0
LINE
  5
97
330
1F
100
AcDbEntity
  8
0
  6
Continuous
 62
     7
370
    15
100
AcDbLine
 10
274.7107606547
 20
-65.4640115288
 30
0.0
 11
-103.1401891096
 21
-65.4640115288
 31
0.0
  0
LINE
  5
98
330
1F
100
AcDbEntity
  8
0
  6
Continuous
 62
     7
370
    15
100
AcDbLine
 10
281.2598209994
 20
-65.4640115288
 30
0.0
 11
274.7107606547
 21
-65.4640115288
 31
0.0
  0
LINE
  5
99
330
1F
100
AcDbEntity
  8
0
  6
Continuous
 62
     7
370
    15
100
AcDbLine
 10
167.5598185675
 20
-99.9640120615
 30
0.0
 11
167.5598185675
 21
-93.9640110781
 31
0.0
  0
LINE
  5
9A
330
1F
100
AcDbEntity
  8
0
  6
Continuous
 62
     7
370
    15
100
AcDbLine
 10
167.5598185675
 20
-93.9640110781
 30
0.0
 11
169.0598141567
 21
-92.4640117635
 31
0.0
  0
LINE
  5
9B
330
1F
100
AcDbEntity
  8
0
  6
Continuous
 62
     7
370
    15
100
AcDbLine
 10
169.0598141567
 20
-92.4640117635
 30
0.0
 11
169.0598141567
 21
-101.4640113761
 31
0.0
  0
LINE
  5
9C
330
1F
100
AcDbEntity
  8
0
  6
Continuous
 62
     7
370
    15
100
AcDbLine
 10
169.0598141567
 20
-101.4640113761
 30
0.0
 11
167.5598185675
 21
-99.9640120615
 31
0.0
  0
LINE
  5
9D
330
1F
100
AcDbEntity
  8
0
  6
Continuous
 62
     7
370
    15
100
AcDbLine
 10
267.559812607
 20
-101.9640123894
 30
0.0
 11
267.559812607
 21
-91.9640107502
 31
0.0
  0
LINE
  5
9E
330
1F
100
AcDbEntity
  8
0
  6
Continuous
 62
     7
370
    15
100
AcDbLine
 10
169.55981517
 20
-101.9640123894
 30
0.0
 11
267.559812607
 21
-101.9640123894
 31
0.0
  0
LINE
  5
9F
330
1F
100
AcDbEntity
  8
0
  6
Continuous
 62
     7
370
    15
100
AcDbLine
 10
169.55981517
 20
-91.9640107502
 30
0.0
 11
169.0598141567
 21
-92.4640117635
 31
0.0
  0
LINE
  5
A0
330
1F
100
AcDbEntity
  8
0
  6
Continuous
 62
     7
370
    15
100
AcDbLine
 10
169.55981517
 20
-91.9640107502
 30
0.0
 11
267.559812607
 21
-91.9640107502
 31
0.0
  0
LINE
  5
A1
330
1F
100
AcDbEntity
  8
0
  6
Continuous
 62
     7
370
    15
100
AcDbLine
 10
169.0598141567
 20
-101.4640113761
 30
0.0
 11
169.55981517
 21
-101.9640123894
 31
0.0
  0
LINE
  5
A2
330
1F
100
AcDbEntity
  8
0
  6
Continuous
 62
     7
370
    15
100
AcDbLine
 10
269.5598166601
 20
-93.9640110781
 30
0.0
 11
269.5598166601
 21
-99.9640120615
 31
0.0
  0
LINE
  5
A3
330
1F
100
AcDbEntity
  8
0
  6
Continuous
 62
     7
370
    15
100
AcDbLine
 10
269.5598166601
 20
-93.9640110781
 30
0.0
 11
267.559812607
 21
-91.9640107502
 31
0.0
  0
LINE
  5
A4
330
1F
100
AcDbEntity
  8
0
  6
Continuous
 62
     7
370
    15
100
AcDbLine
 10
267.559812607
 20
-101.9640123894
 30
0.0
 11
269.5598166601
 21
-99.9640120615
 31
0.0
  0
ARC
  5
A5
330
1F
100
AcDbEntity
  8
0
  6
Continuous
 62
     7
370
    15
100
AcDbCircle
 10
61.0598159449
 20
-103.9640115847
 30
0.0
 40
4.0
100
AcDbArc
 50
90.0
 51
180.0
  0
LINE
  5
A6
330
1F
100
AcDbEntity
  8
0
  6
Continuous
 62
     7
370
    15
100
AcDbLine
 10
51.0598171668
 20
-116.9640129854
 30
0.0
 11
57.059814425
 21
-116.9640129854
 31
0.0
  0
ARC
  5
A7
330
1F
100
AcDbEntity
  8
0
  6
Continuous
 62
     7
370
    15
100
AcDbCircle
 10
61.0598159449
 20
-103.9640115847
 30
0.0
 40
10.00000000000001
100
AcDbArc
 50
90.0
 51
180.0
  0
LINE
  5
A8
330
1F
100
AcDbEntity
  8
0
  6
Continuous
 62
     7
370
    15
100
AcDbLine
 10
167.5598185675
 20
-93.9640110781
 30
0.0
 11
106.4307682382
 21
-93.9640110781
 31
0.0
  0
LINE
  5
A9
330
1F
100
AcDbEntity
  8
0
  6
Continuous
 62
     7
370
    15
100
AcDbLine
 10
71.6888636516
 20
-93.9640110781
 30
0.0
 11
61.0598150806
 21
-93.9640110781
 31
0.0
  0
LINE
  5
AA
330
1F
100
AcDbEntity
  8
0
  6
Continuous
 62
     7
370
    15
100
AcDbLine
 10
57.059814425
 20
-116.9640129854
 30
0.0
 11
57.059814425
 21
-103.9640127172
 31
0.0
  0
LINE
  5
AB
330
1F
100
AcDbEntity
  8
0
  6
Continuous
 62
     7
370
    15
100
AcDbLine
 10
61.0598150806
 20
-99.9640120615
 30
0.0
 11
71.0598167197
 21
-99.9640120615
 31
0.0
  0
LINE
  5
AC
330
1F
100
AcDbEntity
  8
0
  6
Continuous
 62
     7
370
    15
100
AcDbLine
 10
107.05981517
 20
-99.9640120615
 30
0.0
 11
167.5598185675
 21
-99.9640120615
 31
0.0
  0
LINE
  5
AD
330
1F
100
AcDbEntity
  8
0
  6
Continuous
 62
     7
370
    15
100
AcDbLine
 10
51.0598171668
 20
-103.9640127172
 30
0.0
 11
51.0598171668
 21
-116.9640129854
 31
0.0
  0
LINE
  5
AE
330
1F
100
AcDbEntity
  8
0
  6
Continuous
 62
     7
370
    15
100
AcDbLine
 10
43.3782536702
 20
-65.4640115288
 30
0.0
 11
43.3782536702
 21
-72.264011619
 31
0.0
  0
LINE
  5
AF
330
1F
100
AcDbEntity
  8
0
  6
Continuous
 62
     7
370
    15
100
AcDbLine
 10
51.8782559948
 20
-65.4640115288
 30
0.0
 11
51.8782559948
 21
-72.264011619
 31
0.0
  0
LINE
  5
B0
330
1F
100
AcDbEntity
  8
0
  6
Continuous
 62
     7
370
    15
100
AcDbLine
 10
43.3782536702
 20
-72.264011619
 30
0.0
 11
51.8782559948
 21
-72.264011619
 31
0.0
  0
LINE
  5
B1
330
1F
100
AcDbEntity
  8
0
  6
Continuous
 62
     7
370
    15
100
AcDbLine
 10
34.8782550709
 20
-65.4640115288
 30
0.0
 11
34.8782550709
 21
-72.264011619
 31
0.0
  0
LINE
  5
B2
330
1F
100
AcDbEntity
  8
0
  6
Continuous
 62
     7
370
    15
100
AcDbLine
 10
34.8782550709
 20
-72.264011619
 30
0.0
 11
43.3782536702
 21
-72.264011619
 31
0.0
  0
LINE
  5
B3
330
1F
100
AcDbEntity
  8
0
  6
Continuous
 62
     7
370
    15
100
AcDbLine
 10
256.301329674
 20
-65.4640115288
 30
0.0
 11
256.301329674
 21
-72.264011619
 31
0.0
  0
LINE
  5
B4
330
1F
100
AcDbEntity
  8
0
  6
Continuous
 62
     7
370
    15
100
AcDbLine
 10
265.9457039254
 20
-65.4640115288
 30
0.0
 11
265.9457039254
 21
-72.264011619
 31
0.0
  0
LINE
  5
B5
330
1F
100
AcDbEntity
  8
0
  6
Continuous
 62
     7
370
    15
100
AcDbLine
 10
256.301329674
 20
-72.264011619
 30
0.0
 11
265.9457039254
 21
-72.264011619
 31
0.0
  0
LINE
  5
B6
330
1F
100
AcDbEntity
  8
0
  6
Continuous
 62
     7
370
    15
100
AcDbLine
 10
249.9013405459
 20
-65.4640115288
 30
0.0
 11
249.9013405459
 21
-72.264011619
 31
0.0
  0
LINE
  5
B7
330
1F
100
AcDbEntity
  8
0
  6
Continuous
 62
     7
370
    15
100
AcDbLine
 10
249.9013405459
 20
-72.264011619
 30
0.0
 11
256.301329674
 21
-72.264011619
 31
0.0
  0
LINE
  5
B8
330
1F
100
AcDbEntity
  8
0
  6
Continuous
 62
     7
370
    15
100
AcDbLine
 10
269.1901039498
 20
-65.4640115288
 30
0.0
 11
269.1901039498
 21
-72.264011619
 31
0.0
  0
LINE
  5
B9
330
1F
100
AcDbEntity
  8
0
  6
Continuous
 62
     7
370
    15
100
AcDbLine
 10
265.9457039254
 20
-72.264011619
 30
0.0
 11
269.1901039498
 21
-72.264011619
 31
0.0
  0
LINE
  5
BA
330
1F
100
AcDbEntity
  8
0
  6
Continuous
 62
     7
370
    15
100
AcDbLine
 10
210.619763674
 20
-65.4640115288
 30
0.0
 11
210.619763674
 21
-72.264011619
 31
0.0
  0
LINE
  5
BB
330
1F
100
AcDbEntity
  8
0
  6
Continuous
 62
     7
370
    15
100
AcDbLine
 10
220.2641528265
 20
-65.4640115288
 30
0.0
 11
220.2641528265
 21
-72.264011619
 31
0.0
  0
LINE
  5
BC
330
1F
100
AcDbEntity
  8
0
  6
Continuous
 62
     7
370
    15
100
AcDbLine
 10
210.619763674
 20
-72.264011619
 30
0.0
 11
220.2641528265
 21
-72.264011619
 31
0.0
  0
LINE
  5
BD
330
1F
100
AcDbEntity
  8
0
  6
Continuous
 62
     7
370
    15
100
AcDbLine
 10
204.2197819965
 20
-65.4640115288
 30
0.0
 11
204.2197819965
 21
-72.264011619
 31
0.0
  0
LINE
  5
BE
330
1F
100
AcDbEntity
  8
0
  6
Continuous
 62
     7
370
    15
100
AcDbLine
 10
204.2197819965
 20
-72.264011619
 30
0.0
 11
210.619763674
 21
-72.264011619
 31
0.0
  0
LINE
  5
BF
330
1F
100
AcDbEntity
  8
0
  6
Continuous
 62
     7
370
    15
100
AcDbLine
 10
223.5085379498
 20
-65.4640115288
 30
0.0
 11
223.5085379498
 21
-72.264011619
 31
0.0
  0
LINE
  5
C0
330
1F
100
AcDbEntity
  8
0
  6
Continuous
 62
     7
370
    15
100
AcDbLine
 10
220.2641528265
 20
-72.264011619
 30
0.0
 11
223.5085379498
 21
-72.264011619
 31
0.0
  0
LINE
  5
C1
330
1F
100
AcDbEntity
  8
0
  6
Continuous
 62
     7
370
    15
100
AcDbLine
 10
134.7413782196
 20
-65.4640115288
 30
0.0
 11
134.7413782196
 21
-72.264011619
 31
0.0
  0
LINE
  5
C2
330
1F
100
AcDbEntity
  8
0
  6
Continuous
 62
     7
370
    15
100
AcDbLine
 10
143.2413768189
 20
-65.4640115288
 30
0.0
 11
143.2413768189
 21
-72.264011619
 31
0.0
  0
LINE
  5
C3
330
1F
100
AcDbEntity
  8
0
  6
Continuous
 62
     7
370
    15
100
AcDbLine
 10
134.7413782196
 20
-72.264011619
 30
0.0
 11
143.2413768189
 21
-72.264011619
 31
0.0
  0
LINE
  5
C4
330
1F
100
AcDbEntity
  8
0
  6
Continuous
 62
     7
370
    15
100
AcDbLine
 10
126.241375895
 20
-65.4640115288
 30
0.0
 11
126.241375895
 21
-72.264011619
 31
0.0
  0
LINE
  5
C5
330
1F
100
AcDbEntity
  8
0
  6
Continuous
 62
     7
370
    15
100
AcDbLine
 10
126.241375895
 20
-72.264011619
 30
0.0
 11
134.7413782196
 21
-72.264011619
 31
0.0
  0
LINE
  5
C6
330
1F
100
AcDbEntity
  8
0
  6
Continuous
 62
     7
370
    15
100
AcDbLine
 10
-35.7445318086
 20
-65.4640115288
 30
0.0
 11
-35.7445318086
 21
-72.264011619
 31
0.0
  0
LINE
  5
C7
330
1F
100
AcDbEntity
  8
0
  6
Continuous
 62
     7
370
    15
100
AcDbLine
 10
-27.2445294841
 20
-65.4640115288
 30
0.0
 11
-27.2445294841
 21
-72.264011619
 31
0.0
  0
LINE
  5
C8
330
1F
100
AcDbEntity
  8
0
  6
Continuous
 62
     7
370
    15
100
AcDbLine
 10
-35.7445318086
 20
-72.264011619
 30
0.0
 11
-27.2445294841
 21
-72.264011619
 31
0.0
  0
LINE
  5
C9
330
1F
100
AcDbEntity
  8
0
  6
Continuous
 62
     7
370
    15
100
AcDbLine
 10
-44.2445266826
 20
-65.4640115288
 30
0.0
 11
-44.2445266826
 21
-72.264011619
 31
0.0
  0
LINE
  5
CA
330
1F
100
AcDbEntity
  8
0
  6
Continuous
 62
     7
370
    15
100
AcDbLine
 10
-44.2445266826
 20
-72.264011619
 30
0.0
 11
-35.7445318086
 21
-72.264011619
 31
0.0
  0
LINE
  5
CB
330
1F
100
AcDbEntity
  8
0
  6
Continuous
 62
     7
370
    15
100
AcDbLine
 10
-89.9260926826
 20
-65.4640115288
 30
0.0
 11
-89.9260926826
 21
-72.264011619
 31
0.0
  0
LINE
  5
CC
330
1F
100
AcDbEntity
  8
0
  6
Continuous
 62
     7
370
    15
100
AcDbLine
 10
-81.4260978086
 20
-65.4640115288
 30
0.0
 11
-81.4260978086
 21
-72.264011619
 31
0.0
  0
LINE
  5
CD
330
1F
100
AcDbEntity
  8
0
  6
Continuous
 62
     7
370
    15
100
AcDbLine
 10
-89.9260926826
 20
-72.264011619
 30
0.0
 11
-81.4260978086
 21
-72.264011619
 31
0.0
  0
LINE
  5
CE
330
1F
100
AcDbEntity
  8
0
  6
Continuous
 62
     7
370
    15
100
AcDbLine
 10
-72.9260880335
 20
-65.4640115288
 30
0.0
 11
-72.9260880335
 21
-72.264011619
 31
0.0
  0
LINE
  5
CF
330
1F
100
AcDbEntity
  8
0
  6
Continuous
 62
     7
370
    15
100
AcDbLine
 10
-81.4260978086
 20
-72.264011619
 30
0.0
 11
-72.9260880335
 21
-72.264011619
 31
0.0
  0
LINE
  5
D0
330
1F
100
AcDbEntity
  8
0
  6
Continuous
 62
     7
370
    15
100
AcDbLine
 10
-89.9260926826
 20
-49.7640116562
 30
0.0
 11
-89.9260926826
 21
-56.7640114066
 31
0.0
  0
LINE
  5
D1
330
1F
100
AcDbEntity
  8
0
  6
Continuous
 62
     7
370
    15
100
AcDbLine
 10
-89.9260926826
 20
-49.7640116562
 30
0.0
 11
-81.4260978086
 21
-49.7640116562
 31
0.0
  0
LINE
  5
D2
330
1F
100
AcDbEntity
  8
0
  6
Continuous
 62
     7
370
    15
100
AcDbLine
 10
-81.4260978086
 20
-49.7640116562
 30
0.0
 11
-81.4260978086
 21
-56.7640114066
 31
0.0
  0
LINE
  5
D3
330
1F
100
AcDbEntity
  8
0
  6
Continuous
 62
     7
370
    15
100
AcDbLine
 10
-72.9260880335
 20
-49.7640116562
 30
0.0
 11
-72.9260880335
 21
-56.7640114066
 31
0.0
  0
LINE
  5
D4
330
1F
100
AcDbEntity
  8
0
  6
Continuous
 62
     7
370
    15
100
AcDbLine
 10
-81.4260978086
 20
-49.7640116562
 30
0.0
 11
-72.9260880335
 21
-49.7640116562
 31
0.0
  0
LINE
  5
D5
330
1F
100
AcDbEntity
  8
0
  6
Continuous
 62
     7
370
    15
100
AcDbLine
 10
-86.4260930402
 20
-76.7640114253
 30
0.0
 11
-76.4260876758
 21
-76.7640114253
 31
0.0
  0
LINE
  5
D6
330
1F
100
AcDbEntity
  8
0
  6
Continuous
 62
     7
370
    15
100
AcDbLine
 10
59.0598166154
 20
-131.1490578999
 30
0.0
 11
50.5598161535
 21
-136.0565318217
 31
0.0
  0
LINE
  5
D7
330
1F
100
AcDbEntity
  8
0
  6
Continuous
 62
     7
370
    15
100
AcDbLine
 10
50.5598161535
 20
-145.8714871158
 30
0.0
 11
50.7200706916
 21
-145.9640084257
 31
0.0
  0
LINE
  5
D8
330
1F
100
AcDbEntity
  8
0
  6
Continuous
 62
     7
370
    15
100
AcDbLine
 10
50.5598161535
 20
-136.0565318217
 30
0.0
 11
50.5598161535
 21
-145.8714871158
 31
0.0
  0
LINE
  5
D9
330
1F
100
AcDbEntity
  8
0
  6
Continuous
 62
     7
370
    15
100
AcDbLine
 10
66.0598159002
 20
-135.1905061354
 30
0.0
 11
59.0598166154
 21
-131.1490578999
 31
0.0
  0
LINE
  5
DA
330
1F
100
AcDbEntity
  8
0
  6
Continuous
 62
     7
370
    15
100
AcDbLine
 10
43.3782536702
 20
-49.7640116562
 30
0.0
 11
43.3782536702
 21
-56.7640114066
 31
0.0
  0
LINE
  5
DB
330
1F
100
AcDbEntity
  8
0
  6
Continuous
 62
     7
370
    15
100
AcDbLine
 10
43.3782536702
 20
-49.7640116562
 30
0.0
 11
51.8782559948
 21
-49.7640116562
 31
0.0
  0
LINE
  5
DC
330
1F
100
AcDbEntity
  8
0
  6
Continuous
 62
     7
370
    15
100
AcDbLine
 10
51.8782559948
 20
-49.7640116562
 30
0.0
 11
51.8782559948
 21
-56.7640114066
 31
0.0
  0
LINE
  5
DD
330
1F
100
AcDbEntity
  8
0
  6
Continuous
 62
     7
370
    15
100
AcDbLine
 10
34.8782550709
 20
-49.7640116562
 30
0.0
 11
34.8782550709
 21
-56.7640114066
 31
0.0
  0
LINE
  5
DE
330
1F
100
AcDbEntity
  8
0
  6
Continuous
 62
     7
370
    15
100
AcDbLine
 10
34.8782550709
 20
-49.7640116562
 30
0.0
 11
43.3782536702
 21
-49.7640116562
 31
0.0
  0
LINE
  5
DF
330
1F
100
AcDbEntity
  8
0
  6
Continuous
 62
     7
370
    15
100
AcDbLine
 10
38.3782547133
 20
-76.7640114253
 30
0.0
 11
48.3782526271
 21
-76.7640114253
 31
0.0
  0
LINE
  5
E0
330
1F
100
AcDbEntity
  8
0
  6
Continuous
 62
     7
370
    15
100
AcDbLine
 10
-35.7445318086
 20
-49.7640116562
 30
0.0
 11
-35.7445318086
 21
-56.7640114066
 31
0.0
  0
LINE
  5
E1
330
1F
100
AcDbEntity
  8
0
  6
Continuous
 62
     7
370
    15
100
AcDbLine
 10
-27.2445294841
 20
-49.7640116562
 30
0.0
 11
-27.2445294841
 21
-56.7640114066
 31
0.0
  0
LINE
  5
E2
330
1F
100
AcDbEntity
  8
0
  6
Continuous
 62
     7
370
    15
100
AcDbLine
 10
-35.7445318086
 20
-49.7640116562
 30
0.0
 11
-27.2445294841
 21
-49.7640116562
 31
0.0
  0
LINE
  5
E3
330
1F
100
AcDbEntity
  8
0
  6
Continuous
 62
     7
370
    15
100
AcDbLine
 10
-44.2445266826
 20
-49.7640116562
 30
0.0
 11
-44.2445266826
 21
-56.7640114066
 31
0.0
  0
LINE
  5
E4
330
1F
100
AcDbEntity
  8
0
  6
Continuous
 62
     7
370
    15
100
AcDbLine
 10
-44.2445266826
 20
-49.7640116562
 30
0.0
 11
-35.7445318086
 21
-49.7640116562
 31
0.0
  0
LINE
  5
E5
330
1F
100
AcDbEntity
  8
0
  6
Continuous
 62
     7
370
    15
100
AcDbLine
 10
-40.7445270403
 20
-76.7640114253
 30
0.0
 11
-30.7445291264
 21
-76.7640114253
 31
0.0
  0
LINE
  5
E6
330
1F
100
AcDbEntity
  8
0
  6
Continuous
 62
     7
370
    15
100
AcDbLine
 10
126.241375895
 20
-49.7640116562
 30
0.0
 11
126.241375895
 21
-56.7640114066
 31
0.0
  0
LINE
  5
E7
330
1F
100
AcDbEntity
  8
0
  6
Continuous
 62
     7
370
    15
100
AcDbLine
 10
126.241375895
 20
-49.7640116562
 30
0.0
 11
134.7413782196
 21
-49.7640116562
 31
0.0
  0
LINE
  5
E8
330
1F
100
AcDbEntity
  8
0
  6
Continuous
 62
     7
370
    15
100
AcDbLine
 10
134.7413782196
 20
-49.7640116562
 30
0.0
 11
134.7413782196
 21
-56.7640114066
 31
0.0
  0
LINE
  5
E9
330
1F
100
AcDbEntity
  8
0
  6
Continuous
 62
     7
370
    15
100
AcDbLine
 10
134.7413782196
 20
-49.7640116562
 30
0.0
 11
143.2413768189
 21
-49.7640116562
 31
0.0
  0
LINE
  5
EA
330
1F
100
AcDbEntity
  8
0
  6
Continuous
 62
     7
370
    15
100
AcDbLine
 10
143.2413768189
 20
-49.7640116562
 30
0.0
 11
143.2413768189
 21
-56.7640114066
 31
0.0
  0
LINE
  5
EB
330
1F
100
AcDbEntity
  8
0
  6
Continuous
 62
     7
370
    15
100
AcDbLine
 10
129.7413792627
 20
-76.7640114253
 30
0.0
 11
139.7413771765
 21
-76.7640114253
 31
0.0
  0
LINE
  5
EC
330
1F
100
AcDbEntity
  8
0
  6
Continuous
 62
     7
370
    15
100
AcDbLine
 10
205.3641613738
 20
-49.7640116562
 30
0.0
 11
205.3641613738
 21
-56.7640114066
 31
0.0
  0
LINE
  5
ED
330
1F
100
AcDbEntity
  8
0
  6
Continuous
 62
     7
370
    15
100
AcDbLine
 10
213.8641636984
 20
-49.7640116562
 30
0.0
 11
213.8641636984
 21
-56.7640114066
 31
0.0
  0
LINE
  5
EE
330
1F
100
AcDbEntity
  8
0
  6
Continuous
 62
     7
370
    15
100
AcDbLine
 10
205.3641613738
 20
-49.7640116562
 30
0.0
 11
213.8641636984
 21
-49.7640116562
 31
0.0
  0
LINE
  5
EF
330
1F
100
AcDbEntity
  8
0
  6
Continuous
 62
     7
370
    15
100
AcDbLine
 10
222.3641585724
 20
-49.7640116562
 30
0.0
 11
222.3641585724
 21
-56.7640114066
 31
0.0
  0
LINE
  5
F0
330
1F
100
AcDbEntity
  8
0
  6
Continuous
 62
     7
370
    15
100
AcDbLine
 10
213.8641636984
 20
-49.7640116562
 30
0.0
 11
222.3641585724
 21
-49.7640116562
 31
0.0
  0
LINE
  5
F1
330
1F
100
AcDbEntity
  8
0
  6
Continuous
 62
     7
370
    15
100
AcDbLine
 10
208.8641610162
 20
-76.7640114253
 30
0.0
 11
218.86415893
 21
-76.7640114253
 31
0.0
  0
LINE
  5
F2
330
1F
100
AcDbEntity
  8
0
  6
Continuous
 62
     7
370
    15
100
AcDbLine
 10
251.0457199232
 20
-49.7640116562
 30
0.0
 11
251.0457199232
 21
-56.7640114066
 31
0.0
  0
LINE
  5
F3
330
1F
100
AcDbEntity
  8
0
  6
Continuous
 62
     7
370
    15
100
AcDbLine
 10
251.0457199232
 20
-49.7640116562
 30
0.0
 11
259.5457296984
 21
-49.7640116562
 31
0.0
  0
LINE
  5
F4
330
1F
100
AcDbEntity
  8
0
  6
Continuous
 62
     7
370
    15
100
AcDbLine
 10
259.5457296984
 20
-49.7640116562
 30
0.0
 11
259.5457296984
 21
-56.7640114066
 31
0.0
  0
LINE
  5
F5
330
1F
100
AcDbEntity
  8
0
  6
Continuous
 62
     7
370
    15
100
AcDbLine
 10
268.0457245724
 20
-49.7640116562
 30
0.0
 11
268.0457245724
 21
-56.7640114066
 31
0.0
  0
LINE
  5
F6
330
1F
100
AcDbEntity
  8
0
  6
Continuous
 62
     7
370
    15
100
AcDbLine
 10
259.5457296984
 20
-49.7640116562
 30
0.0
 11
268.0457245724
 21
-49.7640116562
 31
0.0
  0
LINE
  5
F7
330
1F
100
AcDbEntity
  8
0
  6
Continuous
 62
     7
370
    15
100
AcDbLine
 10
254.5457195656
 20
-76.7640114253
 30
0.0
 11
264.54572493
 21
-76.7640114253
 31
0.0
  0
LINE
  5
F8
330
1F
100
AcDbEntity
  8
0
  6
Continuous
 62
     7
370
    15
100
AcDbLine
 10
119.0598152743
 20
-131.1490578999
 30
0.0
 11
112.0598159896
 21
-135.1905061354
 31
0.0
  0
LINE
  5
F9
330
1F
100
AcDbEntity
  8
0
  6
Continuous
 62
     7
370
    15
100
AcDbLine
 10
112.0598159896
 20
-146.7375128021
 30
0.0
 11
115.9162216054
 21
-148.9640145053
 31
0.0
  0
LINE
  5
FA
330
1F
100
AcDbEntity
  8
0
  6
Continuous
 62
     7
370
    15
100
AcDbLine
 10
122.2034108059
 20
-148.9640145053
 30
0.0
 11
127.5598157363
 21
-145.8714871158
 31
0.0
  0
LINE
  5
FB
330
1F
100
AcDbEntity
  8
0
  6
Continuous
 62
     7
370
    15
100
AcDbLine
 10
127.5598157363
 20
-136.0565318217
 30
0.0
 11
119.0598152743
 21
-131.1490578999
 31
0.0
  0
LINE
  5
FC
330
1F
100
AcDbEntity
  8
0
  6
Continuous
 62
     7
370
    15
100
AcDbLine
 10
127.5598157363
 20
-145.8714871158
 30
0.0
 11
127.5598157363
 21
-136.0565318217
 31
0.0
  0
CIRCLE
  5
FD
330
1F
100
AcDbEntity
  8
0
  6
Continuous
 62
     7
370
    15
100
AcDbCircle
 10
89.0598159449
 20
-754.9640115847
 30
0.0
 40
13.2
  0
LINE
  5
FE
330
1F
100
AcDbEntity
  8
0
  6
Continuous
 62
     7
370
    15
100
AcDbLine
 10
75.8598160164
 20
-727.9640330424
 30
0.0
 11
102.2598158734
 21
-727.9640330424
 31
0.0
  0
LINE
  5
FF
330
1F
100
AcDbEntity
  8
0
  6
Continuous
 62
     7
370
    15
100
AcDbLine
 10
107.05981517
 20
-710.9640134921
 30
0.0
 11
71.0598167197
 21
-710.9640134921
 31
0.0
  0
LINE
  5
100
330
1F
100
AcDbEntity
  8
0
  6
Continuous
 62
     7
370
    15
100
AcDbLine
 10
107.05981517
 20
-718.9640297045
 30
0.0
 11
71.0598167197
 21
-718.9640297045
 31
0.0
  0
LINE
  5
101
330
1F
100
AcDbEntity
  8
0
  6
Continuous
 62
     7
370
    15
100
AcDbLine
 10
103.059816377
 20
-680.9639824976
 30
0.0
 11
75.0598155128
 21
-680.9639824976
 31
0.0
  0
LINE
  5
102
330
1F
100
AcDbEntity
  8
0
  6
Continuous
 62
     7
370
    15
100
AcDbLine
 10
89.0598159449
 20
-218.9640148034
 30
0.0
 11
76.5598157586
 21
-218.9640148034
 31
0.0
  0
LINE
  5
103
330
1F
100
AcDbEntity
  8
0
  6
Continuous
 62
     7
370
    15
100
AcDbLine
 10
101.5598161312
 20
-218.9640148034
 30
0.0
 11
89.0598159449
 21
-218.9640148034
 31
0.0
  0
ARC
  5
104
330
1F
100
AcDbEntity
  8
0
  6
Continuous
 62
     7
370
    15
100
AcDbCircle
 10
89.0598159449
 20
-198.4640115847
 30
0.0
 40
13.5
100
AcDbArc
 50
360.0
 51
180.0
  0
LINE
  5
105
330
1F
100
AcDbEntity
  8
0
  6
Continuous
 62
     7
370
    15
100
AcDbLine
 10
59.9598150866
 20
-110.9640120019
 30
0.0
 11
118.1598168032
 21
-110.9640120019
 31
0.0
  0
LINE
  5
106
330
1F
100
AcDbEntity
  8
0
  6
Continuous
 62
     7
370
    15
100
AcDbLine
 10
59.9598150866
 20
-107.4640123596
 30
0.0
 11
118.1598168032
 21
-107.4640123596
 31
0.0
  0
LINE
  5
107
330
1F
100
AcDbEntity
  8
0
  6
Continuous
 62
     7
370
    15
100
AcDbLine
 10
89.0598159449
 20
-118.9640133132
 30
0.0
 11
118.0598151104
 21
-118.9640133132
 31
0.0
  0
LINE
  5
108
330
1F
100
AcDbEntity
  8
0
  6
Continuous
 62
     7
370
    15
100
AcDbLine
 10
60.0598167794
 20
-118.9640133132
 30
0.0
 11
89.0598159449
 21
-118.9640133132
 31
0.0
  0
LINE
  5
109
330
1F
100
AcDbEntity
  8
0
  6
Continuous
 62
     7
370
    15
100
AcDbLine
 10
68.3474999087
 20
-145.9640084257
 30
0.0
 11
68.3474999087
 21
-151.6435040583
 31
0.0
  0
SPLINE
  5
10A
330
1F
100
AcDbEntity
  8
0
  6
Continuous
 62
     7
370
    15
100
AcDbSpline
210
0.0
220
0.0
230
1.0
 70
     8
 71
     3
 72
    21
 73
    17
 74
     0
 42
0.00000001
 43
0.00000001
 12
1.0
 22
0.0
 32
0.0
 13
1.0
 23
0.0
 33
0.0
 40
0.0
 40
0.0
 40
0.0
 40
0.0
 40
0.0695502979562264
 40
0.1391391638978523
 40
0.2275671650877758
 40
0.3159030141255584
 40
0.3651834174695809
 40
0.4143730641579844
 40
0.4802910394447588
 40
0.5242844419783778
 40
0.5683480559295065
 40
0.6317197277753047
 40
0.6952469464404949
 40
0.7948670960379719
 40
0.8944695724467558
 40
1.0
 40
1.0
 40
1.0
 40
1.0
 10
69.05981639192406
 20
-185.4260905136524
 30
0.0
 10
69.51478655205787
 20
-184.8692255301348
 30
0.0
 10
70.42497916862054
 20
-183.7551867626892
 30
0.0
 10
72.08904838349831
 20
-181.6007918987208
 30
0.0
 10
73.95185628997464
 20
-179.0213747819052
 30
0.0
 10
75.57361755642461
 20
-176.3488795925867
 30
0.0
 10
76.70794464858257
 20
-173.9307821531656
 30
0.0
 10
77.47015658384791
 20
-171.653980153195
 30
0.0
 10
77.79122322280041
 20
-169.2885260988988
 30
0.0
 10
77.58211422802566
 20
-167.0049334386738
 30
0.0
 10
77.04145217668064
 20
-164.8398544272992
 30
0.0
 10
76.08102992673216
 20
-162.5598953879663
 30
0.0
 10
74.52253711488112
 20
-159.7991897065436
 30
0.0
 10
72.5582342906493
 20
-156.9195128578882
 30
0.0
 10
70.27194265811777
 20
-153.9701223790454
 30
0.0
 10
69.00122130269273
 20
-152.4338420262391
 30
0.0
 10
68.34749990866486
 20
-151.6435040583072
 30
0.0
  0
SPLINE
  5
10B
330
1F
100
AcDbEntity
  8
0
  6
Continuous
 62
     7
370
    15
100
AcDbSpline
210
0.0
220
0.0
230
1.0
 70
     8
 71
     3
 72
    30
 73
    26
 74
     0
 42
0.00000001
 43
0.00000001
 12
1.0
 22
0.0
 32
0.0
 13
1.0
 23
0.0
 33
0.0
 40
0.0
 40
0.0
 40
0.0
 40
0.0
 40
0.0366899638532995
 40
0.073981989431841
 40
0.1122282628479008
 40
0.1522787241663243
 40
0.1931409983577874
 40
0.253585885230833
 40
0.3157650190199406
 40
0.3665052763926905
 40
0.4183479670194286
 40
0.4463659093183166
 40
0.4749744809747693
 40
0.5030595091141247
 40
0.5322173313195031
 40
0.5645555105857427
 40
0.5977963381727338
 40
0.6536971003954855
 40
0.711055110330752
 40
0.7706593184137533
 40
0.8319587931987273
 40
0.8752286418004831
 40
0.919612756832574
 40
0.9629456625885819
 40
1.0
 40
1.0
 40
1.0
 40
1.0
 10
112.0408896522314
 20
-148.9857925524173
 30
0.0
 10
112.0227018226791
 20
-149.0066762408843
 30
0.0
 10
111.9860277114943
 20
-149.0487863074309
 30
0.0
 10
111.5568056590896
 20
-149.5437202423503
 30
0.0
 10
110.8910306481681
 20
-150.3179117255762
 30
0.0
 10
109.970162355228
 20
-151.4029881679025
 30
0.0
 10
108.6639748834837
 20
-152.9741528918411
 30
0.0
 10
106.923228893247
 20
-155.1437059203231
 30
0.0
 10
104.9374802480275
 20
-157.809748054176
 30
0.0
 10
103.0807146927846
 20
-160.6442206513939
 30
0.0
 10
101.7589228844002
 20
-163.1384703826146
 30
0.0
 10
100.9243923958626
 20
-165.3908444734161
 30
0.0
 10
100.4946179333696
 20
-167.2486986710491
 30
0.0
 10
100.3634813140425
 20
-169.194652163778
 30
0.0
 10
100.5800639662536
 20
-171.2164477196191
 30
0.0
 10
101.1530698248837
 20
-173.2631647250262
 30
0.0
 10
102.2048193455784
 20
-175.7154753602038
 30
0.0
 10
103.775349865796
 20
-178.4093685007176
 30
0.0
 10
105.7581938141827
 20
-181.2501761218198
 30
0.0
 10
107.757685572216
 20
-183.8410226426722
 30
0.0
 10
109.4123048162392
 20
-185.861090936213
 30
0.0
 10
110.6521917928979
 20
-187.331020441554
 30
0.0
 10
111.4724993240346
 20
-188.28707514467
 30
0.0
 10
111.9836529184556
 20
-188.8765216440029
 30
0.0
 10
112.0157674634422
 20
-188.9133677499796
 30
0.0
 10
112.0305705981046
 20
-188.930351888126
 30
0.0
  0
LINE
  5
10C
330
1F
100
AcDbEntity
  8
0
  6
Continuous
 62
     7
370
    15
100
AcDbLine
 10
71.0598167197
 20
-99.9640120615
 30
0.0
 11
107.05981517
 21
-99.9640120615
 31
0.0
  0
LINE
  5
10D
330
1F
100
AcDbEntity
  8
0
  6
Continuous
 62
     7
370
    15
100
AcDbLine
 10
66.5598150508
 20
-102.9640106906
 30
0.0
 11
111.559816839
 21
-102.9640106906
 31
0.0
  0
LINE
  5
10E
330
1F
100
AcDbEntity
  8
0
  6
Continuous
 62
     7
370
    15
100
AcDbLine
 10
106.4307682382
 20
-93.9640110781
 30
0.0
 11
71.6888636516
 21
-93.9640110781
 31
0.0
  0
LINE
  5
10F
330
1F
100
AcDbEntity
  8
0
  6
Continuous
 62
     7
370
    15
100
AcDbLine
 10
67.5598152147
 20
-85.664012139
 30
0.0
 11
110.559816675
 21
-85.664012139
 31
0.0
  0
LINE
  5
110
330
1F
100
AcDbEntity
  8
0
  6
Continuous
 62
     7
370
    15
100
AcDbLine
 10
75.5598155947
 20
-212.9640175452
 30
0.0
 11
67.0598160641
 21
-212.9640175452
 31
0.0
  0
LINE
  5
111
330
1F
100
AcDbEntity
  8
0
  6
Continuous
 62
     7
370
    15
100
AcDbLine
 10
111.0598158257
 20
-212.9640175452
 30
0.0
 11
102.5598162951
 21
-212.9640175452
 31
0.0
  0
LINE
  5
112
330
1F
100
AcDbEntity
  8
0
  6
Continuous
 62
     7
370
    15
100
AcDbLine
 10
139.0598166899
 20
-149.9640090813
 30
0.0
 11
139.0598166899
 21
-187.9640115847
 31
0.0
  0
LINE
  5
113
330
1F
100
AcDbEntity
  8
0
  6
Continuous
 62
     7
370
    15
100
AcDbLine
 10
44.0598141567
 20
-184.9640129556
 30
0.0
 11
69.0598163919
 21
-184.9640129556
 31
0.0
  0
SPLINE
  5
114
330
1F
100
AcDbEntity
  8
0
  6
Continuous
 62
     7
370
    15
100
AcDbSpline
210
0.0
220
0.0
230
1.0
 70
     8
 71
     3
 72
    13
 73
     9
 74
     0
 42
0.00000001
 43
0.00000001
 12
1.0
 22
0.0
 32
0.0
 13
1.0
 23
0.0
 33
0.0
 40
0.0
 40
0.0
 40
0.0
 40
0.0
 40
0.1903701541150978
 40
0.3801699416897407
 40
0.5846368558428916
 40
0.6978761439956258
 40
0.8147809127531446
 40
1.0
 40
1.0
 40
1.0
 40
1.0
 10
32.0598159150869
 20
-188.9640136112629
 30
0.0
 10
32.17135921248597
 20
-188.8960298891344
 30
0.0
 10
32.39411161327696
 20
-188.7602661303794
 30
0.0
 10
34.1022112808808
 20
-187.7826359537111
 30
0.0
 10
36.25183435068681
 20
-186.7212280945345
 30
0.0
 10
38.50882280833174
 20
-185.8729980834897
 30
0.0
 10
40.9112029205792
 20
-185.1733018753778
 30
0.0
 10
42.86315601829789
 20
-185.043555099859
 30
0.0
 10
44.05981415674987
 20
-184.9640129556118
 30
0.0
  0
SPLINE
  5
115
330
1F
100
AcDbEntity
  8
0
  6
Continuous
 62
     7
370
    15
100
AcDbSpline
210
0.0
220
0.0
230
1.0
 70
     8
 71
     3
 72
    13
 73
     9
 74
     0
 42
0.00000001
 43
0.00000001
 12
1.0
 22
0.0
 32
0.0
 13
1.0
 23
0.0
 33
0.0
 40
0.0
 40
0.0
 40
0.0
 40
0.0
 40
0.1956195729348685
 40
0.390588146078087
 40
0.6016711624900666
 40
0.7128191293132016
 40
0.8276718286740536
 40
1.0
 40
1.0
 40
1.0
 40
1.0
 10
35.05981454418007
 20
-151.6435040583072
 30
0.0
 10
34.01643040519532
 20
-151.586118408793
 30
0.0
 10
31.93313439151356
 20
-151.4715380827091
 30
0.0
 10
29.11470325235111
 20
-150.6980410073837
 30
0.0
 10
27.19514825370293
 20
-149.9571282625787
 30
0.0
 10
26.02985519003087
 20
-149.4350200270086
 30
0.0
 10
25.25212998771763
 20
-149.0616953961353
 30
0.0
 10
25.13193695080623
 20
-149.0006474499462
 30
0.0
 10
25.05981290505234
 20
-148.9640145053325
 30
0.0
  0
LINE
  5
116
330
1F
100
AcDbEntity
  8
0
  6
Continuous
 62
     7
370
    15
100
AcDbLine
 10
35.0598145442
 20
-151.6435040583
 30
0.0
 11
68.3474999087
 21
-151.6435040583
 31
0.0
  0
LINE
  5
117
330
1F
100
AcDbEntity
  8
0
  6
Continuous
 62
     7
370
    15
100
AcDbLine
 10
9.059817733
 20
-187.9640115847
 30
0.0
 11
9.059817733
 21
-149.9640090813
 31
0.0
  0
LINE
  5
118
330
1F
100
AcDbEntity
  8
0
  6
Continuous
 62
     7
370
    15
100
AcDbLine
 10
23.0598163025
 20
-115.9640109589
 30
0.0
 11
47.0598165111
 21
-115.9640109589
 31
0.0
  0
LINE
  5
119
330
1F
100
AcDbEntity
  8
0
  6
Continuous
 62
     7
370
    15
100
AcDbLine
 10
48.0598148124
 20
-116.9640129854
 30
0.0
 11
22.059814276
 21
-116.9640129854
 31
0.0
  0
LINE
  5
11A
330
1F
100
AcDbEntity
  8
0
  6
Continuous
 62
     7
370
    15
100
AcDbLine
 10
35.0598145442
 20
-131.9640098562
 30
0.0
 11
48.0598148124
 21
-131.9640098562
 31
0.0
  0
LINE
  5
11B
330
1F
100
AcDbEntity
  8
0
  6
Continuous
 62
     7
370
    15
100
AcDbLine
 10
22.059814276
 20
-131.9640098562
 30
0.0
 11
35.0598145442
 21
-131.9640098562
 31
0.0
  0
LINE
  5
11C
330
1F
100
AcDbEntity
  8
0
  6
Continuous
 62
     7
370
    15
100
AcDbLine
 10
35.0598145442
 20
-132.9640118827
 30
0.0
 11
23.0598163025
 21
-132.9640118827
 31
0.0
  0
LINE
  5
11D
330
1F
100
AcDbEntity
  8
0
  6
Continuous
 62
     7
370
    15
100
AcDbLine
 10
47.0598165111
 20
-132.9640118827
 30
0.0
 11
35.0598145442
 21
-132.9640118827
 31
0.0
  0
LINE
  5
11E
330
1F
100
AcDbEntity
  8
0
  6
Continuous
 62
     7
370
    15
100
AcDbLine
 10
32.0598159151
 20
-188.9640136113
 30
0.0
 11
32.0598159151
 21
-191.9640047898
 31
0.0
  0
LINE
  5
11F
330
1F
100
AcDbEntity
  8
0
  6
Continuous
 62
     7
370
    15
100
AcDbLine
 10
44.0598141567
 20
-191.9640047898
 30
0.0
 11
32.0598159151
 21
-191.9640047898
 31
0.0
  0
LINE
  5
120
330
1F
100
AcDbEntity
  8
0
  6
Continuous
 62
     7
370
    15
100
AcDbLine
 10
69.0598163919
 20
-184.9640129556
 30
0.0
 11
69.0598163919
 21
-191.9640047898
 31
0.0
  0
LINE
  5
121
330
1F
100
AcDbEntity
  8
0
  6
Continuous
 62
     7
370
    15
100
AcDbLine
 10
44.0598141567
 20
-191.9640047898
 30
0.0
 11
69.0598163919
 21
-191.9640047898
 31
0.0
  0
LINE
  5
122
330
1F
100
AcDbEntity
  8
0
  6
Continuous
 62
     7
370
    15
100
AcDbLine
 10
24.0598183291
 20
-145.9640084257
 30
0.0
 11
39.6423909979
 21
-145.9640084257
 31
0.0
  0
LINE
  5
123
330
1F
100
AcDbEntity
  8
0
  6
Continuous
 62
     7
370
    15
100
AcDbLine
 10
25.0598129051
 20
-148.9640145053
 30
0.0
 11
25.0598129051
 21
-145.9640084257
 31
0.0
  0
LINE
  5
124
330
1F
100
AcDbEntity
  8
0
  6
Continuous
 62
     7
370
    15
100
AcDbLine
 10
39.6423909979
 20
-145.9640084257
 30
0.0
 11
68.3474999087
 21
-145.9640084257
 31
0.0
  0
ARC
  5
125
330
1F
100
AcDbEntity
  8
0
  6
Continuous
 62
     7
370
    15
100
AcDbCircle
 10
114.0598159449
 20
-140.9640115847
 30
0.0
 40
14.99999999999999
100
AcDbArc
 50
327.7690473645
 51
71.3370751151
  0
ARC
  5
126
330
1F
100
AcDbEntity
  8
0
  6
Continuous
 62
     7
370
    15
100
AcDbCircle
 10
64.0598159449
 20
-140.9640115847
 30
0.0
 40
14.99999999999999
100
AcDbArc
 50
108.6629248849
 51
199.4712206345
  0
LINE
  5
127
330
1F
100
AcDbEntity
  8
0
  6
Continuous
 62
     7
370
    15
100
AcDbLine
 10
59.2598162757
 20
-126.7527459611
 30
0.0
 11
66.0598159002
 21
-124.4559778323
 31
0.0
  0
LINE
  5
128
330
1F
100
AcDbEntity
  8
0
  6
Continuous
 62
     7
370
    15
100
AcDbLine
 10
112.0598159896
 20
-124.4559778323
 30
0.0
 11
118.8598156141
 21
-126.7527459611
 31
0.0
  0
LINE
  5
129
330
1F
100
AcDbEntity
  8
0
  6
Continuous
 62
     7
370
    15
100
AcDbLine
 10
132.1598153727
 20
-115.9640109589
 30
0.0
 11
118.0598151104
 21
-115.9640109589
 31
0.0
  0
LINE
  5
12A
330
1F
100
AcDbEntity
  8
0
  6
Continuous
 62
     7
370
    15
100
AcDbLine
 10
60.0598167794
 20
-115.9640109589
 30
0.0
 11
57.059814425
 21
-115.9640109589
 31
0.0
  0
LINE
  5
12B
330
1F
100
AcDbEntity
  8
0
  6
Continuous
 62
     7
370
    15
100
AcDbLine
 10
51.0598171668
 20
-115.9640109589
 30
0.0
 11
47.0598165111
 21
-115.9640109589
 31
0.0
  0
LINE
  5
12C
330
1F
100
AcDbEntity
  8
0
  6
Continuous
 62
     7
370
    15
100
AcDbLine
 10
132.1598153727
 20
-148.9640145053
 30
0.0
 11
132.1598153727
 21
-115.9640109589
 31
0.0
  0
LINE
  5
12D
330
1F
100
AcDbEntity
  8
0
  6
Continuous
 62
     7
370
    15
100
AcDbLine
 10
168.5598131435
 20
-92.9640109142
 30
0.0
 11
111.0598158257
 21
-92.9640109142
 31
0.0
  0
LINE
  5
12E
330
1F
100
AcDbEntity
  8
0
  6
Continuous
 62
     7
370
    15
100
AcDbLine
 10
67.0598160641
 20
-92.9640109142
 30
0.0
 11
-69.240181504
 21
-92.9640109142
 31
0.0
  0
LINE
  5
12F
330
1F
100
AcDbEntity
  8
0
  6
Continuous
 62
     7
370
    15
100
AcDbLine
 10
-53.9064843042
 20
-764.9508608927
 30
0.0
 11
-53.6904919727
 21
-764.9640335192
 31
0.0
  0
LINE
  5
130
330
1F
100
AcDbEntity
  8
0
  6
Continuous
 62
     7
370
    15
100
AcDbLine
 10
157.3809322135
 20
-764.9457944979
 30
0.0
 11
158.3998363631
 21
-764.9640335192
 31
0.0
  0
LINE
  5
131
330
1F
100
AcDbEntity
  8
0
  6
Continuous
 62
     7
370
    15
100
AcDbLine
 10
231.8101238625
 20
-764.9640335192
 30
0.0
 11
232.0616703646
 21
-764.9469865908
 31
0.0
  0
LINE
  5
132
330
1F
100
AcDbEntity
  8
0
  6
Continuous
 62
     7
370
    15
100
AcDbLine
 10
102.2598158734
 20
-737.9640235056
 30
0.0
 11
245.0598191635
 21
-737.9640235056
 31
0.0
  0
LINE
  5
133
330
1F
100
AcDbEntity
  8
0
  6
Continuous
 62
     7
370
    15
100
AcDbLine
 10
-66.9401872738
 20
-737.9640235056
 30
0.0
 11
75.8598160164
 21
-737.9640235056
 31
0.0
  0
LINE
  5
134
330
1F
100
AcDbEntity
  8
0
  6
Continuous
 62
     7
370
    15
100
AcDbLine
 10
80.0914710553
 20
-764.6494998087
 30
0.0
 11
80.0914710553
 21
-764.9640335192
 31
0.0
  0
SPLINE
  5
135
330
1F
100
AcDbEntity
  8
0
  6
Continuous
 62
     7
370
    15
100
AcDbSpline
210
0.0
220
0.0
230
1.0
 70
     8
 71
     3
 72
    11
 73
     7
 74
     0
 42
0.00000001
 43
0.00000001
 12
1.0
 22
0.0
 32
0.0
 13
1.0
 23
0.0
 33
0.0
 40
0.0
 40
0.0
 40
0.0
 40
0.0
 40
0.4459419997147472
 40
0.7686034402323678
 40
0.9629024699901142
 40
1.0
 40
1.0
 40
1.0
 40
1.0
 10
-64.37830513550936
 20
-760.3821648706852
 30
0.0
 10
-64.37804419406505
 20
-760.3131697733235
 30
0.0
 10
-64.37759444837636
 20
-760.1942532567689
 30
0.0
 10
-64.37389965984431
 20
-760.0567295523219
 30
0.0
 10
-64.37065450259259
 20
-759.9907943825075
 30
0.0
 10
-64.36902899410208
 20
-759.9677351474871
 30
0.0
 10
-64.36876839234527
 20
-759.9640382875858
 30
0.0
  0
LINE
  5
136
330
1F
100
AcDbEntity
  8
0
  6
Continuous
 62
     7
370
    15
100
AcDbLine
 10
-64.3783051355
 20
-764.9640335192
 30
0.0
 11
-64.3783051355
 21
-760.3821648707
 31
0.0
  0
LINE
  5
137
330
1F
100
AcDbEntity
  8
0
  6
Continuous
 62
     7
370
    15
100
AcDbLine
 10
-64.3783051355
 20
-764.9640335192
 30
0.0
 11
-64.6401781423
 21
-764.9640335192
 31
0.0
  0
LINE
  5
138
330
1F
100
AcDbEntity
  8
0
  6
Continuous
 62
     7
370
    15
100
AcDbLine
 10
242.7598100321
 20
-764.9640335192
 30
0.0
 11
242.4979370253
 21
-764.9640335192
 31
0.0
  0
LINE
  5
139
330
1F
100
AcDbEntity
  8
0
  6
Continuous
 62
     7
370
    15
100
AcDbLine
 10
242.4979370253
 20
-760.3821648707
 30
0.0
 11
242.4979370253
 21
-764.9640335192
 31
0.0
  0
SPLINE
  5
13A
330
1F
100
AcDbEntity
  8
0
  6
Continuous
 62
     7
370
    15
100
AcDbSpline
210
0.0
220
0.0
230
1.0
 70
     8
 71
     3
 72
    11
 73
     7
 74
     0
 42
0.00000001
 43
0.00000001
 12
1.0
 22
0.0
 32
0.0
 13
1.0
 23
0.0
 33
0.0
 40
0.0
 40
0.0
 40
0.0
 40
0.0
 40
0.0371143986795342
 40
0.2012975526388942
 40
0.6023098390696848
 40
0.9999999999999999
 40
0.9999999999999999
 40
0.9999999999999999
 40
0.9999999999999999
 10
242.4884002821237
 20
-759.9640382875858
 30
0.0
 10
242.488660947467
 20
-759.9677347865971
 30
0.0
 10
242.4900747194134
 20
-759.9877835070619
 30
0.0
 10
242.4936768501701
 20
-760.057997668502
 30
0.0
 10
242.4973132973846
 20
-760.1976991573656
 30
0.0
 10
242.4977296933062
 20
-760.3208470401435
 30
0.0
 10
242.4979370252878
 20
-760.3821648706852
 30
0.0
  0
LINE
  5
13B
330
1F
100
AcDbEntity
  8
0
  6
Continuous
 62
     7
370
    15
100
AcDbLine
 10
98.0281608345
 20
-764.9640335192
 30
0.0
 11
98.0281608345
 21
-764.6494998087
 31
0.0
  0
LINE
  5
13C
330
1F
100
AcDbEntity
  8
0
  6
Continuous
 62
     7
370
    15
100
AcDbLine
 10
98.0281608345
 20
-764.9640335192
 30
0.0
 11
97.6760799231
 21
-764.9640335192
 31
0.0
  0
LINE
  5
13D
330
1F
100
AcDbEntity
  8
0
  6
Continuous
 62
     7
370
    15
100
AcDbLine
 10
80.4435519667
 20
-764.9640335192
 30
0.0
 11
80.0914710553
 21
-764.9640335192
 31
0.0
  0
LINE
  5
13E
330
1F
100
AcDbEntity
  8
0
  6
Continuous
 62
     7
370
    15
100
AcDbLine
 10
196.6618832366
 20
-789.9640096774
 30
0.0
 11
-18.5422513468
 21
-789.9640096774
 31
0.0
  0
LINE
  5
13F
330
1F
100
AcDbEntity
  8
0
  6
Continuous
 62
     7
370
    15
100
AcDbLine
 10
158.3998363631
 20
-764.9640335192
 30
0.0
 11
195.5030944364
 21
-764.9640335192
 31
0.0
  0
LINE
  5
140
330
1F
100
AcDbEntity
  8
0
  6
Continuous
 62
     7
370
    15
100
AcDbLine
 10
-17.3834625466
 20
-764.9640335192
 30
0.0
 11
19.7197955267
 21
-764.9640335192
 31
0.0
  0
LINE
  5
141
330
1F
100
AcDbEntity
  8
0
  6
Continuous
 62
     7
370
    15
100
AcDbLine
 10
195.5030944364
 20
-764.9640335192
 30
0.0
 11
226.6882222311
 21
-764.9640335192
 31
0.0
  0
LINE
  5
142
330
1F
100
AcDbEntity
  8
0
  6
Continuous
 62
     7
370
    15
100
AcDbLine
 10
-55.4720002992
 20
-789.9640096774
 30
0.0
 11
-18.5422513468
 21
-789.9640096774
 31
0.0
  0
LINE
  5
143
330
1F
100
AcDbEntity
  8
0
  6
Continuous
 62
     7
370
    15
100
AcDbLine
 10
-48.5685903414
 20
-764.9640335192
 30
0.0
 11
-17.3834625466
 21
-764.9640335192
 31
0.0
  0
LINE
  5
144
330
1F
100
AcDbEntity
  8
0
  6
Continuous
 62
     7
370
    15
100
AcDbLine
 10
233.591632189
 20
-789.9640096774
 30
0.0
 11
196.6618832366
 21
-789.9640096774
 31
0.0
  0
LINE
  5
145
330
1F
100
AcDbEntity
  8
0
  6
Continuous
 62
     7
370
    15
100
AcDbLine
 10
226.6882222311
 20
-764.9640335192
 30
0.0
 11
231.8101238625
 21
-764.9640335192
 31
0.0
  0
LINE
  5
146
330
1F
100
AcDbEntity
  8
0
  6
Continuous
 62
     7
370
    15
100
AcDbLine
 10
-64.4401896579
 20
-789.9640096774
 30
0.0
 11
-55.4720002992
 21
-789.9640096774
 31
0.0
  0
LINE
  5
147
330
1F
100
AcDbEntity
  8
0
  6
Continuous
 62
     7
370
    15
100
AcDbLine
 10
242.5598215477
 20
-789.9640096774
 30
0.0
 11
233.591632189
 21
-789.9640096774
 31
0.0
  0
LINE
  5
148
330
1F
100
AcDbEntity
  8
0
  6
Continuous
 62
     7
370
    15
100
AcDbLine
 10
-53.6904919727
 20
-764.9640335192
 30
0.0
 11
-48.5685903414
 21
-764.9640335192
 31
0.0
  0
DIMENSION
  5
149
330
1F
100
AcDbEntity
  8
0
  6
Continuous
 62
     7
370
     0
100
AcDbDimension
  2
_D
 10
245.0598159449
 20
-796.6631353465
 30
0.0
 11
79.1481436919
 21
-796.6631353465
 31
0.0
 70
   160
  1
%%c<>
 71
     2
 42
-1.0
  3
SLDDIMSTYLE0
100
AcDbAlignedDimension
 13
-66.9401840551
 23
-737.9640115847
 33
0.0
 14
245.0598159449
 24
-737.9640115847
 34
0.0
100
AcDbRotatedDimension
  0
LINE
  5
15C
330
1F
100
AcDbEntity
  8
0
  6
CENTERX2
 62
     7
370
     0
100
AcDbLine
 10
158.0598159446
 20
-168.9640115847
 30
0.0
 11
-11.2483364153
 21
-168.9640115847
 31
0.0
  0
LINE
  5
15D
330
1F
100
AcDbEntity
  8
0
  6
CENTERX2
 62
     7
370
     0
100
AcDbLine
 10
89.0598159449
 20
-784.9640115847
 30
0.0
 11
89.0598159449
 21
2.1015674445
 31
0.0
  0
LINE
  5
15E
330
1F
100
AcDbEntity
  8
0
  6
CENTERX2
 62
     7
370
     0
100
AcDbLine
 10
189.2125103949
 20
-791.9640115847
 30
0.0
 11
189.2125103949
 21
-769.9640115847
 31
0.0
  0
LINE
  5
15F
330
1F
100
AcDbEntity
  8
0
  6
CENTERX2
 62
     7
370
     0
100
AcDbLine
 10
-11.0928785051
 20
-791.9640115847
 30
0.0
 11
-11.0928785051
 21
-769.9640115847
 31
0.0
  0
LINE
  5
160
330
1F
100
AcDbEntity
  8
0
  6
CENTERX2
 62
     7
370
     0
100
AcDbLine
 10
140.0598159449
 20
-168.9640115847
 30
0.0
 11
8.0598159449
 21
-168.9640115847
 31
0.0
  0
LINE
  5
161
330
1F
100
AcDbEntity
  8
0
  6
Continuous
 62
     7
370
    15
100
AcDbLine
 10
72.059815021
 20
351.5651608574
 30
0.0
 11
72.059815021
 21
333.6298699247
 31
0.0
  0
LINE
  5
162
330
1F
100
AcDbEntity
  8
0
  6
Continuous
 62
     7
370
    15
100
AcDbLine
 10
106.0598168688
 20
333.6298699247
 30
0.0
 11
106.0598168688
 21
351.5651608574
 31
0.0
  0
LINE
  5
163
330
1F
100
AcDbEntity
  8
0
  6
Continuous
 62
     7
370
    15
100
AcDbLine
 10
10.059812309
 20
290.0118763315
 30
0.0
 11
67.9219357835
 21
290.0118763315
 31
0.0
  0
LINE
  5
164
330
1F
100
AcDbEntity
  8
0
  6
Continuous
 62
     7
370
    15
100
AcDbLine
 10
67.9219357835
 20
330.0118679869
 30
0.0
 11
10.059812309
 21
330.0118679869
 31
0.0
  0
LINE
  5
165
330
1F
100
AcDbEntity
  8
0
  6
Continuous
 62
     7
370
    15
100
AcDbLine
 10
138.0598146634
 20
330.0118679869
 30
0.0
 11
110.1976961063
 21
330.0118679869
 31
0.0
  0
LINE
  5
166
330
1F
100
AcDbEntity
  8
0
  6
Continuous
 62
     7
370
    15
100
AcDbLine
 10
110.1976961063
 20
290.0118763315
 30
0.0
 11
138.0598146634
 21
290.0118763315
 31
0.0
  0
ARC
  5
167
330
1F
100
AcDbEntity
  8
0
  6
Continuous
 62
     7
370
    15
100
AcDbCircle
 10
138.0598159449
 20
329.01186751
 30
0.0
 40
1.000000000010942
100
AcDbArc
 50
0.0
 51
90.0
  0
ARC
  5
168
330
1F
100
AcDbEntity
  8
0
  6
Continuous
 62
     7
370
    15
100
AcDbCircle
 10
138.0598159449
 20
291.01186751
 30
0.0
 40
1.000000000010942
100
AcDbArc
 50
270.0
 51
0.0
  0
ARC
  5
169
330
1F
100
AcDbEntity
  8
0
  6
Continuous
 62
     7
370
    15
100
AcDbCircle
 10
10.0598159449
 20
329.01186751
 30
0.0
 40
1.0
100
AcDbArc
 50
90.0
 51
180.0
  0
ARC
  5
16A
330
1F
100
AcDbEntity
  8
0
  6
Continuous
 62
     7
370
    15
100
AcDbCircle
 10
10.0598159449
 20
291.01186751
 30
0.0
 40
1.0
100
AcDbArc
 50
180.0
 51
270.0
  0
LINE
  5
16B
330
1F
100
AcDbEntity
  8
0
  6
Continuous
 62
     7
370
    15
100
AcDbLine
 10
102.5598162951
 20
277.0118648874
 30
0.0
 11
102.5598162951
 21
284.2328185903
 31
0.0
  0
LINE
  5
16C
330
1F
100
AcDbEntity
  8
0
  6
Continuous
 62
     7
370
    15
100
AcDbLine
 10
75.5598155947
 20
284.2328185903
 30
0.0
 11
75.5598155947
 21
277.0118648874
 31
0.0
  0
CIRCLE
  5
16D
330
1F
100
AcDbEntity
  8
0
  6
Continuous
 62
     7
370
    15
100
AcDbCircle
 10
89.0598159449
 20
543.01186751
 30
0.0
 40
161.0
  0
CIRCLE
  5
16E
330
1F
100
AcDbEntity
  8
0
  6
Continuous
 62
     7
370
    15
100
AcDbCircle
 10
89.0598159449
 20
543.01186751
 30
0.0
 40
192.2
  0
LINE
  5
16F
330
1F
100
AcDbEntity
  8
0
  6
Continuous
 62
     7
370
    15
100
AcDbLine
 10
269.5598166601
 20
323.0118687021
 30
0.0
 11
269.5598166601
 21
297.0118607151
 31
0.0
  0
LINE
  5
170
330
1F
100
AcDbEntity
  8
0
  6
Continuous
 62
     7
370
    15
100
AcDbLine
 10
269.5598166601
 20
297.0118607151
 30
0.0
 11
267.559812607
 21
295.0118715631
 31
0.0
  0
LINE
  5
171
330
1F
100
AcDbEntity
  8
0
  6
Continuous
 62
     7
370
    15
100
AcDbLine
 10
267.559812607
 20
295.0118715631
 30
0.0
 11
267.559812607
 21
325.0118727552
 31
0.0
  0
LINE
  5
172
330
1F
100
AcDbEntity
  8
0
  6
Continuous
 62
     7
370
    15
100
AcDbLine
 10
269.5598166601
 20
323.0118687021
 30
0.0
 11
267.559812607
 21
325.0118727552
 31
0.0
  0
LINE
  5
173
330
1F
100
AcDbEntity
  8
0
  6
Continuous
 62
     7
370
    15
100
AcDbLine
 10
169.55981517
 20
295.0118715631
 30
0.0
 11
169.0598141567
 21
295.0118715631
 31
0.0
  0
LINE
  5
174
330
1F
100
AcDbEntity
  8
0
  6
Continuous
 62
     7
370
    15
100
AcDbLine
 10
167.5598185675
 20
296.5118671524
 30
0.0
 11
169.0598141567
 21
295.0118715631
 31
0.0
  0
LINE
  5
175
330
1F
100
AcDbEntity
  8
0
  6
Continuous
 62
     7
370
    15
100
AcDbLine
 10
167.5598185675
 20
296.5118671524
 30
0.0
 11
167.5598185675
 21
323.5118622648
 31
0.0
  0
LINE
  5
176
330
1F
100
AcDbEntity
  8
0
  6
Continuous
 62
     7
370
    15
100
AcDbLine
 10
167.5598185675
 20
323.5118622648
 30
0.0
 11
169.0598141567
 21
325.0118727552
 31
0.0
  0
LINE
  5
177
330
1F
100
AcDbEntity
  8
0
  6
Continuous
 62
     7
370
    15
100
AcDbLine
 10
169.0598141567
 20
325.0118727552
 30
0.0
 11
169.55981517
 21
325.0118727552
 31
0.0
  0
LINE
  5
178
330
1F
100
AcDbEntity
  8
0
  6
Continuous
 62
     7
370
    15
100
AcDbLine
 10
169.55981517
 20
325.0118727552
 30
0.0
 11
169.55981517
 21
295.0118715631
 31
0.0
  0
LINE
  5
179
330
1F
100
AcDbEntity
  8
0
  6
Continuous
 62
     7
370
    15
100
AcDbLine
 10
169.55981517
 20
295.0118715631
 30
0.0
 11
267.559812607
 21
295.0118715631
 31
0.0
  0
LINE
  5
17A
330
1F
100
AcDbEntity
  8
0
  6
Continuous
 62
     7
370
    15
100
AcDbLine
 10
169.55981517
 20
325.0118727552
 30
0.0
 11
267.559812607
 21
325.0118727552
 31
0.0
  0
LINE
  5
17B
330
1F
100
AcDbEntity
  8
0
  6
Continuous
 62
     7
370
    15
100
AcDbLine
 10
167.5598185675
 20
323.5118622648
 30
0.0
 11
106.4307682382
 21
323.5118622648
 31
0.0
  0
LINE
  5
17C
330
1F
100
AcDbEntity
  8
0
  6
Continuous
 62
     7
370
    15
100
AcDbLine
 10
71.6888636516
 20
323.5118622648
 30
0.0
 11
61.0598150806
 21
323.5118622648
 31
0.0
  0
LINE
  5
17D
330
1F
100
AcDbEntity
  8
0
  6
Continuous
 62
     7
370
    15
100
AcDbLine
 10
167.5598185675
 20
296.5118671524
 30
0.0
 11
106.4307682382
 21
296.5118671524
 31
0.0
  0
LINE
  5
17E
330
1F
100
AcDbEntity
  8
0
  6
Continuous
 62
     7
370
    15
100
AcDbLine
 10
71.6888636516
 20
296.5118671524
 30
0.0
 11
61.0598150806
 21
296.5118671524
 31
0.0
  0
LINE
  5
17F
330
1F
100
AcDbEntity
  8
0
  6
Continuous
 62
     7
370
    15
100
AcDbLine
 10
51.0598171668
 20
296.5118671524
 30
0.0
 11
51.0598171668
 21
323.5118622648
 31
0.0
  0
LINE
  5
180
330
1F
100
AcDbEntity
  8
0
  6
Continuous
 62
     7
370
    15
100
AcDbLine
 10
61.0598150806
 20
296.5118671524
 30
0.0
 11
51.0598171668
 21
296.5118671524
 31
0.0
  0
LINE
  5
181
330
1F
100
AcDbEntity
  8
0
  6
Continuous
 62
     7
370
    15
100
AcDbLine
 10
51.0598171668
 20
323.5118622648
 30
0.0
 11
61.0598150806
 21
323.5118622648
 31
0.0
  0
LINE
  5
182
330
1F
100
AcDbEntity
  8
0
  6
Continuous
 62
     7
370
    15
100
AcDbLine
 10
-89.9260926826
 20
502.2377828824
 30
0.0
 11
-89.9260926826
 21
492.4228275883
 31
0.0
  0
LINE
  5
183
330
1F
100
AcDbEntity
  8
0
  6
Continuous
 62
     7
370
    15
100
AcDbLine
 10
-81.4260978086
 20
507.1452605295
 30
0.0
 11
-89.9260926826
 21
502.2377828824
 31
0.0
  0
LINE
  5
184
330
1F
100
AcDbEntity
  8
0
  6
Continuous
 62
     7
370
    15
100
AcDbLine
 10
-72.9260880335
 20
502.2377828824
 30
0.0
 11
-81.4260978086
 21
507.1452605295
 31
0.0
  0
LINE
  5
185
330
1F
100
AcDbEntity
  8
0
  6
Continuous
 62
     7
370
    15
100
AcDbLine
 10
-72.9260880335
 20
492.4228275883
 30
0.0
 11
-72.9260880335
 21
502.2377828824
 31
0.0
  0
LINE
  5
186
330
1F
100
AcDbEntity
  8
0
  6
Continuous
 62
     7
370
    15
100
AcDbLine
 10
-81.4260978086
 20
487.5153499412
 30
0.0
 11
-72.9260880335
 21
492.4228275883
 31
0.0
  0
LINE
  5
187
330
1F
100
AcDbEntity
  8
0
  6
Continuous
 62
     7
370
    15
100
AcDbLine
 10
-89.9260926826
 20
492.4228275883
 30
0.0
 11
-81.4260978086
 21
487.5153499412
 31
0.0
  0
LINE
  5
188
330
1F
100
AcDbEntity
  8
0
  6
Continuous
 62
     7
370
    15
100
AcDbLine
 10
34.8782550709
 20
377.4334425795
 30
0.0
 11
34.8782550709
 21
367.6184798347
 31
0.0
  0
LINE
  5
189
330
1F
100
AcDbEntity
  8
0
  6
Continuous
 62
     7
370
    15
100
AcDbLine
 10
43.3782536702
 20
382.3409165012
 30
0.0
 11
34.8782550709
 21
377.4334425795
 31
0.0
  0
LINE
  5
18A
330
1F
100
AcDbEntity
  8
0
  6
Continuous
 62
     7
370
    15
100
AcDbLine
 10
51.8782559948
 20
377.4334425795
 30
0.0
 11
43.3782536702
 21
382.3409165012
 31
0.0
  0
LINE
  5
18B
330
1F
100
AcDbEntity
  8
0
  6
Continuous
 62
     7
370
    15
100
AcDbLine
 10
51.8782559948
 20
367.6184798347
 30
0.0
 11
51.8782559948
 21
377.4334425795
 31
0.0
  0
LINE
  5
18C
330
1F
100
AcDbEntity
  8
0
  6
Continuous
 62
     7
370
    15
100
AcDbLine
 10
43.3782536702
 20
362.711005913
 30
0.0
 11
51.8782559948
 21
367.6184798347
 31
0.0
  0
LINE
  5
18D
330
1F
100
AcDbEntity
  8
0
  6
Continuous
 62
     7
370
    15
100
AcDbLine
 10
34.8782550709
 20
367.6184798347
 30
0.0
 11
43.3782536702
 21
362.711005913
 31
0.0
  0
LINE
  5
18E
330
1F
100
AcDbEntity
  8
0
  6
Continuous
 62
     7
370
    15
100
AcDbLine
 10
-44.2445266826
 20
423.1150011289
 30
0.0
 11
-44.2445266826
 21
413.3000458347
 31
0.0
  0
LINE
  5
18F
330
1F
100
AcDbEntity
  8
0
  6
Continuous
 62
     7
370
    15
100
AcDbLine
 10
-35.7445318086
 20
428.0224750506
 30
0.0
 11
-44.2445266826
 21
423.1150011289
 31
0.0
  0
LINE
  5
190
330
1F
100
AcDbEntity
  8
0
  6
Continuous
 62
     7
370
    15
100
AcDbLine
 10
-27.2445294841
 20
413.3000458347
 30
0.0
 11
-27.2445294841
 21
423.1150011289
 31
0.0
  0
LINE
  5
191
330
1F
100
AcDbEntity
  8
0
  6
Continuous
 62
     7
370
    15
100
AcDbLine
 10
-35.7445318086
 20
408.3925719129
 30
0.0
 11
-27.2445294841
 21
413.3000458347
 31
0.0
  0
LINE
  5
192
330
1F
100
AcDbEntity
  8
0
  6
Continuous
 62
     7
370
    15
100
AcDbLine
 10
-44.2445266826
 20
413.3000458347
 30
0.0
 11
-35.7445318086
 21
408.3925719129
 31
0.0
  0
LINE
  5
193
330
1F
100
AcDbEntity
  8
0
  6
Continuous
 62
     7
370
    15
100
AcDbLine
 10
-27.2445294841
 20
423.1150011289
 30
0.0
 11
-35.7445318086
 21
428.0224750506
 31
0.0
  0
LINE
  5
194
330
1F
100
AcDbEntity
  8
0
  6
Continuous
 62
     7
370
    15
100
AcDbLine
 10
126.241375895
 20
377.4334425795
 30
0.0
 11
126.241375895
 21
367.6184798347
 31
0.0
  0
LINE
  5
195
330
1F
100
AcDbEntity
  8
0
  6
Continuous
 62
     7
370
    15
100
AcDbLine
 10
134.7413782196
 20
382.3409165012
 30
0.0
 11
126.241375895
 21
377.4334425795
 31
0.0
  0
LINE
  5
196
330
1F
100
AcDbEntity
  8
0
  6
Continuous
 62
     7
370
    15
100
AcDbLine
 10
143.2413768189
 20
377.4334425795
 30
0.0
 11
134.7413782196
 21
382.3409165012
 31
0.0
  0
LINE
  5
197
330
1F
100
AcDbEntity
  8
0
  6
Continuous
 62
     7
370
    15
100
AcDbLine
 10
143.2413768189
 20
367.6184798347
 30
0.0
 11
143.2413768189
 21
377.4334425795
 31
0.0
  0
LINE
  5
198
330
1F
100
AcDbEntity
  8
0
  6
Continuous
 62
     7
370
    15
100
AcDbLine
 10
134.7413782196
 20
362.711005913
 30
0.0
 11
143.2413768189
 21
367.6184798347
 31
0.0
  0
LINE
  5
199
330
1F
100
AcDbEntity
  8
0
  6
Continuous
 62
     7
370
    15
100
AcDbLine
 10
126.241375895
 20
367.6184798347
 30
0.0
 11
134.7413782196
 21
362.711005913
 31
0.0
  0
LINE
  5
19A
330
1F
100
AcDbEntity
  8
0
  6
Continuous
 62
     7
370
    15
100
AcDbLine
 10
205.3641613738
 20
423.1150011289
 30
0.0
 11
205.3641613738
 21
413.3000458347
 31
0.0
  0
LINE
  5
19B
330
1F
100
AcDbEntity
  8
0
  6
Continuous
 62
     7
370
    15
100
AcDbLine
 10
213.8641636984
 20
428.0224750506
 30
0.0
 11
205.3641613738
 21
423.1150011289
 31
0.0
  0
LINE
  5
19C
330
1F
100
AcDbEntity
  8
0
  6
Continuous
 62
     7
370
    15
100
AcDbLine
 10
222.3641585724
 20
413.3000458347
 30
0.0
 11
222.3641585724
 21
423.1150011289
 31
0.0
  0
LINE
  5
19D
330
1F
100
AcDbEntity
  8
0
  6
Continuous
 62
     7
370
    15
100
AcDbLine
 10
213.8641636984
 20
408.3925719129
 30
0.0
 11
222.3641585724
 21
413.3000458347
 31
0.0
  0
LINE
  5
19E
330
1F
100
AcDbEntity
  8
0
  6
Continuous
 62
     7
370
    15
100
AcDbLine
 10
205.3641613738
 20
413.3000458347
 30
0.0
 11
213.8641636984
 21
408.3925719129
 31
0.0
  0
LINE
  5
19F
330
1F
100
AcDbEntity
  8
0
  6
Continuous
 62
     7
370
    15
100
AcDbLine
 10
222.3641585724
 20
423.1150011289
 30
0.0
 11
213.8641636984
 21
428.0224750506
 31
0.0
  0
LINE
  5
1A0
330
1F
100
AcDbEntity
  8
0
  6
Continuous
 62
     7
370
    15
100
AcDbLine
 10
251.0457199232
 20
502.2377828824
 30
0.0
 11
251.0457199232
 21
492.4228275883
 31
0.0
  0
LINE
  5
1A1
330
1F
100
AcDbEntity
  8
0
  6
Continuous
 62
     7
370
    15
100
AcDbLine
 10
259.5457296984
 20
507.1452605295
 30
0.0
 11
251.0457199232
 21
502.2377828824
 31
0.0
  0
LINE
  5
1A2
330
1F
100
AcDbEntity
  8
0
  6
Continuous
 62
     7
370
    15
100
AcDbLine
 10
268.0457245724
 20
492.4228275883
 30
0.0
 11
268.0457245724
 21
502.2377828824
 31
0.0
  0
LINE
  5
1A3
330
1F
100
AcDbEntity
  8
0
  6
Continuous
 62
     7
370
    15
100
AcDbLine
 10
259.5457296984
 20
487.5153499412
 30
0.0
 11
268.0457245724
 21
492.4228275883
 31
0.0
  0
LINE
  5
1A4
330
1F
100
AcDbEntity
  8
0
  6
Continuous
 62
     7
370
    15
100
AcDbLine
 10
251.0457199232
 20
492.4228275883
 30
0.0
 11
259.5457296984
 21
487.5153499412
 31
0.0
  0
LINE
  5
1A5
330
1F
100
AcDbEntity
  8
0
  6
Continuous
 62
     7
370
    15
100
AcDbLine
 10
268.0457245724
 20
502.2377828824
 30
0.0
 11
259.5457296984
 21
507.1452605295
 31
0.0
  0
LINE
  5
1A6
330
1F
100
AcDbEntity
  8
0
  6
Continuous
 62
     7
370
    15
100
AcDbLine
 10
-44.2445266826
 20
672.7236891853
 30
0.0
 11
-44.2445266826
 21
662.9087338912
 31
0.0
  0
LINE
  5
1A7
330
1F
100
AcDbEntity
  8
0
  6
Continuous
 62
     7
370
    15
100
AcDbLine
 10
-35.7445318086
 20
677.6311631071
 30
0.0
 11
-44.2445266826
 21
672.7236891853
 31
0.0
  0
LINE
  5
1A8
330
1F
100
AcDbEntity
  8
0
  6
Continuous
 62
     7
370
    15
100
AcDbLine
 10
-27.2445294841
 20
672.7236891853
 30
0.0
 11
-35.7445318086
 21
677.6311631071
 31
0.0
  0
LINE
  5
1A9
330
1F
100
AcDbEntity
  8
0
  6
Continuous
 62
     7
370
    15
100
AcDbLine
 10
-27.2445294841
 20
662.9087338912
 30
0.0
 11
-27.2445294841
 21
672.7236891853
 31
0.0
  0
LINE
  5
1AA
330
1F
100
AcDbEntity
  8
0
  6
Continuous
 62
     7
370
    15
100
AcDbLine
 10
-35.7445318086
 20
658.0012599694
 30
0.0
 11
-27.2445294841
 21
662.9087338912
 31
0.0
  0
LINE
  5
1AB
330
1F
100
AcDbEntity
  8
0
  6
Continuous
 62
     7
370
    15
100
AcDbLine
 10
-44.2445266826
 20
662.9087338912
 30
0.0
 11
-35.7445318086
 21
658.0012599694
 31
0.0
  0
LINE
  5
1AC
330
1F
100
AcDbEntity
  8
0
  6
Continuous
 62
     7
370
    15
100
AcDbLine
 10
-89.9260926826
 20
593.6009074318
 30
0.0
 11
-89.9260926826
 21
583.7859521377
 31
0.0
  0
LINE
  5
1AD
330
1F
100
AcDbEntity
  8
0
  6
Continuous
 62
     7
370
    15
100
AcDbLine
 10
-81.4260978086
 20
598.5083850789
 30
0.0
 11
-89.9260926826
 21
593.6009074318
 31
0.0
  0
LINE
  5
1AE
330
1F
100
AcDbEntity
  8
0
  6
Continuous
 62
     7
370
    15
100
AcDbLine
 10
-72.9260880335
 20
583.7859521377
 30
0.0
 11
-72.9260880335
 21
593.6009074318
 31
0.0
  0
LINE
  5
1AF
330
1F
100
AcDbEntity
  8
0
  6
Continuous
 62
     7
370
    15
100
AcDbLine
 10
-81.4260978086
 20
578.8784744906
 30
0.0
 11
-72.9260880335
 21
583.7859521377
 31
0.0
  0
LINE
  5
1B0
330
1F
100
AcDbEntity
  8
0
  6
Continuous
 62
     7
370
    15
100
AcDbLine
 10
-89.9260926826
 20
583.7859521377
 30
0.0
 11
-81.4260978086
 21
578.8784744906
 31
0.0
  0
LINE
  5
1B1
330
1F
100
AcDbEntity
  8
0
  6
Continuous
 62
     7
370
    15
100
AcDbLine
 10
-72.9260880335
 20
593.6009074318
 30
0.0
 11
-81.4260978086
 21
598.5083850789
 31
0.0
  0
LINE
  5
1B2
330
1F
100
AcDbEntity
  8
0
  6
Continuous
 62
     7
370
    15
100
AcDbLine
 10
34.8782550709
 20
718.4052551853
 30
0.0
 11
34.8782550709
 21
708.5902924406
 31
0.0
  0
LINE
  5
1B3
330
1F
100
AcDbEntity
  8
0
  6
Continuous
 62
     7
370
    15
100
AcDbLine
 10
51.8782559948
 20
708.5902924406
 30
0.0
 11
51.8782559948
 21
718.4052551853
 31
0.0
  0
LINE
  5
1B4
330
1F
100
AcDbEntity
  8
0
  6
Continuous
 62
     7
370
    15
100
AcDbLine
 10
43.3782536702
 20
703.6828185188
 30
0.0
 11
51.8782559948
 21
708.5902924406
 31
0.0
  0
LINE
  5
1B5
330
1F
100
AcDbEntity
  8
0
  6
Continuous
 62
     7
370
    15
100
AcDbLine
 10
34.8782550709
 20
708.5902924406
 30
0.0
 11
43.3782536702
 21
703.6828185188
 31
0.0
  0
LINE
  5
1B6
330
1F
100
AcDbEntity
  8
0
  6
Continuous
 62
     7
370
    15
100
AcDbLine
 10
51.8782559948
 20
718.4052551853
 30
0.0
 11
43.3782536702
 21
723.3127291071
 31
0.0
  0
LINE
  5
1B7
330
1F
100
AcDbEntity
  8
0
  6
Continuous
 62
     7
370
    15
100
AcDbLine
 10
43.3782536702
 20
723.3127291071
 30
0.0
 11
34.8782550709
 21
718.4052551853
 31
0.0
  0
LINE
  5
1B8
330
1F
100
AcDbEntity
  8
0
  6
Continuous
 62
     7
370
    15
100
AcDbLine
 10
126.241375895
 20
718.4052551853
 30
0.0
 11
126.241375895
 21
708.5902924406
 31
0.0
  0
LINE
  5
1B9
330
1F
100
AcDbEntity
  8
0
  6
Continuous
 62
     7
370
    15
100
AcDbLine
 10
134.7413782196
 20
723.3127291071
 30
0.0
 11
126.241375895
 21
718.4052551853
 31
0.0
  0
LINE
  5
1BA
330
1F
100
AcDbEntity
  8
0
  6
Continuous
 62
     7
370
    15
100
AcDbLine
 10
143.2413768189
 20
708.5902924406
 30
0.0
 11
143.2413768189
 21
718.4052551853
 31
0.0
  0
LINE
  5
1BB
330
1F
100
AcDbEntity
  8
0
  6
Continuous
 62
     7
370
    15
100
AcDbLine
 10
134.7413782196
 20
703.6828185188
 30
0.0
 11
143.2413768189
 21
708.5902924406
 31
0.0
  0
LINE
  5
1BC
330
1F
100
AcDbEntity
  8
0
  6
Continuous
 62
     7
370
    15
100
AcDbLine
 10
126.241375895
 20
708.5902924406
 30
0.0
 11
134.7413782196
 21
703.6828185188
 31
0.0
  0
LINE
  5
1BD
330
1F
100
AcDbEntity
  8
0
  6
Continuous
 62
     7
370
    15
100
AcDbLine
 10
143.2413768189
 20
718.4052551853
 30
0.0
 11
134.7413782196
 21
723.3127291071
 31
0.0
  0
LINE
  5
1BE
330
1F
100
AcDbEntity
  8
0
  6
Continuous
 62
     7
370
    15
100
AcDbLine
 10
205.3641613738
 20
672.7236891853
 30
0.0
 11
205.3641613738
 21
662.9087338912
 31
0.0
  0
LINE
  5
1BF
330
1F
100
AcDbEntity
  8
0
  6
Continuous
 62
     7
370
    15
100
AcDbLine
 10
213.8641636984
 20
677.6311631071
 30
0.0
 11
205.3641613738
 21
672.7236891853
 31
0.0
  0
LINE
  5
1C0
330
1F
100
AcDbEntity
  8
0
  6
Continuous
 62
     7
370
    15
100
AcDbLine
 10
222.3641585724
 20
662.9087338912
 30
0.0
 11
222.3641585724
 21
672.7236891853
 31
0.0
  0
LINE
  5
1C1
330
1F
100
AcDbEntity
  8
0
  6
Continuous
 62
     7
370
    15
100
AcDbLine
 10
213.8641636984
 20
658.0012599694
 30
0.0
 11
222.3641585724
 21
662.9087338912
 31
0.0
  0
LINE
  5
1C2
330
1F
100
AcDbEntity
  8
0
  6
Continuous
 62
     7
370
    15
100
AcDbLine
 10
205.3641613738
 20
662.9087338912
 30
0.0
 11
213.8641636984
 21
658.0012599694
 31
0.0
  0
LINE
  5
1C3
330
1F
100
AcDbEntity
  8
0
  6
Continuous
 62
     7
370
    15
100
AcDbLine
 10
222.3641585724
 20
672.7236891853
 30
0.0
 11
213.8641636984
 21
677.6311631071
 31
0.0
  0
LINE
  5
1C4
330
1F
100
AcDbEntity
  8
0
  6
Continuous
 62
     7
370
    15
100
AcDbLine
 10
251.0457199232
 20
593.6009074318
 30
0.0
 11
251.0457199232
 21
583.7859521377
 31
0.0
  0
LINE
  5
1C5
330
1F
100
AcDbEntity
  8
0
  6
Continuous
 62
     7
370
    15
100
AcDbLine
 10
259.5457296984
 20
598.5083850789
 30
0.0
 11
251.0457199232
 21
593.6009074318
 31
0.0
  0
LINE
  5
1C6
330
1F
100
AcDbEntity
  8
0
  6
Continuous
 62
     7
370
    15
100
AcDbLine
 10
268.0457245724
 20
593.6009074318
 30
0.0
 11
259.5457296984
 21
598.5083850789
 31
0.0
  0
LINE
  5
1C7
330
1F
100
AcDbEntity
  8
0
  6
Continuous
 62
     7
370
    15
100
AcDbLine
 10
268.0457245724
 20
583.7859521377
 30
0.0
 11
268.0457245724
 21
593.6009074318
 31
0.0
  0
LINE
  5
1C8
330
1F
100
AcDbEntity
  8
0
  6
Continuous
 62
     7
370
    15
100
AcDbLine
 10
259.5457296984
 20
578.8784744906
 30
0.0
 11
268.0457245724
 21
583.7859521377
 31
0.0
  0
LINE
  5
1C9
330
1F
100
AcDbEntity
  8
0
  6
Continuous
 62
     7
370
    15
100
AcDbLine
 10
251.0457199232
 20
583.7859521377
 30
0.0
 11
259.5457296984
 21
578.8784744906
 31
0.0
  0
CIRCLE
  5
1CA
330
1F
100
AcDbEntity
  8
0
  6
Continuous
 62
     7
370
    15
100
AcDbCircle
 10
89.0598159449
 20
310.01186751
 30
0.0
 40
22.0
  0
ARC
  5
1CB
330
1F
100
AcDbEntity
  8
0
  6
Continuous
 62
     7
370
    15
100
AcDbCircle
 10
89.0598159449
 20
310.01186751
 30
0.0
 40
22.50000000000001
100
AcDbArc
 50
216.8698976458
 51
323.1301023542
  0
ARC
  5
1CC
330
1F
100
AcDbEntity
  8
0
  6
Continuous
 62
     7
370
    15
100
AcDbCircle
 10
89.0598159449
 20
310.01186751
 30
0.0
 40
22.50000000000001
100
AcDbArc
 50
36.8698976458
 51
143.1301023542
  0
ARC
  5
1CD
330
1F
100
AcDbEntity
  8
0
  6
Continuous
 62
     7
370
    15
100
AcDbCircle
 10
89.0598159449
 20
310.01186751
 30
0.0
 40
29.1
100
AcDbArc
 50
207.6401886487
 51
332.3598113513
  0
ARC
  5
1CE
330
1F
100
AcDbEntity
  8
0
  6
Continuous
 62
     7
370
    15
100
AcDbCircle
 10
89.0598159449
 20
310.01186751
 30
0.0
 40
29.10000000000002
100
AcDbArc
 50
27.6401886487
 51
152.3598113513
  0
CIRCLE
  5
1CF
330
1F
100
AcDbEntity
  8
0
  6
Continuous
 62
     7
370
    15
100
AcDbCircle
 10
35.0598159449
 20
310.01186751
 30
0.0
 40
12.00000000000006
  0
CIRCLE
  5
1D0
330
1F
100
AcDbEntity
  8
0
  6
Continuous
 62
     7
370
    15
100
AcDbCircle
 10
35.0598159449
 20
310.01186751
 30
0.0
 40
13.00000000000006
  0
LINE
  5
1D1
330
1F
100
AcDbEntity
  8
0
  6
Continuous
 62
     7
370
    15
100
AcDbLine
 10
43.3664407747
 20
300.0118667948
 30
0.0
 11
51.0598171668
 21
300.0118667948
 31
0.0
  0
LINE
  5
1D2
330
1F
100
AcDbEntity
  8
0
  6
Continuous
 62
     7
370
    15
100
AcDbLine
 10
51.0598171668
 20
320.0118626224
 30
0.0
 11
43.3664407747
 21
320.0118626224
 31
0.0
  0
LINE
  5
1D3
330
1F
100
AcDbEntity
  8
0
  6
Continuous
 62
     7
370
    15
100
AcDbLine
 10
139.0598166899
 20
329.0118659603
 30
0.0
 11
139.0598166899
 21
323.5118622648
 31
0.0
  0
LINE
  5
1D4
330
1F
100
AcDbEntity
  8
0
  6
Continuous
 62
     7
370
    15
100
AcDbLine
 10
139.0598166899
 20
296.5118671524
 30
0.0
 11
139.0598166899
 21
291.0118634569
 31
0.0
  0
LINE
  5
1D5
330
1F
100
AcDbEntity
  8
0
  6
Continuous
 62
     7
370
    15
100
AcDbLine
 10
9.059817733
 20
291.0118634569
 30
0.0
 11
9.059817733
 21
329.0118659603
 31
0.0
  0
ARC
  5
1D6
330
1F
100
AcDbEntity
  8
0
  6
Continuous
 62
     7
370
    15
100
AcDbCircle
 10
89.0598159449
 20
277.01186751
 30
0.0
 40
13.5
100
AcDbArc
 50
180.0
 51
0.0
  0
LINE
  5
1D7
330
1F
100
AcDbEntity
  8
0
  6
PHANTOM
 62
     7
370
     0
100
AcDbLine
 10
51.0598159449
 20
323.51186751
 30
0.0
 11
-91.4401840551
 21
323.51186751
 31
0.0
  0
LINE
  5
1D8
330
1F
100
AcDbEntity
  8
0
  6
PHANTOM
 62
     7
370
     0
100
AcDbLine
 10
-91.4401840551
 20
323.51186751
 30
0.0
 11
-91.4401840551
 21
296.51186751
 31
0.0
  0
LINE
  5
1D9
330
1F
100
AcDbEntity
  8
0
  6
PHANTOM
 62
     7
370
     0
100
AcDbLine
 10
-91.4401840551
 20
296.51186751
 30
0.0
 11
51.0598159449
 21
296.51186751
 31
0.0
  0
ARC
  5
1DA
330
1F
100
AcDbEntity
  8
0
  6
HIDDEN
 62
     7
370
     0
100
AcDbCircle
 10
-11.0928785051
 20
442.8591730601
 30
0.0
 40
45.00000000000001
100
AcDbArc
 50
189.52870109
 51
260.47129891
  0
ARC
  5
1DB
330
1F
100
AcDbEntity
  8
0
  6
HIDDEN
 62
     7
370
     0
100
AcDbCircle
 10
89.0598159449
 20
46.51186751
 30
0.0
 40
650.0000000000001
100
AcDbArc
 50
80.47129891
 51
99.52870109
  0
ARC
  5
1DC
330
1F
100
AcDbEntity
  8
0
  6
HIDDEN
 62
     7
370
     0
100
AcDbCircle
 10
-407.4401840551
 20
543.01186751
 30
0.0
 40
649.9999999999999
100
AcDbArc
 50
350.47129891
 51
9.52870109
  0
ARC
  5
1DD
330
1F
100
AcDbEntity
  8
0
  6
HIDDEN
 62
     7
370
     0
100
AcDbCircle
 10
585.5598159449
 20
543.01186751
 30
0.0
 40
650.0000000000001
100
AcDbArc
 50
170.47129891
 51
189.52870109
  0
ARC
  5
1DE
330
1F
100
AcDbEntity
  8
0
  6
HIDDEN
 62
     7
370
     0
100
AcDbCircle
 10
189.2125103949
 20
442.8591730601
 30
0.0
 40
45.0
100
AcDbArc
 50
279.52870109
 51
350.47129891
  0
ARC
  5
1DF
330
1F
100
AcDbEntity
  8
0
  6
HIDDEN
 62
     7
370
     0
100
AcDbCircle
 10
89.0598159449
 20
1039.51186751
 30
0.0
 40
650.0000000000001
100
AcDbArc
 50
260.47129891
 51
279.52870109
  0
CIRCLE
  5
1E0
330
1F
100
AcDbEntity
  8
0
  6
HIDDEN
 62
     7
370
     0
100
AcDbCircle
 10
210.682182309
 20
664.6342338741
 30
0.0
 40
6.000000000000023
  0
CIRCLE
  5
1E1
330
1F
100
AcDbEntity
  8
0
  6
HIDDEN
 62
     7
370
     0
100
AcDbCircle
 10
210.682182309
 20
421.3895011459
 30
0.0
 40
6.000000000000023
  0
CIRCLE
  5
1E2
330
1F
100
AcDbEntity
  8
0
  6
HIDDEN
 62
     7
370
     0
100
AcDbCircle
 10
-32.5625504192
 20
664.6342338741
 30
0.0
 40
6.000000000000022
  0
ARC
  5
1E3
330
1F
100
AcDbEntity
  8
0
  6
HIDDEN
 62
     7
370
     0
100
AcDbCircle
 10
189.2125103949
 20
643.16456196
 30
0.0
 40
45.00000000000005
100
AcDbArc
 50
9.52870109
 51
80.47129891
  0
CIRCLE
  5
1E4
330
1F
100
AcDbEntity
  8
0
  6
HIDDEN
 62
     7
370
     0
100
AcDbCircle
 10
-32.5625504192
 20
421.3895011459
 30
0.0
 40
5.999999999999962
  0
ARC
  5
1E5
330
1F
100
AcDbEntity
  8
0
  6
HIDDEN
 62
     7
370
     0
100
AcDbCircle
 10
-11.0928785051
 20
643.16456196
 30
0.0
 40
45.00000000000006
100
AcDbArc
 50
99.52870109
 51
170.47129891
  0
ARC
  5
1E6
330
1F
100
AcDbEntity
  8
0
  6
PHANTOM
 62
     7
370
     0
100
AcDbCircle
 10
89.0598159449
 20
310.01186751
 30
0.0
 40
180.5
100
AcDbArc
 50
180.0
 51
0.0
  0
INSERT
  5
212
330
1F
100
AcDbEntity
  8
0
  6
Continuous
 62
     7
370
     0
100
AcDbBlockReference
  2
SW_CENTERMARKSYMBOL_0
 10
-32.5625504192
 20
664.6342338741
 30
0.0
  0
LINE
  5
213
330
1F
100
AcDbEntity
  8
0
  6
CENTERX2
 62
     7
370
     0
100
AcDbLine
 10
280.9307590144
 20
310.01186751
 30
0.0
 11
-104.6148978711
 21
310.01186751
 31
0.0
  0
ENDSEC
  0
SECTION
  2
OBJECTS
  0
DICTIONARY
  5
C
330
0
100
AcDbDictionary
281
     1
  3
ACAD_GROUP
350
D
  3
ACAD_LAYOUT
350
1A
  3
ACAD_MLINESTYLE
350
17
  3
ACAD_PLOTSETTINGS
350
19
  3
ACAD_PLOTSTYLENAME
350
E
  0
DICTIONARY
  5
D
102
{ACAD_REACTORS
330
C
102
}
330
C
100
AcDbDictionary
281
     1
  0
DICTIONARY
  5
1A
102
{ACAD_REACTORS
330
C
102
}
330
C
100
AcDbDictionary
281
     1
  3
Layout1
350
1E
  3
Layout2
350
26
  3
Model
350
22
  0
DICTIONARY
  5
17
102
{ACAD_REACTORS
330
C
102
}
330
C
100
AcDbDictionary
281
     1
  3
Standard
350
18
  0
DICTIONARY
  5
19
102
{ACAD_REACTORS
330
C
102
}
330
C
100
AcDbDictionary
281
     1
  0
ACDBDICTIONARYWDFLT
  5
E
102
{ACAD_REACTORS
330
C
102
}
330
C
100
AcDbDictionary
281
     1
  3
Normal
350
F
100
AcDbDictionaryWithDefault
340
F
  0
LAYOUT
  5
1E
102
{ACAD_REACTORS
330
1A
102
}
330
1A
100
AcDbPlotSettings
  1

  2
none_device
  4

  6

 40
0.0
 41
0.0
 42
0.0
 43
0.0
 44
0.0
 45
0.0
 46
0.0
 47
0.0
 48
0.0
 49
0.0
140
0.0
141
0.0
142
1.0
143
1.0
 70
   688
 72
     0
 73
     0
 74
     5
  7

 75
    16
147
1.0
148
0.0
149
0.0
100
AcDbLayout
  1
Layout1
 70
     1
 71
     1
 10
0.0
 20
0.0
 11
420.0
 21
297.0
 12
0.0
 22
0.0
 32
0.0
 14
1.0000000000E+20
 24
1.0000000000E+20
 34
1.0000000000E+20
 15
-1.0000000000E+20
 25
-1.0000000000E+20
 35
-1.0000000000E+20
146
0.0
 13
0.0
 23
0.0
 33
0.0
 16
1.0
 26
0.0
 36
0.0
 17
0.0
 27
1.0
 37
0.0
 76
     0
330
1B
  0
LAYOUT
  5
26
102
{ACAD_REACTORS
330
1A
102
}
330
1A
100
AcDbPlotSettings
  1

  2
none_device
  4

  6

 40
0.0
 41
0.0
 42
0.0
 43
0.0
 44
0.0
 45
0.0
 46
0.0
 47
0.0
 48
0.0
 49
0.0
140
0.0
141
0.0
142
1.0
143
1.0
 70
   688
 72
     0
 73
     0
 74
     5
  7

 75
    16
147
1.0
148
0.0
149
0.0
100
AcDbLayout
  1
Layout2
 70
     1
 71
     2
 10
0.0
 20
0.0
 11
0.0
 21
0.0
 12
0.0
 22
0.0
 32
0.0
 14
0.0
 24
0.0
 34
0.0
 15
0.0
 25
0.0
 35
0.0
146
0.0
 13
0.0
 23
0.0
 33
0.0
 16
1.0
 26
0.0
 36
0.0
 17
0.0
 27
1.0
 37
0.0
 76
     0
330
23
  0
LAYOUT
  5
22
102
{ACAD_REACTORS
330
1A
102
}
330
1A
100
AcDbPlotSettings
  1

  2
none_device
  4

  6

 40
0.0
 41
0.0
 42
0.0
 43
0.0
 44
0.0
 45
0.0
 46
0.0
 47
0.0
 48
0.0
 49
0.0
140
0.0
141
0.0
142
1.0
143
1.0
 70
  1712
 72
     0
 73
     0
 74
     0
  7

 75
     0
147
1.0
148
0.0
149
0.0
100
AcDbLayout
  1
Model
 70
     1
 71
     0
 10
0.0
 20
0.0
 11
210.0
 21
297.0
 12
0.0
 22
0.0
 32
0.0
 14
0.0
 24
0.0
 34
0.0
 15
210.0
 25
297.0
 35
0.0
146
0.0
 13
0.0
 23
0.0
 33
0.0
 16
1.0
 26
0.0
 36
0.0
 17
0.0
 27
1.0
 37
0.0
 76
     0
330
1F
331
29
  0
MLINESTYLE
  5
18
102
{ACAD_REACTORS
330
17
102
}
330
17
100
AcDbMlineStyle
  2
Standard
 70
     0
  3

 62
   256
 51
90.0
 52
90.0
 71
     2
 49
0.5
 62
   256
  6
BYLAYER
 49
-0.5
 62
   256
  6
BYLAYER
  0
ACDBPLACEHOLDER
  5
F
102
{ACAD_REACTORS
330
E
102
}
330
E
  0
ENDSEC
  0
EOF
