  0
SECTION
  2
HEADER
  9
$ACADVER
  1
AC1015
  9
$ACADMAINTVER
 70
     6
  9
$DWGCODEPAGE
  3
DOS932
  9
$INSBASE
 10
0.0
 20
0.0
 30
0.0
  9
$EXTMIN
 10
0.0
 20
0.0
 30
0.0
  9
$EXTMAX
 10
297.0
 20
210.0
 30
0.0
  9
$LIMMIN
 10
0.0
 20
0.0
  9
$LIMMAX
 10
297.0
 20
210.0
  9
$ORTHOMODE
 70
     0
  9
$REGENMODE
 70
     1
  9
$FILLMODE
 70
     1
  9
$QTEXTMODE
 70
     0
  9
$MIRRTEXT
 70
     1
  9
$LTSCALE
 40
1.0
  9
$ATTMODE
 70
     1
  9
$TEXTSIZE
 40
3.5
  9
$TRACEWID
 40
1.0
  9
$TEXTSTYLE
  7
Standard
  9
$CLAYER
  8
0
  9
$CELTYPE
  6
ByLayer
  9
$CECOLOR
 62
   256
  9
$CELTSCALE
 40
1.0
  9
$DISPSILH
 70
     0
  9
$DIMSCALE
 40
1.0
  9
$DIMASZ
 40
2.0
  9
$DIMEXO
 40
1.0
  9
$DIMDLI
 40
3.75
  9
$DIMRND
 40
0.0
  9
$DIMDLE
 40
0.0
  9
$DIMEXE
 40
1.0
  9
$DIMTP
 40
0.0
  9
$DIMTM
 40
0.0
  9
$DIMTXT
 40
2.7999999523
  9
$DIMCEN
 40
2.5
  9
$DIMTSZ
 40
0.0
  9
$DIMTOL
 70
     0
  9
$DIMLIM
 70
     0
  9
$DIMTIH
 70
     1
  9
$DIMTOH
 70
     1
  9
$DIMSE1
 70
     0
  9
$DIMSE2
 70
     0
  9
$DIMTAD
 70
     1
  9
$DIMZIN
 70
     1
  9
$DIMBLK
  1

  9
$DIMASO
 70
     1
  9
$DIMSHO
 70
     1
  9
$DIMPOST
  1

  9
$DIMAPOST
  1

  9
$DIMALT
 70
     0
  9
$DIMALTD
 70
     3
  9
$DIMALTF
 40
0.0393700787
  9
$DIMLFAC
 40
1.0
  9
$DIMTOFL
 70
     1
  9
$DIMTVP
 40
0.0
  9
$DIMTIX
 70
     0
  9
$DIMSOXD
 70
     0
  9
$DIMSAH
 70
     0
  9
$DIMBLK1
  1

  9
$DIMBLK2
  1

  9
$DIMSTYLE
  2
ISO-25
  9
$DIMCLRD
 70
     0
  9
$DIMCLRE
 70
     0
  9
$DIMCLRT
 70
     0
  9
$DIMTFAC
 40
1.0
  9
$DIMGAP
 40
1.524
  9
$DIMJUST
 70
     0
  9
$DIMSD1
 70
     0
  9
$DIMSD2
 70
     0
  9
$DIMTOLJ
 70
     0
  9
$DIMTZIN
 70
     1
  9
$DIMALTZ
 70
     0
  9
$DIMALTTZ
 70
     0
  9
$DIMUPT
 70
     0
  9
$DIMDEC
 70
     3
  9
$DIMTDEC
 70
     3
  9
$DIMALTU
 70
     2
  9
$DIMALTTD
 70
     3
  9
$DIMTXSTY
  7
Standard
  9
$DIMAUNIT
 70
     0
  9
$DIMADEC
 70
     0
  9
$DIMALTRND
 40
0.0
  9
$DIMAZIN
 70
     0
  9
$DIMDSEP
 70
    44
  9
$DIMATFIT
 70
     3
  9
$DIMFRAC
 70
     0
  9
$DIMLDRBLK
  1

  9
$DIMLUNIT
 70
     2
  9
$DIMLWD
 70
    -2
  9
$DIMLWE
 70
    -2
  9
$DIMTMOVE
 70
     0
  9
$LUNITS
 70
     2
  9
$LUPREC
 70
     3
  9
$SKETCHINC
 40
1.0
  9
$FILLETRAD
 40
10.0
  9
$AUNITS
 70
     0
  9
$AUPREC
 70
     0
  9
$MENU
  1
.
  9
$ELEVATION
 40
0.0
  9
$PELEVATION
 40
0.0
  9
$THICKNESS
 40
0.0
  9
$LIMCHECK
 70
     0
  9
$CHAMFERA
 40
10.0
  9
$CHAMFERB
 40
10.0
  9
$CHAMFERC
 40
20.0
  9
$CHAMFERD
 40
0.0
  9
$SKPOLY
 70
     0
  9
$TDCREATE
 40
2456680.676136204
  9
$TDUCREATE
 40
2456680.301136204
  9
$TDUPDATE
 40
2456680.676136921
  9
$TDUUPDATE
 40
2456680.301136921
  9
$TDINDWG
 40
0.0000000116
  9
$TDUSRTIMER
 40
0.0000000116
  9
$USRTIMER
 70
     1
  9
$ANGBASE
 50
0.0
  9
$ANGDIR
 70
     0
  9
$PDMODE
 70
     0
  9
$PDSIZE
 40
-1.0
  9
$PLINEWID
 40
0.0
  9
$SPLFRAME
 70
     0
  9
$SPLINETYPE
 70
     6
  9
$SPLINESEGS
 70
     8
  9
$HANDSEED
  5
247
  9
$SURFTAB1
 70
     6
  9
$SURFTAB2
 70
     6
  9
$SURFTYPE
 70
     6
  9
$SURFU
 70
     6
  9
$SURFV
 70
     6
  9
$UCSBASE
  2

  9
$UCSNAME
  2

  9
$UCSORG
 10
0.0
 20
0.0
 30
0.0
  9
$UCSXDIR
 10
1.0
 20
0.0
 30
0.0
  9
$UCSYDIR
 10
0.0
 20
1.0
 30
0.0
  9
$UCSORTHOREF
  2

  9
$UCSORTHOVIEW
 70
     0
  9
$UCSORGTOP
 10
0.0
 20
0.0
 30
0.0
  9
$UCSORGBOTTOM
 10
0.0
 20
0.0
 30
0.0
  9
$UCSORGLEFT
 10
0.0
 20
0.0
 30
0.0
  9
$UCSORGRIGHT
 10
0.0
 20
0.0
 30
0.0
  9
$UCSORGFRONT
 10
0.0
 20
0.0
 30
0.0
  9
$UCSORGBACK
 10
0.0
 20
0.0
 30
0.0
  9
$PUCSBASE
  2

  9
$PUCSNAME
  2

  9
$PUCSORG
 10
0.0
 20
0.0
 30
0.0
  9
$PUCSXDIR
 10
1.0
 20
0.0
 30
0.0
  9
$PUCSYDIR
 10
0.0
 20
1.0
 30
0.0
  9
$PUCSORTHOREF
  2

  9
$PUCSORTHOVIEW
 70
     0
  9
$PUCSORGTOP
 10
0.0
 20
0.0
 30
0.0
  9
$PUCSORGBOTTOM
 10
0.0
 20
0.0
 30
0.0
  9
$PUCSORGLEFT
 10
0.0
 20
0.0
 30
0.0
  9
$PUCSORGRIGHT
 10
0.0
 20
0.0
 30
0.0
  9
$PUCSORGFRONT
 10
0.0
 20
0.0
 30
0.0
  9
$PUCSORGBACK
 10
0.0
 20
0.0
 30
0.0
  9
$USERI1
 70
     0
  9
$USERI2
 70
     0
  9
$USERI3
 70
     0
  9
$USERI4
 70
     0
  9
$USERI5
 70
     0
  9
$USERR1
 40
0.0
  9
$USERR2
 40
0.0
  9
$USERR3
 40
0.0
  9
$USERR4
 40
0.0
  9
$USERR5
 40
0.0
  9
$WORLDVIEW
 70
     1
  9
$SHADEDGE
 70
     3
  9
$SHADEDIF
 70
    70
  9
$TILEMODE
 70
     1
  9
$MAXACTVP
 70
    64
  9
$PINSBASE
 10
0.0
 20
0.0
 30
0.0
  9
$PLIMCHECK
 70
     0
  9
$PEXTMIN
 10
1.0000000000E+20
 20
1.0000000000E+20
 30
1.0000000000E+20
  9
$PEXTMAX
 10
-1.0000000000E+20
 20
-1.0000000000E+20
 30
-1.0000000000E+20
  9
$PLIMMIN
 10
0.0
 20
0.0
  9
$PLIMMAX
 10
420.0
 20
297.0
  9
$UNITMODE
 70
     0
  9
$VISRETAIN
 70
     1
  9
$PLINEGEN
 70
     0
  9
$PSLTSCALE
 70
     1
  9
$TREEDEPTH
 70
  3020
  9
$CMLSTYLE
  2
Standard
  9
$CMLJUST
 70
     0
  9
$CMLSCALE
 40
20.0
  9
$PROXYGRAPHICS
 70
     1
  9
$MEASUREMENT
 70
     1
  9
$CELWEIGHT
370
    -1
  9
$ENDCAPS
280
     0
  9
$JOINSTYLE
280
     0
  9
$LWDISPLAY
290
     1
  9
$INSUNITS
 70
     4
  9
$HYPERLINKBASE
  1

  9
$STYLESHEET
  1

  9
$XEDIT
290
     1
  9
$CEPSNTYPE
380
     0
  9
$PSTYLEMODE
290
     1
  9
$FINGERPRINTGUID
  2
{4D2054B5-0E6D-4EAF-85C6-F6219014843F}
  9
$VERSIONGUID
  2
{FAEB1C32-E019-11D5-929B-00C0DF256EC4}
  9
$EXTNAMES
290
     1
  9
$PSVPSCALE
 40
0.0
  9
$OLESTARTUP
290
     0
  0
ENDSEC
  0
SECTION
  2
CLASSES
  0
CLASS
  1
ACDBDICTIONARYWDFLT
  2
AcDbDictionaryWithDefault
  3
ObjectDBX Classes
 90
        0
280
     0
281
     0
  0
CLASS
  1
VISUALSTYLE
  2
AcDbVisualStyle
  3
ObjectDBX Classes
 90
     4095
280
     0
281
     0
  0
CLASS
  1
MATERIAL
  2
AcDbMaterial
  3
ObjectDBX Classes
 90
     1153
280
     0
281
     0
  0
CLASS
  1
ACDBPLACEHOLDER
  2
AcDbPlaceHolder
  3
ObjectDBX Classes
 90
        0
280
     0
281
     0
  0
CLASS
  1
LAYOUT
  2
AcDbLayout
  3
ObjectDBX Classes
 90
        0
280
     0
281
     0
  0
ENDSEC
  0
SECTION
  2
TABLES
  0
TABLE
  2
VPORT
  5
8
330
0
100
AcDbSymbolTable
 70
     1
  0
VPORT
  5
29
330
8
100
AcDbSymbolTableRecord
100
AcDbViewportTableRecord
  2
*Active
 70
     0
 10
0.0
 20
0.0
 11
1.0
 21
1.0
 12
148.5
 22
105.0
 13
0.0
 23
0.0
 14
10.0
 24
10.0
 15
10.0
 25
10.0
 16
0.0
 26
0.0
 36
1.0
 17
0.0
 27
0.0
 37
0.0
 40
210.0
 41
1.4142857143
 42
50.0
 43
0.0
 44
0.0
 50
0.0
 51
0.0
 71
     0
 72
  2000
 73
     1
 74
     3
 75
     0
 76
     0
 77
     0
 78
     0
281
     0
 65
     1
110
0.0
120
0.0
130
0.0
111
1.0
121
0.0
131
0.0
112
0.0
122
1.0
132
0.0
 79
     0
146
0.0
  0
ENDTAB
  0
TABLE
  2
LTYPE
  5
5
330
0
100
AcDbSymbolTable
 70
     6
  0
LTYPE
  5
14
330
5
100
AcDbSymbolTableRecord
100
AcDbLinetypeTableRecord
  2
ByBlock
 70
     0
  3

 72
    65
 73
     0
 40
0.0
  0
LTYPE
  5
15
330
5
100
AcDbSymbolTableRecord
100
AcDbLinetypeTableRecord
  2
ByLayer
 70
     0
  3

 72
    65
 73
     0
 40
0.0
  0
LTYPE
  5
16
330
5
100
AcDbSymbolTableRecord
100
AcDbLinetypeTableRecord
  2
Continuous
 70
     0
  3
Solid line
 72
    65
 73
     0
 40
0.0
  0
LTYPE
  5
3F
330
5
100
AcDbSymbolTableRecord
100
AcDbLinetypeTableRecord
  2
HIDDEN
 70
     0
  3
Hidden __ __ __ __ __ __ __ __ __ __ __ __ __ __
 72
    65
 73
     2
 40
1.905
 49
1.27
 74
     0
 49
-0.635
 74
     0
  0
LTYPE
  5
40
330
5
100
AcDbSymbolTableRecord
100
AcDbLinetypeTableRecord
  2
PHANTOM
 70
     0
  3
Phantom ______  __  __  ______  __  __  ______
 72
    65
 73
     6
 40
12.7
 49
6.35
 74
     0
 49
-1.27
 74
     0
 49
1.27
 74
     0
 49
-1.27
 74
     0
 49
1.27
 74
     0
 49
-1.27
 74
     0
  0
LTYPE
  5
41
330
5
100
AcDbSymbolTableRecord
100
AcDbLinetypeTableRecord
  2
CENTER
 70
     0
  3
Center ____ _ ____ _ ____ _ ____ _ ____ _ ____
 72
    65
 73
     4
 40
10.16
 49
6.35
 74
     0
 49
-1.27
 74
     0
 49
1.27
 74
     0
 49
-1.27
 74
     0
  0
LTYPE
  5
42
330
5
100
AcDbSymbolTableRecord
100
AcDbLinetypeTableRecord
  2
CENTERX2
 70
     0
  3
Center (2x) ________  __  ________  __  _____
 72
    65
 73
     4
 40
20.32
 49
12.7
 74
     0
 49
-2.54
 74
     0
 49
2.54
 74
     0
 49
-2.54
 74
     0
  0
LTYPE
  5
43
330
5
100
AcDbSymbolTableRecord
100
AcDbLinetypeTableRecord
  2
DOT2
 70
     0
  3
Dot (.5x) ........................................
 72
    65
 73
     2
 40
0.635
 49
0.0
 74
     0
 49
-0.635
 74
     0
  0
ENDTAB
  0
TABLE
  2
LAYER
  5
2
330
0
100
AcDbSymbolTable
 70
     2
  0
LAYER
  5
10
330
2
100
AcDbSymbolTableRecord
100
AcDbLayerTableRecord
  2
0
 70
     0
 62
     7
  6
Continuous
370
    -3
390
F
  0
LAYER
  5
44
330
2
100
AcDbSymbolTableRecord
100
AcDbLayerTableRecord
  2
SLD-0
 70
     0
 62
     3
  6
Continuous
370
    -3
390
F
  0
ENDTAB
  0
TABLE
  2
STYLE
  5
3
330
0
100
AcDbSymbolTable
 70
     2
  0
STYLE
  5
11
330
3
100
AcDbSymbolTableRecord
100
AcDbTextStyleTableRecord
  2
Standard
 70
     0
 40
0.0
 41
1.0
 50
0.0
 71
     0
 42
3.5
  3
txt
  4
bigfont
  0
STYLE
  5
14F
330
3
100
AcDbSymbolTableRecord
100
AcDbTextStyleTableRecord
  2
SLDTEXTSTYLE0
 70
     0
 40
0.0
 41
0.7
 50
0.0
 71
     0
 42
0.2
  3
TXT
  4
bigfont
  0
ENDTAB
  0
TABLE
  2
VIEW
  5
6
330
0
100
AcDbSymbolTable
 70
     0
  0
ENDTAB
  0
TABLE
  2
UCS
  5
7
330
0
100
AcDbSymbolTable
 70
     0
  0
ENDTAB
  0
TABLE
  2
APPID
  5
9
330
0
100
AcDbSymbolTable
 70
     1
  0
APPID
  5
12
330
9
100
AcDbSymbolTableRecord
100
AcDbRegAppTableRecord
  2
ACAD
 70
     0
  0
ENDTAB
  0
TABLE
  2
DIMSTYLE
  5
A
330
0
100
AcDbSymbolTable
 70
     3
100
AcDbDimStyleTable
  0
DIMSTYLE
105
27
330
A
100
AcDbSymbolTableRecord
100
AcDbDimStyleTableRecord
  2
ISO-25
 70
     0
 41
2.5
 42
0.625
 43
3.75
 44
1.25
 73
     0
 74
     0
 77
     1
 78
     8
140
2.5
141
2.5
143
0.0393700787
147
0.625
171
     3
172
     1
178
     0
271
     2
272
     2
274
     3
278
    44
283
     0
284
     8
340
11
  0
DIMSTYLE
105
150
102
{ACAD_REACTORS
330
14E
330
160
330
229
330
23D
102
}
330
A
100
AcDbSymbolTableRecord
100
AcDbDimStyleTableRecord
  2
SLDDIMSTYLE0
 70
     0
 41
2.0
 44
0.0
 45
0.000000001
 73
     0
 74
     0
 77
     3
 78
    12
 79
     3
140
2.7999999523
147
0.6999999881
173
     1
178
     0
271
     0
272
     0
276
     2
284
    12
340
14F
341
151
343
151
344
151
  0
DIMSTYLE
105
234
102
{ACAD_REACTORS
330
233
102
}
330
A
100
AcDbSymbolTableRecord
100
AcDbDimStyleTableRecord
  2
SLDDIMSTYLE1
 70
     0
 41
2.0
 44
0.0
 45
0.000000001
 73
     0
 74
     0
 77
     3
 78
    12
 79
     3
140
2.7999999523
147
0.6999999881
173
     1
178
     0
271
     0
272
     2
276
     2
284
    12
340
14F
341
151
343
151
344
151
  0
ENDTAB
  0
TABLE
  2
BLOCK_RECORD
  5
1
330
0
100
AcDbSymbolTable
 70
     7
  0
BLOCK_RECORD
  5
1F
330
1
100
AcDbSymbolTableRecord
100
AcDbBlockTableRecord
  2
*Model_Space
340
22
  0
BLOCK_RECORD
  5
1B
330
1
100
AcDbSymbolTableRecord
100
AcDbBlockTableRecord
  2
*Paper_Space
340
1E
  0
BLOCK_RECORD
  5
23
330
1
100
AcDbSymbolTableRecord
100
AcDbBlockTableRecord
  2
*Paper_Space0
340
26
  0
BLOCK_RECORD
  5
151
330
1
100
AcDbSymbolTableRecord
100
AcDbBlockTableRecord
  2
_OPEN30
340
0
102
{BLKREFS
331
15A
331
15B
331
164
331
165
331
22D
331
22E
331
238
331
239
331
241
331
242
102
}
  0
BLOCK_RECORD
  5
157
330
1
100
AcDbSymbolTableRecord
100
AcDbBlockTableRecord
  2
_D
340
0
  0
BLOCK_RECORD
  5
161
330
1
100
AcDbSymbolTableRecord
100
AcDbBlockTableRecord
  2
_D_1
340
0
  0
BLOCK_RECORD
  5
22A
330
1
100
AcDbSymbolTableRecord
100
AcDbBlockTableRecord
  2
_D_2
340
0
  0
BLOCK_RECORD
  5
235
330
1
100
AcDbSymbolTableRecord
100
AcDbBlockTableRecord
  2
_D_3
340
0
  0
BLOCK_RECORD
  5
23E
330
1
100
AcDbSymbolTableRecord
100
AcDbBlockTableRecord
  2
_D_4
340
0
  0
ENDTAB
  0
ENDSEC
  0
SECTION
  2
BLOCKS
  0
BLOCK
  5
20
330
1F
100
AcDbEntity
  8
0
100
AcDbBlockBegin
  2
*Model_Space
 70
     0
 10
0.0
 20
0.0
 30
0.0
  3
*Model_Space
  1

  0
ENDBLK
  5
21
330
1F
100
AcDbEntity
  8
0
100
AcDbBlockEnd
  0
BLOCK
  5
1C
330
1B
100
AcDbEntity
 67
     1
  8
0
100
AcDbBlockBegin
  2
*Paper_Space
 70
     0
 10
0.0
 20
0.0
 30
0.0
  3
*Paper_Space
  1

  0
ENDBLK
  5
1D
330
1B
100
AcDbEntity
 67
     1
  8
0
100
AcDbBlockEnd
  0
BLOCK
  5
24
330
23
100
AcDbEntity
  8
0
100
AcDbBlockBegin
  2
*Paper_Space0
 70
     0
 10
0.0
 20
0.0
 30
0.0
  3
*Paper_Space0
  1

  0
ENDBLK
  5
25
330
23
100
AcDbEntity
  8
0
100
AcDbBlockEnd
  0
BLOCK
  5
152
330
151
100
AcDbEntity
  8
0
100
AcDbBlockBegin
  2
_OPEN30
 70
     0
 10
0.0
 20
0.0
 30
0.0
  3
_OPEN30
  1

  0
LINE
  5
154
330
151
100
AcDbEntity
  8
0
  6
ByBlock
 62
     0
370
    -2
100
AcDbLine
 10
-1.0
 20
0.267949
 30
0.0
 11
0.0
 21
0.0
 31
0.0
  0
LINE
  5
155
330
151
100
AcDbEntity
  8
0
  6
ByBlock
 62
     0
370
    -2
100
AcDbLine
 10
0.0
 20
0.0
 30
0.0
 11
-1.0
 21
-0.267949
 31
0.0
  0
LINE
  5
156
330
151
100
AcDbEntity
  8
0
  6
ByBlock
 62
     0
370
    -2
100
AcDbLine
 10
0.0
 20
0.0
 30
0.0
 11
-1.0
 21
0.0
 31
0.0
  0
ENDBLK
  5
153
330
151
100
AcDbEntity
  8
0
100
AcDbBlockEnd
  0
BLOCK
  5
158
330
157
100
AcDbEntity
  8
0
100
AcDbBlockBegin
  2
_D
 70
     0
 10
0.0
 20
0.0
 30
0.0
  3
_D
  1

  0
INSERT
  5
15A
330
157
100
AcDbEntity
  8
SLD-0
 62
     5
100
AcDbBlockReference
  2
_OPEN30
 10
444.5330563194
 20
45.8677032991
 30
109.3
 41
2.0
 42
2.0
 50
270.0
  0
INSERT
  5
15B
330
157
100
AcDbEntity
  8
SLD-0
 62
     5
100
AcDbBlockReference
  2
_OPEN30
 10
444.5330563194
 20
117.5052771446
 30
109.3
 41
2.0
 42
2.0
 50
90.0
  0
LINE
  5
15C
330
157
100
AcDbEntity
  8
SLD-0
 62
     5
100
AcDbLine
 10
106.5330563194
 20
45.8677032991
 30
0.0
 11
445.5330563194
 21
45.8677032991
 31
0.0
  0
LINE
  5
15D
330
157
100
AcDbEntity
  8
SLD-0
 62
     5
100
AcDbLine
 10
334.0229844894
 20
117.5052771446
 30
0.0
 11
445.5330563194
 21
117.5052771446
 31
0.0
  0
LINE
  5
15E
330
157
100
AcDbEntity
  8
SLD-0
 62
     5
100
AcDbLine
 10
444.5330563194
 20
45.8677032991
 30
0.0
 11
444.5330563194
 21
117.5052771446
 31
0.0
  0
MTEXT
  5
15F
330
157
100
AcDbEntity
  8
SLD-0
 62
     5
100
AcDbMText
 10
440.9236668841
 20
80.0618950431
 30
0.0
 40
2.7999999523
 41
0.0
 71
     1
 72
     1
  1
72
  7
SLDTEXTSTYLE0
 11
6.123233995736766E-17
 21
1.0
 31
0.0
 73
     1
 44
1.0
  0
ENDBLK
  5
159
330
157
100
AcDbEntity
  8
0
100
AcDbBlockEnd
  0
BLOCK
  5
162
330
161
100
AcDbEntity
  8
0
100
AcDbBlockBegin
  2
_D_1
 70
     0
 10
0.0
 20
0.0
 30
0.0
  3
_D_1
  1

  0
INSERT
  5
164
330
161
100
AcDbEntity
  8
SLD-0
 62
     5
100
AcDbBlockReference
  2
_OPEN30
 10
462.5330563194
 20
45.8677032991
 30
109.3
 41
2.0
 42
2.0
 50
270.0
  0
INSERT
  5
165
330
161
100
AcDbEntity
  8
SLD-0
 62
     5
100
AcDbBlockReference
  2
_OPEN30
 10
462.5330563194
 20
385.8677032991
 30
109.3
 41
2.0
 42
2.0
 50
90.0
  0
LINE
  5
166
330
161
100
AcDbEntity
  8
SLD-0
 62
     5
100
AcDbLine
 10
400.5330563194
 20
45.8677032991
 30
0.0
 11
463.5330563194
 21
45.8677032991
 31
0.0
  0
LINE
  5
167
330
161
100
AcDbEntity
  8
SLD-0
 62
     5
100
AcDbLine
 10
428.5330563194
 20
385.8677032991
 30
0.0
 11
463.5330563194
 21
385.8677032991
 31
0.0
  0
LINE
  5
168
330
161
100
AcDbEntity
  8
SLD-0
 62
     5
100
AcDbLine
 10
462.5330563194
 20
45.8677032991
 30
0.0
 11
462.5330563194
 21
385.8677032991
 31
0.0
  0
MTEXT
  5
169
330
161
100
AcDbEntity
  8
SLD-0
 62
     5
100
AcDbMText
 10
458.9236668841
 20
213.4308105309
 30
0.0
 40
2.7999999523
 41
0.0
 71
     1
 72
     1
  1
340
  7
SLDTEXTSTYLE0
 11
6.123233995736766E-17
 21
1.0
 31
0.0
 73
     1
 44
1.0
  0
ENDBLK
  5
163
330
161
100
AcDbEntity
  8
0
100
AcDbBlockEnd
  0
BLOCK
  5
22B
330
22A
100
AcDbEntity
  8
0
100
AcDbBlockBegin
  2
_D_2
 70
     0
 10
0.0
 20
0.0
 30
0.0
  3
_D_2
  1

  0
INSERT
  5
22D
330
22A
100
AcDbEntity
  8
SLD-0
 62
     5
100
AcDbBlockReference
  2
_OPEN30
 10
300.6274519331
 20
832.4864398575
 30
0.1
 41
2.0
 42
2.0
 50
180.0
  0
INSERT
  5
22E
330
22A
100
AcDbEntity
  8
SLD-0
 62
     5
100
AcDbBlockReference
  2
_OPEN30
 10
365.6274519331
 20
832.4864398575
 30
0.1
 41
2.0
 42
2.0
 50
0.0
  0
LINE
  5
22F
330
22A
100
AcDbEntity
  8
SLD-0
 62
     5
100
AcDbLine
 10
300.6274519331
 20
815.5101348503
 30
0.0
 11
300.6274519331
 21
833.4864398575
 31
0.0
  0
LINE
  5
230
330
22A
100
AcDbEntity
  8
SLD-0
 62
     5
100
AcDbLine
 10
365.6274519331
 20
815.5101348503
 30
0.0
 11
365.6274519331
 21
833.4864398575
 31
0.0
  0
LINE
  5
231
330
22A
100
AcDbEntity
  8
SLD-0
 62
     5
100
AcDbLine
 10
300.6274519331
 20
832.4864398575
 30
0.0
 11
365.6274519331
 21
832.4864398575
 31
0.0
  0
MTEXT
  5
232
330
22A
100
AcDbEntity
  8
SLD-0
 62
     5
100
AcDbMText
 10
331.5028567543
 20
836.0958292927
 30
0.0
 40
2.7999999523
 41
0.0
 71
     1
 72
     1
  1
65
  7
SLDTEXTSTYLE0
 73
     1
 44
1.0
  0
ENDBLK
  5
22C
330
22A
100
AcDbEntity
  8
0
100
AcDbBlockEnd
  0
BLOCK
  5
236
330
235
100
AcDbEntity
  8
0
100
AcDbBlockBegin
  2
_D_3
 70
     0
 10
0.0
 20
0.0
 30
0.0
  3
_D_3
  1

  0
INSERT
  5
238
330
235
100
AcDbEntity
  8
SLD-0
100
AcDbBlockReference
  2
_OPEN30
 10
164.1274519331
 20
479.2056103855
 30
0.1
 41
2.0
 42
2.0
 50
180.0
  0
INSERT
  5
239
330
235
100
AcDbEntity
  8
SLD-0
100
AcDbBlockReference
  2
_OPEN30
 10
333.1274519331
 20
479.2056103855
 30
0.1
 41
2.0
 42
2.0
 50
0.0
  0
LINE
  5
23A
330
235
100
AcDbEntity
  8
SLD-0
100
AcDbLine
 10
164.1274519331
 20
494.0883523134
 30
0.0
 11
164.1274519331
 21
478.2056103855
 31
0.0
  0
LINE
  5
23B
330
235
100
AcDbEntity
  8
SLD-0
100
AcDbLine
 10
164.1274519331
 20
479.2056103855
 30
0.0
 11
333.1274519331
 21
479.2056103855
 31
0.0
  0
MTEXT
  5
23C
330
235
100
AcDbEntity
  8
SLD-0
100
AcDbMText
 10
245.3685630906
 20
482.8149998208
 30
0.1
 40
2.7999999523
 41
0.0
 71
     1
 72
     1
  1
169
  7
SLDTEXTSTYLE0
 73
     1
 44
1.0
  0
ENDBLK
  5
237
330
235
100
AcDbEntity
  8
0
100
AcDbBlockEnd
  0
BLOCK
  5
23F
330
23E
100
AcDbEntity
  8
0
100
AcDbBlockBegin
  2
_D_4
 70
     0
 10
0.0
 20
0.0
 30
0.0
  3
_D_4
  1

  0
INSERT
  5
241
330
23E
100
AcDbEntity
  8
SLD-0
 62
     5
100
AcDbBlockReference
  2
_OPEN30
 10
486.5330563194
 20
848.2191778924
 30
-53.3823718407
 41
2.0
 42
2.0
 50
90.0
  0
INSERT
  5
242
330
23E
100
AcDbEntity
  8
SLD-0
 62
     5
100
AcDbBlockReference
  2
_OPEN30
 10
486.5330563194
 20
514.2191778924
 30
-53.3823718407
 41
2.0
 42
2.0
 50
270.0
  0
LINE
  5
243
330
23E
100
AcDbEntity
  8
SLD-0
 62
     5
100
AcDbLine
 10
405.5330563194
 20
848.2191778924
 30
0.0
 11
487.5330563194
 21
848.2191778924
 31
0.0
  0
LINE
  5
244
330
23E
100
AcDbEntity
  8
SLD-0
 62
     5
100
AcDbLine
 10
405.5330563194
 20
514.2191778924
 30
0.0
 11
487.5330563194
 21
514.2191778924
 31
0.0
  0
LINE
  5
245
330
23E
100
AcDbEntity
  8
SLD-0
 62
     5
100
AcDbLine
 10
486.5330563194
 20
848.2191778924
 30
0.0
 11
486.5330563194
 21
514.2191778924
 31
0.0
  0
MTEXT
  5
246
330
23E
100
AcDbEntity
  8
SLD-0
 62
     5
100
AcDbMText
 10
482.9236668841
 20
678.7822851242
 30
0.0
 40
2.7999999523
 41
0.0
 71
     1
 72
     1
  1
334
  7
SLDTEXTSTYLE0
 11
-7.044195017643634E-15
 21
1.0
 31
0.0
 73
     1
 44
1.0
  0
ENDBLK
  5
240
330
23E
100
AcDbEntity
  8
0
100
AcDbBlockEnd
  0
ENDSEC
  0
SECTION
  2
ENTITIES
  0
LINE
  5
45
330
1F
100
AcDbEntity
  8
0
  6
HIDDEN
 62
     7
370
    15
100
AcDbLine
 10
406.4288851541
 20
99.4833841878
 30
0.0
 11
415.1404765171
 21
99.4833841878
 31
0.0
  0
LINE
  5
46
330
1F
100
AcDbEntity
  8
0
  6
HIDDEN
 62
     7
370
    15
100
AcDbLine
 10
415.1404765171
 20
139.4833795685
 30
0.0
 11
406.4268883985
 21
139.4833795685
 31
0.0
  0
ARC
  5
47
330
1F
100
AcDbEntity
  8
0
  6
Continuous
 62
     7
370
    15
100
AcDbCircle
 10
415.1404770328
 20
138.4833805074
 30
0.0
 40
1.0
100
AcDbArc
 50
0.0
 51
90.0
  0
ARC
  5
48
330
1F
100
AcDbEntity
  8
0
  6
Continuous
 62
     7
370
    15
100
AcDbCircle
 10
415.1404770328
 20
100.4833805074
 30
0.0
 40
1.0
100
AcDbArc
 50
270.0
 51
0.0
  0
LINE
  5
49
330
1F
100
AcDbEntity
  8
0
  6
HIDDEN
 62
     7
370
    15
100
AcDbLine
 10
399.5404806655
 20
150.7333800155
 30
0.0
 11
394.5404705328
 21
150.7333800155
 31
0.0
  0
LINE
  5
4A
330
1F
100
AcDbEntity
  8
0
  6
Continuous
 62
     7
370
    15
100
AcDbLine
 10
394.5404705328
 20
88.2333800155
 30
0.0
 11
399.5404806655
 21
88.2333800155
 31
0.0
  0
SPLINE
  5
4B
330
1F
100
AcDbEntity
  8
0
  6
Continuous
 62
     7
370
    15
100
AcDbSpline
210
0.0
220
0.0
230
1.0
 70
     8
 71
     3
 72
    14
 73
    10
 74
     0
 42
0.00000001
 43
0.00000001
 12
1.0
 22
0.0
 32
0.0
 13
1.0
 23
0.0
 33
0.0
 40
0.0
 40
0.0
 40
0.0
 40
0.0
 40
0.016049740389449
 40
0.1057879452642079
 40
0.2402175902315801
 40
0.4428370973598686
 40
0.6848511443775077
 40
0.9431675670552209
 40
1.0
 40
1.0
 40
1.0
 40
1.0
 10
399.900224499084
 20
88.38183283390138
 30
0.0
 10
399.8992163722599
 20
88.38153932838961
 30
0.0
 10
399.8925715504307
 20
88.37960475846765
 30
0.0
 10
399.9450492745825
 20
88.39225012730891
 30
0.0
 10
400.0922902406234
 20
88.4161841260748
 30
0.0
 10
400.4181500918555
 20
88.45507114198514
 30
0.0
 10
400.932878829098
 20
88.4890160560389
 30
0.0
 10
401.4109861688132
 20
88.50396264547139
 30
0.0
 10
401.6695678342522
 20
88.49693087925189
 30
0.0
 10
401.7161992114558
 20
88.49566280426119
 30
0.0
  0
SPLINE
  5
4C
330
1F
100
AcDbEntity
  8
0
  6
Continuous
 62
     7
370
    15
100
AcDbSpline
210
0.0
220
0.0
230
1.0
 70
     8
 71
     3
 72
    13
 73
     9
 74
     0
 42
0.00000001
 43
0.00000001
 12
1.0
 22
0.0
 32
0.0
 13
1.0
 23
0.0
 33
0.0
 40
0.0
 40
0.0
 40
0.0
 40
0.0
 40
0.0107573822078401
 40
0.285248264938852
 40
0.5643641090561166
 40
0.7999942779562546
 40
0.939147721869343
 40
0.9999999999999999
 40
0.9999999999999999
 40
0.9999999999999999
 40
0.9999999999999999
 10
401.5401419919505
 20
150.4680722910318
 30
0.0
 10
401.5317888049764
 20
150.4679679948215
 30
0.0
 10
401.3102914141579
 20
150.4652024230057
 30
0.0
 10
400.8662265796524
 20
150.4804105196911
 30
0.0
 10
400.3362558124442
 20
150.5194237976242
 30
0.0
 10
400.0315292768979
 20
150.5584332836617
 30
0.0
 10
399.9036868566829
 20
150.5841472484711
 30
0.0
 10
399.9043340303443
 20
150.5839911989585
 30
0.0
 10
399.904530934669
 20
150.5839437204752
 30
0.0
  0
ARC
  5
4D
330
1F
100
AcDbEntity
  8
0
  6
Continuous
 62
     7
370
    15
100
AcDbCircle
 10
403.5404770328
 20
89.4990095785
 30
0.0
 40
1.0
100
AcDbArc
 50
270.0
 51
0.0
  0
ARC
  5
4E
330
1F
100
AcDbEntity
  8
0
  6
Continuous
 62
     7
370
    15
100
AcDbCircle
 10
403.5404770328
 20
149.4677514363
 30
0.0
 40
1.0
100
AcDbArc
 50
0.0
 51
90.0
  0
LINE
  5
4F
330
1F
100
AcDbEntity
  8
0
  6
Continuous
 62
     7
370
    15
100
AcDbLine
 10
403.5404738706
 20
150.4677519161
 30
0.0
 11
401.5404698175
 21
150.4677519161
 31
0.0
  0
LINE
  5
50
330
1F
100
AcDbEntity
  8
0
  6
Continuous
 62
     7
370
    15
100
AcDbLine
 10
401.5404698175
 20
88.4990081149
 30
0.0
 11
403.5404738706
 21
88.4990081149
 31
0.0
  0
LWPOLYLINE
  5
51
330
1F
100
AcDbEntity
  8
0
  6
Continuous
 62
     7
370
    15
100
AcDbPolyline
 90
        5
 70
   128
 43
0.0
 10
404.5651075166
 20
141.3535162765
 10
404.5477327627
 20
141.1897599656
 10
404.7392722887
 20
140.5050404328
 10
405.096319012
 20
140.0064028758
 10
405.096319012
 20
140.0064066011
  0
SPLINE
  5
52
330
1F
100
AcDbEntity
  8
0
  6
Continuous
 62
     7
370
    15
100
AcDbSpline
210
0.0
220
0.0
230
1.0
 70
     8
 71
     3
 72
    18
 73
    14
 74
     0
 42
0.00000001
 43
0.00000001
 12
1.0
 22
0.0
 32
0.0
 13
1.0
 23
0.0
 33
0.0
 40
0.0
 40
0.0
 40
0.0
 40
0.0
 40
0.0994268644148671
 40
0.2312629302966588
 40
0.362431335993619
 40
0.5174432110756413
 40
0.7295143571324909
 40
0.8717685697830636
 40
0.9837839625771824
 40
0.9964969416655718
 40
0.9996066207649674
 40
0.9999913124999076
 40
1.0
 40
1.0
 40
1.0
 40
1.0
 10
406.4278569739833
 20
139.4983515101824
 30
0.0
 10
406.3038601998612
 20
139.5024839240577
 30
0.0
 10
406.0154486372563
 20
139.5120957542972
 30
0.0
 10
405.6057599684837
 20
139.668855155874
 30
0.0
 10
405.2211456977557
 20
139.9113056449593
 30
0.0
 10
404.8904970979344
 20
140.2502691484589
 30
0.0
 10
404.6709155227542
 20
140.6354344127746
 30
0.0
 10
404.5633375982398
 20
141.0193086565787
 30
0.0
 10
404.5419344022991
 20
141.2353473972309
 30
0.0
 10
404.5404981047211
 20
141.3413145464594
 30
0.0
 10
404.5404756164815
 20
141.3533395695814
 30
0.0
 10
404.5404758974092
 20
141.3565880634306
 30
0.0
 10
404.5404758971757
 20
141.3568119395538
 30
0.0
 10
404.5404758971706
 20
141.3568168836985
 30
0.0
  0
SPLINE
  5
53
330
1F
100
AcDbEntity
  8
0
  6
Continuous
 62
     7
370
    15
100
AcDbSpline
210
0.0
220
0.0
230
1.0
 70
     8
 71
     3
 72
    13
 73
     9
 74
     0
 42
0.00000001
 43
0.00000001
 12
1.0
 22
0.0
 32
0.0
 13
1.0
 23
0.0
 33
0.0
 40
0.0
 40
0.0
 40
0.0
 40
0.0
 40
0.0939051610536914
 40
0.4037439151828494
 40
0.5978057527411461
 40
0.7516656145517232
 40
0.9010855399115943
 40
1.0
 40
1.0
 40
1.0
 40
1.0
 10
404.5404758971706
 20
97.60994314731691
 30
0.0
 10
404.5434640245272
 20
97.68615807316472
 30
0.0
 10
404.5563114359418
 20
98.01384307164496
 30
0.0
 10
404.7353811600525
 20
98.5067437934844
 30
0.0
 10
405.1126688287209
 20
98.96933593488977
 30
0.0
 10
405.5437931225692
 20
99.27041493488665
 30
0.0
 10
405.9950343044065
 20
99.4578250385332
 30
0.0
 10
406.3057388749819
 20
99.45882404079364
 30
0.0
 10
406.4294961017146
 20
99.45922195495699
 30
0.0
  0
SPLINE
  5
54
330
1F
100
AcDbEntity
  8
0
  6
Continuous
 62
     7
370
    15
100
AcDbSpline
210
0.0
220
0.0
230
1.0
 70
     8
 71
     3
 72
    22
 73
    18
 74
     0
 42
0.00000001
 43
0.00000001
 12
1.0
 22
0.0
 32
0.0
 13
1.0
 23
0.0
 33
0.0
 40
0.0
 40
0.0
 40
0.0
 40
0.0
 40
0.222737390219345
 40
0.6670892309719967
 40
0.8725798096124004
 40
0.9749463727624833
 40
0.98784650424355
 40
0.9943875428754497
 40
0.9976474068637792
 40
0.999280112217866
 40
0.9996883019750749
 40
0.9998910910853541
 40
0.9999397345355623
 40
0.9999697057555806
 40
0.9999801721596117
 40
0.9999906385636427
 40
1.0
 40
1.0
 40
1.0
 40
1.0
 10
404.5769837420955
 20
97.66536801637743
 30
0.0
 10
404.5719978690411
 20
97.77751604845925
 30
0.0
 10
404.5570653863617
 20
98.11339474580238
 30
0.0
 10
404.7506173737875
 20
98.51910319559471
 30
0.0
 10
404.9517035149354
 20
98.80464624188748
 30
0.0
 10
405.0469615511909
 20
98.90986434118182
 30
0.0
 10
405.0834606099123
 20
98.94741061134494
 30
0.0
 10
405.0903039123481
 20
98.95429085644832
 30
0.0
 10
405.0937228126282
 20
98.95776066189804
 30
0.0
 10
405.0953287941977
 20
98.95936418943313
 30
0.0
 10
405.0959971876201
 20
98.96003083909527
 30
0.0
 10
405.0962113844754
 20
98.96022874189792
 30
0.0
 10
405.0962736292555
 20
98.96031993978005
 30
0.0
 10
405.0963272222073
 20
98.96034181419688
 30
0.0
 10
405.0963121429192
 20
98.96035288320675
 30
0.0
 10
405.0963429331067
 20
98.96036263554197
 30
0.0
 10
405.0963266838715
 20
98.9603614433745
 30
0.0
 10
405.0963190120235
 20
98.96036088050936
 30
0.0
  0
ARC
  5
55
330
1F
100
AcDbEntity
  8
0
  6
Continuous
 62
     7
370
    15
100
AcDbCircle
 10
399.5404770328
 20
149.7333805074
 30
0.0
 40
1.0
100
AcDbArc
 50
62.1047029884
 51
90.0
  0
LWPOLYLINE
  5
56
330
1F
100
AcDbEntity
  8
0
  6
Continuous
 62
     7
370
    15
100
AcDbPolyline
 90
        3
 70
   128
 43
0.0
 10
399.5404806655
 20
88.2333800155
 10
399.7355666679
 20
88.2525950629
 10
399.8470422548
 20
88.2815331179
  0
LINE
  5
57
330
1F
100
AcDbEntity
  8
0
  6
Continuous
 62
     7
370
    15
100
AcDbLine
 10
369.5330586952
 20
48.8677084404
 30
0.0
 11
369.5330586952
 21
45.8677023608
 31
0.0
  0
LINE
  5
58
330
1F
100
AcDbEntity
  8
0
  6
Continuous
 62
     7
370
    15
100
AcDbLine
 10
399.5330598873
 20
45.8677023608
 30
0.0
 11
399.5330598873
 21
48.8677084404
 31
0.0
  0
LINE
  5
59
330
1F
100
AcDbEntity
  8
0
  6
Continuous
 62
     7
370
    15
100
AcDbLine
 10
75.5330589336
 20
48.8677084404
 30
0.0
 11
75.5330589336
 21
45.8677023608
 31
0.0
  0
LINE
  5
5A
330
1F
100
AcDbEntity
  8
0
  6
Continuous
 62
     7
370
    15
100
AcDbLine
 10
105.5330564004
 20
45.8677023608
 30
0.0
 11
105.5330564004
 21
48.8677084404
 31
0.0
  0
LINE
  5
5B
330
1F
100
AcDbEntity
  8
0
  6
Continuous
 62
     7
370
    15
100
AcDbLine
 10
427.5368717235
 20
125.5025923211
 30
0.0
 11
427.5330570262
 21
125.5624651867
 31
0.0
  0
LINE
  5
5C
330
1F
100
AcDbEntity
  8
0
  6
Continuous
 62
     7
370
    15
100
AcDbLine
 10
427.7771082443
 20
118.132098015
 30
0.0
 11
427.5368717235
 21
125.5025923211
 31
0.0
  0
LINE
  5
5D
330
1F
100
AcDbEntity
  8
0
  6
Continuous
 62
     7
370
    15
100
AcDbLine
 10
427.8596606773
 20
113.2352709729
 30
0.0
 11
427.7771082443
 21
118.132098015
 31
0.0
  0
LINE
  5
5E
330
1F
100
AcDbEntity
  8
0
  6
Continuous
 62
     7
370
    15
100
AcDbLine
 10
427.7020063919
 20
115.7089233357
 30
0.0
 11
427.8596606773
 21
113.2352709729
 31
0.0
  0
LINE
  5
5F
330
1F
100
AcDbEntity
  8
0
  6
Continuous
 62
     7
370
    15
100
AcDbLine
 10
427.5330570262
 20
120.8924114663
 30
0.0
 11
427.7020063919
 21
115.7089233357
 31
0.0
  0
LINE
  5
60
330
1F
100
AcDbEntity
  8
0
  6
Continuous
 62
     7
370
    15
100
AcDbLine
 10
427.7020063919
 20
115.7089233357
 30
0.0
 11
427.5330570262
 21
115.7037898857
 31
0.0
  0
LINE
  5
61
330
1F
100
AcDbEntity
  8
0
  6
Continuous
 62
     7
370
    15
100
AcDbLine
 10
427.8596606773
 20
113.2352709729
 30
0.0
 11
427.5330570262
 21
113.2253467995
 31
0.0
  0
LINE
  5
62
330
1F
100
AcDbEntity
  8
0
  6
HIDDEN
 62
     7
370
    15
100
AcDbLine
 10
394.5404705328
 20
128.7913307506
 30
0.0
 11
394.5404705328
 21
110.1754292804
 31
0.0
  0
LINE
  5
63
330
1F
100
AcDbEntity
  8
0
  6
HIDDEN
 62
     7
370
    15
100
AcDbLine
 10
404.5404758972
 20
127.9833823401
 30
0.0
 11
404.5404758972
 21
110.9833776909
 31
0.0
  0
SPLINE
  5
64
330
1F
100
AcDbEntity
  8
0
  6
Continuous
 62
     7
370
    15
100
AcDbSpline
210
0.0
220
0.0
230
1.0
 70
     8
 71
     3
 72
     9
 73
     5
 74
     0
 42
0.00000001
 43
0.00000001
 12
1.0
 22
0.0
 32
0.0
 13
1.0
 23
0.0
 33
0.0
 40
0.0
 40
0.0
 40
0.0
 40
0.0
 40
0.7492132811166666
 40
1.0
 40
1.0
 40
1.0
 40
1.0
 10
401.5404698174968
 20
109.9833831149492
 30
0.0
 10
401.4939558389324
 20
109.9816520636756
 30
0.0
 10
401.4318720775567
 20
109.9793415717005
 30
0.0
 10
401.3756153193615
 20
109.9696645702404
 30
0.0
 10
401.3615068715587
 20
109.9672377067957
 30
0.0
  0
SPLINE
  5
65
330
1F
100
AcDbEntity
  8
0
  6
Continuous
 62
     7
370
    15
100
AcDbSpline
210
0.0
220
0.0
230
1.0
 70
     8
 71
     3
 72
     9
 73
     5
 74
     0
 42
0.00000001
 43
0.00000001
 12
1.0
 22
0.0
 32
0.0
 13
1.0
 23
0.0
 33
0.0
 40
0.0
 40
0.0
 40
0.0
 40
0.0
 40
0.7494684678927968
 40
1.0
 40
1.0
 40
1.0
 40
1.0
 10
401.3615068715587
 20
128.9995223242197
 30
0.0
 10
401.4050491816997
 20
128.9930163279556
 30
0.0
 10
401.4631467695322
 20
128.9843355140951
 30
0.0
 10
401.5249789152872
 20
128.9835689616297
 30
0.0
 10
401.5404698174968
 20
128.9833769160662
 30
0.0
  0
LINE
  5
66
330
1F
100
AcDbEntity
  8
0
  6
Continuous
 62
     7
370
    15
100
AcDbLine
 10
403.5404738706
 20
109.9833831149
 30
0.0
 11
401.5404698175
 21
109.9833831149
 31
0.0
  0
LINE
  5
67
330
1F
100
AcDbEntity
  8
0
  6
Continuous
 62
     7
370
    15
100
AcDbLine
 10
401.5404698175
 20
128.9833769161
 30
0.0
 11
403.5404738706
 21
128.9833769161
 31
0.0
  0
ARC
  5
68
330
1F
100
AcDbEntity
  8
0
  6
Continuous
 62
     7
370
    15
100
AcDbCircle
 10
403.5404770328
 20
127.9833805074
 30
0.0
 40
1.0
100
AcDbArc
 50
0.0
 51
90.0
  0
ARC
  5
69
330
1F
100
AcDbEntity
  8
0
  6
Continuous
 62
     7
370
    15
100
AcDbCircle
 10
403.5404770328
 20
110.9833805074
 30
0.0
 40
1.0
100
AcDbArc
 50
270.0
 51
0.0
  0
ARC
  5
6A
330
1F
100
AcDbEntity
  8
0
  6
Continuous
 62
     7
370
    15
100
AcDbCircle
 10
401.5404770328
 20
129.9833805074
 30
0.0
 40
1.000000000000005
100
AcDbArc
 50
180.0
 51
259.6902484604
  0
LINE
  5
6B
330
1F
100
AcDbEntity
  8
0
  6
Continuous
 62
     7
370
    15
100
AcDbLine
 10
394.5404705328
 20
143.7228418845
 30
0.0
 11
394.5404705328
 21
128.7913307506
 31
0.0
  0
ARC
  5
6C
330
1F
100
AcDbEntity
  8
0
  6
Continuous
 62
     7
370
    15
100
AcDbCircle
 10
401.5404770328
 20
108.9833805074
 30
0.0
 40
1.0
100
AcDbArc
 50
100.3097515396
 51
180.0
  0
LINE
  5
6D
330
1F
100
AcDbEntity
  8
0
  6
Continuous
 62
     7
370
    15
100
AcDbLine
 10
394.5404705328
 20
110.1754292804
 30
0.0
 11
394.5404705328
 21
95.2439144212
 31
0.0
  0
LINE
  5
6E
330
1F
100
AcDbEntity
  8
0
  6
Continuous
 62
     7
370
    15
100
AcDbLine
 10
400.5404826921
 20
142.947180565
 30
0.0
 11
400.5404826921
 21
129.9833789426
 31
0.0
  0
LINE
  5
6F
330
1F
100
AcDbEntity
  8
0
  6
HIDDEN
 62
     7
370
    15
100
AcDbLine
 10
400.5404826921
 20
108.9833810884
 30
0.0
 11
400.5404826921
 21
96.019579466
 31
0.0
  0
LINE
  5
70
330
1F
100
AcDbEntity
  8
0
  6
HIDDEN
 62
     7
370
    15
100
AcDbLine
 10
416.1404636425
 20
138.4833812672
 30
0.0
 11
416.1404636425
 21
100.4833787638
 31
0.0
  0
LINE
  5
71
330
1F
100
AcDbEntity
  8
0
  6
Continuous
 62
     7
370
    15
100
AcDbLine
 10
394.5404705328
 20
150.7333800155
 30
0.0
 11
394.5404705328
 21
143.7228418845
 31
0.0
  0
LINE
  5
72
330
1F
100
AcDbEntity
  8
0
  6
Continuous
 62
     7
370
    15
100
AcDbLine
 10
394.5404705328
 20
95.2439144212
 30
0.0
 11
394.5404705328
 21
88.2333800155
 31
0.0
  0
LINE
  5
73
330
1F
100
AcDbEntity
  8
0
  6
HIDDEN
 62
     7
370
    15
100
AcDbLine
 10
400.5404826921
 20
148.2029281515
 30
0.0
 11
400.5404826921
 21
142.947180565
 31
0.0
  0
LINE
  5
74
330
1F
100
AcDbEntity
  8
0
  6
Continuous
 62
     7
370
    15
100
AcDbLine
 10
400.5404826921
 20
96.019579466
 30
0.0
 11
400.5404826921
 21
90.7638281542
 31
0.0
  0
LINE
  5
75
330
1F
100
AcDbEntity
  8
0
  6
Continuous
 62
     7
370
    15
100
AcDbLine
 10
404.5404758972
 20
98.8012611824
 30
0.0
 11
404.5404758972
 21
90.1778772432
 31
0.0
  0
LINE
  5
76
330
1F
100
AcDbEntity
  8
0
  6
Continuous
 62
     7
370
    15
100
AcDbLine
 10
404.5404758972
 20
148.7888827878
 30
0.0
 11
404.5404758972
 21
140.1654988486
 31
0.0
  0
LINE
  5
77
330
1F
100
AcDbEntity
  8
0
  6
Continuous
 62
     7
370
    15
100
AcDbLine
 10
404.5404758972
 20
149.4677498895
 30
0.0
 11
404.5404758972
 21
148.7888827878
 31
0.0
  0
LINE
  5
78
330
1F
100
AcDbEntity
  8
0
  6
Continuous
 62
     7
370
    15
100
AcDbLine
 10
404.5404758972
 20
90.1778772432
 30
0.0
 11
404.5404758972
 21
89.4990101415
 31
0.0
  0
LINE
  5
79
330
1F
100
AcDbEntity
  8
0
  6
Continuous
 62
     7
370
    15
100
AcDbLine
 10
401.5404698175
 20
88.5077923495
 30
0.0
 11
401.5404698175
 21
88.4990081149
 31
0.0
  0
LINE
  5
7A
330
1F
100
AcDbEntity
  8
0
  6
Continuous
 62
     7
370
    15
100
AcDbLine
 10
401.5404698175
 20
150.4589714068
 30
0.0
 11
401.5404698175
 21
150.4677519161
 31
0.0
  0
LINE
  5
7B
330
1F
100
AcDbEntity
  8
0
  6
HIDDEN
 62
     7
370
    15
100
AcDbLine
 10
371.0967567485
 20
108.1973224837
 30
0.0
 11
352.7463492673
 21
93.2658150751
 31
0.0
  0
ARC
  5
7C
330
1F
100
AcDbEntity
  8
0
  6
HIDDEN
 62
     7
370
    15
100
AcDbCircle
 10
333.0229844894
 20
117.5052771446
 30
0.0
 40
31.25000000000004
100
AcDbArc
 50
230.8651631367
 51
309.1348368633
  0
LINE
  5
7D
330
1F
100
AcDbEntity
  8
0
  6
HIDDEN
 62
     7
370
    15
100
AcDbLine
 10
313.299622826
 20
93.2658150751
 30
0.0
 11
294.9492153448
 21
108.1973224837
 31
0.0
  0
ARC
  5
7E
330
1F
100
AcDbEntity
  8
0
  6
HIDDEN
 62
     7
370
    15
100
AcDbCircle
 10
302.5229844894
 20
117.5052771446
 30
0.0
 40
12.0
100
AcDbArc
 50
129.1348368633
 51
230.8651631367
  0
LINE
  5
7F
330
1F
100
AcDbEntity
  8
0
  6
HIDDEN
 62
     7
370
    15
100
AcDbLine
 10
294.9492153448
 20
126.8132314044
 30
0.0
 11
313.299622826
 21
141.7447388131
 31
0.0
  0
ARC
  5
80
330
1F
100
AcDbEntity
  8
0
  6
HIDDEN
 62
     7
370
    15
100
AcDbCircle
 10
333.0229844894
 20
117.5052771446
 30
0.0
 40
31.25000000000002
100
AcDbArc
 50
50.8651631367
 51
129.1348368633
  0
LINE
  5
81
330
1F
100
AcDbEntity
  8
0
  6
Continuous
 62
     7
370
    15
100
AcDbLine
 10
352.7463492673
 20
141.7447388131
 30
0.0
 11
371.0967567485
 21
126.8132314044
 31
0.0
  0
ARC
  5
82
330
1F
100
AcDbEntity
  8
0
  6
HIDDEN
 62
     7
370
    15
100
AcDbCircle
 10
363.5229844894
 20
117.5052771446
 30
0.0
 40
11.99999999999999
100
AcDbArc
 50
309.1348368633
 51
50.8651631367
  0
CIRCLE
  5
83
330
1F
100
AcDbEntity
  8
0
  6
HIDDEN
 62
     7
370
    15
100
AcDbCircle
 10
333.0229844894
 20
117.5052771446
 30
0.0
 40
17.00000000000006
  0
LINE
  5
84
330
1F
100
AcDbEntity
  8
0
  6
Continuous
 62
     7
370
    15
100
AcDbLine
 10
366.0229858678
 20
112.5052779871
 30
0.0
 11
365.0229838413
 21
112.5052779871
 31
0.0
  0
ARC
  5
85
330
1F
100
AcDbEntity
  8
0
  6
Continuous
 62
     7
370
    15
100
AcDbCircle
 10
365.0227698995
 20
117.5052769441
 30
0.0
 40
4.999998961495825
100
AcDbArc
 50
89.9975484075
 51
270.0024515925
  0
LINE
  5
86
330
1F
100
AcDbEntity
  8
0
  6
Continuous
 62
     7
370
    15
100
AcDbLine
 10
365.0229838413
 20
122.505275901
 30
0.0
 11
366.0229858678
 21
122.505275901
 31
0.0
  0
ARC
  5
87
330
1F
100
AcDbEntity
  8
0
  6
Continuous
 62
     7
370
    15
100
AcDbCircle
 10
366.0231898761
 20
117.5052769441
 30
0.0
 40
4.999998961080655
100
AcDbArc
 50
269.9976622368
 51
90.0023377632
  0
LINE
  5
88
330
1F
100
AcDbEntity
  8
0
  6
Continuous
 62
     7
370
    15
100
AcDbLine
 10
301.022988252
 20
122.505275901
 30
0.0
 11
300.0229862255
 21
122.505275901
 31
0.0
  0
ARC
  5
89
330
1F
100
AcDbEntity
  8
0
  6
Continuous
 62
     7
370
    15
100
AcDbCircle
 10
301.0231922603
 20
117.5052769441
 30
0.0
 40
4.999998961080655
100
AcDbArc
 50
269.9976622368
 51
90.0023377632
  0
LINE
  5
8A
330
1F
100
AcDbEntity
  8
0
  6
Continuous
 62
     7
370
    15
100
AcDbLine
 10
300.0229862255
 20
112.5052779871
 30
0.0
 11
301.022988252
 21
112.5052779871
 31
0.0
  0
ARC
  5
8B
330
1F
100
AcDbEntity
  8
0
  6
Continuous
 62
     7
370
    15
100
AcDbCircle
 10
300.0227722837
 20
117.5052769441
 30
0.0
 40
4.999998961495825
100
AcDbArc
 50
89.9975484075
 51
270.0024515925
  0
CIRCLE
  5
8C
330
1F
100
AcDbEntity
  8
0
  6
HIDDEN
 62
     7
370
    15
100
AcDbCircle
 10
333.0229844894
 20
117.5052771446
 30
0.0
 40
15.00000000000006
  0
LINE
  5
8D
330
1F
100
AcDbEntity
  8
0
  6
Continuous
 62
     7
370
    15
100
AcDbLine
 10
92.6274549883
 20
160.7751812744
 30
0.0
 11
92.6274549883
 21
150.9602278429
 31
0.0
  0
LINE
  5
8E
330
1F
100
AcDbEntity
  8
0
  6
Continuous
 62
     7
370
    15
100
AcDbLine
 10
101.1274535876
 20
165.6826570589
 30
0.0
 11
92.6274549883
 21
160.7751812744
 31
0.0
  0
LINE
  5
8F
330
1F
100
AcDbEntity
  8
0
  6
Continuous
 62
     7
370
    15
100
AcDbLine
 10
109.6274521869
 20
160.7751812744
 30
0.0
 11
101.1274535876
 21
165.6826570589
 31
0.0
  0
LINE
  5
90
330
1F
100
AcDbEntity
  8
0
  6
Continuous
 62
     7
370
    15
100
AcDbLine
 10
109.6274521869
 20
150.9602278429
 30
0.0
 11
109.6274521869
 21
160.7751812744
 31
0.0
  0
LINE
  5
91
330
1F
100
AcDbEntity
  8
0
  6
Continuous
 62
     7
370
    15
100
AcDbLine
 10
101.1274535876
 20
146.0527501959
 30
0.0
 11
109.6274521869
 21
150.9602278429
 31
0.0
  0
LINE
  5
92
330
1F
100
AcDbEntity
  8
0
  6
Continuous
 62
     7
370
    15
100
AcDbLine
 10
92.6274549883
 20
150.9602278429
 30
0.0
 11
101.1274535876
 21
146.0527501959
 31
0.0
  0
ARC
  5
93
330
1F
100
AcDbEntity
  8
0
  6
Continuous
 62
     7
370
    15
100
AcDbCircle
 10
101.1153347052
 20
155.9161722105
 30
0.0
 40
10.00000000000001
100
AcDbArc
 50
105.7418453126
 51
180.0
  0
ARC
  5
94
330
1F
100
AcDbEntity
  8
0
  6
Continuous
 62
     7
370
    15
100
AcDbCircle
 10
101.1153347052
 20
155.9161722105
 30
0.0
 40
10.00000000000001
100
AcDbArc
 50
180.0
 51
74.2132931922
  0
LINE
  5
95
330
1F
100
AcDbEntity
  8
0
  6
Continuous
 62
     7
370
    15
100
AcDbLine
 10
155.6274518107
 20
155.7751804549
 30
0.0
 11
155.6274518107
 21
145.9602251607
 31
0.0
  0
LINE
  5
96
330
1F
100
AcDbEntity
  8
0
  6
Continuous
 62
     7
370
    15
100
AcDbLine
 10
164.1274519234
 20
160.6826581019
 30
0.0
 11
155.6274518107
 21
155.7751804549
 31
0.0
  0
LINE
  5
97
330
1F
100
AcDbEntity
  8
0
  6
Continuous
 62
     7
370
    15
100
AcDbLine
 10
172.6274522689
 20
145.9602251607
 30
0.0
 11
172.6274522689
 21
155.7751804549
 31
0.0
  0
LINE
  5
98
330
1F
100
AcDbEntity
  8
0
  6
Continuous
 62
     7
370
    15
100
AcDbLine
 10
172.6274522689
 20
155.7751804549
 30
0.0
 11
164.1274519234
 21
160.6826581019
 31
0.0
  0
LINE
  5
99
330
1F
100
AcDbEntity
  8
0
  6
Continuous
 62
     7
370
    15
100
AcDbLine
 10
155.6274518107
 20
145.9602251607
 30
0.0
 11
164.1274519234
 21
141.0527475137
 31
0.0
  0
LINE
  5
9A
330
1F
100
AcDbEntity
  8
0
  6
Continuous
 62
     7
370
    15
100
AcDbLine
 10
164.1274519234
 20
141.0527475137
 30
0.0
 11
172.6274522689
 21
145.9602251607
 31
0.0
  0
CIRCLE
  5
9B
330
1F
100
AcDbEntity
  8
0
  6
Continuous
 62
     7
370
    15
100
AcDbCircle
 10
164.1153347052
 20
150.9161722105
 30
0.0
 40
10.0
  0
LINE
  5
9C
330
1F
100
AcDbEntity
  8
0
  6
Continuous
 62
     7
370
    15
100
AcDbLine
 10
101.1274535876
 20
227.6826560456
 30
0.0
 11
92.6274549883
 21
222.7751802612
 31
0.0
  0
LINE
  5
9D
330
1F
100
AcDbEntity
  8
0
  6
Continuous
 62
     7
370
    15
100
AcDbLine
 10
109.6274521869
 20
222.7751802612
 30
0.0
 11
101.1274535876
 21
227.6826560456
 31
0.0
  0
LINE
  5
9E
330
1F
100
AcDbEntity
  8
0
  6
Continuous
 62
     7
370
    15
100
AcDbLine
 10
92.6274549883
 20
222.7751802612
 30
0.0
 11
92.6274549883
 21
212.9602268297
 31
0.0
  0
LINE
  5
9F
330
1F
100
AcDbEntity
  8
0
  6
Continuous
 62
     7
370
    15
100
AcDbLine
 10
109.6274521869
 20
212.9602268297
 30
0.0
 11
109.6274521869
 21
222.7751802612
 31
0.0
  0
LINE
  5
A0
330
1F
100
AcDbEntity
  8
0
  6
Continuous
 62
     7
370
    15
100
AcDbLine
 10
92.6274549883
 20
212.9602268297
 30
0.0
 11
101.1274535876
 21
208.0527491826
 31
0.0
  0
LINE
  5
A1
330
1F
100
AcDbEntity
  8
0
  6
Continuous
 62
     7
370
    15
100
AcDbLine
 10
101.1274535876
 20
208.0527491826
 30
0.0
 11
109.6274521869
 21
212.9602268297
 31
0.0
  0
ARC
  5
A2
330
1F
100
AcDbEntity
  8
0
  6
Continuous
 62
     7
370
    15
100
AcDbCircle
 10
101.1153347052
 20
217.9161722105
 30
0.0
 40
9.999999999999993
100
AcDbArc
 50
284.3117379174
 51
180.0
  0
ARC
  5
A3
330
1F
100
AcDbEntity
  8
0
  6
Continuous
 62
     7
370
    15
100
AcDbCircle
 10
101.1153347052
 20
217.9161722105
 30
0.0
 40
9.999999999999986
100
AcDbArc
 50
180.0
 51
255.7329835137
  0
LINE
  5
A4
330
1F
100
AcDbEntity
  8
0
  6
Continuous
 62
     7
370
    15
100
AcDbLine
 10
155.6274518107
 20
227.7751810807
 30
0.0
 11
155.6274518107
 21
217.9602257866
 31
0.0
  0
LINE
  5
A5
330
1F
100
AcDbEntity
  8
0
  6
Continuous
 62
     7
370
    15
100
AcDbLine
 10
164.1274519234
 20
213.0527481395
 30
0.0
 11
172.6274522689
 21
217.9602257866
 31
0.0
  0
LINE
  5
A6
330
1F
100
AcDbEntity
  8
0
  6
Continuous
 62
     7
370
    15
100
AcDbLine
 10
164.1274519234
 20
232.6826587278
 30
0.0
 11
155.6274518107
 21
227.7751810807
 31
0.0
  0
LINE
  5
A7
330
1F
100
AcDbEntity
  8
0
  6
Continuous
 62
     7
370
    15
100
AcDbLine
 10
155.6274518107
 20
217.9602257866
 30
0.0
 11
164.1274519234
 21
213.0527481395
 31
0.0
  0
LINE
  5
A8
330
1F
100
AcDbEntity
  8
0
  6
Continuous
 62
     7
370
    15
100
AcDbLine
 10
172.6274522689
 20
217.9602257866
 30
0.0
 11
172.6274522689
 21
227.7751810807
 31
0.0
  0
LINE
  5
A9
330
1F
100
AcDbEntity
  8
0
  6
Continuous
 62
     7
370
    15
100
AcDbLine
 10
172.6274522689
 20
227.7751810807
 30
0.0
 11
164.1274519234
 21
232.6826587278
 31
0.0
  0
CIRCLE
  5
AA
330
1F
100
AcDbEntity
  8
0
  6
Continuous
 62
     7
370
    15
100
AcDbCircle
 10
164.1153347052
 20
222.9161722105
 30
0.0
 40
10.00000000000011
  0
CIRCLE
  5
AB
330
1F
100
AcDbEntity
  8
0
  6
Continuous
 62
     7
370
    15
100
AcDbCircle
 10
164.1274519331
 20
186.8677032991
 30
0.0
 40
18.0
  0
CIRCLE
  5
AC
330
1F
100
AcDbEntity
  8
0
  6
Continuous
 62
     7
370
    15
100
AcDbCircle
 10
164.1274519331
 20
186.8677032991
 30
0.0
 40
25.5
  0
CIRCLE
  5
AD
330
1F
100
AcDbEntity
  8
0
  6
Continuous
 62
     7
370
    15
100
AcDbCircle
 10
164.1274519331
 20
186.8677032991
 30
0.0
 40
15.0
  0
SPLINE
  5
AE
330
1F
100
AcDbEntity
  8
0
  6
Continuous
 62
     7
370
    15
100
AcDbSpline
210
0.0
220
0.0
230
1.0
 70
     8
 71
     3
 72
    11
 73
     7
 74
     0
 42
0.00000001
 43
0.00000001
 12
1.0
 22
0.0
 32
0.0
 13
1.0
 23
0.0
 33
0.0
 40
0.0
 40
0.0
 40
0.0
 40
0.0
 40
0.0041140553965432
 40
0.2677558821694976
 40
0.7284177328455822
 40
0.9999999999999999
 40
0.9999999999999999
 40
0.9999999999999999
 40
0.9999999999999999
 10
176.6684357744231
 20
164.6646916824732
 30
0.0
 10
176.6650657561763
 20
164.6627850586968
 30
0.0
 10
176.4457341911806
 20
164.5386958858511
 30
0.0
 10
175.8768335809393
 20
164.1545946284515
 30
0.0
 10
175.1761554506294
 20
163.4645027262061
 30
0.0
 10
174.7969116194335
 20
162.7967617299608
 30
0.0
 10
174.6562537473216
 20
162.549103047267
 30
0.0
  0
SPLINE
  5
AF
330
1F
100
AcDbEntity
  8
0
  6
Continuous
 62
     7
370
    15
100
AcDbSpline
210
0.0
220
0.0
230
1.0
 70
     8
 71
     3
 72
    11
 73
     7
 74
     0
 42
0.00000001
 43
0.00000001
 12
1.0
 22
0.0
 32
0.0
 13
1.0
 23
0.0
 33
0.0
 40
0.0
 40
0.0
 40
0.0
 40
0.0
 40
0.2715821583998008
 40
0.7322440840794499
 40
0.9958861755507588
 40
1.0
 40
1.0
 40
1.0
 40
1.0
 10
153.5986498665586
 20
162.549103047267
 30
0.0
 10
153.4579920463312
 20
162.7967614853502
 30
0.0
 10
153.0787482206402
 20
163.4645020586902
 30
0.0
 10
152.3780774410125
 20
164.154600678432
 30
0.0
 10
151.8091621033488
 20
164.5386888321821
 30
0.0
 10
151.5898384774449
 20
164.6627850576112
 30
0.0
 10
151.5864687707796
 20
164.6646916824732
 30
0.0
  0
SPLINE
  5
B0
330
1F
100
AcDbEntity
  8
0
  6
Continuous
 62
     7
370
    15
100
AcDbSpline
210
0.0
220
0.0
230
1.0
 70
     8
 71
     3
 72
    11
 73
     7
 74
     0
 42
0.00000001
 43
0.00000001
 12
1.0
 22
0.0
 32
0.0
 13
1.0
 23
0.0
 33
0.0
 40
0.0
 40
0.0
 40
0.0
 40
0.0
 40
0.0041140869759515
 40
0.2677558899973447
 40
0.7284178319855362
 40
1.0
 40
1.0
 40
1.0
 40
1.0
 10
151.5864687707796
 20
209.0707145589743
 30
0.0
 10
151.5898384756768
 20
209.0726218088793
 30
0.0
 10
151.8091479698756
 20
209.1967507829983
 30
0.0
 10
152.3780895766189
 20
209.5807782626899
 30
0.0
 10
153.0787462436907
 20
210.2709087424474
 30
0.0
 10
153.4579915114735
 20
210.9386459897077
 30
0.0
 10
153.5986498665586
 20
211.1863031941805
 30
0.0
  0
SPLINE
  5
B1
330
1F
100
AcDbEntity
  8
0
  6
Continuous
 62
     7
370
    15
100
AcDbSpline
210
0.0
220
0.0
230
1.0
 70
     8
 71
     3
 72
    11
 73
     7
 74
     0
 42
0.00000001
 43
0.00000001
 12
1.0
 22
0.0
 32
0.0
 13
1.0
 23
0.0
 33
0.0
 40
0.0
 40
0.0
 40
0.0
 40
0.0
 40
0.2715822767731624
 40
0.7322441437647039
 40
0.9958856820914902
 40
1.0
 40
1.0
 40
1.0
 40
1.0
 10
174.6562537473216
 20
211.1863031941805
 30
0.0
 10
174.7969121542526
 20
210.9386457450634
 30
0.0
 10
175.1761574274354
 20
210.2709080748061
 30
0.0
 10
175.8768214462063
 20
209.5807843134501
 30
0.0
 10
176.4457483235878
 20
209.1967437283914
 30
0.0
 10
176.6650657579443
 20
209.0726218077939
 30
0.0
 10
176.6684357744231
 20
209.0707145589743
 30
0.0
  0
LINE
  5
B2
330
1F
100
AcDbEntity
  8
0
  6
Continuous
 62
     7
370
    15
100
AcDbLine
 10
174.1274515834
 20
160.3111609775
 30
0.0
 11
174.1274515834
 21
147.3993606824
 31
0.0
  0
ARC
  5
B3
330
1F
100
AcDbEntity
  8
0
  6
Continuous
 62
     7
370
    15
100
AcDbCircle
 10
173.1274519331
 20
147.3993615553
 30
0.0
 40
1.000000000000021
100
AcDbArc
 50
317.1181602527
 51
360.0
  0
ARC
  5
B4
330
1F
100
AcDbEntity
  8
0
  6
Continuous
 62
     7
370
    15
100
AcDbCircle
 10
130.6274519331
 20
186.8677032991
 30
0.0
 40
59.00000000000003
100
AcDbArc
 50
314.9252270016
 51
317.1181602527
  0
ARC
  5
B5
330
1F
100
AcDbEntity
  8
0
  6
Continuous
 62
     7
370
    15
100
AcDbCircle
 10
164.1274519331
 20
150.8677032991
 30
0.0
 40
10.00000000000003
100
AcDbArc
 50
215.2658422964
 51
324.7341577036
  0
ARC
  5
B6
330
1F
100
AcDbEntity
  8
0
  6
Continuous
 62
     7
370
    15
100
AcDbCircle
 10
197.6274519331
 20
186.8677032991
 30
0.0
 40
59.00000000000002
100
AcDbArc
 50
222.8818397473
 51
225.0747729984
  0
ARC
  5
B7
330
1F
100
AcDbEntity
  8
0
  6
Continuous
 62
     7
370
    15
100
AcDbCircle
 10
155.1274519331
 20
147.3993615553
 30
0.0
 40
1.0
100
AcDbArc
 50
180.0
 51
222.8818397473
  0
LINE
  5
B8
330
1F
100
AcDbEntity
  8
0
  6
Continuous
 62
     7
370
    15
100
AcDbLine
 10
154.1274520305
 20
147.3993606824
 30
0.0
 11
154.1274520305
 21
150.4240356344
 31
0.0
  0
LINE
  5
B9
330
1F
100
AcDbEntity
  8
0
  6
Continuous
 62
     7
370
    15
100
AcDbLine
 10
154.1274520305
 20
151.4083094853
 30
0.0
 11
154.1274520305
 21
160.3111609775
 31
0.0
  0
ARC
  5
BA
330
1F
100
AcDbEntity
  8
0
  6
Continuous
 62
     7
370
    15
100
AcDbCircle
 10
179.1274519331
 20
160.3111598493
 30
0.0
 40
5.0
100
AcDbArc
 50
153.4109238966
 51
180.0
  0
ARC
  5
BB
330
1F
100
AcDbEntity
  8
0
  6
Continuous
 62
     7
370
    15
100
AcDbCircle
 10
149.1274519331
 20
160.3111598493
 30
0.0
 40
5.0
100
AcDbArc
 50
0.0
 51
26.5890761034
  0
ARC
  5
BC
330
1F
100
AcDbEntity
  8
0
  6
Continuous
 62
     7
370
    15
100
AcDbCircle
 10
164.1274519331
 20
222.8677032991
 30
0.0
 40
10.00000000000002
100
AcDbArc
 50
35.2658422964
 51
144.7341577036
  0
ARC
  5
BD
330
1F
100
AcDbEntity
  8
0
  6
Continuous
 62
     7
370
    15
100
AcDbCircle
 10
130.6274519331
 20
186.8677032991
 30
0.0
 40
58.99999999999999
100
AcDbArc
 50
42.8818397473
 51
45.0747729984
  0
ARC
  5
BE
330
1F
100
AcDbEntity
  8
0
  6
Continuous
 62
     7
370
    15
100
AcDbCircle
 10
173.1274519331
 20
226.3360450428
 30
0.0
 40
1.000000000000019
100
AcDbArc
 50
0.0
 51
42.8818397473
  0
LINE
  5
BF
330
1F
100
AcDbEntity
  8
0
  6
Continuous
 62
     7
370
    15
100
AcDbLine
 10
174.1274515834
 20
226.3360455591
 30
0.0
 11
174.1274515834
 21
213.4242471266
 31
0.0
  0
ARC
  5
C0
330
1F
100
AcDbEntity
  8
0
  6
Continuous
 62
     7
370
    15
100
AcDbCircle
 10
155.1274519331
 20
226.3360450428
 30
0.0
 40
1.00000000000004
100
AcDbArc
 50
137.1181602527
 51
180.0
  0
ARC
  5
C1
330
1F
100
AcDbEntity
  8
0
  6
Continuous
 62
     7
370
    15
100
AcDbCircle
 10
197.6274519331
 20
186.8677032991
 30
0.0
 40
59.00000000000003
100
AcDbArc
 50
135.1271209643
 51
137.1181602527
  0
LINE
  5
C2
330
1F
100
AcDbEntity
  8
0
  6
Continuous
 62
     7
370
    15
100
AcDbLine
 10
154.1274520305
 20
213.4242471266
 30
0.0
 11
154.1274520305
 21
222.4240362603
 31
0.0
  0
LINE
  5
C3
330
1F
100
AcDbEntity
  8
0
  6
Continuous
 62
     7
370
    15
100
AcDbLine
 10
154.1274520305
 20
223.4083063859
 30
0.0
 11
154.1274520305
 21
226.3360455591
 31
0.0
  0
ARC
  5
C4
330
1F
100
AcDbEntity
  8
0
  6
Continuous
 62
     7
370
    15
100
AcDbCircle
 10
149.1274519331
 20
213.4242467488
 30
0.0
 40
5.0
100
AcDbArc
 50
333.4109238966
 51
0.0
  0
ARC
  5
C5
330
1F
100
AcDbEntity
  8
0
  6
Continuous
 62
     7
370
    15
100
AcDbCircle
 10
179.1274519331
 20
213.4242467488
 30
0.0
 40
5.000000000000011
100
AcDbArc
 50
180.0
 51
206.5890761034
  0
SPLINE
  5
C6
330
1F
100
AcDbEntity
  8
0
  6
Continuous
 62
     7
370
    15
100
AcDbSpline
210
0.0
220
0.0
230
1.0
 70
     8
 71
     3
 72
    12
 73
     8
 74
     0
 42
0.00000001
 43
0.00000001
 12
1.0
 22
0.0
 32
0.0
 13
1.0
 23
0.0
 33
0.0
 40
0.0
 40
0.0
 40
0.0
 40
0.0
 40
0.2114177364486417
 40
0.625486034961984
 40
0.9205857404981832
 40
0.9955697461969554
 40
1.0
 40
1.0
 40
1.0
 40
1.0
 10
139.8802962821498
 20
196.2221147450957
 30
0.0
 10
139.7149513737027
 20
195.5760042265451
 30
0.0
 10
139.2257732521175
 20
193.6644658987587
 30
0.0
 10
138.7918211947587
 20
190.7823987677232
 30
0.0
 10
138.6406228675588
 20
188.3128711470469
 30
0.0
 10
138.6275635788664
 20
187.132050123587
 30
0.0
 10
138.6274572823774
 20
186.8816709317181
 30
0.0
 10
138.6274513524547
 20
186.8677031207237
 30
0.0
  0
SPLINE
  5
C7
330
1F
100
AcDbEntity
  8
0
  6
Continuous
 62
     7
370
    15
100
AcDbSpline
210
0.0
220
0.0
230
1.0
 70
     8
 71
     3
 72
    12
 73
     8
 74
     0
 42
0.00000001
 43
0.00000001
 12
1.0
 22
0.0
 32
0.0
 13
1.0
 23
0.0
 33
0.0
 40
0.0
 40
0.0
 40
0.0
 40
0.0
 40
0.211417734124275
 40
0.6254861009747261
 40
0.9205857414918343
 40
0.9955697955017367
 40
1.0
 40
1.0
 40
1.0
 40
1.0
 10
188.3746073317304
 20
177.5132914963517
 30
0.0
 10
188.5399519285222
 20
178.1594020120608
 30
0.0
 10
189.0291291850707
 20
180.0709405541968
 30
0.0
 10
189.4630919019499
 20
182.9530078254766
 30
0.0
 10
189.6142639609091
 20
185.4225354338338
 30
0.0
 10
189.6273521283657
 20
186.6033562721221
 30
0.0
 10
189.6274469705581
 20
186.8537354649503
 30
0.0
 10
189.6274522614255
 20
186.8677031207237
 30
0.0
  0
SPLINE
  5
C8
330
1F
100
AcDbEntity
  8
0
  6
Continuous
 62
     7
370
    15
100
AcDbSpline
210
0.0
220
0.0
230
1.0
 70
     8
 71
     3
 72
    12
 73
     8
 74
     0
 42
0.00000001
 43
0.00000001
 12
1.0
 22
0.0
 32
0.0
 13
1.0
 23
0.0
 33
0.0
 40
0.0
 40
0.0
 40
0.0
 40
0.0
 40
0.0044302536332873
 40
0.0794142584551718
 40
0.3745139723526562
 40
0.788582266023747
 40
1.0
 40
1.0
 40
1.0
 40
1.0
 10
189.6274522614255
 20
186.8677031207237
 30
0.0
 10
189.627446970628
 20
186.8816709317268
 30
0.0
 10
189.6273521307403
 20
187.1320501300457
 30
0.0
 10
189.6142639342771
 20
188.3128711830185
 30
0.0
 10
189.4630920102275
 20
190.7823986678153
 30
0.0
 10
189.0291291108891
 20
193.6644659069705
 30
0.0
 10
188.5399519241831
 20
195.5760042286196
 30
0.0
 10
188.3746073317304
 20
196.2221147450957
 30
0.0
  0
SPLINE
  5
C9
330
1F
100
AcDbEntity
  8
0
  6
Continuous
 62
     7
370
    15
100
AcDbSpline
210
0.0
220
0.0
230
1.0
 70
     8
 71
     3
 72
    12
 73
     8
 74
     0
 42
0.00000001
 43
0.00000001
 12
1.0
 22
0.0
 32
0.0
 13
1.0
 23
0.0
 33
0.0
 40
0.0
 40
0.0
 40
0.0
 40
0.0
 40
0.0044302046680214
 40
0.0794142595548122
 40
0.374513891710632
 40
0.7885822634033359
 40
1.0
 40
1.0
 40
1.0
 40
1.0
 10
138.6274513524547
 20
186.8677031207237
 30
0.0
 10
138.6274572824471
 20
186.853735464959
 30
0.0
 10
138.6275635813643
 20
186.6033562785809
 30
0.0
 10
138.6406228407103
 20
185.4225354698052
 30
0.0
 10
138.7918213031627
 20
182.9530077255688
 30
0.0
 10
139.2257731779195
 20
180.0709405624086
 30
0.0
 10
139.7149513693594
 20
178.1594020141352
 30
0.0
 10
139.8802962821498
 20
177.5132914963517
 30
0.0
  0
SPLINE
  5
CA
330
1F
100
AcDbEntity
  8
0
  6
Continuous
 62
     7
370
    15
100
AcDbSpline
210
0.0
220
0.0
230
1.0
 70
     8
 71
     3
 72
    12
 73
     8
 74
     0
 42
0.00000001
 43
0.00000001
 12
1.0
 22
0.0
 32
0.0
 13
1.0
 23
0.0
 33
0.0
 40
0.0
 40
0.0
 40
0.0
 40
0.0
 40
0.3869159863339865
 40
0.6065539713493188
 40
0.7747888756201993
 40
0.9042327016373867
 40
1.0
 40
1.0
 40
1.0
 40
1.0
 10
175.8946929794326
 20
149.0275546866808
 30
0.0
 10
175.5562036319968
 20
148.6288901054592
 30
0.0
 10
175.0255663226109
 20
148.0039182937039
 30
0.0
 10
174.3969095742607
 20
147.303194785297
 30
0.0
 10
174.0572155885209
 20
146.9314877607316
 30
0.0
 10
173.885695758407
 20
146.7462992217609
 30
0.0
 10
173.8678142488726
 20
146.7270559583104
 30
0.0
 10
173.8602104332819
 20
146.7188730794344
 30
0.0
  0
SPLINE
  5
CB
330
1F
100
AcDbEntity
  8
0
  6
Continuous
 62
     7
370
    15
100
AcDbSpline
210
0.0
220
0.0
230
1.0
 70
     8
 71
     3
 72
    12
 73
     8
 74
     0
 42
0.00000001
 43
0.00000001
 12
1.0
 22
0.0
 32
0.0
 13
1.0
 23
0.0
 33
0.0
 40
0.0
 40
0.0
 40
0.0
 40
0.0
 40
0.3869166294104547
 40
0.6065539754562415
 40
0.7747888580667404
 40
0.9042327363949529
 40
1.0
 40
1.0
 40
1.0
 40
1.0
 10
152.3602106344476
 20
224.7078515547666
 30
0.0
 10
152.6986993830091
 20
225.1065181475027
 30
0.0
 10
153.2293348752082
 20
225.7314920781248
 30
0.0
 10
153.8579950865443
 20
226.432211346362
 30
0.0
 10
154.1976874343253
 20
226.8039186621727
 30
0.0
 10
154.3692093204582
 20
226.9891069610554
 30
0.0
 10
154.3870898044533
 20
227.0083502681751
 30
0.0
 10
154.3946931805983
 20
227.016533162013
 30
0.0
  0
SPLINE
  5
CC
330
1F
100
AcDbEntity
  8
0
  6
Continuous
 62
     7
370
    15
100
AcDbSpline
210
0.0
220
0.0
230
1.0
 70
     8
 71
     3
 72
    12
 73
     8
 74
     0
 42
0.00000001
 43
0.00000001
 12
1.0
 22
0.0
 32
0.0
 13
1.0
 23
0.0
 33
0.0
 40
0.0
 40
0.0
 40
0.0
 40
0.0
 40
0.1289248415865547
 40
0.2576933854247075
 40
0.4431770212283244
 40
0.7148622693173959
 40
1.0
 40
1.0
 40
1.0
 40
1.0
 10
154.3946931805983
 20
146.7188730794344
 30
0.0
 10
154.3808619140059
 20
146.7337454859483
 30
0.0
 10
154.3532161486978
 20
146.7634722689084
 30
0.0
 10
154.1296728223931
 20
147.0053904474078
 30
0.0
 10
153.7188373538474
 20
147.4567535552312
 30
0.0
 10
153.0910234764163
 20
148.1632729276722
 30
0.0
 10
152.6077071185148
 20
148.7348577274678
 30
0.0
 10
152.3602106344476
 20
149.0275546866808
 30
0.0
  0
SPLINE
  5
CD
330
1F
100
AcDbEntity
  8
0
  6
Continuous
 62
     7
370
    15
100
AcDbSpline
210
0.0
220
0.0
230
1.0
 70
     8
 71
     3
 72
    12
 73
     8
 74
     0
 42
0.00000001
 43
0.00000001
 12
1.0
 22
0.0
 32
0.0
 13
1.0
 23
0.0
 33
0.0
 40
0.0
 40
0.0
 40
0.0
 40
0.0
 40
0.128924883782757
 40
0.2576934398784625
 40
0.4431769757196144
 40
0.7148623912141615
 40
1.0
 40
1.0
 40
1.0
 40
1.0
 10
173.8602104332819
 20
227.016533162013
 30
0.0
 10
173.8740420755929
 20
227.001660754109
 30
0.0
 10
173.9016885886764
 20
226.9719339718182
 30
0.0
 10
174.1252317444437
 20
226.7300159433418
 30
0.0
 10
174.5360659410674
 20
226.2786522015556
 30
0.0
 10
175.1638812903739
 20
225.5721339087018
 30
0.0
 10
175.6471969691594
 20
225.0005486168839
 30
0.0
 10
175.8946929794326
 20
224.7078515547666
 30
0.0
  0
SPLINE
  5
CE
330
1F
100
AcDbEntity
  8
0
  6
Continuous
 62
     7
370
    15
100
AcDbSpline
210
0.0
220
0.0
230
1.0
 70
     8
 71
     3
 72
    11
 73
     7
 74
     0
 42
0.00000001
 43
0.00000001
 12
1.0
 22
0.0
 32
0.0
 13
1.0
 23
0.0
 33
0.0
 40
0.0
 40
0.0
 40
0.0
 40
0.0
 40
0.0045391522671004
 40
0.2884958838150589
 40
0.5665208462139876
 40
1.0
 40
1.0
 40
1.0
 40
1.0
 10
189.6274522614255
 20
186.8677031207237
 30
0.0
 10
189.6274490922852
 20
186.8535147233353
 30
0.0
 10
189.627247670547
 20
185.9517396773305
 30
0.0
 10
189.5840666941526
 20
184.1811194119668
 30
0.0
 10
189.3820626688425
 20
181.0745738283104
 30
0.0
 10
189.0733704645556
 20
178.8775932989139
 30
0.0
 10
188.8853017908111
 20
177.5390975135717
 30
0.0
  0
SPLINE
  5
CF
330
1F
100
AcDbEntity
  8
0
  6
Continuous
 62
     7
370
    15
100
AcDbSpline
210
0.0
220
0.0
230
1.0
 70
     8
 71
     3
 72
    11
 73
     7
 74
     0
 42
0.00000001
 43
0.00000001
 12
1.0
 22
0.0
 32
0.0
 13
1.0
 23
0.0
 33
0.0
 40
0.0
 40
0.0
 40
0.0
 40
0.0
 40
0.562059373314334
 40
0.7786302828263764
 40
0.9954603629342661
 40
1.0
 40
1.0
 40
1.0
 40
1.0
 10
139.3696018230691
 20
177.5390975135717
 30
0.0
 10
139.1341553963489
 20
179.2768685207509
 30
0.0
 10
138.8079875099448
 20
181.6842318617954
 30
0.0
 10
138.6535253499612
 20
184.7930189492728
 30
0.0
 10
138.6276394371692
 20
186.1616273947574
 30
0.0
 10
138.6274551320075
 20
186.853514564665
 30
0.0
 10
138.6274513524547
 20
186.8677031207237
 30
0.0
  0
SPLINE
  5
D0
330
1F
100
AcDbEntity
  8
0
  6
Continuous
 62
     7
370
    15
100
AcDbSpline
210
0.0
220
0.0
230
1.0
 70
     8
 71
     3
 72
    11
 73
     7
 74
     0
 42
0.00000001
 43
0.00000001
 12
1.0
 22
0.0
 32
0.0
 13
1.0
 23
0.0
 33
0.0
 40
0.0
 40
0.0
 40
0.0
 40
0.0
 40
0.004539201831237
 40
0.28849593000135
 40
0.5665208535195747
 40
1.0
 40
1.0
 40
1.0
 40
1.0
 10
138.6274513524547
 20
186.8677031207237
 30
0.0
 10
138.6274551481699
 20
186.8818916733333
 30
0.0
 10
138.6276963906681
 20
187.7836668824226
 30
0.0
 10
138.6708191574267
 20
189.5542871949313
 30
0.0
 10
138.8728483292867
 20
192.6608325905153
 30
0.0
 10
139.1815359393104
 20
194.8578129697128
 30
0.0
 10
139.3696018230691
 20
196.1963087278757
 30
0.0
  0
SPLINE
  5
D1
330
1F
100
AcDbEntity
  8
0
  6
Continuous
 62
     7
370
    15
100
AcDbSpline
210
0.0
220
0.0
230
1.0
 70
     8
 71
     3
 72
    11
 73
     7
 74
     0
 42
0.00000001
 43
0.00000001
 12
1.0
 22
0.0
 32
0.0
 13
1.0
 23
0.0
 33
0.0
 40
0.0
 40
0.0
 40
0.0
 40
0.0
 40
0.562059309752719
 40
0.7786302307523998
 40
0.9954603135503104
 40
1.0
 40
1.0
 40
1.0
 40
1.0
 10
188.8853017908111
 20
196.1963087278757
 30
0.0
 10
189.1207525079403
 20
194.4585379257899
 30
0.0
 10
189.446926352992
 20
192.0511747576252
 30
0.0
 10
189.6013645294611
 20
188.9423877531487
 30
0.0
 10
189.6272954501594
 20
187.5737792078378
 30
0.0
 10
189.6274491102781
 20
186.8818918320162
 30
0.0
 10
189.6274522614255
 20
186.8677031207237
 30
0.0
  0
LINE
  5
D2
330
1F
100
AcDbEntity
  8
0
  6
Continuous
 62
     7
370
    15
100
AcDbLine
 10
140.1760880571
 20
173.4386015642
 30
0.0
 11
139.3696018231
 21
177.5390975136
 31
0.0
  0
LINE
  5
D3
330
1F
100
AcDbEntity
  8
0
  6
Continuous
 62
     7
370
    15
100
AcDbLine
 10
188.0788155567
 20
200.2968056086
 30
0.0
 11
188.8853017908
 21
196.1963087279
 31
0.0
  0
LINE
  5
D4
330
1F
100
AcDbEntity
  8
0
  6
Continuous
 62
     7
370
    15
100
AcDbLine
 10
139.3696018231
 20
196.1963087279
 30
0.0
 11
140.1760880571
 21
200.2968056086
 31
0.0
  0
LINE
  5
D5
330
1F
100
AcDbEntity
  8
0
  6
Continuous
 62
     7
370
    15
100
AcDbLine
 10
188.8853017908
 20
177.5390975136
 30
0.0
 11
188.0788155567
 21
173.4386015642
 31
0.0
  0
ARC
  5
D6
330
1F
100
AcDbEntity
  8
0
  6
Continuous
 62
     7
370
    15
100
AcDbCircle
 10
197.6274519331
 20
186.8677032991
 30
0.0
 40
59.00000000000004
100
AcDbArc
 50
140.1068093019
 51
166.8434847952
  0
ARC
  5
D7
330
1F
100
AcDbEntity
  8
0
  6
Continuous
 62
     7
370
    15
100
AcDbCircle
 10
130.6274519331
 20
186.8677032991
 30
0.0
 40
58.99999999999999
100
AcDbArc
 50
13.1565152048
 51
39.8931906981
  0
ARC
  5
D8
330
1F
100
AcDbEntity
  8
0
  6
Continuous
 62
     7
370
    15
100
AcDbCircle
 10
130.6274519331
 20
186.8677032991
 30
0.0
 40
59.00000000000002
100
AcDbArc
 50
320.1068093019
 51
346.8434847952
  0
ARC
  5
D9
330
1F
100
AcDbEntity
  8
0
  6
Continuous
 62
     7
370
    15
100
AcDbCircle
 10
197.6274519331
 20
186.8677032991
 30
0.0
 40
59.00000000000002
100
AcDbArc
 50
193.1565152048
 51
219.8931906981
  0
CIRCLE
  5
DA
330
1F
100
AcDbEntity
  8
0
  6
Continuous
 62
     7
370
    15
100
AcDbCircle
 10
101.1274519331
 20
186.8677032991
 30
0.0
 40
18.0
  0
ARC
  5
DB
330
1F
100
AcDbEntity
  8
0
  6
Continuous
 62
     7
370
    15
100
AcDbCircle
 10
101.1274519331
 20
186.8677032991
 30
0.0
 40
21.50000000000001
100
AcDbArc
 50
91.4232887618
 51
268.5767112382
  0
ARC
  5
DC
330
1F
100
AcDbEntity
  8
0
  6
Continuous
 62
     7
370
    15
100
AcDbCircle
 10
101.1274519331
 20
186.8677032991
 30
0.0
 40
21.5
100
AcDbArc
 50
271.4232887618
 51
88.5767112382
  0
SPLINE
  5
DD
330
1F
100
AcDbEntity
  8
0
  6
Continuous
 62
     7
370
    15
100
AcDbSpline
210
0.0
220
0.0
230
1.0
 70
     8
 71
     3
 72
    11
 73
     7
 74
     0
 42
0.00000001
 43
0.00000001
 12
1.0
 22
0.0
 32
0.0
 13
1.0
 23
0.0
 33
0.0
 40
0.0
 40
0.0
 40
0.0
 40
0.0
 40
0.0041011580948407
 40
0.2684463479456958
 40
0.7294407379483746
 40
1.0
 40
1.0
 40
1.0
 40
1.0
 10
88.95764171300077
 20
204.5918585691009
 30
0.0
 10
88.96077431973632
 20
204.5940136698829
 30
0.0
 10
89.16582294704001
 20
204.7350784425703
 30
0.0
 10
89.6922821278226
 20
205.1610492285499
 30
0.0
 10
90.32351364049335
 20
205.8968898129812
 30
0.0
 10
90.6438155460011
 20
206.5839169119043
 30
0.0
 10
90.76227664170408
 20
206.8380083847198
 30
0.0
  0
SPLINE
  5
DE
330
1F
100
AcDbEntity
  8
0
  6
Continuous
 62
     7
370
    15
100
AcDbSpline
210
0.0
220
0.0
230
1.0
 70
     8
 71
     3
 72
    11
 73
     7
 74
     0
 42
0.00000001
 43
0.00000001
 12
1.0
 22
0.0
 32
0.0
 13
1.0
 23
0.0
 33
0.0
 40
0.0
 40
0.0
 40
0.0
 40
0.0
 40
0.2705582894259431
 40
0.7315535547839644
 40
0.995898840419123
 40
1.0
 40
1.0
 40
1.0
 40
1.0
 10
111.4926305335536
 20
206.8380083847198
 30
0.0
 10
111.6110886467811
 20
206.5839166700399
 30
0.0
 10
111.9313835969318
 20
205.8968865387154
 30
0.0
 10
112.56262197301
 20
205.1610503318853
 30
0.0
 10
113.0890805007007
 20
204.7350784412486
 30
0.0
 10
113.2941291301976
 20
204.594013669863
 30
0.0
 10
113.2972617369666
 20
204.5918585691009
 30
0.0
  0
SPLINE
  5
DF
330
1F
100
AcDbEntity
  8
0
  6
Continuous
 62
     7
370
    15
100
AcDbSpline
210
0.0
220
0.0
230
1.0
 70
     8
 71
     3
 72
    11
 73
     7
 74
     0
 42
0.00000001
 43
0.00000001
 12
1.0
 22
0.0
 32
0.0
 13
1.0
 23
0.0
 33
0.0
 40
0.0
 40
0.0
 40
0.0
 40
0.0
 40
0.0041011584944766
 40
0.2684463741043604
 40
0.7294415173443723
 40
1.0
 40
1.0
 40
1.0
 40
1.0
 10
113.2972617369666
 20
169.1435486036692
 30
0.0
 10
113.2941291301967
 20
169.1413935029074
 30
0.0
 10
113.0890805006406
 20
169.0003287315513
 30
0.0
 10
112.562622004196
 20
168.5743568251974
 30
0.0
 10
111.9313832675687
 20
167.8385205195468
 30
0.0
 10
111.6110886112109
 20
167.1514899063819
 30
0.0
 10
111.4926305335536
 20
166.8973978567276
 30
0.0
  0
SPLINE
  5
E0
330
1F
100
AcDbEntity
  8
0
  6
Continuous
 62
     7
370
    15
100
AcDbSpline
210
0.0
220
0.0
230
1.0
 70
     8
 71
     3
 72
    11
 73
     7
 74
     0
 42
0.00000001
 43
0.00000001
 12
1.0
 22
0.0
 32
0.0
 13
1.0
 23
0.0
 33
0.0
 40
0.0
 40
0.0
 40
0.0
 40
0.0
 40
0.2705594552802177
 40
0.7315537231656464
 40
0.9958988429915546
 40
1.0
 40
1.0
 40
1.0
 40
1.0
 10
90.76227664170408
 20
166.8973978567276
 30
0.0
 10
90.64381558157069
 20
167.1514896645175
 30
0.0
 10
90.32351396985666
 20
167.8385172452838
 30
0.0
 10
89.6922820966362
 20
168.5743579285322
 30
0.0
 10
89.16582294709998
 20
169.0003287302298
 30
0.0
 10
88.9607743197372
 20
169.1413935028875
 30
0.0
 10
88.95764171300077
 20
169.1435486036692
 30
0.0
  0
ARC
  5
E1
330
1F
100
AcDbEntity
  8
0
  6
Continuous
 62
     7
370
    15
100
AcDbCircle
 10
136.6274519331
 20
186.8677032991
 30
0.0
 40
57.00000000000001
100
AcDbArc
 50
217.3784643889
 51
219.3510605473
  0
ARC
  5
E2
330
1F
100
AcDbEntity
  8
0
  6
Continuous
 62
     7
370
    15
100
AcDbCircle
 10
92.1274519331
 20
152.8713799684
 30
0.0
 40
1.0
100
AcDbArc
 50
180.0
 51
217.3784643889
  0
LINE
  5
E3
330
1F
100
AcDbEntity
  8
0
  6
Continuous
 62
     7
370
    15
100
AcDbLine
 10
91.1274519485
 20
152.8713799971
 30
0.0
 11
91.1274519485
 21
155.4240345913
 31
0.0
  0
LINE
  5
E4
330
1F
100
AcDbEntity
  8
0
  6
Continuous
 62
     7
370
    15
100
AcDbLine
 10
91.1274519485
 20
156.4083084423
 30
0.0
 11
91.1274519485
 21
165.0216508615
 31
0.0
  0
ARC
  5
E5
330
1F
100
AcDbEntity
  8
0
  6
Continuous
 62
     7
370
    15
100
AcDbCircle
 10
110.1274519331
 20
152.8713799684
 30
0.0
 40
1.000000000000014
100
AcDbArc
 50
322.6215356111
 51
0.0
  0
ARC
  5
E6
330
1F
100
AcDbEntity
  8
0
  6
Continuous
 62
     7
370
    15
100
AcDbCircle
 10
65.6274519331
 20
186.8677032991
 30
0.0
 40
57.00000000000004
100
AcDbArc
 50
320.6489394527
 51
322.6215356111
  0
LINE
  5
E7
330
1F
100
AcDbEntity
  8
0
  6
Continuous
 62
     7
370
    15
100
AcDbLine
 10
111.1274515015
 20
165.0216508615
 30
0.0
 11
111.1274515015
 21
152.8713799971
 31
0.0
  0
ARC
  5
E8
330
1F
100
AcDbEntity
  8
0
  6
Continuous
 62
     7
370
    15
100
AcDbCircle
 10
101.1274519331
 20
155.8677032991
 30
0.0
 40
10.00000000000001
100
AcDbArc
 50
210.9440244127
 51
329.0559755873
  0
ARC
  5
E9
330
1F
100
AcDbEntity
  8
0
  6
Continuous
 62
     7
370
    15
100
AcDbCircle
 10
116.1274519331
 20
165.0216510241
 30
0.0
 40
5.000000000000012
100
AcDbArc
 50
157.9664484373
 51
180.0
  0
ARC
  5
EA
330
1F
100
AcDbEntity
  8
0
  6
Continuous
 62
     7
370
    15
100
AcDbCircle
 10
86.1274519331
 20
165.0216510241
 30
0.0
 40
5.000000000000023
100
AcDbArc
 50
0.0
 51
22.0335515627
  0
LINE
  5
EB
330
1F
100
AcDbEntity
  8
0
  6
Continuous
 62
     7
370
    15
100
AcDbLine
 10
91.1274519485
 20
208.7137553799
 30
0.0
 11
91.1274519485
 21
217.4240354407
 31
0.0
  0
LINE
  5
EC
330
1F
100
AcDbEntity
  8
0
  6
Continuous
 62
     7
370
    15
100
AcDbLine
 10
91.1274519485
 20
218.408307429
 30
0.0
 11
91.1274519485
 21
220.8640262443
 31
0.0
  0
ARC
  5
ED
330
1F
100
AcDbEntity
  8
0
  6
Continuous
 62
     7
370
    15
100
AcDbCircle
 10
92.1274519331
 20
220.8640266297
 30
0.0
 40
1.000000000000015
100
AcDbArc
 50
142.6215356111
 51
180.0
  0
ARC
  5
EE
330
1F
100
AcDbEntity
  8
0
  6
Continuous
 62
     7
370
    15
100
AcDbCircle
 10
136.6274519331
 20
186.8677032991
 30
0.0
 40
57.00000000000003
100
AcDbArc
 50
140.8722921094
 51
142.6215356111
  0
LINE
  5
EF
330
1F
100
AcDbEntity
  8
0
  6
Continuous
 62
     7
370
    15
100
AcDbLine
 10
111.1274515015
 20
220.8640262443
 30
0.0
 11
111.1274515015
 21
208.7137553799
 31
0.0
  0
ARC
  5
F0
330
1F
100
AcDbEntity
  8
0
  6
Continuous
 62
     7
370
    15
100
AcDbCircle
 10
65.6274519331
 20
186.8677032991
 30
0.0
 40
57.00000000000001
100
AcDbArc
 50
37.3784643889
 51
39.3510605473
  0
ARC
  5
F1
330
1F
100
AcDbEntity
  8
0
  6
Continuous
 62
     7
370
    15
100
AcDbCircle
 10
110.1274519331
 20
220.8640266297
 30
0.0
 40
1.0
100
AcDbArc
 50
0.0
 51
37.3784643889
  0
ARC
  5
F2
330
1F
100
AcDbEntity
  8
0
  6
Continuous
 62
     7
370
    15
100
AcDbCircle
 10
86.1274519331
 20
208.713755574
 30
0.0
 40
5.0
100
AcDbArc
 50
337.9664484373
 51
0.0
  0
ARC
  5
F3
330
1F
100
AcDbEntity
  8
0
  6
Continuous
 62
     7
370
    15
100
AcDbCircle
 10
116.1274519331
 20
208.713755574
 30
0.0
 40
5.0
100
AcDbArc
 50
180.0
 51
202.0335515627
  0
SPLINE
  5
F4
330
1F
100
AcDbEntity
  8
0
  6
Continuous
 62
     7
370
    15
100
AcDbSpline
210
0.0
220
0.0
230
1.0
 70
     8
 71
     3
 72
    12
 73
     8
 74
     0
 42
0.00000001
 43
0.00000001
 12
1.0
 22
0.0
 32
0.0
 13
1.0
 23
0.0
 33
0.0
 40
0.0
 40
0.0
 40
0.0
 40
0.0
 40
0.2415094492747761
 40
0.6524983146741021
 40
0.9333650045466778
 40
0.9955459366185837
 40
1.0
 40
1.0
 40
1.0
 40
1.0
 10
121.5304662209525
 20
178.6769483196888
 30
0.0
 10
121.6947928542959
 20
179.3236354426538
 30
0.0
 10
122.1387624448631
 20
181.0708228058117
 30
0.0
 10
122.5022438422388
 20
183.6329127540484
 30
0.0
 10
122.6184024225641
 20
185.7122557984582
 30
0.0
 10
122.627372648718
 20
186.6714786988613
 30
0.0
 10
122.6274474548934
 20
186.8554087391932
 30
0.0
 10
122.6274524551406
 20
186.8677031207237
 30
0.0
  0
SPLINE
  5
F5
330
1F
100
AcDbEntity
  8
0
  6
Continuous
 62
     7
370
    15
100
AcDbSpline
210
0.0
220
0.0
230
1.0
 70
     8
 71
     3
 72
    12
 73
     8
 74
     0
 42
0.00000001
 43
0.00000001
 12
1.0
 22
0.0
 32
0.0
 13
1.0
 23
0.0
 33
0.0
 40
0.0
 40
0.0
 40
0.0
 40
0.0
 40
0.2415093264541003
 40
0.6524982732723611
 40
0.9333649458981492
 40
0.995545880353075
 40
1.0
 40
1.0
 40
1.0
 40
1.0
 10
80.72443722901487
 20
195.0584579217586
 30
0.0
 10
80.56011227927762
 20
194.4117707882525
 30
0.0
 10
80.11614703978401
 20
192.6645826189361
 30
0.0
 10
79.752658267438
 20
190.1024942213203
 30
0.0
 10
79.6365010900022
 20
188.0231508094275
 30
0.0
 10
79.62753079907486
 20
187.0639278586518
 30
0.0
 10
79.6274559949928
 20
186.8799976574911
 30
0.0
 10
79.62745099482679
 20
186.8677031207237
 30
0.0
  0
SPLINE
  5
F6
330
1F
100
AcDbEntity
  8
0
  6
Continuous
 62
     7
370
    15
100
AcDbSpline
210
0.0
220
0.0
230
1.0
 70
     8
 71
     3
 72
    12
 73
     8
 74
     0
 42
0.00000001
 43
0.00000001
 12
1.0
 22
0.0
 32
0.0
 13
1.0
 23
0.0
 33
0.0
 40
0.0
 40
0.0
 40
0.0
 40
0.0
 40
0.4671086310654862
 40
0.6447814466278018
 40
0.8231280227173059
 40
0.9267056191031441
 40
1.0
 40
1.0
 40
1.0
 40
1.0
 10
89.29709761557719
 20
218.629902597085
 30
0.0
 10
89.68842925357717
 20
219.2001298239609
 30
0.0
 10
90.2286106222778
 20
219.9872528009287
 30
0.0
 10
90.87048913258056
 20
220.8591912038043
 30
0.0
 10
91.17105237658014
 20
221.2589945161515
 30
0.0
 10
91.31468993069159
 20
221.44739116004
 30
0.0
 10
91.3275027628414
 20
221.4641560399246
 30
0.0
 10
91.33281230149412
 20
221.4711032766256
 30
0.0
  0
SPLINE
  5
F7
330
1F
100
AcDbEntity
  8
0
  6
Continuous
 62
     7
370
    15
100
AcDbSpline
210
0.0
220
0.0
230
1.0
 70
     8
 71
     3
 72
    12
 73
     8
 74
     0
 42
0.00000001
 43
0.00000001
 12
1.0
 22
0.0
 32
0.0
 13
1.0
 23
0.0
 33
0.0
 40
0.0
 40
0.0
 40
0.0
 40
0.0
 40
0.4671085145487295
 40
0.6447818705769173
 40
0.8231282817609276
 40
0.9267056373858796
 40
1.0
 40
1.0
 40
1.0
 40
1.0
 10
112.9578095596805
 20
155.1055036443624
 30
0.0
 10
112.5664806811996
 20
154.5352746531411
 30
0.0
 10
112.0263026317342
 20
153.7481485268446
 30
0.0
 10
111.3844085281404
 20
152.8762195185828
 30
0.0
 10
111.0838497953281
 20
152.4764113924767
 30
0.0
 10
110.9402178281204
 20
152.2880150542386
 30
0.0
 10
110.9274045879492
 20
152.2712501995314
 30
0.0
 10
110.9220948737636
 20
152.2643029648218
 30
0.0
  0
SPLINE
  5
F8
330
1F
100
AcDbEntity
  8
0
  6
Continuous
 62
     7
370
    15
100
AcDbSpline
210
0.0
220
0.0
230
1.0
 70
     8
 71
     3
 72
    12
 73
     8
 74
     0
 42
0.00000001
 43
0.00000001
 12
1.0
 22
0.0
 32
0.0
 13
1.0
 23
0.0
 33
0.0
 40
0.0
 40
0.0
 40
0.0
 40
0.0
 40
0.1109991509389694
 40
0.2217130982624051
 40
0.3914019345555576
 40
0.6656421023374477
 40
1.0
 40
1.0
 40
1.0
 40
1.0
 10
91.33281230149412
 20
152.2643029648218
 30
0.0
 10
91.32050264771694
 20
152.2803917504939
 30
0.0
 10
91.29591496885287
 20
152.3125279829649
 30
0.0
 10
91.09762566478341
 20
152.5734616711506
 30
0.0
 10
90.7150264740621
 20
153.0851048292307
 30
0.0
 10
90.07650113946211
 20
153.9624599136237
 30
0.0
 10
89.57346229629707
 20
154.7001976558549
 30
0.0
 10
89.29709761557721
 20
155.1055036443624
 30
0.0
  0
SPLINE
  5
F9
330
1F
100
AcDbEntity
  8
0
  6
Continuous
 62
     7
370
    15
100
AcDbSpline
210
0.0
220
0.0
230
1.0
 70
     8
 71
     3
 72
    12
 73
     8
 74
     0
 42
0.00000001
 43
0.00000001
 12
1.0
 22
0.0
 32
0.0
 13
1.0
 23
0.0
 33
0.0
 40
0.0
 40
0.0
 40
0.0
 40
0.0
 40
0.1109991429020589
 40
0.2217130822092343
 40
0.3914015182767909
 40
0.6656421265466823
 40
1.0
 40
1.0
 40
1.0
 40
1.0
 10
110.9220948737636
 20
221.4711032766256
 30
0.0
 10
110.9344044806878
 20
221.4550144711319
 30
0.0
 10
110.9589920659664
 20
221.4228781990686
 30
0.0
 10
111.1572819982837
 20
221.161945118441
 30
0.0
 10
111.5398751610185
 20
220.6502995780059
 30
0.0
 10
112.1784075585636
 20
219.772947789727
 30
0.0
 10
112.68144555383
 20
219.0352089060936
 30
0.0
 10
112.9578095596805
 20
218.629902597085
 30
0.0
  0
SPLINE
  5
FA
330
1F
100
AcDbEntity
  8
0
  6
Continuous
 62
     7
370
    15
100
AcDbSpline
210
0.0
220
0.0
230
1.0
 70
     8
 71
     3
 72
    11
 73
     7
 74
     0
 42
0.00000001
 43
0.00000001
 12
1.0
 22
0.0
 32
0.0
 13
1.0
 23
0.0
 33
0.0
 40
0.0
 40
0.0
 40
0.0
 40
0.0
 40
0.0045535433148425
 40
0.2567879297371764
 40
0.5029772977755802
 40
1.0
 40
1.0
 40
1.0
 40
1.0
 10
122.6274524551406
 20
186.8677031207237
 30
0.0
 10
122.6274501641384
 20
186.8552857869777
 30
0.0
 10
122.6273209676691
 20
186.1550351897986
 30
0.0
 10
122.6002650132698
 20
184.7836200885127
 30
0.0
 10
122.4594001059024
 20
182.0717753558875
 30
0.0
 10
122.209837859536
 20
180.0666389158152
 30
0.0
 10
122.042943231441
 20
178.7257049191151
 30
0.0
  0
SPLINE
  5
FB
330
1F
100
AcDbEntity
  8
0
  6
Continuous
 62
     7
370
    15
100
AcDbSpline
210
0.0
220
0.0
230
1.0
 70
     8
 71
     3
 72
    13
 73
     9
 74
     0
 42
0.00000001
 43
0.00000001
 12
1.0
 22
0.0
 32
0.0
 13
1.0
 23
0.0
 33
0.0
 40
0.0
 40
0.0
 40
0.0
 40
0.0
 40
0.3137165186192002
 40
0.8271178004033386
 40
0.9553860113327385
 40
0.9874518450945992
 40
0.9954465293870671
 40
1.0
 40
1.0
 40
1.0
 40
1.0
 10
80.21195649323606
 20
178.7257049191151
 30
0.0
 10
80.10147224174119
 20
179.5704453754697
 30
0.0
 10
79.81017903385445
 20
181.7976148954143
 30
0.0
 10
79.65885204357889
 20
184.4035701923221
 30
0.0
 10
79.62946653031625
 20
186.2403668893273
 30
0.0
 10
79.62762027431236
 20
186.6994049084283
 30
0.0
 10
79.62746397227575
 20
186.8210669300687
 30
0.0
 10
79.62745445019614
 20
186.8552857909547
 30
0.0
 10
79.62745099482679
 20
186.8677031207237
 30
0.0
  0
SPLINE
  5
FC
330
1F
100
AcDbEntity
  8
0
  6
Continuous
 62
     7
370
    15
100
AcDbSpline
210
0.0
220
0.0
230
1.0
 70
     8
 71
     3
 72
    13
 73
     9
 74
     0
 42
0.00000001
 43
0.00000001
 12
1.0
 22
0.0
 32
0.0
 13
1.0
 23
0.0
 33
0.0
 40
0.0
 40
0.0
 40
0.0
 40
0.0
 40
0.3137166060775788
 40
0.827117794638101
 40
0.9553859592534092
 40
0.987451790372435
 40
0.9954464735431395
 40
1.0
 40
1.0
 40
1.0
 40
1.0
 10
122.042943231441
 20
195.0097020208243
 30
0.0
 10
122.1534287666234
 20
194.1649613805139
 30
0.0
 10
122.444725275731
 20
191.9377920119855
 30
0.0
 10
122.596055167941
 20
189.3318363230349
 30
0.0
 10
122.6254346344676
 20
187.4950397130389
 30
0.0
 10
122.6272845450212
 20
187.0360018022711
 30
0.0
 10
122.6274450025629
 20
186.9143396246942
 30
0.0
 10
122.6274504708093
 20
186.8801206059215
 30
0.0
 10
122.6274524551406
 20
186.8677031207237
 30
0.0
  0
SPLINE
  5
FD
330
1F
100
AcDbEntity
  8
0
  6
Continuous
 62
     7
370
    15
100
AcDbSpline
210
0.0
220
0.0
230
1.0
 70
     8
 71
     3
 72
    11
 73
     7
 74
     0
 42
0.00000001
 43
0.00000001
 12
1.0
 22
0.0
 32
0.0
 13
1.0
 23
0.0
 33
0.0
 40
0.0
 40
0.0
 40
0.0
 40
0.0
 40
0.0045535999145424
 40
0.2567879298798091
 40
0.502977382384269
 40
1.0
 40
1.0
 40
1.0
 40
1.0
 10
79.62745099482679
 20
186.8677031207237
 30
0.0
 10
79.62745454085781
 20
186.8801206096788
 30
0.0
 10
79.62765450966974
 20
187.5803712559619
 30
0.0
 10
79.65460053897417
 20
188.9517869011395
 30
0.0
 10
79.79552477378243
 20
191.6636310462543
 30
0.0
 10
80.04507196298727
 20
193.6687679452384
 30
0.0
 10
80.21195649323606
 20
195.0097020208243
 30
0.0
  0
LINE
  5
FE
330
1F
100
AcDbEntity
  8
0
  6
Continuous
 62
     7
370
    15
100
AcDbLine
 10
80.2119564932
 20
195.0097020208
 30
0.0
 11
80.8603507203
 21
198.6588126938
 31
0.0
  0
LINE
  5
FF
330
1F
100
AcDbEntity
  8
0
  6
Continuous
 62
     7
370
    15
100
AcDbLine
 10
122.0429432314
 20
178.7257049191
 30
0.0
 11
121.3945527297
 21
175.076593082
 31
0.0
  0
LINE
  5
100
330
1F
100
AcDbEntity
  8
0
  6
Continuous
 62
     7
370
    15
100
AcDbLine
 10
80.8603507203
 20
175.076593082
 30
0.0
 11
80.2119564932
 21
178.7257049191
 31
0.0
  0
LINE
  5
101
330
1F
100
AcDbEntity
  8
0
  6
Continuous
 62
     7
370
    15
100
AcDbLine
 10
121.3945527297
 20
198.6588126938
 30
0.0
 11
122.0429432314
 21
195.0097020208
 31
0.0
  0
ARC
  5
102
330
1F
100
AcDbEntity
  8
0
  6
Continuous
 62
     7
370
    15
100
AcDbCircle
 10
65.6274519331
 20
186.8677032991
 30
0.0
 40
57.00000000000001
100
AcDbArc
 50
11.9384954606
 51
33.8645572968
  0
ARC
  5
103
330
1F
100
AcDbEntity
  8
0
  6
Continuous
 62
     7
370
    15
100
AcDbCircle
 10
136.6274519331
 20
186.8677032991
 30
0.0
 40
57.00000000000004
100
AcDbArc
 50
146.1354427032
 51
168.0615045394
  0
ARC
  5
104
330
1F
100
AcDbEntity
  8
0
  6
Continuous
 62
     7
370
    15
100
AcDbCircle
 10
65.6274519331
 20
186.8677032991
 30
0.0
 40
57.00000000000002
100
AcDbArc
 50
326.1354427032
 51
348.0615045394
  0
ARC
  5
105
330
1F
100
AcDbEntity
  8
0
  6
Continuous
 62
     7
370
    15
100
AcDbCircle
 10
136.6274519331
 20
186.8677032991
 30
0.0
 40
57.00000000000004
100
AcDbArc
 50
191.9384954606
 51
213.8645572968
  0
LINE
  5
106
330
1F
100
AcDbEntity
  8
0
  6
Continuous
 62
     7
370
    15
100
AcDbLine
 10
434.533056311
 20
58.8676989037
 30
0.0
 11
434.533056311
 21
48.8677084404
 31
0.0
  0
LINE
  5
107
330
1F
100
AcDbEntity
  8
0
  6
Continuous
 62
     7
370
    15
100
AcDbLine
 10
404.5330551189
 20
58.8676989037
 30
0.0
 11
434.533056311
 21
58.8676989037
 31
0.0
  0
LINE
  5
108
330
1F
100
AcDbEntity
  8
0
  6
Continuous
 62
     7
370
    15
100
AcDbLine
 10
434.533056311
 20
48.8677084404
 30
0.0
 11
404.5330551189
 21
48.8677084404
 31
0.0
  0
LINE
  5
109
330
1F
100
AcDbEntity
  8
0
  6
Continuous
 62
     7
370
    15
100
AcDbLine
 10
404.5330551189
 20
58.8676989037
 30
0.0
 11
70.5330562514
 21
58.8676989037
 31
0.0
  0
LINE
  5
10A
330
1F
100
AcDbEntity
  8
0
  6
Continuous
 62
     7
370
    15
100
AcDbLine
 10
404.5330551189
 20
48.8677084404
 30
0.0
 11
70.5330562514
 21
48.8677084404
 31
0.0
  0
LINE
  5
10B
330
1F
100
AcDbEntity
  8
0
  6
Continuous
 62
     7
370
    15
100
AcDbLine
 10
40.5330550593
 20
48.8677084404
 30
0.0
 11
40.5330550593
 21
58.8676989037
 31
0.0
  0
LINE
  5
10C
330
1F
100
AcDbEntity
  8
0
  6
Continuous
 62
     7
370
    15
100
AcDbLine
 10
40.5330550593
 20
58.8676989037
 30
0.0
 11
70.5330562514
 21
58.8676989037
 31
0.0
  0
LINE
  5
10D
330
1F
100
AcDbEntity
  8
0
  6
Continuous
 62
     7
370
    15
100
AcDbLine
 10
70.5330562514
 20
48.8677084404
 30
0.0
 11
40.5330550593
 21
48.8677084404
 31
0.0
  0
LINE
  5
10E
330
1F
100
AcDbEntity
  8
0
  6
Continuous
 62
     7
370
    15
100
AcDbLine
 10
403.5330530923
 20
74.8677015263
 30
0.0
 11
433.5330691856
 21
74.8677015263
 31
0.0
  0
LINE
  5
10F
330
1F
100
AcDbEntity
  8
0
  6
Continuous
 62
     7
370
    15
100
AcDbLine
 10
433.5330691856
 20
74.8677015263
 30
0.0
 11
433.5330691856
 21
58.8676989037
 31
0.0
  0
LINE
  5
110
330
1F
100
AcDbEntity
  8
0
  6
Continuous
 62
     7
370
    15
100
AcDbLine
 10
71.5330582779
 20
74.8677015263
 30
0.0
 11
403.5330530923
 21
74.8677015263
 31
0.0
  0
LINE
  5
111
330
1F
100
AcDbEntity
  8
0
  6
Continuous
 62
     7
370
    15
100
AcDbLine
 10
41.5330570858
 20
58.8676989037
 30
0.0
 11
41.5330570858
 21
74.8677015263
 31
0.0
  0
LINE
  5
112
330
1F
100
AcDbEntity
  8
0
  6
Continuous
 62
     7
370
    15
100
AcDbLine
 10
41.5330570858
 20
74.8677015263
 30
0.0
 11
71.5330582779
 21
74.8677015263
 31
0.0
  0
LINE
  5
113
330
1F
100
AcDbEntity
  8
0
  6
Continuous
 62
     7
370
    15
100
AcDbLine
 10
399.5330598873
 20
45.8677023608
 30
0.0
 11
369.5330586952
 21
45.8677023608
 31
0.0
  0
LINE
  5
114
330
1F
100
AcDbEntity
  8
0
  6
Continuous
 62
     7
370
    15
100
AcDbLine
 10
105.5330564004
 20
45.8677023608
 30
0.0
 11
75.5330589336
 21
45.8677023608
 31
0.0
  0
LINE
  5
115
330
1F
100
AcDbEntity
  8
0
  6
Continuous
 62
     7
370
    15
100
AcDbLine
 10
46.5330597681
 20
74.8677015263
 30
0.0
 11
46.5330597681
 21
385.867705937
 31
0.0
  0
LINE
  5
116
330
1F
100
AcDbEntity
  8
0
  6
Continuous
 62
     7
370
    15
100
AcDbLine
 10
46.5330597681
 20
385.867705937
 30
0.0
 11
67.3330542367
 21
385.867705937
 31
0.0
  0
ARC
  5
117
330
1F
100
AcDbEntity
  8
0
  6
Continuous
 62
     7
370
    15
100
AcDbCircle
 10
92.0330563194
 20
224.8677032991
 30
0.0
 40
20.00000000000001
100
AcDbArc
 50
90.0
 51
180.0
  0
LINE
  5
118
330
1F
100
AcDbEntity
  8
0
  6
Continuous
 62
     7
370
    15
100
AcDbLine
 10
67.3330542367
 20
385.867705937
 30
0.0
 11
406.7330625576
 21
385.867705937
 31
0.0
  0
LINE
  5
119
330
1F
100
AcDbEntity
  8
0
  6
Continuous
 62
     7
370
    15
100
AcDbLine
 10
197.5330565792
 20
74.8677015263
 30
0.0
 11
197.5330565792
 21
224.8677037615
 31
0.0
  0
LINE
  5
11A
330
1F
100
AcDbEntity
  8
0
  6
Continuous
 62
     7
370
    15
100
AcDbLine
 10
286.0330533904
 20
74.8677015263
 30
0.0
 11
286.0330533904
 21
81.3676997978
 31
0.0
  0
LINE
  5
11B
330
1F
100
AcDbEntity
  8
0
  6
Continuous
 62
     7
370
    15
100
AcDbLine
 10
278.0330595296
 20
81.3676997978
 30
0.0
 11
278.0330595296
 21
74.8677015263
 31
0.0
  0
LINE
  5
11C
330
1F
100
AcDbEntity
  8
0
  6
Continuous
 62
     7
370
    15
100
AcDbLine
 10
72.0330592912
 20
224.8677037615
 30
0.0
 11
72.0330592912
 21
74.8677015263
 31
0.0
  0
ARC
  5
11D
330
1F
100
AcDbEntity
  8
0
  6
Continuous
 62
     7
370
    15
100
AcDbCircle
 10
282.0330563194
 20
81.3677032991
 30
0.0
 40
4.0
100
AcDbArc
 50
0.0
 51
180.0
  0
ARC
  5
11E
330
1F
100
AcDbEntity
  8
0
  6
Continuous
 62
     7
370
    15
100
AcDbCircle
 10
177.5330563194
 20
224.8677032991
 30
0.0
 40
20.0
100
AcDbArc
 50
0.0
 51
90.0
  0
LINE
  5
11F
330
1F
100
AcDbEntity
  8
0
  6
Continuous
 62
     7
370
    15
100
AcDbLine
 10
177.5330560949
 20
244.8677033144
 30
0.0
 11
92.0330551189
 21
244.8677033144
 31
0.0
  0
LINE
  5
120
330
1F
100
AcDbEntity
  8
0
  6
Continuous
 62
     7
370
    15
100
AcDbLine
 10
427.5330570262
 20
385.867705937
 30
0.0
 11
427.5330570262
 21
74.8677015263
 31
0.0
  0
LINE
  5
121
330
1F
100
AcDbEntity
  8
0
  6
Continuous
 62
     7
370
    15
100
AcDbLine
 10
406.7330625576
 20
385.867705937
 30
0.0
 11
427.5330570262
 21
385.867705937
 31
0.0
  0
ARC
  5
122
330
1F
100
AcDbEntity
  8
0
  6
Continuous
 62
     7
370
    15
100
AcDbCircle
 10
186.5274519331
 20
186.8677032991
 30
0.0
 40
51.90000000000001
100
AcDbArc
 50
125.7052999035
 51
234.2947000965
  0
ARC
  5
123
330
1F
100
AcDbEntity
  8
0
  6
Continuous
 62
     7
370
    15
100
AcDbCircle
 10
141.7274519331
 20
186.8677032991
 30
0.0
 40
51.9
100
AcDbArc
 50
305.5465045465
 51
54.217861096
  0
ARC
  5
124
330
1F
100
AcDbEntity
  8
0
  6
Continuous
 62
     7
370
    15
100
AcDbCircle
 10
141.7274519331
 20
186.8677032991
 30
0.0
 40
52.40000000000003
100
AcDbArc
 50
301.8907918018
 51
57.1453497946
  0
ARC
  5
125
330
1F
100
AcDbEntity
  8
0
  6
Continuous
 62
     7
370
    15
100
AcDbCircle
 10
186.5274519331
 20
186.8677032991
 30
0.0
 40
52.40000000000001
100
AcDbArc
 50
123.0535504709
 51
238.1092081982
  0
ARC
  5
126
330
1F
100
AcDbEntity
  8
0
  6
Continuous
 62
     7
370
    15
100
AcDbCircle
 10
65.8004084678
 20
186.8677032991
 30
0.0
 40
57.00000000000001
100
AcDbArc
 50
318.732572619
 51
40.5733041972
  0
ARC
  5
127
330
1F
100
AcDbEntity
  8
0
  6
Continuous
 62
     7
370
    15
100
AcDbCircle
 10
136.4544953984
 20
186.8677032991
 30
0.0
 40
57.00000000000008
100
AcDbArc
 50
139.699924271
 51
221.267427381
  0
CIRCLE
  5
128
330
1F
100
AcDbEntity
  8
0
  6
Continuous
 62
     7
370
    15
100
AcDbCircle
 10
101.1274519331
 20
186.8677032991
 30
0.0
 40
14.0
  0
SPLINE
  5
129
330
1F
100
AcDbEntity
  8
0
  6
Continuous
 62
     7
370
    15
100
AcDbSpline
210
0.0
220
0.0
230
1.0
 70
     8
 71
     3
 72
    11
 73
     7
 74
     0
 42
0.00000001
 43
0.00000001
 12
1.0
 22
0.0
 32
0.0
 13
1.0
 23
0.0
 33
0.0
 40
0.0
 40
0.0
 40
0.0
 40
0.0
 40
0.0226336291173479
 40
0.4321297358923445
 40
0.7631990859913088
 40
1.0
 40
1.0
 40
1.0
 40
1.0
 10
121.2349650186076
 20
200.1345766666684
 30
0.0
 10
121.2352515990853
 20
200.1334079887631
 30
0.0
 10
121.2407231010479
 20
200.1110951518799
 30
0.0
 10
121.2604951465408
 20
200.0588418100484
 30
0.0
 10
121.3146532255529
 20
199.9327523956462
 30
0.0
 10
121.3617566736145
 20
199.7918163416326
 30
0.0
 10
121.3813987296596
 20
199.7330462518487
 30
0.0
  0
SPLINE
  5
12A
330
1F
100
AcDbEntity
  8
0
  6
Continuous
 62
     7
370
    15
100
AcDbSpline
210
0.0
220
0.0
230
1.0
 70
     8
 71
     3
 72
    11
 73
     7
 74
     0
 42
0.00000001
 43
0.00000001
 12
1.0
 22
0.0
 32
0.0
 13
1.0
 23
0.0
 33
0.0
 40
0.0
 40
0.0
 40
0.0
 40
0.0
 40
0.2207407873329967
 40
0.5370462211137682
 40
0.9773688557374443
 40
1.0
 40
1.0
 40
1.0
 40
1.0
 10
121.3813987296596
 20
174.0023609209213
 30
0.0
 10
121.3630488103209
 20
173.9471990250427
 30
0.0
 10
121.3184047961464
 20
173.8129941592858
 30
0.0
 10
121.2620098384608
 20
173.6798028586647
 30
0.0
 10
121.2411143639915
 20
173.6259103974403
 30
0.0
 10
121.2352516146609
 20
173.6019993781401
 30
0.0
 10
121.2349650186076
 20
173.6008305061016
 30
0.0
  0
SPLINE
  5
12B
330
1F
100
AcDbEntity
  8
0
  6
Continuous
 62
     7
370
    15
100
AcDbSpline
210
0.0
220
0.0
230
1.0
 70
     8
 71
     3
 72
    11
 73
     7
 74
     0
 42
0.00000001
 43
0.00000001
 12
1.0
 22
0.0
 32
0.0
 13
1.0
 23
0.0
 33
0.0
 40
0.0
 40
0.0
 40
0.0
 40
0.0
 40
0.0243651184003807
 40
0.4402918616399968
 40
0.7675751904930713
 40
1.0
 40
1.0
 40
1.0
 40
1.0
 10
135.8005893152728
 20
173.7320482689295
 30
0.0
 10
135.8002968812732
 20
173.7331482808823
 30
0.0
 10
135.7950124288036
 20
173.7530261366999
 30
0.0
 10
135.7762543999642
 20
173.7996691026494
 30
0.0
 10
135.725060959833
 20
173.9143039359421
 30
0.0
 10
135.680074820345
 20
174.0441836858019
 30
0.0
 10
135.6613938432708
 20
174.0981176453981
 30
0.0
  0
SPLINE
  5
12C
330
1F
100
AcDbEntity
  8
0
  6
Continuous
 62
     7
370
    15
100
AcDbSpline
210
0.0
220
0.0
230
1.0
 70
     8
 71
     3
 72
    11
 73
     7
 74
     0
 42
0.00000001
 43
0.00000001
 12
1.0
 22
0.0
 32
0.0
 13
1.0
 23
0.0
 33
0.0
 40
0.0
 40
0.0
 40
0.0
 40
0.0
 40
0.2156438090847923
 40
0.5269375084151195
 40
0.975637764900429
 40
1.0
 40
1.0
 40
1.0
 40
1.0
 10
135.6613938432708
 20
199.6372885960493
 30
0.0
 10
135.6787744120141
 20
199.6877133505566
 30
0.0
 10
135.7212447877107
 20
199.8109290116752
 30
0.0
 10
135.7747702539001
 20
199.9327737442823
 30
0.0
 10
135.7946178837891
 20
199.9808985366393
 30
0.0
 10
135.8002968541026
 20
200.0022570971463
 30
0.0
 10
135.8005893152728
 20
200.0033570411954
 30
0.0
  0
SPLINE
  5
12D
330
1F
100
AcDbEntity
  8
0
  6
Continuous
 62
     7
370
    15
100
AcDbSpline
210
0.0
220
0.0
230
1.0
 70
     8
 71
     3
 72
     9
 73
     5
 74
     0
 42
0.00000001
 43
0.00000001
 12
1.0
 22
0.0
 32
0.0
 13
1.0
 23
0.0
 33
0.0
 40
0.0
 40
0.0
 40
0.0
 40
0.0
 40
0.9917018962221108
 40
1.0
 40
1.0
 40
1.0
 40
1.0
 10
129.1386079710498
 20
200.5640868055973
 30
0.0
 10
129.1488716057067
 20
201.54055932542
 30
0.0
 10
129.1592211217216
 20
202.5252025166275
 30
0.0
 10
129.1695465075324
 20
203.5103493523385
 30
0.0
 10
129.1696321886554
 20
203.5185242030177
 30
0.0
  0
SPLINE
  5
12E
330
1F
100
AcDbEntity
  8
0
  6
Continuous
 62
     7
370
    15
100
AcDbSpline
210
0.0
220
0.0
230
1.0
 70
     8
 71
     3
 72
     9
 73
     5
 74
     0
 42
0.00000001
 43
0.00000001
 12
1.0
 22
0.0
 32
0.0
 13
1.0
 23
0.0
 33
0.0
 40
0.0
 40
0.0
 40
0.0
 40
0.0
 40
0.9465735738972587
 40
1.0
 40
1.0
 40
1.0
 40
1.0
 10
121.3813987296596
 20
199.7330462518487
 30
0.0
 10
121.4036851444775
 20
199.6621419198163
 30
0.0
 10
121.4272294472476
 20
199.5872356114346
 30
0.0
 10
121.451271043106
 20
199.5126030245449
 30
0.0
 10
121.4525554996505
 20
199.5086156721566
 30
0.0
  0
SPLINE
  5
12F
330
1F
100
AcDbEntity
  8
0
  6
Continuous
 62
     7
370
    15
100
AcDbSpline
210
0.0
220
0.0
230
1.0
 70
     8
 71
     3
 72
     9
 73
     5
 74
     0
 42
0.00000001
 43
0.00000001
 12
1.0
 22
0.0
 32
0.0
 13
1.0
 23
0.0
 33
0.0
 40
0.0
 40
0.0
 40
0.0
 40
0.0
 40
0.008297791711298
 40
1.0
 40
1.0
 40
1.0
 40
1.0
 10
129.1696321886554
 20
170.2168829697523
 30
0.0
 10
129.1695465075188
 20
170.2250575099879
 30
0.0
 10
129.1592207317569
 20
171.210203982695
 30
0.0
 10
129.1488714131583
 20
172.1948468901506
 30
0.0
 10
129.1386079710498
 20
173.1713194358501
 30
0.0
  0
SPLINE
  5
130
330
1F
100
AcDbEntity
  8
0
  6
Continuous
 62
     7
370
    15
100
AcDbSpline
210
0.0
220
0.0
230
1.0
 70
     8
 71
     3
 72
     9
 73
     5
 74
     0
 42
0.00000001
 43
0.00000001
 12
1.0
 22
0.0
 32
0.0
 13
1.0
 23
0.0
 33
0.0
 40
0.0
 40
0.0
 40
0.0
 40
0.0
 40
0.0534292421057553
 40
1.0
 40
1.0
 40
1.0
 40
1.0
 10
121.4525554996505
 20
174.2267910349522
 30
0.0
 10
121.4512710449647
 20
174.2228033690875
 30
0.0
 10
121.4272307510135
 20
174.1481688485987
 30
0.0
 10
121.4036857444074
 20
174.0732638254517
 30
0.0
 10
121.3813987296596
 20
174.0023609209213
 30
0.0
  0
LINE
  5
131
330
1F
100
AcDbEntity
  8
0
  6
Continuous
 62
     7
370
    15
100
AcDbLine
 10
129.138607971
 20
200.5640868056
 30
0.0
 11
129.138555817
 21
200.5570096854
 31
0.0
  0
SPLINE
  5
132
330
1F
100
AcDbEntity
  8
0
  6
Continuous
 62
     7
370
    15
100
AcDbSpline
210
0.0
220
0.0
230
1.0
 70
     8
 71
     3
 72
     9
 73
     5
 74
     0
 42
0.00000001
 43
0.00000001
 12
1.0
 22
0.0
 32
0.0
 13
1.0
 23
0.0
 33
0.0
 40
0.0
 40
0.0
 40
0.0
 40
0.0
 40
0.0576133064520386
 40
1.0
 40
1.0
 40
1.0
 40
1.0
 10
135.5940107923522
 20
199.4319301057014
 30
0.0
 10
135.5953181427676
 20
199.4358657895704
 30
0.0
 10
135.6180099564461
 20
199.5041778534215
 30
0.0
 10
135.6403453065433
 20
199.5727073295911
 30
0.0
 10
135.6613938432708
 20
199.6372885960493
 30
0.0
  0
LINE
  5
133
330
1F
100
AcDbEntity
  8
0
  6
Continuous
 62
     7
370
    15
100
AcDbLine
 10
129.138555817
 20
173.1783974874
 30
0.0
 11
129.138607971
 21
173.1713194359
 31
0.0
  0
SPLINE
  5
134
330
1F
100
AcDbEntity
  8
0
  6
Continuous
 62
     7
370
    15
100
AcDbSpline
210
0.0
220
0.0
230
1.0
 70
     8
 71
     3
 72
     9
 73
     5
 74
     0
 42
0.00000001
 43
0.00000001
 12
1.0
 22
0.0
 32
0.0
 13
1.0
 23
0.0
 33
0.0
 40
0.0
 40
0.0
 40
0.0
 40
0.0
 40
0.9423881638809372
 40
1.0
 40
1.0
 40
1.0
 40
1.0
 10
135.6613938432708
 20
174.0981176453981
 30
0.0
 10
135.6403455795065
 20
174.1626995151514
 30
0.0
 10
135.6180105539077
 20
174.231229524577
 30
0.0
 10
135.5953181437664
 20
174.299540608759
 30
0.0
 10
135.5940107923522
 20
174.303476135746
 30
0.0
  0
LINE
  5
135
330
1F
100
AcDbEntity
  8
0
  6
Continuous
 62
     7
370
    15
100
AcDbLine
 10
129.2917695564
 20
178.8677036721
 30
0.0
 11
127.8667081815
 21
178.8677036721
 31
0.0
  0
LINE
  5
136
330
1F
100
AcDbEntity
  8
0
  6
Continuous
 62
     7
370
    15
100
AcDbLine
 10
127.8667081815
 20
194.8677032679
 30
0.0
 11
129.2917695564
 21
194.8677032679
 31
0.0
  0
SPLINE
  5
137
330
1F
100
AcDbEntity
  8
0
  6
Continuous
 62
     7
370
    15
100
AcDbSpline
210
0.0
220
0.0
230
1.0
 70
     8
 71
     3
 72
    13
 73
     9
 74
     0
 42
0.00000001
 43
0.00000001
 12
1.0
 22
0.0
 32
0.0
 13
1.0
 23
0.0
 33
0.0
 40
0.0
 40
0.0
 40
0.0
 40
0.0
 40
0.0020787222846949
 40
0.1231227990231325
 40
0.3429660260635823
 40
0.5620931778205587
 40
0.7810436506862328
 40
1.0
 40
1.0
 40
1.0
 40
1.0
 10
128.6690910082831
 20
194.8677032678727
 30
0.0
 10
128.6695777654319
 20
194.8677090930881
 30
0.0
 10
128.6984084096401
 20
194.8680541208198
 30
0.0
 10
128.7791317824671
 20
194.957621088041
 30
0.0
 10
128.9061559546294
 20
195.5380865786221
 30
0.0
 10
129.0285801490671
 20
196.8201249436929
 30
0.0
 10
129.1151889718074
 20
198.5535477627641
 30
0.0
 10
129.1307667989112
 20
199.8891830700138
 30
0.0
 10
129.1385558169856
 20
200.5570096853528
 30
0.0
  0
SPLINE
  5
138
330
1F
100
AcDbEntity
  8
0
  6
Continuous
 62
     7
370
    15
100
AcDbSpline
210
0.0
220
0.0
230
1.0
 70
     8
 71
     3
 72
    13
 73
     9
 74
     0
 42
0.00000001
 43
0.00000001
 12
1.0
 22
0.0
 32
0.0
 13
1.0
 23
0.0
 33
0.0
 40
0.0
 40
0.0
 40
0.0
 40
0.0
 40
0.0020787225208302
 40
0.1231228088528953
 40
0.3429660618138148
 40
0.5620931991537049
 40
0.7810437324649876
 40
1.0
 40
1.0
 40
1.0
 40
1.0
 10
128.6690910082831
 20
178.8677036720667
 30
0.0
 10
128.6695777654317
 20
178.8676976901803
 30
0.0
 10
128.6984084086524
 20
178.8673433828341
 30
0.0
 10
128.7791317876045
 20
178.7777930953581
 30
0.0
 10
128.9061559356137
 20
178.1973169977758
 30
0.0
 10
129.0285801742385
 20
176.915282438608
 30
0.0
 10
129.1151889471531
 20
175.1818586192187
 30
0.0
 10
129.1307667923795
 20
173.8462236945622
 30
0.0
 10
129.1385558169856
 20
173.1783974874172
 30
0.0
  0
SPLINE
  5
139
330
1F
100
AcDbEntity
  8
0
  6
Continuous
 62
     7
370
    15
100
AcDbSpline
210
0.0
220
0.0
230
1.0
 70
     8
 71
     3
 72
    15
 73
    11
 74
     0
 42
0.00000001
 43
0.00000001
 12
1.0
 22
0.0
 32
0.0
 13
1.0
 23
0.0
 33
0.0
 40
0.0
 40
0.0
 40
0.0
 40
0.0
 40
0.2781990318969111
 40
0.4128808491915308
 40
0.4576045880768406
 40
0.5018607184249528
 40
0.5644488453096457
 40
0.7456088555143828
 40
0.9318166284069314
 40
1.0
 40
1.0
 40
1.0
 40
1.0
 10
80.83039193568372
 20
206.2897955957208
 30
0.0
 10
81.6923591247672
 20
207.0745361325819
 30
0.0
 10
82.97162218538028
 20
208.2391855457915
 30
0.0
 10
84.02785639335248
 20
209.8859941012929
 30
0.0
 10
84.58258732846052
 20
210.966672680018
 30
0.0
 10
84.93455724713964
 20
211.7736907366776
 30
0.0
 10
85.42659920277859
 20
213.1600667364891
 30
0.0
 10
85.80866520497874
 20
215.0240260402949
 30
0.0
 10
85.87235655199443
 20
217.0083371623587
 30
0.0
 10
85.71358816259273
 20
218.2121416395897
 30
0.0
 10
85.67103414950513
 20
218.534792210475
 30
0.0
  0
LINE
  5
13A
330
1F
100
AcDbEntity
  8
0
  6
Continuous
 62
     7
370
    15
100
AcDbLine
 10
85.6710341495
 20
218.5347922105
 30
0.0
 11
85.5688792389
 21
218.8962627161
 31
0.0
  0
LINE
  5
13B
330
1F
100
AcDbEntity
  8
0
  6
Continuous
 62
     7
370
    15
100
AcDbLine
 10
98.8108706397
 20
107.794164117
 30
0.0
 11
95.8294686597
 21
126.6179889399
 31
0.0
  0
ARC
  5
13C
330
1F
100
AcDbEntity
  8
0
  6
Continuous
 62
     7
370
    15
100
AcDbCircle
 10
107.700067713
 20
109.2020718391
 30
0.0
 40
9.000000000000085
100
AcDbArc
 50
189.0
 51
279.0
  0
LINE
  5
13D
330
1F
100
AcDbEntity
  8
0
  6
Continuous
 62
     7
370
    15
100
AcDbLine
 10
127.9318039042
 20
103.2942742068
 30
0.0
 11
109.1079790813
 21
100.3128796774
 31
0.0
  0
CIRCLE
  5
13E
330
1F
100
AcDbEntity
  8
0
  6
Continuous
 62
     7
370
    15
100
AcDbCircle
 10
107.700067713
 20
109.2020718391
 30
0.0
 40
4.750000000000003
  0
LWPOLYLINE
  5
13F
330
1F
100
AcDbEntity
  8
0
  6
Continuous
 62
     7
370
    15
100
AcDbPolyline
 90
        3
 70
   128
 43
0.0
 10
74.293856017
 20
221.0508532781
 10
73.0206113976
 20
221.2793476838
 10
72.0330592912
 20
221.2166771251
  0
ARC
  5
140
330
1F
100
AcDbEntity
  8
0
  6
Continuous
 62
     7
370
    15
100
AcDbCircle
 10
72.8260263688
 20
216.5333347591
 30
0.0
 40
4.750000000000006
100
AcDbArc
 50
260.3899866294
 51
72.0
  0
LINE
  5
141
330
1F
100
AcDbEntity
  8
0
  6
Continuous
 62
     7
370
    15
100
AcDbLine
 10
72.0812123936
 20
226.2547709006
 30
0.0
 11
85.7213255685
 21
233.2047544378
 31
0.0
  0
LINE
  5
142
330
1F
100
AcDbEntity
  8
0
  6
Continuous
 62
     7
370
    15
100
AcDbLine
 10
73.4593313855
 20
195.4662030521
 30
0.0
 11
72.0330592912
 21
198.265422504
 31
0.0
  0
ARC
  5
143
330
1F
100
AcDbEntity
  8
0
  6
Continuous
 62
     7
370
    15
100
AcDbCircle
 10
124.1796294604
 20
100.6750616196
 30
0.0
 40
2.000000000000003
100
AcDbArc
 50
65.1336270385
 51
99.0
  0
ARC
  5
144
330
1F
100
AcDbEntity
  8
0
  6
Continuous
 62
     7
370
    15
100
AcDbCircle
 10
94.4979344395
 20
122.2400753556
 30
0.0
 40
2.000000000000037
100
AcDbArc
 50
9.0
 51
42.8663729615
  0
ARC
  5
145
330
1F
100
AcDbEntity
  8
0
  6
Continuous
 62
     7
370
    15
100
AcDbCircle
 10
81.1462210291
 20
233.1182742972
 30
0.0
 40
1.999999999999997
100
AcDbArc
 50
297.0
 51
330.8663729615
  0
ARC
  5
146
330
1F
100
AcDbEntity
  8
0
  6
Continuous
 62
     7
370
    15
100
AcDbCircle
 10
164.1274519331
 20
186.8677032991
 30
0.0
 40
93.00000000000004
100
AcDbArc
 50
245.1336270385
 51
291.0510763136
  0
ARC
  5
147
330
1F
100
AcDbEntity
  8
0
  6
Continuous
 62
     7
370
    15
100
AcDbCircle
 10
164.1274519331
 20
186.8677032991
 30
0.0
 40
93.00000000000004
100
AcDbArc
 50
188.0023669827
 51
222.8663729615
  0
ARC
  5
148
330
1F
100
AcDbEntity
  8
0
  6
Continuous
 62
     7
370
    15
100
AcDbCircle
 10
164.1274519331
 20
186.8677032991
 30
0.0
 40
93.00000000000006
100
AcDbArc
 50
141.4237554434
 51
150.8663729615
  0
LINE
  5
149
330
1F
100
AcDbEntity
  8
SLD-0
 62
     5
370
     0
100
AcDbLine
 10
333.0229844894
 20
117.5052771446
 30
0.0
 11
277.5073175516
 21
117.5052771446
 31
0.0
  0
LINE
  5
14A
330
1F
100
AcDbEntity
  8
SLD-0
 62
     5
370
     0
100
AcDbLine
 10
333.0229844894
 20
168.461640947
 30
0.0
 11
333.0229844894
 21
72.2058964711
 31
0.0
  0
LINE
  5
14B
330
1F
100
AcDbEntity
  8
SLD-0
 62
     5
370
     0
100
AcDbLine
 10
164.1274519331
 20
187.107336325
 30
0.0
 11
201.8023922749
 21
187.107336325
 31
0.0
  0
LINE
  5
14C
330
1F
100
AcDbEntity
  8
SLD-0
  6
CENTER
 62
     5
370
     0
100
AcDbLine
 10
164.1274519331
 20
242.4656437807
 30
0.0
 11
164.1274519331
 21
131.7490288693
 31
0.0
  0
LINE
  5
14D
330
1F
100
AcDbEntity
  8
SLD-0
  6
CENTER
 62
     5
370
     0
100
AcDbLine
 10
101.1274519331
 20
242.4656437807
 30
0.0
 11
101.1274519331
 21
129.1233266555
 31
0.0
  0
DIMENSION
  5
14E
330
1F
100
AcDbEntity
  8
SLD-0
 62
     5
100
AcDbDimension
  2
_D
 10
444.5330563194
 20
117.5052771446
 30
0.0
 11
444.5330563194
 21
81.6864902218
 31
0.0
 70
   160
  1
<>
 71
     2
 42
-1.0
  3
SLDDIMSTYLE0
100
AcDbAlignedDimension
 13
105.5330563194
 23
45.8677032991
 33
0.0
 14
333.0229844894
 24
117.5052771446
 34
0.0
 50
90.0
100
AcDbRotatedDimension
  0
DIMENSION
  5
160
330
1F
100
AcDbEntity
  8
SLD-0
 62
     5
100
AcDbDimension
  2
_D_1
 10
462.5330563194
 20
385.8677032991
 30
0.0
 11
462.5330563194
 21
215.8677032991
 31
0.0
 70
   160
  1
<>
 71
     2
 42
-1.0
  3
SLDDIMSTYLE0
100
AcDbAlignedDimension
 13
399.5330563194
 23
45.8677032991
 33
0.0
 14
427.5330563194
 24
385.8677032991
 34
0.0
 50
90.0
100
AcDbRotatedDimension
  0
ARC
  5
16A
330
1F
100
AcDbEntity
  8
0
  6
Continuous
 62
     7
370
    15
100
AcDbCircle
 10
414.6532285316
 20
629.4621181442
 30
0.0
 40
1.0
100
AcDbArc
 50
0.0
 51
90.0
  0
ARC
  5
16B
330
1F
100
AcDbEntity
  8
0
  6
Continuous
 62
     7
370
    15
100
AcDbCircle
 10
414.6532285316
 20
591.4621181442
 30
0.0
 40
1.0
100
AcDbArc
 50
270.0
 51
0.0
  0
LINE
  5
16C
330
1F
100
AcDbEntity
  8
0
  6
HIDDEN
 62
     7
370
    15
100
AcDbLine
 10
406.0532268804
 20
590.4621186908
 30
0.0
 11
414.6532383483
 21
590.4621186908
 31
0.0
  0
LINE
  5
16D
330
1F
100
AcDbEntity
  8
0
  6
HIDDEN
 62
     7
370
    15
100
AcDbLine
 10
414.6532383483
 20
630.4621196594
 30
0.0
 11
406.0532268804
 21
630.4621196594
 31
0.0
  0
LINE
  5
16E
330
1F
100
AcDbEntity
  8
0
  6
HIDDEN
 62
     7
370
    15
100
AcDbLine
 10
403.0532357019
 20
652.9621168281
 30
0.0
 11
394.053232364
 21
652.9621168281
 31
0.0
  0
LINE
  5
16F
330
1F
100
AcDbEntity
  8
0
  6
HIDDEN
 62
     7
370
    15
100
AcDbLine
 10
394.053232364
 20
567.962118146
 30
0.0
 11
403.0532357019
 21
567.962118146
 31
0.0
  0
ARC
  5
170
330
1F
100
AcDbEntity
  8
0
  6
Continuous
 62
     7
370
    15
100
AcDbCircle
 10
403.0532285316
 20
651.9621181442
 30
0.0
 40
1.0
100
AcDbArc
 50
0.0
 51
90.0
  0
ARC
  5
171
330
1F
100
AcDbEntity
  8
0
  6
Continuous
 62
     7
370
    15
100
AcDbCircle
 10
403.0532285316
 20
568.9621181442
 30
0.0
 40
1.0
100
AcDbArc
 50
270.0
 51
0.0
  0
ARC
  5
172
330
1F
100
AcDbEntity
  8
0
  6
Continuous
 62
     7
370
    15
100
AcDbCircle
 10
406.0532285316
 20
588.4621181442
 30
0.0
 40
2.0
100
AcDbArc
 50
90.0
 51
180.0
  0
ARC
  5
173
330
1F
100
AcDbEntity
  8
0
  6
Continuous
 62
     7
370
    15
100
AcDbCircle
 10
406.0532285316
 20
632.4621181442
 30
0.0
 40
2.0
100
AcDbArc
 50
180.0
 51
270.0
  0
LINE
  5
174
330
1F
100
AcDbEntity
  8
0
  6
Continuous
 62
     7
370
    15
100
AcDbLine
 10
111.1153331321
 20
511.6191788818
 30
0.0
 11
111.1153331321
 21
513.6191792096
 31
0.0
  0
LINE
  5
175
330
1F
100
AcDbEntity
  8
0
  6
Continuous
 62
     7
370
    15
100
AcDbLine
 10
91.1153373045
 20
513.6191792096
 30
0.0
 11
91.1153373045
 21
511.6191788818
 31
0.0
  0
LINE
  5
176
330
1F
100
AcDbEntity
  8
0
  6
Continuous
 62
     7
370
    15
100
AcDbLine
 10
174.1153350767
 20
508.6191765274
 30
0.0
 11
174.1153350767
 21
510.6191768553
 31
0.0
  0
LINE
  5
177
330
1F
100
AcDbEntity
  8
0
  6
Continuous
 62
     7
370
    15
100
AcDbLine
 10
154.1153345924
 20
510.6191768553
 30
0.0
 11
154.1153345924
 21
508.6191765274
 31
0.0
  0
LINE
  5
178
330
1F
100
AcDbEntity
  8
0
  6
Continuous
 62
     7
370
    15
100
AcDbLine
 10
189.6274522614
 20
514.0191785302
 30
0.0
 11
189.6274522614
 21
520.2191791739
 31
0.0
  0
LINE
  5
179
330
1F
100
AcDbEntity
  8
0
  6
Continuous
 62
     7
370
    15
100
AcDbLine
 10
138.6274513525
 20
520.2191791739
 30
0.0
 11
138.6274513525
 21
514.0191785302
 31
0.0
  0
LINE
  5
17A
330
1F
100
AcDbEntity
  8
0
  6
Continuous
 62
     7
370
    15
100
AcDbLine
 10
138.6274513525
 20
514.0191785302
 30
0.0
 11
138.6274513525
 21
502.619175544
 31
0.0
  0
LINE
  5
17B
330
1F
100
AcDbEntity
  8
0
  6
Continuous
 62
     7
370
    15
100
AcDbLine
 10
189.6274522614
 20
502.619175544
 30
0.0
 11
189.6274522614
 21
514.0191785302
 31
0.0
  0
ARC
  5
17C
330
1F
100
AcDbEntity
  8
0
  6
Continuous
 62
     7
370
    15
100
AcDbCircle
 10
188.6274519331
 20
502.6191778924
 30
0.0
 40
1.0
100
AcDbArc
 50
270.0
 51
0.0
  0
ARC
  5
17D
330
1F
100
AcDbEntity
  8
0
  6
Continuous
 62
     7
370
    15
100
AcDbCircle
 10
139.6274519331
 20
502.6191778924
 30
0.0
 40
1.0
100
AcDbArc
 50
180.0
 51
270.0
  0
LINE
  5
17E
330
1F
100
AcDbEntity
  8
0
  6
Continuous
 62
     7
370
    15
100
AcDbLine
 10
122.6274524551
 20
517.0191771592
 30
0.0
 11
122.6274524551
 21
520.2191791739
 31
0.0
  0
LINE
  5
17F
330
1F
100
AcDbEntity
  8
0
  6
Continuous
 62
     7
370
    15
100
AcDbLine
 10
79.6274509948
 20
520.2191791739
 30
0.0
 11
79.6274509948
 21
517.0191771592
 31
0.0
  0
LINE
  5
180
330
1F
100
AcDbEntity
  8
0
  6
Continuous
 62
     7
370
    15
100
AcDbLine
 10
79.6274509948
 20
517.0191771592
 30
0.0
 11
79.6274509948
 21
506.6191761996
 31
0.0
  0
LINE
  5
181
330
1F
100
AcDbEntity
  8
0
  6
Continuous
 62
     7
370
    15
100
AcDbLine
 10
122.6274524551
 20
506.6191761996
 30
0.0
 11
122.6274524551
 21
517.0191771592
 31
0.0
  0
ARC
  5
182
330
1F
100
AcDbEntity
  8
0
  6
Continuous
 62
     7
370
    15
100
AcDbCircle
 10
121.6274519331
 20
506.6191778924
 30
0.0
 40
1.0
100
AcDbArc
 50
270.0
 51
0.0
  0
ARC
  5
183
330
1F
100
AcDbEntity
  8
0
  6
Continuous
 62
     7
370
    15
100
AcDbCircle
 10
80.6274519331
 20
506.6191778924
 30
0.0
 40
1.0
100
AcDbArc
 50
180.0
 51
270.0
  0
LINE
  5
184
330
1F
100
AcDbEntity
  8
0
  6
Continuous
 62
     7
370
    15
100
AcDbLine
 10
427.5368717235
 20
649.9260499384
 30
0.0
 11
427.5330570262
 21
649.7545748259
 31
0.0
  0
LINE
  5
185
330
1F
100
AcDbEntity
  8
0
  6
Continuous
 62
     7
370
    15
100
AcDbLine
 10
427.7771082443
 20
651.3230114486
 30
0.0
 11
427.5368717235
 21
649.9260499384
 31
0.0
  0
LINE
  5
186
330
1F
100
AcDbEntity
  8
0
  6
Continuous
 62
     7
370
    15
100
AcDbLine
 10
427.8596606773
 20
645.6355213429
 30
0.0
 11
427.7771082443
 21
651.3230114486
 31
0.0
  0
LINE
  5
187
330
1F
100
AcDbEntity
  8
0
  6
Continuous
 62
     7
370
    15
100
AcDbLine
 10
427.7020063919
 20
638.5510697271
 30
0.0
 11
427.8596606773
 21
645.6355213429
 31
0.0
  0
LINE
  5
188
330
1F
100
AcDbEntity
  8
0
  6
Continuous
 62
     7
370
    15
100
AcDbLine
 10
427.5330570262
 20
637.5686138179
 30
0.0
 11
427.7020063919
 21
638.5510697271
 31
0.0
  0
LINE
  5
189
330
1F
100
AcDbEntity
  8
0
  6
Continuous
 62
     7
370
    15
100
AcDbLine
 10
427.5368717235
 20
649.9260499384
 30
0.0
 11
427.5330570262
 21
649.9260946419
 31
0.0
  0
LINE
  5
18A
330
1F
100
AcDbEntity
  8
0
  6
Continuous
 62
     7
370
    15
100
AcDbLine
 10
427.7771082443
 20
651.3230114486
 30
0.0
 11
427.5330570262
 21
651.3258575703
 31
0.0
  0
LINE
  5
18B
330
1F
100
AcDbEntity
  8
0
  6
HIDDEN
 62
     7
370
    15
100
AcDbLine
 10
394.053232364
 20
630.1854796018
 30
0.0
 11
394.053232364
 21
590.7387568857
 31
0.0
  0
LINE
  5
18C
330
1F
100
AcDbEntity
  8
0
  6
Continuous
 62
     7
370
    15
100
AcDbLine
 10
400.0532296222
 20
612.4621167089
 30
0.0
 11
400.0532296222
 21
608.4621197786
 31
0.0
  0
SPLINE
  5
18D
330
1F
100
AcDbEntity
  8
0
  6
Continuous
 62
     7
370
    15
100
AcDbSpline
210
0.0
220
0.0
230
1.0
 70
     8
 71
     3
 72
    12
 73
     8
 74
     0
 42
0.00000001
 43
0.00000001
 12
1.0
 22
0.0
 32
0.0
 13
1.0
 23
0.0
 33
0.0
 40
0.0
 40
0.0
 40
0.0
 40
0.0
 40
0.1375185213141148
 40
0.351923214050275
 40
0.5680700616429261
 40
0.7842679160381115
 40
1.0
 40
1.0
 40
1.0
 40
1.0
 10
401.0532316487804
 20
613.46211873549
 30
0.0
 10
400.9807828368725
 20
613.4574228700693
 30
0.0
 10
400.7953793108816
 20
613.4454056956863
 30
0.0
 10
400.5137258724383
 20
613.3261219745224
 30
0.0
 10
400.2595555785884
 20
613.0999892749144
 30
0.0
 10
400.0867557784055
 20
612.8007501939954
 30
0.0
 10
400.0643969707643
 20
612.5749133604486
 30
0.0
 10
400.0532296222224
 20
612.4621167089321
 30
0.0
  0
SPLINE
  5
18E
330
1F
100
AcDbEntity
  8
0
  6
Continuous
 62
     7
370
    15
100
AcDbSpline
210
0.0
220
0.0
230
1.0
 70
     8
 71
     3
 72
    12
 73
     8
 74
     0
 42
0.00000001
 43
0.00000001
 12
1.0
 22
0.0
 32
0.0
 13
1.0
 23
0.0
 33
0.0
 40
0.0
 40
0.0
 40
0.0
 40
0.0
 40
0.1448059612463668
 40
0.3610461729955672
 40
0.5756970657498379
 40
0.7883193627823271
 40
1.0
 40
1.0
 40
1.0
 40
1.0
 10
400.0532296222224
 20
608.4621197785713
 30
0.0
 10
400.0583310881482
 20
608.3865806159477
 30
0.0
 10
400.0710506249222
 20
608.1982380550353
 30
0.0
 10
400.1930940744055
 20
607.917018663795
 30
0.0
 10
400.4189594612641
 20
607.6659151922437
 30
0.0
 10
400.7170825126925
 20
607.495128768473
 30
0.0
 10
400.9413478415257
 20
607.4731051317395
 30
0.0
 10
401.0532316487804
 20
607.4621177520133
 30
0.0
  0
LINE
  5
18F
330
1F
100
AcDbEntity
  8
0
  6
Continuous
 62
     7
370
    15
100
AcDbLine
 10
403.0532357019
 20
613.4621187355
 30
0.0
 11
401.0532316488
 21
613.4621187355
 31
0.0
  0
ARC
  5
190
330
1F
100
AcDbEntity
  8
0
  6
Continuous
 62
     7
370
    15
100
AcDbCircle
 10
403.0532285316
 20
614.4621181442
 30
0.0
 40
1.0
100
AcDbArc
 50
270.0
 51
0.0
  0
LINE
  5
191
330
1F
100
AcDbEntity
  8
0
  6
Continuous
 62
     7
370
    15
100
AcDbLine
 10
401.0532316488
 20
607.462117752
 30
0.0
 11
403.0532357019
 21
607.462117752
 31
0.0
  0
ARC
  5
192
330
1F
100
AcDbEntity
  8
0
  6
Continuous
 62
     7
370
    15
100
AcDbCircle
 10
403.0532285316
 20
606.4621181442
 30
0.0
 40
1.0
100
AcDbArc
 50
0.0
 51
90.0
  0
LINE
  5
193
330
1F
100
AcDbEntity
  8
0
  6
Continuous
 62
     7
370
    15
100
AcDbLine
 10
404.0532228273
 20
606.4621194507
 30
0.0
 11
404.0532228273
 21
602.9621198084
 31
0.0
  0
LINE
  5
194
330
1F
100
AcDbEntity
  8
0
  6
Continuous
 62
     7
370
    15
100
AcDbLine
 10
404.0532228273
 20
617.9621166791
 30
0.0
 11
404.0532228273
 21
614.4621170368
 31
0.0
  0
SPLINE
  5
195
330
1F
100
AcDbEntity
  8
0
  6
Continuous
 62
     7
370
    15
100
AcDbSpline
210
0.0
220
0.0
230
1.0
 70
     8
 71
     3
 72
    12
 73
     8
 74
     0
 42
0.00000001
 43
0.00000001
 12
1.0
 22
0.0
 32
0.0
 13
1.0
 23
0.0
 33
0.0
 40
0.0
 40
0.0
 40
0.0
 40
0.0
 40
0.1088044225150697
 40
0.3102219935058507
 40
0.5264797957370722
 40
0.7592360451642381
 40
0.9999999999999999
 40
0.9999999999999999
 40
0.9999999999999999
 40
0.9999999999999999
 10
401.0532316487804
 20
601.9621177818157
 30
0.0
 10
400.9916983035747
 20
601.9587002201079
 30
0.0
 10
400.8162550947829
 20
601.9489561051043
 30
0.0
 10
400.5348115058707
 20
601.8398148848511
 30
0.0
 10
400.2666545868084
 20
601.611619242613
 30
0.0
 10
400.0863702616948
 20
601.3024517413197
 30
0.0
 10
400.0644003465393
 20
601.0768353678008
 30
0.0
 10
400.0532296222224
 20
600.962119480548
 30
0.0
  0
SPLINE
  5
196
330
1F
100
AcDbEntity
  8
0
  6
Continuous
 62
     7
370
    15
100
AcDbSpline
210
0.0
220
0.0
230
1.0
 70
     8
 71
     3
 72
    12
 73
     8
 74
     0
 42
0.00000001
 43
0.00000001
 12
1.0
 22
0.0
 32
0.0
 13
1.0
 23
0.0
 33
0.0
 40
0.0
 40
0.0
 40
0.0
 40
0.0
 40
0.1812507537182361
 40
0.4022769959661366
 40
0.6088739570218491
 40
0.8063580089769125
 40
1.0
 40
1.0
 40
1.0
 40
1.0
 10
400.0532296222224
 20
619.9621170069553
 30
0.0
 10
400.0596390448578
 20
619.876101570229
 30
0.0
 10
400.0738644383017
 20
619.6851946041442
 30
0.0
 10
400.2025637872547
 20
619.4037646222237
 30
0.0
 10
400.4268848581267
 20
619.1608355872379
 30
0.0
 10
400.7210601656595
 20
618.994446133273
 30
0.0
 10
400.9432353021735
 20
618.9728237153296
 30
0.0
 10
401.0532316487804
 20
618.9621187056877
 30
0.0
  0
ARC
  5
197
330
1F
100
AcDbEntity
  8
0
  6
Continuous
 62
     7
370
    15
100
AcDbCircle
 10
403.0532285316
 20
602.9621181442
 30
0.0
 40
1.0
100
AcDbArc
 50
270.0
 51
0.0
  0
LINE
  5
198
330
1F
100
AcDbEntity
  8
0
  6
Continuous
 62
     7
370
    15
100
AcDbLine
 10
403.0532357019
 20
601.9621177818
 30
0.0
 11
401.0532316488
 21
601.9621177818
 31
0.0
  0
ARC
  5
199
330
1F
100
AcDbEntity
  8
0
  6
Continuous
 62
     7
370
    15
100
AcDbCircle
 10
403.0532285316
 20
617.9621181442
 30
0.0
 40
1.000000000000114
100
AcDbArc
 50
0.0
 51
90.0
  0
LINE
  5
19A
330
1F
100
AcDbEntity
  8
0
  6
Continuous
 62
     7
370
    15
100
AcDbLine
 10
401.0532316488
 20
618.9621187057
 30
0.0
 11
403.0532357019
 21
618.9621187057
 31
0.0
  0
LINE
  5
19B
330
1F
100
AcDbEntity
  8
0
  6
Continuous
 62
     7
370
    15
100
AcDbLine
 10
400.0532296222
 20
629.5543297436
 30
0.0
 11
400.0532296222
 21
619.962117007
 31
0.0
  0
LINE
  5
19C
330
1F
100
AcDbEntity
  8
0
  6
Continuous
 62
     7
370
    15
100
AcDbLine
 10
400.0532296222
 20
600.9621194805
 30
0.0
 11
400.0532296222
 21
591.3699048813
 31
0.0
  0
SPLINE
  5
19D
330
1F
100
AcDbEntity
  8
0
  6
Continuous
 62
     7
370
    15
100
AcDbSpline
210
0.0
220
0.0
230
1.0
 70
     8
 71
     3
 72
    10
 73
     6
 74
     0
 42
0.00000001
 43
0.00000001
 12
1.0
 22
0.0
 32
0.0
 13
1.0
 23
0.0
 33
0.0
 40
0.0
 40
0.0
 40
0.0
 40
0.0
 40
0.123741078239144
 40
0.5459197693272688
 40
1.0
 40
1.0
 40
1.0
 40
1.0
 10
404.0532228272929
 20
608.1057026292659
 30
0.0
 10
404.0501233516891
 20
608.2931646644319
 30
0.0
 10
404.0364491132653
 20
609.1202079749614
 30
0.0
 10
403.9864346583087
 20
610.7514623882904
 30
0.0
 10
404.0304262440885
 20
612.1129872401636
 30
0.0
 10
404.0532228272929
 20
612.8185338582374
 30
0.0
  0
LINE
  5
19E
330
1F
100
AcDbEntity
  8
0
  6
Continuous
 62
     7
370
    15
100
AcDbLine
 10
404.0532228273
 20
608.1057026293
 30
0.0
 11
404.0532228273
 21
606.4621194507
 31
0.0
  0
LINE
  5
19F
330
1F
100
AcDbEntity
  8
0
  6
Continuous
 62
     7
370
    15
100
AcDbLine
 10
404.0532228273
 20
614.4621170368
 30
0.0
 11
404.0532228273
 21
612.8185338582
 31
0.0
  0
LINE
  5
1A0
330
1F
100
AcDbEntity
  8
0
  6
Continuous
 62
     7
370
    15
100
AcDbLine
 10
400.0532296222
 20
591.3699048813
 30
0.0
 11
400.0532296222
 21
575.4377551618
 31
0.0
  0
LINE
  5
1A1
330
1F
100
AcDbEntity
  8
0
  6
Continuous
 62
     7
370
    15
100
AcDbLine
 10
394.053232364
 20
590.7387568857
 30
0.0
 11
394.053232364
 21
572.3883475419
 31
0.0
  0
LINE
  5
1A2
330
1F
100
AcDbEntity
  8
0
  6
Continuous
 62
     7
370
    15
100
AcDbLine
 10
400.0532296222
 20
645.4864799287
 30
0.0
 11
400.0532296222
 21
629.5543297436
 31
0.0
  0
LINE
  5
1A3
330
1F
100
AcDbEntity
  8
0
  6
Continuous
 62
     7
370
    15
100
AcDbLine
 10
394.053232364
 20
648.5358908083
 30
0.0
 11
394.053232364
 21
630.1854796018
 31
0.0
  0
LINE
  5
1A4
330
1F
100
AcDbEntity
  8
0
  6
HIDDEN
 62
     7
370
    15
100
AcDbLine
 10
415.6532254737
 20
629.4621176328
 30
0.0
 11
415.6532254737
 21
591.4621188547
 31
0.0
  0
LINE
  5
1A5
330
1F
100
AcDbEntity
  8
0
  6
Continuous
 62
     7
370
    15
100
AcDbLine
 10
404.0532228273
 20
647.9442402031
 30
0.0
 11
404.0532228273
 21
630.7537428345
 31
0.0
  0
LINE
  5
1A6
330
1F
100
AcDbEntity
  8
0
  6
HIDDEN
 62
     7
370
    15
100
AcDbLine
 10
404.0532228273
 20
590.170493653
 30
0.0
 11
404.0532228273
 21
572.9799981471
 31
0.0
  0
LINE
  5
1A7
330
1F
100
AcDbEntity
  8
0
  6
Continuous
 62
     7
370
    15
100
AcDbLine
 10
394.053232364
 20
652.9621168281
 30
0.0
 11
394.053232364
 21
648.5358908083
 31
0.0
  0
LINE
  5
1A8
330
1F
100
AcDbEntity
  8
0
  6
Continuous
 62
     7
370
    15
100
AcDbLine
 10
394.053232364
 20
572.3883475419
 30
0.0
 11
394.053232364
 21
567.962118146
 31
0.0
  0
LINE
  5
1A9
330
1F
100
AcDbEntity
  8
0
  6
Continuous
 62
     7
370
    15
100
AcDbLine
 10
404.0532228273
 20
651.9621148016
 30
0.0
 11
404.0532228273
 21
647.9442402031
 31
0.0
  0
LINE
  5
1AA
330
1F
100
AcDbEntity
  8
0
  6
Continuous
 62
     7
370
    15
100
AcDbLine
 10
404.0532228273
 20
572.9799981471
 30
0.0
 11
404.0532228273
 21
568.9621181353
 31
0.0
  0
LINE
  5
1AB
330
1F
100
AcDbEntity
  8
0
  6
Continuous
 62
     7
370
    15
100
AcDbLine
 10
91.1153373045
 20
513.6191792096
 30
0.0
 11
91.1274519485
 21
513.6191792096
 31
0.0
  0
LINE
  5
1AC
330
1F
100
AcDbEntity
  8
0
  6
Continuous
 62
     7
370
    15
100
AcDbLine
 10
92.4101960581
 20
513.6191792096
 30
0.0
 11
109.7041521889
 21
513.6191792096
 31
0.0
  0
LINE
  5
1AD
330
1F
100
AcDbEntity
  8
0
  6
Continuous
 62
     7
370
    15
100
AcDbLine
 10
91.1153373045
 20
511.6191788818
 30
0.0
 11
111.1153331321
 21
511.6191788818
 31
0.0
  0
LINE
  5
1AE
330
1F
100
AcDbEntity
  8
0
  6
Continuous
 62
     7
370
    15
100
AcDbLine
 10
101.1274535876
 20
504.6191795971
 30
0.0
 11
101.1274535876
 21
511.6191788818
 31
0.0
  0
LINE
  5
1AF
330
1F
100
AcDbEntity
  8
0
  6
Continuous
 62
     7
370
    15
100
AcDbLine
 10
101.1274535876
 20
504.6191795971
 30
0.0
 11
92.6274549883
 21
504.6191795971
 31
0.0
  0
LINE
  5
1B0
330
1F
100
AcDbEntity
  8
0
  6
Continuous
 62
     7
370
    15
100
AcDbLine
 10
92.6274549883
 20
504.6191795971
 30
0.0
 11
92.6274549883
 21
511.6191788818
 31
0.0
  0
LINE
  5
1B1
330
1F
100
AcDbEntity
  8
0
  6
Continuous
 62
     7
370
    15
100
AcDbLine
 10
109.6274521869
 20
504.6191795971
 30
0.0
 11
109.6274521869
 21
511.6191788818
 31
0.0
  0
LINE
  5
1B2
330
1F
100
AcDbEntity
  8
0
  6
Continuous
 62
     7
370
    15
100
AcDbLine
 10
109.6274521869
 20
504.6191795971
 30
0.0
 11
101.1274535876
 21
504.6191795971
 31
0.0
  0
LINE
  5
1B3
330
1F
100
AcDbEntity
  8
0
  6
Continuous
 62
     7
370
    15
100
AcDbLine
 10
154.1153345924
 20
508.6191765274
 30
0.0
 11
174.1153350767
 21
508.6191765274
 31
0.0
  0
LINE
  5
1B4
330
1F
100
AcDbEntity
  8
0
  6
Continuous
 62
     7
370
    15
100
AcDbLine
 10
154.1153345924
 20
510.6191768553
 30
0.0
 11
154.1274520305
 21
510.6191768553
 31
0.0
  0
LINE
  5
1B5
330
1F
100
AcDbEntity
  8
0
  6
Continuous
 62
     7
370
    15
100
AcDbLine
 10
155.8156930578
 20
510.6191768553
 30
0.0
 11
172.2922711369
 21
510.6191768553
 31
0.0
  0
LINE
  5
1B6
330
1F
100
AcDbEntity
  8
0
  6
Continuous
 62
     7
370
    15
100
AcDbLine
 10
164.1274519234
 20
501.619180968
 30
0.0
 11
164.1274519234
 21
508.6191765274
 31
0.0
  0
LINE
  5
1B7
330
1F
100
AcDbEntity
  8
0
  6
Continuous
 62
     7
370
    15
100
AcDbLine
 10
164.1274519234
 20
501.619180968
 30
0.0
 11
155.6274518107
 21
501.619180968
 31
0.0
  0
LINE
  5
1B8
330
1F
100
AcDbEntity
  8
0
  6
Continuous
 62
     7
370
    15
100
AcDbLine
 10
155.6274518107
 20
501.619180968
 30
0.0
 11
155.6274518107
 21
508.6191765274
 31
0.0
  0
LINE
  5
1B9
330
1F
100
AcDbEntity
  8
0
  6
Continuous
 62
     7
370
    15
100
AcDbLine
 10
172.6274522689
 20
501.619180968
 30
0.0
 11
172.6274522689
 21
508.6191765274
 31
0.0
  0
LINE
  5
1BA
330
1F
100
AcDbEntity
  8
0
  6
Continuous
 62
     7
370
    15
100
AcDbLine
 10
172.6274522689
 20
501.619180968
 30
0.0
 11
164.1274519234
 21
501.619180968
 31
0.0
  0
LINE
  5
1BB
330
1F
100
AcDbEntity
  8
0
  6
Continuous
 62
     7
370
    15
100
AcDbLine
 10
172.2922711369
 20
510.6191768553
 30
0.0
 11
172.2922711369
 21
520.2191791739
 31
0.0
  0
LINE
  5
1BC
330
1F
100
AcDbEntity
  8
0
  6
Continuous
 62
     7
370
    15
100
AcDbLine
 10
155.962632477
 20
510.6191768553
 30
0.0
 11
155.962632477
 21
520.2191791739
 31
0.0
  0
LINE
  5
1BD
330
1F
100
AcDbEntity
  8
0
  6
Continuous
 62
     7
370
    15
100
AcDbLine
 10
173.8602104333
 20
510.6191768553
 30
0.0
 11
172.2922711369
 21
510.6191768553
 31
0.0
  0
LINE
  5
1BE
330
1F
100
AcDbEntity
  8
0
  6
Continuous
 62
     7
370
    15
100
AcDbLine
 10
155.8156930578
 20
510.6191768553
 30
0.0
 11
154.3946931806
 21
510.6191768553
 31
0.0
  0
SPLINE
  5
1BF
330
1F
100
AcDbEntity
  8
0
  6
Continuous
 62
     7
370
    15
100
AcDbSpline
210
0.0
220
0.0
230
1.0
 70
     8
 71
     3
 72
    14
 73
    10
 74
     0
 42
0.00000001
 43
0.00000001
 12
1.0
 22
0.0
 32
0.0
 13
1.0
 23
0.0
 33
0.0
 40
0.0
 40
0.0
 40
0.0
 40
0.0
 40
0.0540930197334914
 40
0.0687259507891338
 40
0.1576918825029167
 40
0.1726894296398736
 40
0.3302965940745927
 40
0.5614906160892845
 40
1.0
 40
1.0
 40
1.0
 40
1.0
 10
154.1274520304575
 20
513.0191765035964
 30
0.0
 10
154.1252134882604
 20
513.0709669811012
 30
0.0
 10
154.1223693885663
 20
513.1367675192458
 30
0.0
 10
154.0976507615984
 20
513.2754642733188
 30
0.0
 10
154.0676103944701
 20
513.3670202243222
 30
0.0
 10
153.9912857552376
 20
513.5362992243795
 30
0.0
 10
153.8507377342894
 20
513.7321779934858
 30
0.0
 10
153.5412893613465
 20
513.9684345775862
 30
0.0
 10
153.2912034732298
 20
513.9990996251083
 30
0.0
 10
153.1274518665447
 20
514.0191785301544
 30
0.0
  0
SPLINE
  5
1C0
330
1F
100
AcDbEntity
  8
0
  6
Continuous
 62
     7
370
    15
100
AcDbSpline
210
0.0
220
0.0
230
1.0
 70
     8
 71
     3
 72
    13
 73
     9
 74
     0
 42
0.00000001
 43
0.00000001
 12
1.0
 22
0.0
 32
0.0
 13
1.0
 23
0.0
 33
0.0
 40
0.0
 40
0.0
 40
0.0
 40
0.0
 40
0.3251456866955062
 40
0.6189572113590306
 40
0.7984559097842822
 40
0.9058122898607184
 40
0.9625546635125146
 40
0.9999999999999999
 40
0.9999999999999999
 40
0.9999999999999999
 40
0.9999999999999999
 10
175.1274517473354
 20
514.0191785301544
 30
0.0
 10
175.0067432268735
 20
514.0072241940555
 30
0.0
 10
174.7769588186234
 20
513.9844675565292
 30
0.0
 10
174.4747825374369
 20
513.8032362713178
 30
0.0
 10
174.2670379624691
 20
513.5556520663638
 30
0.0
 10
174.1671430377674
 20
513.3224832503321
 30
0.0
 10
174.1315335924755
 20
513.1448636467031
 30
0.0
 10
174.1286127827297
 20
513.0549304231963
 30
0.0
 10
174.1274515834227
 20
513.0191765035964
 30
0.0
  0
LINE
  5
1C1
330
1F
100
AcDbEntity
  8
0
  6
Continuous
 62
     7
370
    15
100
AcDbLine
 10
154.1274520305
 20
510.6191768553
 30
0.0
 11
154.1274520305
 21
513.0191765036
 31
0.0
  0
LINE
  5
1C2
330
1F
100
AcDbEntity
  8
0
  6
Continuous
 62
     7
370
    15
100
AcDbLine
 10
154.3946931806
 20
510.6191768553
 30
0.0
 11
154.1274520305
 21
510.6191768553
 31
0.0
  0
LINE
  5
1C3
330
1F
100
AcDbEntity
  8
0
  6
Continuous
 62
     7
370
    15
100
AcDbLine
 10
174.1274515834
 20
513.0191765036
 30
0.0
 11
174.1274515834
 21
510.6191768553
 31
0.0
  0
LINE
  5
1C4
330
1F
100
AcDbEntity
  8
0
  6
Continuous
 62
     7
370
    15
100
AcDbLine
 10
174.1274515834
 20
510.6191768553
 30
0.0
 11
173.8602104333
 21
510.6191768553
 31
0.0
  0
LINE
  5
1C5
330
1F
100
AcDbEntity
  8
0
  6
Continuous
 62
     7
370
    15
100
AcDbLine
 10
153.1274518665
 20
514.0191785302
 30
0.0
 11
141.1498398256
 21
514.0191785302
 31
0.0
  0
LINE
  5
1C6
330
1F
100
AcDbEntity
  8
0
  6
Continuous
 62
     7
370
    15
100
AcDbLine
 10
187.1050637883
 20
514.0191785302
 30
0.0
 11
175.1274517473
 21
514.0191785302
 31
0.0
  0
SPLINE
  5
1C7
330
1F
100
AcDbEntity
  8
0
  6
Continuous
 62
     7
370
    15
100
AcDbSpline
210
0.0
220
0.0
230
1.0
 70
     8
 71
     3
 72
    11
 73
     7
 74
     0
 42
0.00000001
 43
0.00000001
 12
1.0
 22
0.0
 32
0.0
 13
1.0
 23
0.0
 33
0.0
 40
0.0
 40
0.0
 40
0.0
 40
0.0
 40
0.2715822767731624
 40
0.7322441437647039
 40
0.9958856820914902
 40
1.0
 40
1.0
 40
1.0
 40
1.0
 10
174.6562537473216
 20
510.6191768552638
 30
0.0
 10
174.7969121542526
 20
510.5898520566019
 30
0.0
 10
175.1761574274354
 20
510.5107861015537
 30
0.0
 10
175.8768214462063
 20
510.0740668183284
 30
0.0
 10
176.4457483235878
 20
509.74432233164
 30
0.0
 10
176.6650657579443
 20
509.621072403835
 30
0.0
 10
176.6684357744231
 20
509.6191785539962
 30
0.0
  0
LINE
  5
1C8
330
1F
100
AcDbEntity
  8
0
  6
Continuous
 62
     7
370
    15
100
AcDbLine
 10
174.6562537473
 20
510.6191768553
 30
0.0
 11
174.1274515834
 21
510.6191768553
 31
0.0
  0
SPLINE
  5
1C9
330
1F
100
AcDbEntity
  8
0
  6
Continuous
 62
     7
370
    15
100
AcDbSpline
210
0.0
220
0.0
230
1.0
 70
     8
 71
     3
 72
    11
 73
     7
 74
     0
 42
0.00000001
 43
0.00000001
 12
1.0
 22
0.0
 32
0.0
 13
1.0
 23
0.0
 33
0.0
 40
0.0
 40
0.0
 40
0.0
 40
0.0
 40
0.0041140869759515
 40
0.2677558899973447
 40
0.7284178319855362
 40
1.0
 40
1.0
 40
1.0
 40
1.0
 10
151.5864687707796
 20
509.6191785539962
 30
0.0
 10
151.5898384756768
 20
509.6210724047425
 30
0.0
 10
151.8091479698756
 20
509.7443293254301
 30
0.0
 10
152.3780895766189
 20
510.0740608497115
 30
0.0
 10
153.0787462436907
 20
510.510786993175
 30
0.0
 10
153.4579915114735
 20
510.5898523054073
 30
0.0
 10
153.5986498665586
 20
510.6191768552638
 30
0.0
  0
LINE
  5
1CA
330
1F
100
AcDbEntity
  8
0
  6
Continuous
 62
     7
370
    15
100
AcDbLine
 10
154.1153345924
 20
510.6191768553
 30
0.0
 11
153.5986498666
 21
510.6191768553
 31
0.0
  0
LINE
  5
1CB
330
1F
100
AcDbEntity
  8
0
  6
Continuous
 62
     7
370
    15
100
AcDbLine
 10
155.6274518107
 20
501.619180968
 30
0.0
 11
139.6274515164
 21
501.619180968
 31
0.0
  0
LINE
  5
1CC
330
1F
100
AcDbEntity
  8
0
  6
Continuous
 62
     7
370
    15
100
AcDbLine
 10
188.6274520975
 20
501.619180968
 30
0.0
 11
172.6274522689
 21
501.619180968
 31
0.0
  0
LINE
  5
1CD
330
1F
100
AcDbEntity
  8
0
  6
Continuous
 62
     7
370
    15
100
AcDbLine
 10
187.3076059592
 20
514.0073768105
 30
0.0
 11
187.1050637883
 21
514.0191785302
 31
0.0
  0
LINE
  5
1CE
330
1F
100
AcDbEntity
  8
0
  6
Continuous
 62
     7
370
    15
100
AcDbLine
 10
141.1498398256
 20
514.0191785302
 30
0.0
 11
140.7788847309
 21
513.9981008376
 31
0.0
  0
LINE
  5
1CF
330
1F
100
AcDbEntity
  8
0
  6
Continuous
 62
     7
370
    15
100
AcDbLine
 10
109.7041521889
 20
513.6191792096
 30
0.0
 11
109.7041521889
 21
520.2191791739
 31
0.0
  0
LINE
  5
1D0
330
1F
100
AcDbEntity
  8
0
  6
Continuous
 62
     7
370
    15
100
AcDbLine
 10
92.5507512611
 20
513.6191792096
 30
0.0
 11
92.5507512611
 21
520.2191791739
 31
0.0
  0
LINE
  5
1D1
330
1F
100
AcDbEntity
  8
0
  6
Continuous
 62
     7
370
    15
100
AcDbLine
 10
110.9220948738
 20
513.6191792096
 30
0.0
 11
109.7041521889
 21
513.6191792096
 31
0.0
  0
LINE
  5
1D2
330
1F
100
AcDbEntity
  8
0
  6
Continuous
 62
     7
370
    15
100
AcDbLine
 10
92.4101960581
 20
513.6191792096
 30
0.0
 11
91.3328123015
 21
513.6191792096
 31
0.0
  0
SPLINE
  5
1D3
330
1F
100
AcDbEntity
  8
0
  6
Continuous
 62
     7
370
    15
100
AcDbSpline
210
0.0
220
0.0
230
1.0
 70
     8
 71
     3
 72
    14
 73
    10
 74
     0
 42
0.00000001
 43
0.00000001
 12
1.0
 22
0.0
 32
0.0
 13
1.0
 23
0.0
 33
0.0
 40
0.0
 40
0.0
 40
0.0
 40
0.0
 40
0.0406687748451751
 40
0.0495354251860906
 40
0.1204012842873964
 40
0.1284286223901971
 40
0.2921138609232591
 40
0.4763528983011679
 40
1.0
 40
1.0
 40
1.0
 40
1.0
 10
91.1274519485011
 20
516.0191788579799
 30
0.0
 10
91.12576674308076
 20
516.0642653875502
 30
0.0
 10
91.12371412734943
 20
516.1191817311316
 30
0.0
 10
91.1052796496637
 20
516.2417745933118
 30
0.0
 10
91.08311491077062
 20
516.3199032650858
 30
0.0
 10
91.01358468727902
 20
516.5015189881177
 30
0.0
 10
90.88837664907379
 20
516.6870572215325
 30
0.0
 10
90.57047656028841
 20
516.9635880627994
 30
0.0
 10
90.31582454916703
 20
516.9955407130052
 30
0.0
 10
90.12744992194318
 20
517.0191771592475
 30
0.0
  0
SPLINE
  5
1D4
330
1F
100
AcDbEntity
  8
0
  6
Continuous
 62
     7
370
    15
100
AcDbSpline
210
0.0
220
0.0
230
1.0
 70
     8
 71
     3
 72
    13
 73
     9
 74
     0
 42
0.00000001
 43
0.00000001
 12
1.0
 22
0.0
 32
0.0
 13
1.0
 23
0.0
 33
0.0
 40
0.0
 40
0.0
 40
0.0
 40
0.0
 40
0.3777938409055799
 40
0.6710991123375776
 40
0.8329453771907354
 40
0.9228728401584027
 40
0.9659713904256019
 40
1.0
 40
1.0
 40
1.0
 40
1.0
 10
112.1274535280242
 20
517.0191771592475
 30
0.0
 10
111.9928534460862
 20
517.004812179866
 30
0.0
 10
111.7537548009292
 20
516.9792947577491
 30
0.0
 10
111.4455450184654
 20
516.7778433032566
 30
0.0
 10
111.2518019004276
 20
516.527560418599
 30
0.0
 10
111.1640011391225
 20
516.3079278832627
 30
0.0
 10
111.1316698610781
 20
516.1422191077978
 30
0.0
 10
111.1287428866371
 20
516.0568457163444
 30
0.0
 10
111.1274515014663
 20
516.0191788579799
 30
0.0
  0
LINE
  5
1D5
330
1F
100
AcDbEntity
  8
0
  6
Continuous
 62
     7
370
    15
100
AcDbLine
 10
91.1274519485
 20
513.6191792096
 30
0.0
 11
91.1274519485
 21
516.019178858
 31
0.0
  0
LINE
  5
1D6
330
1F
100
AcDbEntity
  8
0
  6
Continuous
 62
     7
370
    15
100
AcDbLine
 10
91.3328123015
 20
513.6191792096
 30
0.0
 11
91.1274519485
 21
513.6191792096
 31
0.0
  0
LINE
  5
1D7
330
1F
100
AcDbEntity
  8
0
  6
Continuous
 62
     7
370
    15
100
AcDbLine
 10
111.1274515015
 20
516.019178858
 30
0.0
 11
111.1274515015
 21
513.6191792096
 31
0.0
  0
LINE
  5
1D8
330
1F
100
AcDbEntity
  8
0
  6
Continuous
 62
     7
370
    15
100
AcDbLine
 10
111.1274515015
 20
513.6191792096
 30
0.0
 11
110.9220948738
 21
513.6191792096
 31
0.0
  0
LINE
  5
1D9
330
1F
100
AcDbEntity
  8
0
  6
Continuous
 62
     7
370
    15
100
AcDbLine
 10
90.1274499219
 20
517.0191771592
 30
0.0
 11
81.8387162608
 21
517.0191771592
 31
0.0
  0
LINE
  5
1DA
330
1F
100
AcDbEntity
  8
0
  6
Continuous
 62
     7
370
    15
100
AcDbLine
 10
120.4161834639
 20
517.0191771592
 30
0.0
 11
112.127453528
 21
517.0191771592
 31
0.0
  0
SPLINE
  5
1DB
330
1F
100
AcDbEntity
  8
0
  6
Continuous
 62
     7
370
    15
100
AcDbSpline
210
0.0
220
0.0
230
1.0
 70
     8
 71
     3
 72
    11
 73
     7
 74
     0
 42
0.00000001
 43
0.00000001
 12
1.0
 22
0.0
 32
0.0
 13
1.0
 23
0.0
 33
0.0
 40
0.0
 40
0.0
 40
0.0
 40
0.0
 40
0.0041011580948407
 40
0.2684463479456958
 40
0.7294407379483746
 40
1.0
 40
1.0
 40
1.0
 40
1.0
 10
88.95764171300077
 20
512.6191771830894
 30
0.0
 10
88.96077431973632
 20
512.6210660724363
 30
0.0
 10
89.16582294704001
 20
512.7447056481693
 30
0.0
 10
89.6922821278226
 20
513.0748290222697
 30
0.0
 10
90.32351364049335
 20
513.5114106960483
 30
0.0
 10
90.6438155460011
 20
513.5900829181004
 30
0.0
 10
90.76227664170408
 20
513.6191792096473
 30
0.0
  0
SPLINE
  5
1DC
330
1F
100
AcDbEntity
  8
0
  6
Continuous
 62
     7
370
    15
100
AcDbSpline
210
0.0
220
0.0
230
1.0
 70
     8
 71
     3
 72
    11
 73
     7
 74
     0
 42
0.00000001
 43
0.00000001
 12
1.0
 22
0.0
 32
0.0
 13
1.0
 23
0.0
 33
0.0
 40
0.0
 40
0.0
 40
0.0
 40
0.0
 40
0.2705582894259431
 40
0.7315535547839644
 40
0.995898840419123
 40
1.0
 40
1.0
 40
1.0
 40
1.0
 10
111.4926305335536
 20
513.6191792096473
 30
0.0
 10
111.6110886467811
 20
513.5900827625911
 30
0.0
 10
111.9313835969318
 20
513.5114098477059
 30
0.0
 10
112.56262197301
 20
513.0748295352587
 30
0.0
 10
113.0890805007007
 20
512.7447056478012
 30
0.0
 10
113.2941291301976
 20
512.6210660724307
 30
0.0
 10
113.2972617369666
 20
512.6191771830894
 30
0.0
  0
LINE
  5
1DD
330
1F
100
AcDbEntity
  8
0
  6
Continuous
 62
     7
370
    15
100
AcDbLine
 10
111.4926305336
 20
513.6191792096
 30
0.0
 11
111.1274515015
 21
513.6191792096
 31
0.0
  0
LINE
  5
1DE
330
1F
100
AcDbEntity
  8
0
  6
Continuous
 62
     7
370
    15
100
AcDbLine
 10
91.1153373045
 20
513.6191792096
 30
0.0
 11
90.7622766417
 21
513.6191792096
 31
0.0
  0
LINE
  5
1DF
330
1F
100
AcDbEntity
  8
0
  6
Continuous
 62
     7
370
    15
100
AcDbLine
 10
121.6274504286
 20
505.6191741731
 30
0.0
 11
109.6274521869
 21
505.6191741731
 31
0.0
  0
LINE
  5
1E0
330
1F
100
AcDbEntity
  8
0
  6
Continuous
 62
     7
370
    15
100
AcDbLine
 10
92.6274549883
 20
505.6191741731
 30
0.0
 11
80.6274530214
 21
505.6191741731
 31
0.0
  0
LINE
  5
1E1
330
1F
100
AcDbEntity
  8
0
  6
Continuous
 62
     7
370
    15
100
AcDbLine
 10
81.8387162608
 20
517.0191771592
 30
0.0
 11
81.5266859454
 21
516.9960282053
 31
0.0
  0
LINE
  5
1E2
330
1F
100
AcDbEntity
  8
0
  6
Continuous
 62
     7
370
    15
100
AcDbLine
 10
71.5330582779
 20
515.2191764917
 30
0.0
 11
79.6274509948
 21
515.2191764917
 31
0.0
  0
LINE
  5
1E3
330
1F
100
AcDbEntity
  8
0
  6
Continuous
 62
     7
370
    15
100
AcDbLine
 10
122.6274524551
 20
515.2191764917
 30
0.0
 11
138.6274513525
 21
515.2191764917
 31
0.0
  0
LINE
  5
1E4
330
1F
100
AcDbEntity
  8
0
  6
Continuous
 62
     7
370
    15
100
AcDbLine
 10
189.6274522614
 20
515.2191764917
 30
0.0
 11
403.5330530923
 21
515.2191764917
 31
0.0
  0
LINE
  5
1E5
330
1F
100
AcDbEntity
  8
0
  6
Continuous
 62
     7
370
    15
100
AcDbLine
 10
41.5330570858
 20
817.2191738393
 30
0.0
 11
41.5330570858
 21
545.2191776838
 31
0.0
  0
LINE
  5
1E6
330
1F
100
AcDbEntity
  8
0
  6
Continuous
 62
     7
370
    15
100
AcDbLine
 10
433.5330691856
 20
545.2191776838
 30
0.0
 11
433.5330691856
 21
817.2191738393
 31
0.0
  0
ARC
  5
1E7
330
1F
100
AcDbEntity
  8
0
  6
Continuous
 62
     7
370
    15
100
AcDbCircle
 10
403.5330563194
 20
545.2191778924
 30
0.0
 40
30.0
100
AcDbArc
 50
270.0
 51
0.0
  0
ARC
  5
1E8
330
1F
100
AcDbEntity
  8
0
  6
Continuous
 62
     7
370
    15
100
AcDbCircle
 10
403.5330563194
 20
817.2191778924
 30
0.0
 40
30.0
100
AcDbArc
 50
0.0
 51
90.0
  0
LINE
  5
1E9
330
1F
100
AcDbEntity
  8
0
  6
Continuous
 62
     7
370
    15
100
AcDbLine
 10
403.5330530923
 20
847.2191750314
 30
0.0
 11
71.5330582779
 21
847.2191750314
 31
0.0
  0
ARC
  5
1EA
330
1F
100
AcDbEntity
  8
0
  6
Continuous
 62
     7
370
    15
100
AcDbCircle
 10
71.5330563194
 20
817.2191778924
 30
0.0
 40
30.00000000000004
100
AcDbArc
 50
90.0
 51
180.0
  0
ARC
  5
1EB
330
1F
100
AcDbEntity
  8
0
  6
Continuous
 62
     7
370
    15
100
AcDbCircle
 10
71.5330563194
 20
545.2191778924
 30
0.0
 40
30.00000000000004
100
AcDbArc
 50
180.0
 51
270.0
  0
LINE
  5
1EC
330
1F
100
AcDbEntity
  8
0
  6
Continuous
 62
     7
370
    15
100
AcDbLine
 10
70.5330562514
 20
848.2191919591
 30
0.0
 11
404.5330551189
 21
848.2191919591
 31
0.0
  0
LINE
  5
1ED
330
1F
100
AcDbEntity
  8
0
  6
Continuous
 62
     7
370
    15
100
AcDbLine
 10
40.5330550593
 20
730.2191763427
 30
0.0
 11
40.5330550593
 21
818.2191758658
 31
0.0
  0
LINE
  5
1EE
330
1F
100
AcDbEntity
  8
0
  6
Continuous
 62
     7
370
    15
100
AcDbLine
 10
434.533056311
 20
818.2191758658
 30
0.0
 11
434.533056311
 21
730.2191763427
 31
0.0
  0
ARC
  5
1EF
330
1F
100
AcDbEntity
  8
0
  6
Continuous
 62
     7
370
    15
100
AcDbCircle
 10
70.5330563194
 20
818.2191778924
 30
0.0
 40
30.00000000000004
100
AcDbArc
 50
90.0
 51
180.0
  0
ARC
  5
1F0
330
1F
100
AcDbEntity
  8
0
  6
Continuous
 62
     7
370
    15
100
AcDbCircle
 10
404.5330563194
 20
818.2191778924
 30
0.0
 40
30.0
100
AcDbArc
 50
0.0
 51
90.0
  0
LINE
  5
1F1
330
1F
100
AcDbEntity
  8
0
  6
Continuous
 62
     7
370
    15
100
AcDbLine
 10
433.5330691856
 20
730.2191763427
 30
0.0
 11
434.533056311
 21
730.2191763427
 31
0.0
  0
LINE
  5
1F2
330
1F
100
AcDbEntity
  8
0
  6
Continuous
 62
     7
370
    15
100
AcDbLine
 10
40.5330550593
 20
730.2191763427
 30
0.0
 11
41.5330570858
 21
730.2191763427
 31
0.0
  0
LINE
  5
1F3
330
1F
100
AcDbEntity
  8
0
  6
Continuous
 62
     7
370
    15
100
AcDbLine
 10
404.5330551189
 20
514.2191781904
 30
0.0
 11
189.6274522614
 21
514.2191781904
 31
0.0
  0
LINE
  5
1F4
330
1F
100
AcDbEntity
  8
0
  6
Continuous
 62
     7
370
    15
100
AcDbLine
 10
138.6274513525
 20
514.2191781904
 30
0.0
 11
122.6274524551
 21
514.2191781904
 31
0.0
  0
LINE
  5
1F5
330
1F
100
AcDbEntity
  8
0
  6
Continuous
 62
     7
370
    15
100
AcDbLine
 10
79.6274509948
 20
514.2191781904
 30
0.0
 11
70.5330562514
 21
514.2191781904
 31
0.0
  0
LINE
  5
1F6
330
1F
100
AcDbEntity
  8
0
  6
Continuous
 62
     7
370
    15
100
AcDbLine
 10
434.533056311
 20
630.2191785778
 30
0.0
 11
434.533056311
 21
544.2191775199
 31
0.0
  0
LINE
  5
1F7
330
1F
100
AcDbEntity
  8
0
  6
Continuous
 62
     7
370
    15
100
AcDbLine
 10
40.5330550593
 20
544.2191775199
 30
0.0
 11
40.5330550593
 21
630.2191785778
 31
0.0
  0
ARC
  5
1F8
330
1F
100
AcDbEntity
  8
0
  6
Continuous
 62
     7
370
    15
100
AcDbCircle
 10
404.5330563194
 20
544.2191778924
 30
0.0
 40
30.0
100
AcDbArc
 50
270.0
 51
0.0
  0
ARC
  5
1F9
330
1F
100
AcDbEntity
  8
0
  6
Continuous
 62
     7
370
    15
100
AcDbCircle
 10
70.5330563194
 20
544.2191778924
 30
0.0
 40
30.0
100
AcDbArc
 50
180.0
 51
270.0
  0
LINE
  5
1FA
330
1F
100
AcDbEntity
  8
0
  6
Continuous
 62
     7
370
    15
100
AcDbLine
 10
41.5330570858
 20
630.2191785778
 30
0.0
 11
40.5330550593
 21
630.2191785778
 31
0.0
  0
LINE
  5
1FB
330
1F
100
AcDbEntity
  8
0
  6
Continuous
 62
     7
370
    15
100
AcDbLine
 10
434.533056311
 20
630.2191785778
 30
0.0
 11
433.5330691856
 21
630.2191785778
 31
0.0
  0
ARC
  5
1FC
330
1F
100
AcDbEntity
  8
0
  6
Continuous
 62
     7
370
    15
100
AcDbCircle
 10
67.3330563194
 20
820.4191778924
 30
0.0
 40
20.79999999999998
100
AcDbArc
 50
90.0
 51
180.0
  0
ARC
  5
1FD
330
1F
100
AcDbEntity
  8
0
  6
Continuous
 62
     7
370
    15
100
AcDbCircle
 10
406.7330563194
 20
820.4191778924
 30
0.0
 40
20.80000000000007
100
AcDbArc
 50
0.0
 51
90.0
  0
ARC
  5
1FE
330
1F
100
AcDbEntity
  8
0
  6
Continuous
 62
     7
370
    15
100
AcDbCircle
 10
406.7330563194
 20
541.0191778924
 30
0.0
 40
20.7999999999999
100
AcDbArc
 50
270.0
 51
0.0
  0
LINE
  5
1FF
330
1F
100
AcDbEntity
  8
0
  6
Continuous
 62
     7
370
    15
100
AcDbLine
 10
67.3330542367
 20
520.2191791739
 30
0.0
 11
406.7330625576
 21
520.2191791739
 31
0.0
  0
LINE
  5
200
330
1F
100
AcDbEntity
  8
0
  6
Continuous
 62
     7
370
    15
100
AcDbLine
 10
46.5330597681
 20
820.4191684033
 30
0.0
 11
46.5330597681
 21
541.0191773679
 31
0.0
  0
LINE
  5
201
330
1F
100
AcDbEntity
  8
0
  6
Continuous
 62
     7
370
    15
100
AcDbLine
 10
406.7330625576
 20
841.2191926743
 30
0.0
 11
67.3330542367
 21
841.2191926743
 31
0.0
  0
LINE
  5
202
330
1F
100
AcDbEntity
  8
0
  6
Continuous
 62
     7
370
    15
100
AcDbLine
 10
427.5330570262
 20
541.0191773679
 30
0.0
 11
427.5330570262
 21
820.4191684033
 31
0.0
  0
ARC
  5
203
330
1F
100
AcDbEntity
  8
0
  6
Continuous
 62
     7
370
    15
100
AcDbCircle
 10
67.3330563194
 20
541.0191778924
 30
0.0
 40
20.79999999999998
100
AcDbArc
 50
180.0
 51
270.0
  0
LINE
  5
204
330
1F
100
AcDbEntity
  8
SLD-0
 62
     5
370
     0
100
AcDbLine
 10
415.6532285316
 20
610.4621181442
 30
0.0
 11
418.0879968694
 21
610.4621181442
 31
0.0
  0
LINE
  5
205
330
1F
100
AcDbEntity
  8
SLD-0
 62
     5
370
     0
100
AcDbLine
 10
404.0532285316
 20
642.9621181442
 30
0.0
 11
357.6742374699
 21
642.9621181442
 31
0.0
  0
LINE
  5
206
330
1F
100
AcDbEntity
  8
SLD-0
 62
     5
370
     0
100
AcDbLine
 10
300.6274519331
 20
814.5101348503
 30
0.0
 11
300.6274519331
 21
768.8679432159
 31
0.0
  0
LINE
  5
207
330
1F
100
AcDbEntity
  8
SLD-0
 62
     5
370
     0
100
AcDbLine
 10
365.6274519331
 20
814.5101348503
 30
0.0
 11
365.6274519331
 21
768.8679432159
 31
0.0
  0
LINE
  5
208
330
1F
100
AcDbEntity
  8
SLD-0
100
AcDbLine
 10
164.1274519331
 20
508.6191778924
 30
0.0
 11
164.1274519331
 21
495.0883523134
 31
0.0
  0
LINE
  5
209
330
1F
100
AcDbEntity
  8
SLD-0
 62
     5
370
     0
100
AcDbLine
 10
404.0532285316
 20
584.5455061459
 30
0.0
 11
411.4138560034
 21
584.5455061459
 31
0.0
  0
LINE
  5
20A
330
1F
100
AcDbEntity
  8
SLD-0
 62
     5
370
     0
100
AcDbLine
 10
404.0532285316
 20
584.5455061459
 30
0.0
 11
404.0532285316
 21
572.030422638
 31
0.0
  0
LINE
  5
20B
330
1F
100
AcDbEntity
  8
SLD-0
 62
     5
370
     0
100
AcDbLine
 10
404.0532285316
 20
577.9621181442
 30
0.0
 11
357.6742374699
 21
577.9621181442
 31
0.0
  0
LINE
  5
20C
330
1F
100
AcDbEntity
  8
SLD-0
 62
     5
370
     0
100
AcDbLine
 10
404.0532285316
 20
648.598388275
 30
0.0
 11
411.4138560034
 21
648.598388275
 31
0.0
  0
LINE
  5
20D
330
1F
100
AcDbEntity
  8
SLD-0
 62
     5
370
     0
100
AcDbLine
 10
404.0532285316
 20
648.598388275
 30
0.0
 11
404.0532285316
 21
636.9858169155
 31
0.0
  0
LINE
  5
20E
330
1F
100
AcDbEntity
  8
SLD-0
  6
HIDDEN
 62
     5
370
     0
100
AcDbLine
 10
419.4988897731
 20
819.7191778924
 30
0.0
 11
394.2168386573
 21
819.7191778924
 31
0.0
  0
LINE
  5
20F
330
1F
100
AcDbEntity
  8
SLD-0
  6
CENTER
 62
     5
370
     0
100
AcDbLine
 10
406.0330563194
 20
806.6846027037
 30
0.0
 11
406.0330563194
 21
833.285717356
 31
0.0
  0
LINE
  5
210
330
1F
100
AcDbEntity
  8
SLD-0
 62
     5
370
     0
100
AcDbLine
 10
392.3290435372
 20
542.7191778924
 30
0.0
 11
419.4988897731
 21
542.7191778924
 31
0.0
  0
LINE
  5
211
330
1F
100
AcDbEntity
  8
SLD-0
 62
     5
370
     0
100
AcDbLine
 10
406.0330563194
 20
526.9624806099
 30
0.0
 11
406.0330563194
 21
555.4052774137
 31
0.0
  0
LINE
  5
212
330
1F
100
AcDbEntity
  8
SLD-0
 62
     5
370
     0
100
AcDbLine
 10
69.0330563194
 20
554.6324583941
 30
0.0
 11
69.0330563194
 21
528.3550691079
 31
0.0
  0
LINE
  5
213
330
1F
100
AcDbEntity
  8
SLD-0
 62
     5
370
     0
100
AcDbLine
 10
333.1274519331
 20
887.3450689211
 30
0.0
 11
333.1274519331
 21
470.3635757421
 31
0.0
  0
LINE
  5
214
330
1F
100
AcDbEntity
  8
SLD-0
 62
     5
370
     0
100
AcDbLine
 10
288.1274519331
 20
792.4621181442
 30
0.0
 11
288.1274519331
 21
794.4621181442
 31
0.0
  0
LINE
  5
215
330
1F
100
AcDbEntity
  8
SLD-0
  6
HIDDEN
 62
     5
370
     0
100
AcDbLine
 10
288.1274519331
 20
792.4621181442
 30
0.0
 11
378.1274519331
 21
792.4621181442
 31
0.0
  0
LINE
  5
216
330
1F
100
AcDbEntity
  8
SLD-0
  6
HIDDEN
 62
     5
370
     0
100
AcDbLine
 10
288.1274519331
 20
792.4621181442
 30
0.0
 11
288.1274519331
 21
784.4621181442
 31
0.0
  0
LINE
  5
217
330
1F
100
AcDbEntity
  8
SLD-0
  6
HIDDEN
 62
     5
370
     0
100
AcDbLine
 10
288.1274519331
 20
784.4621181442
 30
0.0
 11
378.1274519331
 21
784.4621181442
 31
0.0
  0
LINE
  5
218
330
1F
100
AcDbEntity
  8
SLD-0
  6
Continuous
 62
     5
370
     0
100
AcDbLine
 10
378.1274519331
 20
792.4621181442
 30
0.0
 11
378.1274519331
 21
784.4621181442
 31
0.0
  0
LINE
  5
219
330
1F
100
AcDbEntity
  8
SLD-0
  6
HIDDEN
 62
     5
370
     0
100
AcDbLine
 10
288.1274519331
 20
794.4621181442
 30
0.0
 11
378.1274519331
 21
794.4621181442
 31
0.0
  0
LINE
  5
21A
330
1F
100
AcDbEntity
  8
SLD-0
 62
     5
370
     0
100
AcDbLine
 10
378.1274519331
 20
794.4621181442
 30
0.0
 11
378.1274519331
 21
792.4621181442
 31
0.0
  0
LINE
  5
21B
330
1F
100
AcDbEntity
  8
SLD-0
 62
     5
370
     0
100
AcDbLine
 10
294.6274519331
 20
794.4621181442
 30
0.0
 11
294.6274519331
 21
800.4621181442
 31
0.0
  0
LINE
  5
21C
330
1F
100
AcDbEntity
  8
SLD-0
 62
     5
370
     0
100
AcDbLine
 10
294.6274519331
 20
800.4621181442
 30
0.0
 11
306.6274519331
 21
800.4621181442
 31
0.0
  0
LINE
  5
21D
330
1F
100
AcDbEntity
  8
SLD-0
 62
     5
370
     0
100
AcDbLine
 10
306.6274519331
 20
800.4621181442
 30
0.0
 11
306.6274519331
 21
794.4621181442
 31
0.0
  0
LINE
  5
21E
330
1F
100
AcDbEntity
  8
SLD-0
 62
     5
370
     0
100
AcDbLine
 10
359.6274519331
 20
794.4621181442
 30
0.0
 11
359.6274519331
 21
800.4621181442
 31
0.0
  0
LINE
  5
21F
330
1F
100
AcDbEntity
  8
SLD-0
 62
     5
370
     0
100
AcDbLine
 10
359.6274519331
 20
800.4621181442
 30
0.0
 11
371.6274519331
 21
800.4621181442
 31
0.0
  0
LINE
  5
220
330
1F
100
AcDbEntity
  8
SLD-0
 62
     5
370
     0
100
AcDbLine
 10
371.6274519331
 20
800.4621181442
 30
0.0
 11
371.6274519331
 21
794.4621181442
 31
0.0
  0
LINE
  5
221
330
1F
100
AcDbEntity
  8
SLD-0
 62
     5
370
     0
100
AcDbLine
 10
404.0532285316
 20
636.9858169155
 30
0.0
 11
411.4138560034
 21
636.9858169155
 31
0.0
  0
LINE
  5
222
330
1F
100
AcDbEntity
  8
SLD-0
 62
     5
370
     0
100
AcDbLine
 10
411.4138560034
 20
648.598388275
 30
0.0
 11
411.4138560034
 21
636.9858169155
 31
0.0
  0
LINE
  5
223
330
1F
100
AcDbEntity
  8
SLD-0
 62
     5
370
     0
100
AcDbLine
 10
404.0532285316
 20
572.030422638
 30
0.0
 11
411.4138560034
 21
572.030422638
 31
0.0
  0
LINE
  5
224
330
1F
100
AcDbEntity
  8
SLD-0
 62
     5
370
     0
100
AcDbLine
 10
411.4138560034
 20
584.5455061459
 30
0.0
 11
411.4138560034
 21
572.030422638
 31
0.0
  0
CIRCLE
  5
225
330
1F
100
AcDbEntity
  8
SLD-0
  6
HIDDEN
 62
     5
370
    15
100
AcDbCircle
 10
69.0330563194
 20
819.7191778924
 30
0.0
 40
5.999999999999996
  0
CIRCLE
  5
226
330
1F
100
AcDbEntity
  8
SLD-0
  6
HIDDEN
 62
     5
370
    15
100
AcDbCircle
 10
69.0330563194
 20
542.7191778924
 30
0.0
 40
6.000000000000029
  0
CIRCLE
  5
227
330
1F
100
AcDbEntity
  8
SLD-0
  6
HIDDEN
 62
     5
370
    15
100
AcDbCircle
 10
406.0330563194
 20
542.7191778924
 30
0.0
 40
6.000000000000056
  0
CIRCLE
  5
228
330
1F
100
AcDbEntity
  8
SLD-0
  6
HIDDEN
 62
     5
370
    15
100
AcDbCircle
 10
406.0330563194
 20
819.7191778924
 30
0.0
 40
5.999999999999969
  0
DIMENSION
  5
229
330
1F
100
AcDbEntity
  8
SLD-0
 62
     5
100
AcDbDimension
  2
_D_2
 10
365.6274519331
 20
832.4864398575
 30
0.0
 11
333.1274519331
 21
832.4864398575
 31
0.0
 70
   160
  1
<>
 71
     2
 42
-1.0
  3
SLDDIMSTYLE0
100
AcDbAlignedDimension
 13
300.6274519331
 23
814.5101348503
 33
0.0
 14
365.6274519331
 24
814.5101348503
 34
0.0
100
AcDbRotatedDimension
  0
DIMENSION
  5
233
330
1F
100
AcDbEntity
  8
SLD-0
100
AcDbDimension
  2
_D_3
 10
333.1274519331
 20
479.2056103855
 30
0.0
 11
248.6274519331
 21
479.2056103855
 31
0.0
 70
   160
  1
<>
 71
     2
 42
-1.0
  3
SLDDIMSTYLE1
100
AcDbAlignedDimension
 13
164.1274519331
 23
495.0883523134
 33
0.0
 14
333.1274519331
 24
470.3635757421
 34
0.0
 50
0.0
100
AcDbRotatedDimension
  0
DIMENSION
  5
23D
330
1F
100
AcDbEntity
  8
SLD-0
 62
     5
100
AcDbDimension
  2
_D_4
 10
486.5330563194
 20
514.2191778924
 30
0.0
 11
486.5330563194
 21
681.2191778924
 31
0.0
 70
   160
  1
<>
 71
     2
 42
-1.0
  3
SLDDIMSTYLE0
100
AcDbAlignedDimension
 13
404.5330563194
 23
848.2191778924
 33
0.0
 14
404.5330563194
 24
514.2191778924
 34
0.0
 50
90.0
100
AcDbRotatedDimension
  0
ENDSEC
  0
SECTION
  2
OBJECTS
  0
DICTIONARY
  5
C
330
0
100
AcDbDictionary
281
     1
  3
ACAD_GROUP
350
D
  3
ACAD_LAYOUT
350
1A
  3
ACAD_MLINESTYLE
350
17
  3
ACAD_PLOTSETTINGS
350
19
  3
ACAD_PLOTSTYLENAME
350
E
  0
DICTIONARY
  5
D
102
{ACAD_REACTORS
330
C
102
}
330
C
100
AcDbDictionary
281
     1
  0
DICTIONARY
  5
1A
102
{ACAD_REACTORS
330
C
102
}
330
C
100
AcDbDictionary
281
     1
  3
Layout1
350
1E
  3
Layout2
350
26
  3
Model
350
22
  0
DICTIONARY
  5
17
102
{ACAD_REACTORS
330
C
102
}
330
C
100
AcDbDictionary
281
     1
  3
Standard
350
18
  0
DICTIONARY
  5
19
102
{ACAD_REACTORS
330
C
102
}
330
C
100
AcDbDictionary
281
     1
  0
ACDBDICTIONARYWDFLT
  5
E
102
{ACAD_REACTORS
330
C
102
}
330
C
100
AcDbDictionary
281
     1
  3
Normal
350
F
100
AcDbDictionaryWithDefault
340
F
  0
LAYOUT
  5
1E
102
{ACAD_REACTORS
330
1A
102
}
330
1A
100
AcDbPlotSettings
  1

  2
none_device
  4

  6

 40
0.0
 41
0.0
 42
0.0
 43
0.0
 44
0.0
 45
0.0
 46
0.0
 47
0.0
 48
0.0
 49
0.0
140
0.0
141
0.0
142
1.0
143
1.0
 70
   688
 72
     0
 73
     0
 74
     5
  7

 75
    16
147
1.0
148
0.0
149
0.0
100
AcDbLayout
  1
Layout1
 70
     1
 71
     1
 10
0.0
 20
0.0
 11
420.0
 21
297.0
 12
0.0
 22
0.0
 32
0.0
 14
1.0000000000E+20
 24
1.0000000000E+20
 34
1.0000000000E+20
 15
-1.0000000000E+20
 25
-1.0000000000E+20
 35
-1.0000000000E+20
146
0.0
 13
0.0
 23
0.0
 33
0.0
 16
1.0
 26
0.0
 36
0.0
 17
0.0
 27
1.0
 37
0.0
 76
     0
330
1B
  0
LAYOUT
  5
26
102
{ACAD_REACTORS
330
1A
102
}
330
1A
100
AcDbPlotSettings
  1

  2
none_device
  4

  6

 40
0.0
 41
0.0
 42
0.0
 43
0.0
 44
0.0
 45
0.0
 46
0.0
 47
0.0
 48
0.0
 49
0.0
140
0.0
141
0.0
142
1.0
143
1.0
 70
   688
 72
     0
 73
     0
 74
     5
  7

 75
    16
147
1.0
148
0.0
149
0.0
100
AcDbLayout
  1
Layout2
 70
     1
 71
     2
 10
0.0
 20
0.0
 11
0.0
 21
0.0
 12
0.0
 22
0.0
 32
0.0
 14
0.0
 24
0.0
 34
0.0
 15
0.0
 25
0.0
 35
0.0
146
0.0
 13
0.0
 23
0.0
 33
0.0
 16
1.0
 26
0.0
 36
0.0
 17
0.0
 27
1.0
 37
0.0
 76
     0
330
23
  0
LAYOUT
  5
22
102
{ACAD_REACTORS
330
1A
102
}
330
1A
100
AcDbPlotSettings
  1

  2
none_device
  4

  6

 40
0.0
 41
0.0
 42
0.0
 43
0.0
 44
0.0
 45
0.0
 46
0.0
 47
0.0
 48
0.0
 49
0.0
140
0.0
141
0.0
142
1.0
143
1.0
 70
  1712
 72
     0
 73
     0
 74
     0
  7

 75
     0
147
1.0
148
0.0
149
0.0
100
AcDbLayout
  1
Model
 70
     1
 71
     0
 10
0.0
 20
0.0
 11
297.0
 21
210.0
 12
0.0
 22
0.0
 32
0.0
 14
0.0
 24
0.0
 34
0.0
 15
297.0
 25
210.0
 35
0.0
146
0.0
 13
0.0
 23
0.0
 33
0.0
 16
1.0
 26
0.0
 36
0.0
 17
0.0
 27
1.0
 37
0.0
 76
     0
330
1F
331
29
  0
MLINESTYLE
  5
18
102
{ACAD_REACTORS
330
17
102
}
330
17
100
AcDbMlineStyle
  2
Standard
 70
     0
  3

 62
   256
 51
90.0
 52
90.0
 71
     2
 49
0.5
 62
   256
  6
BYLAYER
 49
-0.5
 62
   256
  6
BYLAYER
  0
ACDBPLACEHOLDER
  5
F
102
{ACAD_REACTORS
330
E
102
}
330
E
  0
ENDSEC
  0
EOF
