  0
SECTION
  2
HEADER
  9
$ACADVER
  1
AC1015
  9
$ACADMAINTVER
 70
     6
  9
$DWGCODEPAGE
  3
DOS932
  9
$INSBASE
 10
0.0
 20
0.0
 30
0.0
  9
$EXTMIN
 10
0.0
 20
0.0
 30
0.0
  9
$EXTMAX
 10
1470.0
 20
2079.0
 30
0.0
  9
$LIMMIN
 10
0.0
 20
0.0
  9
$LIMMAX
 10
1470.0
 20
2079.0
  9
$ORTHOMODE
 70
     0
  9
$REGENMODE
 70
     1
  9
$FILLMODE
 70
     1
  9
$QTEXTMODE
 70
     0
  9
$MIRRTEXT
 70
     1
  9
$LTSCALE
 40
7.0
  9
$ATTMODE
 70
     1
  9
$TEXTSIZE
 40
24.5
  9
$TRACEWID
 40
1.0
  9
$TEXTSTYLE
  7
Standard
  9
$CLAYER
  8
0
  9
$CELTYPE
  6
ByLayer
  9
$CECOLOR
 62
   256
  9
$CELTSCALE
 40
1.0
  9
$DISPSILH
 70
     0
  9
$DIMSCALE
 40
1.0
  9
$DIMASZ
 40
14.0
  9
$DIMEXO
 40
7.0
  9
$DIMDLI
 40
3.75
  9
$DIMRND
 40
0.0
  9
$DIMDLE
 40
0.0
  9
$DIMEXE
 40
7.0
  9
$DIMTP
 40
0.0
  9
$DIMTM
 40
0.0
  9
$DIMTXT
 40
19.5999996662
  9
$DIMCEN
 40
2.5
  9
$DIMTSZ
 40
0.0
  9
$DIMTOL
 70
     0
  9
$DIMLIM
 70
     0
  9
$DIMTIH
 70
     1
  9
$DIMTOH
 70
     1
  9
$DIMSE1
 70
     0
  9
$DIMSE2
 70
     0
  9
$DIMTAD
 70
     1
  9
$DIMZIN
 70
     1
  9
$DIMBLK
  1

  9
$DIMASO
 70
     1
  9
$DIMSHO
 70
     1
  9
$DIMPOST
  1

  9
$DIMAPOST
  1

  9
$DIMALT
 70
     0
  9
$DIMALTD
 70
     3
  9
$DIMALTF
 40
0.0393700787
  9
$DIMLFAC
 40
1.0
  9
$DIMTOFL
 70
     1
  9
$DIMTVP
 40
0.0
  9
$DIMTIX
 70
     0
  9
$DIMSOXD
 70
     0
  9
$DIMSAH
 70
     0
  9
$DIMBLK1
  1

  9
$DIMBLK2
  1

  9
$DIMSTYLE
  2
ISO-25
  9
$DIMCLRD
 70
     0
  9
$DIMCLRE
 70
     0
  9
$DIMCLRT
 70
     0
  9
$DIMTFAC
 40
1.0
  9
$DIMGAP
 40
10.668
  9
$DIMJUST
 70
     0
  9
$DIMSD1
 70
     0
  9
$DIMSD2
 70
     0
  9
$DIMTOLJ
 70
     0
  9
$DIMTZIN
 70
     1
  9
$DIMALTZ
 70
     0
  9
$DIMALTTZ
 70
     0
  9
$DIMUPT
 70
     0
  9
$DIMDEC
 70
     3
  9
$DIMTDEC
 70
     3
  9
$DIMALTU
 70
     2
  9
$DIMALTTD
 70
     3
  9
$DIMTXSTY
  7
Standard
  9
$DIMAUNIT
 70
     0
  9
$DIMADEC
 70
     0
  9
$DIMALTRND
 40
0.0
  9
$DIMAZIN
 70
     0
  9
$DIMDSEP
 70
    44
  9
$DIMATFIT
 70
     3
  9
$DIMFRAC
 70
     0
  9
$DIMLDRBLK
  1

  9
$DIMLUNIT
 70
     2
  9
$DIMLWD
 70
    -2
  9
$DIMLWE
 70
    -2
  9
$DIMTMOVE
 70
     0
  9
$LUNITS
 70
     2
  9
$LUPREC
 70
     3
  9
$SKETCHINC
 40
1.0
  9
$FILLETRAD
 40
10.0
  9
$AUNITS
 70
     0
  9
$AUPREC
 70
     0
  9
$MENU
  1
.
  9
$ELEVATION
 40
0.0
  9
$PELEVATION
 40
0.0
  9
$THICKNESS
 40
0.0
  9
$LIMCHECK
 70
     0
  9
$CHAMFERA
 40
0.0
  9
$CHAMFERB
 40
0.0
  9
$CHAMFERC
 40
0.0
  9
$CHAMFERD
 40
0.0
  9
$SKPOLY
 70
     0
  9
$TDCREATE
 40
2458757.407514132
  9
$TDUCREATE
 40
2458757.032514132
  9
$TDUPDATE
 40
2458757.407515764
  9
$TDUUPDATE
 40
2458757.032515764
  9
$TDINDWG
 40
0.0000000116
  9
$TDUSRTIMER
 40
0.0000000116
  9
$USRTIMER
 70
     1
  9
$ANGBASE
 50
0.0
  9
$ANGDIR
 70
     0
  9
$PDMODE
 70
     0
  9
$PDSIZE
 40
-1.0
  9
$PLINEWID
 40
0.0
  9
$SPLFRAME
 70
     0
  9
$SPLINETYPE
 70
     6
  9
$SPLINESEGS
 70
     8
  9
$HANDSEED
  5
4BF
  9
$SURFTAB1
 70
     6
  9
$SURFTAB2
 70
     6
  9
$SURFTYPE
 70
     6
  9
$SURFU
 70
     6
  9
$SURFV
 70
     6
  9
$UCSBASE
  2

  9
$UCSNAME
  2

  9
$UCSORG
 10
0.0
 20
0.0
 30
0.0
  9
$UCSXDIR
 10
1.0
 20
0.0
 30
0.0
  9
$UCSYDIR
 10
0.0
 20
1.0
 30
0.0
  9
$UCSORTHOREF
  2

  9
$UCSORTHOVIEW
 70
     0
  9
$UCSORGTOP
 10
0.0
 20
0.0
 30
0.0
  9
$UCSORGBOTTOM
 10
0.0
 20
0.0
 30
0.0
  9
$UCSORGLEFT
 10
0.0
 20
0.0
 30
0.0
  9
$UCSORGRIGHT
 10
0.0
 20
0.0
 30
0.0
  9
$UCSORGFRONT
 10
0.0
 20
0.0
 30
0.0
  9
$UCSORGBACK
 10
0.0
 20
0.0
 30
0.0
  9
$PUCSBASE
  2

  9
$PUCSNAME
  2

  9
$PUCSORG
 10
0.0
 20
0.0
 30
0.0
  9
$PUCSXDIR
 10
1.0
 20
0.0
 30
0.0
  9
$PUCSYDIR
 10
0.0
 20
1.0
 30
0.0
  9
$PUCSORTHOREF
  2

  9
$PUCSORTHOVIEW
 70
     0
  9
$PUCSORGTOP
 10
0.0
 20
0.0
 30
0.0
  9
$PUCSORGBOTTOM
 10
0.0
 20
0.0
 30
0.0
  9
$PUCSORGLEFT
 10
0.0
 20
0.0
 30
0.0
  9
$PUCSORGRIGHT
 10
0.0
 20
0.0
 30
0.0
  9
$PUCSORGFRONT
 10
0.0
 20
0.0
 30
0.0
  9
$PUCSORGBACK
 10
0.0
 20
0.0
 30
0.0
  9
$USERI1
 70
     0
  9
$USERI2
 70
     0
  9
$USERI3
 70
     0
  9
$USERI4
 70
     0
  9
$USERI5
 70
     0
  9
$USERR1
 40
0.0
  9
$USERR2
 40
0.0
  9
$USERR3
 40
0.0
  9
$USERR4
 40
0.0
  9
$USERR5
 40
0.0
  9
$WORLDVIEW
 70
     1
  9
$SHADEDGE
 70
     3
  9
$SHADEDIF
 70
    70
  9
$TILEMODE
 70
     1
  9
$MAXACTVP
 70
    64
  9
$PINSBASE
 10
0.0
 20
0.0
 30
0.0
  9
$PLIMCHECK
 70
     0
  9
$PEXTMIN
 10
1.0000000000E+20
 20
1.0000000000E+20
 30
1.0000000000E+20
  9
$PEXTMAX
 10
-1.0000000000E+20
 20
-1.0000000000E+20
 30
-1.0000000000E+20
  9
$PLIMMIN
 10
0.0
 20
0.0
  9
$PLIMMAX
 10
420.0
 20
297.0
  9
$UNITMODE
 70
     0
  9
$VISRETAIN
 70
     1
  9
$PLINEGEN
 70
     0
  9
$PSLTSCALE
 70
     1
  9
$TREEDEPTH
 70
  3020
  9
$CMLSTYLE
  2
Standard
  9
$CMLJUST
 70
     0
  9
$CMLSCALE
 40
20.0
  9
$PROXYGRAPHICS
 70
     1
  9
$MEASUREMENT
 70
     1
  9
$CELWEIGHT
370
    -1
  9
$ENDCAPS
280
     0
  9
$JOINSTYLE
280
     0
  9
$LWDISPLAY
290
     1
  9
$INSUNITS
 70
     4
  9
$HYPERLINKBASE
  1

  9
$STYLESHEET
  1

  9
$XEDIT
290
     1
  9
$CEPSNTYPE
380
     0
  9
$PSTYLEMODE
290
     1
  9
$FINGERPRINTGUID
  2
{C3FD6317-DC6F-445A-8338-050EB8AE5A3B}
  9
$VERSIONGUID
  2
{FAEB1C32-E019-11D5-929B-00C0DF256EC4}
  9
$EXTNAMES
290
     1
  9
$PSVPSCALE
 40
0.0
  9
$OLESTARTUP
290
     0
  0
ENDSEC
  0
SECTION
  2
CLASSES
  0
CLASS
  1
ACDBDICTIONARYWDFLT
  2
AcDbDictionaryWithDefault
  3
ObjectDBX Classes
 90
        0
280
     0
281
     0
  0
CLASS
  1
VISUALSTYLE
  2
AcDbVisualStyle
  3
ObjectDBX Classes
 90
     4095
280
     0
281
     0
  0
CLASS
  1
MATERIAL
  2
AcDbMaterial
  3
ObjectDBX Classes
 90
     1153
280
     0
281
     0
  0
CLASS
  1
SCALE
  2
AcDbScale
  3
ObjectDBX Classes
 90
     1153
280
     0
281
     0
  0
CLASS
  1
TABLESTYLE
  2
AcDbTableStyle
  3
ObjectDBX Classes
 90
     4095
280
     0
281
     0
  0
CLASS
  1
MLEADERSTYLE
  2
AcDbMLeaderStyle
  3
ACDB_MLEADERSTYLE_CLASS
 90
     4095
280
     0
281
     0
  0
CLASS
  1
SUN
  2
AcDbSun
  3
SCENEOE
 90
     1153
280
     0
281
     0
  0
CLASS
  1
ACDBPLACEHOLDER
  2
AcDbPlaceHolder
  3
ObjectDBX Classes
 90
        0
280
     0
281
     0
  0
CLASS
  1
LAYOUT
  2
AcDbLayout
  3
ObjectDBX Classes
 90
        0
280
     0
281
     0
  0
ENDSEC
  0
SECTION
  2
TABLES
  0
TABLE
  2
VPORT
  5
8
330
0
100
AcDbSymbolTable
 70
     1
  0
VPORT
  5
29
330
8
100
AcDbSymbolTableRecord
100
AcDbViewportTableRecord
  2
*Active
 70
     0
 10
0.0
 20
0.0
 11
1.0
 21
1.0
 12
735.0
 22
1039.5
 13
0.0
 23
0.0
 14
10.0
 24
10.0
 15
10.0
 25
10.0
 16
0.0
 26
0.0
 36
1.0
 17
0.0
 27
0.0
 37
0.0
 40
2079.0
 41
0.7070707071
 42
50.0
 43
0.0
 44
0.0
 50
0.0
 51
0.0
 71
     0
 72
  2000
 73
     1
 74
     3
 75
     0
 76
     0
 77
     0
 78
     0
281
     0
 65
     1
110
0.0
120
0.0
130
0.0
111
1.0
121
0.0
131
0.0
112
0.0
122
1.0
132
0.0
 79
     0
146
0.0
  0
ENDTAB
  0
TABLE
  2
LTYPE
  5
5
330
0
100
AcDbSymbolTable
 70
     6
  0
LTYPE
  5
14
330
5
100
AcDbSymbolTableRecord
100
AcDbLinetypeTableRecord
  2
ByBlock
 70
     0
  3

 72
    65
 73
     0
 40
0.0
  0
LTYPE
  5
15
330
5
100
AcDbSymbolTableRecord
100
AcDbLinetypeTableRecord
  2
ByLayer
 70
     0
  3

 72
    65
 73
     0
 40
0.0
  0
LTYPE
  5
16
330
5
100
AcDbSymbolTableRecord
100
AcDbLinetypeTableRecord
  2
Continuous
 70
     0
  3
Solid line
 72
    65
 73
     0
 40
0.0
  0
LTYPE
  5
6E
330
5
100
AcDbSymbolTableRecord
100
AcDbLinetypeTableRecord
  2
HIDDEN
 70
     0
  3
Hidden __ __ __ __ __ __ __ __ __ __ __ __ __ __
 72
    65
 73
     2
 40
1.905
 49
1.27
 74
     0
 49
-0.635
 74
     0
  0
LTYPE
  5
6F
330
5
100
AcDbSymbolTableRecord
100
AcDbLinetypeTableRecord
  2
PHANTOM
 70
     0
  3
Phantom ______  __  __  ______  __  __  ______
 72
    65
 73
     6
 40
12.7
 49
6.35
 74
     0
 49
-1.27
 74
     0
 49
1.27
 74
     0
 49
-1.27
 74
     0
 49
1.27
 74
     0
 49
-1.27
 74
     0
  0
LTYPE
  5
70
330
5
100
AcDbSymbolTableRecord
100
AcDbLinetypeTableRecord
  2
CENTER
 70
     0
  3
Center ____ _ ____ _ ____ _ ____ _ ____ _ ____
 72
    65
 73
     4
 40
10.16
 49
6.35
 74
     0
 49
-1.27
 74
     0
 49
1.27
 74
     0
 49
-1.27
 74
     0
  0
LTYPE
  5
71
330
5
100
AcDbSymbolTableRecord
100
AcDbLinetypeTableRecord
  2
CENTERX2
 70
     0
  3
Center (2x) ________  __  ________  __  _____
 72
    65
 73
     4
 40
20.32
 49
12.7
 74
     0
 49
-2.54
 74
     0
 49
2.54
 74
     0
 49
-2.54
 74
     0
  0
LTYPE
  5
72
330
5
100
AcDbSymbolTableRecord
100
AcDbLinetypeTableRecord
  2
DOT2
 70
     0
  3
Dot (.5x) ........................................
 72
    65
 73
     2
 40
0.635
 49
0.0
 74
     0
 49
-0.635
 74
     0
  0
ENDTAB
  0
TABLE
  2
LAYER
  5
2
330
0
100
AcDbSymbolTable
 70
     2
  0
LAYER
  5
10
330
2
100
AcDbSymbolTableRecord
100
AcDbLayerTableRecord
  2
0
 70
     0
 62
     7
  6
Continuous
370
    -3
390
F
  0
LAYER
  5
73
330
2
100
AcDbSymbolTableRecord
100
AcDbLayerTableRecord
  2
SLD-0
 70
     0
 62
     3
  6
Continuous
370
    -3
390
F
  0
ENDTAB
  0
TABLE
  2
STYLE
  5
3
330
0
100
AcDbSymbolTable
 70
     2
  0
STYLE
  5
11
330
3
100
AcDbSymbolTableRecord
100
AcDbTextStyleTableRecord
  2
Standard
 70
     0
 40
0.0
 41
1.0
 50
0.0
 71
     0
 42
24.5
  3
txt
  4
bigfont
  0
STYLE
  5
219
330
3
100
AcDbSymbolTableRecord
100
AcDbTextStyleTableRecord
  2
SLDTEXTSTYLE0
 70
     0
 40
0.0
 41
0.7
 50
0.0
 71
     0
 42
24.5
  3
TXT
  4
bigfont
  0
ENDTAB
  0
TABLE
  2
VIEW
  5
6
330
0
100
AcDbSymbolTable
 70
     0
  0
ENDTAB
  0
TABLE
  2
UCS
  5
7
330
0
100
AcDbSymbolTable
 70
     0
  0
ENDTAB
  0
TABLE
  2
APPID
  5
9
330
0
100
AcDbSymbolTable
 70
     1
  0
APPID
  5
12
330
9
100
AcDbSymbolTableRecord
100
AcDbRegAppTableRecord
  2
ACAD
 70
     0
  0
ENDTAB
  0
TABLE
  2
DIMSTYLE
  5
A
330
0
100
AcDbSymbolTable
 70
     8
100
AcDbDimStyleTable
  0
DIMSTYLE
105
27
330
A
100
AcDbSymbolTableRecord
100
AcDbDimStyleTableRecord
  2
ISO-25
 70
     0
 41
2.5
 42
0.625
 43
3.75
 44
1.25
 73
     0
 74
     0
 77
     1
 78
     8
140
2.5
141
2.5
143
0.0393700787
147
0.625
171
     3
172
     1
178
     0
271
     2
272
     2
274
     3
278
    44
283
     0
284
     8
340
11
  0
DIMSTYLE
105
21A
102
{ACAD_REACTORS
330
218
330
235
330
24C
330
3E2
330
3EC
330
421
330
42B
330
435
330
461
330
478
102
}
330
A
100
AcDbSymbolTableRecord
100
AcDbDimStyleTableRecord
  2
SLDDIMSTYLE0
 70
     0
 41
14.0
 44
0.0
 45
0.000000001
 73
     0
 74
     0
 77
     3
 78
    12
 79
     3
140
23.3439670139
147
5.8359917535
173
     1
178
     0
271
     0
272
     0
276
     2
284
    12
340
219
341
21B
343
21B
344
21B
  0
DIMSTYLE
105
22B
102
{ACAD_REACTORS
330
22A
330
457
102
}
330
A
100
AcDbSymbolTableRecord
100
AcDbDimStyleTableRecord
  2
SLDDIMSTYLE1
 70
     0
 41
14.0
 44
0.0
 45
0.000000001
 73
     0
 74
     0
 77
     3
 78
    12
 79
     3
140
23.3439670139
147
5.8359917535
173
     1
178
     0
271
     0
272
     2
276
     2
284
    12
340
219
341
21B
343
21B
344
21B
  0
DIMSTYLE
105
240
102
{ACAD_REACTORS
330
23F
330
43F
330
44B
102
}
330
A
100
AcDbSymbolTableRecord
100
AcDbDimStyleTableRecord
  2
SLDDIMSTYLE2
 70
     0
 41
14.0
 44
0.0
 45
0.000000001
 73
     0
 74
     0
 77
     3
 78
    12
 79
     3
140
23.3439670139
147
5.8359917535
172
     1
173
     1
178
     0
271
     0
272
     0
276
     2
284
    12
289
     0
340
219
341
21B
343
21B
344
21B
  0
DIMSTYLE
105
3F7
102
{ACAD_REACTORS
330
3F6
102
}
330
A
100
AcDbSymbolTableRecord
100
AcDbDimStyleTableRecord
  2
SLDDIMSTYLE3
 70
     0
 41
14.0
 44
0.0
 45
0.000000001
 73
     0
 74
     0
 77
     3
 78
    12
 79
     3
140
23.3439670139
147
5.8359917535
172
     1
173
     1
178
     0
271
     1
272
     1
276
     2
284
    12
289
     0
340
219
341
21B
343
21B
344
21B
  0
DIMSTYLE
105
403
102
{ACAD_REACTORS
330
402
102
}
330
A
100
AcDbSymbolTableRecord
100
AcDbDimStyleTableRecord
  2
SLDDIMSTYLE4
 70
     0
 41
14.0
 44
0.0
 45
0.000000001
 73
     0
 74
     0
 77
     3
 78
    12
 79
     3
140
23.3439670139
147
5.8359917535
173
     1
178
     0
271
     1
272
     2
276
     2
284
    12
340
219
341
21B
343
21B
344
21B
  0
DIMSTYLE
105
40D
102
{ACAD_REACTORS
330
40C
330
417
102
}
330
A
100
AcDbSymbolTableRecord
100
AcDbDimStyleTableRecord
  2
SLDDIMSTYLE5
 70
     0
 41
14.0
 44
0.0
 45
0.000000001
 73
     0
 74
     0
 77
     3
 78
    12
 79
     3
140
23.3439670139
147
5.8359917535
173
     1
178
     0
271
     1
272
     1
276
     2
284
    12
340
219
341
21B
343
21B
344
21B
  0
DIMSTYLE
105
46C
102
{ACAD_REACTORS
330
46B
102
}
330
A
100
AcDbSymbolTableRecord
100
AcDbDimStyleTableRecord
  2
SLDDIMSTYLE6
 70
     0
 41
14.0
 44
0.0
 45
0.000000001
 73
     0
 74
     0
 77
     3
 78
    12
 79
     3
140
23.3439670139
147
5.8359917535
172
     1
173
     1
178
     0
271
     0
272
     2
276
     2
284
    12
289
     0
340
219
341
21B
343
21B
344
21B
  0
ENDTAB
  0
TABLE
  2
BLOCK_RECORD
  5
1
330
0
100
AcDbSymbolTable
 70
    29
  0
BLOCK_RECORD
  5
1F
330
1
100
AcDbSymbolTableRecord
100
AcDbBlockTableRecord
  2
*Model_Space
340
22
  0
BLOCK_RECORD
  5
1B
330
1
100
AcDbSymbolTableRecord
100
AcDbBlockTableRecord
  2
*Paper_Space
340
1E
  0
BLOCK_RECORD
  5
23
330
1
100
AcDbSymbolTableRecord
100
AcDbBlockTableRecord
  2
*Paper_Space0
340
26
  0
BLOCK_RECORD
  5
21B
330
1
100
AcDbSymbolTableRecord
100
AcDbBlockTableRecord
  2
_OPEN30
340
0
102
{BLKREFS
331
224
331
225
331
22F
331
230
331
239
331
23A
331
244
331
245
331
250
331
251
331
3E6
331
3E7
331
3F0
331
3F1
331
3FB
331
3FC
331
407
331
408
331
411
331
412
331
41B
331
41C
331
425
331
426
331
42F
331
430
331
439
331
43A
331
443
331
444
331
44F
331
450
331
45B
331
45C
331
465
331
466
331
470
331
471
331
47C
331
47D
102
}
  0
BLOCK_RECORD
  5
221
330
1
100
AcDbSymbolTableRecord
100
AcDbBlockTableRecord
  2
_D
340
0
  0
BLOCK_RECORD
  5
22C
330
1
100
AcDbSymbolTableRecord
100
AcDbBlockTableRecord
  2
_D_1
340
0
  0
BLOCK_RECORD
  5
236
330
1
100
AcDbSymbolTableRecord
100
AcDbBlockTableRecord
  2
_D_2
340
0
  0
BLOCK_RECORD
  5
241
330
1
100
AcDbSymbolTableRecord
100
AcDbBlockTableRecord
  2
_D_3
340
0
  0
BLOCK_RECORD
  5
24D
330
1
100
AcDbSymbolTableRecord
100
AcDbBlockTableRecord
  2
_D_4
340
0
  0
BLOCK_RECORD
  5
256
330
1
100
AcDbSymbolTableRecord
100
AcDbBlockTableRecord
  2
SW_CENTERMARKSYMBOL_0
340
0
102
{BLKREFS
331
261
102
}
  0
BLOCK_RECORD
  5
262
330
1
100
AcDbSymbolTableRecord
100
AcDbBlockTableRecord
  2
SW_CENTERMARKSYMBOL_1
340
0
102
{BLKREFS
331
26D
102
}
  0
BLOCK_RECORD
  5
3E3
330
1
100
AcDbSymbolTableRecord
100
AcDbBlockTableRecord
  2
_D_5
340
0
  0
BLOCK_RECORD
  5
3ED
330
1
100
AcDbSymbolTableRecord
100
AcDbBlockTableRecord
  2
_D_6
340
0
  0
BLOCK_RECORD
  5
3F8
330
1
100
AcDbSymbolTableRecord
100
AcDbBlockTableRecord
  2
_D_7
340
0
  0
BLOCK_RECORD
  5
404
330
1
100
AcDbSymbolTableRecord
100
AcDbBlockTableRecord
  2
_D_8
340
0
  0
BLOCK_RECORD
  5
40E
330
1
100
AcDbSymbolTableRecord
100
AcDbBlockTableRecord
  2
_D_9
340
0
  0
BLOCK_RECORD
  5
418
330
1
100
AcDbSymbolTableRecord
100
AcDbBlockTableRecord
  2
_D_10
340
0
  0
BLOCK_RECORD
  5
422
330
1
100
AcDbSymbolTableRecord
100
AcDbBlockTableRecord
  2
_D_11
340
0
  0
BLOCK_RECORD
  5
42C
330
1
100
AcDbSymbolTableRecord
100
AcDbBlockTableRecord
  2
_D_12
340
0
  0
BLOCK_RECORD
  5
436
330
1
100
AcDbSymbolTableRecord
100
AcDbBlockTableRecord
  2
_D_13
340
0
  0
BLOCK_RECORD
  5
440
330
1
100
AcDbSymbolTableRecord
100
AcDbBlockTableRecord
  2
_D_14
340
0
  0
BLOCK_RECORD
  5
44C
330
1
100
AcDbSymbolTableRecord
100
AcDbBlockTableRecord
  2
_D_15
340
0
  0
BLOCK_RECORD
  5
458
330
1
100
AcDbSymbolTableRecord
100
AcDbBlockTableRecord
  2
_D_16
340
0
  0
BLOCK_RECORD
  5
462
330
1
100
AcDbSymbolTableRecord
100
AcDbBlockTableRecord
  2
_D_17
340
0
  0
BLOCK_RECORD
  5
46D
330
1
100
AcDbSymbolTableRecord
100
AcDbBlockTableRecord
  2
_D_18
340
0
  0
BLOCK_RECORD
  5
479
330
1
100
AcDbSymbolTableRecord
100
AcDbBlockTableRecord
  2
_D_19
340
0
  0
BLOCK_RECORD
  5
482
330
1
100
AcDbSymbolTableRecord
100
AcDbBlockTableRecord
  2
SW_CENTERMARKSYMBOL_2
340
0
102
{BLKREFS
331
48D
102
}
  0
BLOCK_RECORD
  5
48E
330
1
100
AcDbSymbolTableRecord
100
AcDbBlockTableRecord
  2
SW_CENTERMARKSYMBOL_3
340
0
102
{BLKREFS
331
499
102
}
  0
BLOCK_RECORD
  5
49A
330
1
100
AcDbSymbolTableRecord
100
AcDbBlockTableRecord
  2
SW_CENTERMARKSYMBOL_4
340
0
102
{BLKREFS
331
4A5
102
}
  0
BLOCK_RECORD
  5
4A6
330
1
100
AcDbSymbolTableRecord
100
AcDbBlockTableRecord
  2
SW_CENTERMARKSYMBOL_5
340
0
102
{BLKREFS
331
4B1
102
}
  0
BLOCK_RECORD
  5
4B2
330
1
100
AcDbSymbolTableRecord
100
AcDbBlockTableRecord
  2
SW_CENTERMARKSYMBOL_6
340
0
102
{BLKREFS
331
4BD
102
}
  0
ENDTAB
  0
ENDSEC
  0
SECTION
  2
BLOCKS
  0
BLOCK
  5
20
330
1F
100
AcDbEntity
  8
0
100
AcDbBlockBegin
  2
*Model_Space
 70
     0
 10
0.0
 20
0.0
 30
0.0
  3
*Model_Space
  1

  0
ENDBLK
  5
21
330
1F
100
AcDbEntity
  8
0
100
AcDbBlockEnd
  0
BLOCK
  5
1C
330
1B
100
AcDbEntity
 67
     1
  8
0
100
AcDbBlockBegin
  2
*Paper_Space
 70
     0
 10
0.0
 20
0.0
 30
0.0
  3
*Paper_Space
  1

  0
ENDBLK
  5
1D
330
1B
100
AcDbEntity
 67
     1
  8
0
100
AcDbBlockEnd
  0
BLOCK
  5
24
330
23
100
AcDbEntity
  8
0
100
AcDbBlockBegin
  2
*Paper_Space0
 70
     0
 10
0.0
 20
0.0
 30
0.0
  3
*Paper_Space0
  1

  0
ENDBLK
  5
25
330
23
100
AcDbEntity
  8
0
100
AcDbBlockEnd
  0
BLOCK
  5
21C
330
21B
100
AcDbEntity
  8
0
100
AcDbBlockBegin
  2
_OPEN30
 70
     0
 10
0.0
 20
0.0
 30
0.0
  3
_OPEN30
  1

  0
LINE
  5
21E
330
21B
100
AcDbEntity
  8
0
  6
ByBlock
 62
     0
370
    -2
100
AcDbLine
 10
-1.0
 20
0.267949
 30
0.0
 11
0.0
 21
0.0
 31
0.0
  0
LINE
  5
21F
330
21B
100
AcDbEntity
  8
0
  6
ByBlock
 62
     0
370
    -2
100
AcDbLine
 10
0.0
 20
0.0
 30
0.0
 11
-1.0
 21
-0.267949
 31
0.0
  0
LINE
  5
220
330
21B
100
AcDbEntity
  8
0
  6
ByBlock
 62
     0
370
    -2
100
AcDbLine
 10
0.0
 20
0.0
 30
0.0
 11
-1.0
 21
0.0
 31
0.0
  0
ENDBLK
  5
21D
330
21B
100
AcDbEntity
  8
0
100
AcDbBlockEnd
  0
BLOCK
  5
222
330
221
100
AcDbEntity
  8
0
100
AcDbBlockBegin
  2
_D
 70
     0
 10
0.0
 20
0.0
 30
0.0
  3
_D
  1

  0
INSERT
  5
224
330
221
100
AcDbEntity
  8
SLD-0
 62
     3
100
AcDbBlockReference
  2
_OPEN30
 10
260.4631380843
 20
454.718314738
 30
-3.9997636863
 41
14.0
 42
14.0
 50
270.0
  0
INSERT
  5
225
330
221
100
AcDbEntity
  8
SLD-0
 62
     3
100
AcDbBlockReference
  2
_OPEN30
 10
260.4631380843
 20
842.718314738
 30
-3.9997636863
 41
14.0
 42
14.0
 50
90.0
  0
LINE
  5
226
330
221
100
AcDbEntity
  8
SLD-0
 62
     3
100
AcDbLine
 10
365.4631380843
 20
454.718314738
 30
0.0
 11
253.4631380843
 21
454.718314738
 31
0.0
  0
LINE
  5
227
330
221
100
AcDbEntity
  8
SLD-0
 62
     3
100
AcDbLine
 10
393.4631380843
 20
842.718314738
 30
0.0
 11
253.4631380843
 21
842.718314738
 31
0.0
  0
LINE
  5
228
330
221
100
AcDbEntity
  8
SLD-0
 62
     3
100
AcDbLine
 10
260.4631380843
 20
454.718314738
 30
0.0
 11
260.4631380843
 21
842.718314738
 31
0.0
  0
MTEXT
  5
229
330
221
100
AcDbEntity
  8
SLD-0
 62
     3
100
AcDbMText
 10
234.2010684442
 20
628.345398725
 30
0.0
 40
20.3729166667
 41
0.0
 71
     1
 72
     1
  1
388
  7
SLDTEXTSTYLE0
 11
6.123233995736766E-17
 21
1.0
 31
0.0
 73
     1
 44
1.0
  0
ENDBLK
  5
223
330
221
100
AcDbEntity
  8
0
100
AcDbBlockEnd
  0
BLOCK
  5
22D
330
22C
100
AcDbEntity
  8
0
100
AcDbBlockBegin
  2
_D_1
 70
     0
 10
0.0
 20
0.0
 30
0.0
  3
_D_1
  1

  0
INSERT
  5
22F
330
22C
100
AcDbEntity
  8
SLD-0
 62
     3
100
AcDbBlockReference
  2
_OPEN30
 10
302.4631380843
 20
454.718314738
 30
-3.9997636863
 41
14.0
 42
14.0
 50
270.0
  0
INSERT
  5
230
330
22C
100
AcDbEntity
  8
SLD-0
 62
     3
100
AcDbBlockReference
  2
_OPEN30
 10
302.4631380843
 20
603.618314738
 30
-3.9997636863
 41
14.0
 42
14.0
 50
90.0
  0
LINE
  5
231
330
22C
100
AcDbEntity
  8
SLD-0
 62
     3
100
AcDbLine
 10
365.4631380843
 20
454.718314738
 30
0.0
 11
295.4631380843
 21
454.718314738
 31
0.0
  0
LINE
  5
232
330
22C
100
AcDbEntity
  8
SLD-0
 62
     3
100
AcDbLine
 10
473.9631380843
 20
603.618314738
 30
0.0
 11
295.4631380843
 21
603.618314738
 31
0.0
  0
LINE
  5
233
330
22C
100
AcDbEntity
  8
SLD-0
 62
     3
100
AcDbLine
 10
302.4631380843
 20
454.718314738
 30
0.0
 11
302.4631380843
 21
603.618314738
 31
0.0
  0
MTEXT
  5
234
330
22C
100
AcDbEntity
  8
SLD-0
 62
     3
100
AcDbMText
 10
276.2010684442
 20
508.795398725
 30
0.0
 40
20.3729166667
 41
0.0
 71
     1
 72
     1
  1
149
  7
SLDTEXTSTYLE0
 11
6.123233995736766E-17
 21
1.0
 31
0.0
 73
     1
 44
1.0
  0
ENDBLK
  5
22E
330
22C
100
AcDbEntity
  8
0
100
AcDbBlockEnd
  0
BLOCK
  5
237
330
236
100
AcDbEntity
  8
0
100
AcDbBlockBegin
  2
_D_2
 70
     0
 10
0.0
 20
0.0
 30
0.0
  3
_D_2
  1

  0
INSERT
  5
239
330
236
100
AcDbEntity
  8
SLD-0
 62
     3
100
AcDbBlockReference
  2
_OPEN30
 10
1283.4879852658
 20
454.718314738
 30
-3.9997636863
 41
14.0
 42
14.0
 50
270.0
  0
INSERT
  5
23A
330
236
100
AcDbEntity
  8
SLD-0
 62
     3
100
AcDbBlockReference
  2
_OPEN30
 10
1283.4879852658
 20
842.718314738
 30
-3.9997636863
 41
14.0
 42
14.0
 50
90.0
  0
LINE
  5
23B
330
236
100
AcDbEntity
  8
SLD-0
 62
     3
100
AcDbLine
 10
1124.4631380843
 20
454.718314738
 30
0.0
 11
1290.4879852658
 21
454.718314738
 31
0.0
  0
LINE
  5
23C
330
236
100
AcDbEntity
  8
SLD-0
 62
     3
100
AcDbLine
 10
914.4631380841
 20
842.718314738
 30
0.0
 11
1290.4879852658
 21
842.718314738
 31
0.0
  0
LINE
  5
23D
330
236
100
AcDbEntity
  8
SLD-0
 62
     3
100
AcDbLine
 10
1283.4879852658
 20
454.718314738
 30
0.0
 11
1283.4879852658
 21
842.718314738
 31
0.0
  0
MTEXT
  5
23E
330
236
100
AcDbEntity
  8
SLD-0
 62
     3
100
AcDbMText
 10
1257.2259156258
 20
628.345398725
 30
0.0
 40
20.3729166667
 41
0.0
 71
     1
 72
     1
  1
388
  7
SLDTEXTSTYLE0
 11
6.123233995736766E-17
 21
1.0
 31
0.0
 73
     1
 44
1.0
  0
ENDBLK
  5
238
330
236
100
AcDbEntity
  8
0
100
AcDbBlockEnd
  0
BLOCK
  5
242
330
241
100
AcDbEntity
  8
0
100
AcDbBlockBegin
  2
_D_3
 70
     0
 10
0.0
 20
0.0
 30
0.0
  3
_D_3
  1

  0
INSERT
  5
244
330
241
100
AcDbEntity
  8
SLD-0
 62
     3
100
AcDbBlockReference
  2
_OPEN30
 10
1199.4879852658
 20
454.718314738
 30
-3.9997636863
 41
14.0
 42
14.0
 50
90.0
  0
INSERT
  5
245
330
241
100
AcDbEntity
  8
SLD-0
 62
     3
100
AcDbBlockReference
  2
_OPEN30
 10
1199.4879852658
 20
479.718314738
 30
-3.9997636863
 41
14.0
 42
14.0
 50
270.0
  0
LINE
  5
246
330
241
100
AcDbEntity
  8
SLD-0
 62
     3
100
AcDbLine
 10
1124.4631380843
 20
454.718314738
 30
0.0
 11
1206.4879852658
 21
454.718314738
 31
0.0
  0
LINE
  5
247
330
241
100
AcDbEntity
  8
SLD-0
 62
     3
100
AcDbLine
 10
1124.4631380843
 20
479.718314738
 30
0.0
 11
1206.4879852658
 21
479.718314738
 31
0.0
  0
LINE
  5
248
330
241
100
AcDbEntity
  8
SLD-0
 62
     3
100
AcDbLine
 10
1199.4879852658
 20
454.718314738
 30
0.0
 11
1199.4879852658
 21
407.252234266
 31
0.0
  0
LINE
  5
249
330
241
100
AcDbEntity
  8
SLD-0
 62
     3
100
AcDbLine
 10
1199.4879852658
 20
454.718314738
 30
0.0
 11
1199.4879852658
 21
479.718314738
 31
0.0
  0
LINE
  5
24A
330
241
100
AcDbEntity
  8
SLD-0
 62
     3
100
AcDbLine
 10
1199.4879852658
 20
479.718314738
 30
0.0
 11
1199.4879852658
 21
507.718314738
 31
0.0
  0
MTEXT
  5
24B
330
241
100
AcDbEntity
  8
SLD-0
 62
     3
100
AcDbMText
 10
1173.2259156258
 20
407.252234266
 30
0.0
 40
20.3729166667
 41
0.0
 71
     1
 72
     1
  1
25
  7
SLDTEXTSTYLE0
 11
6.123233995736766E-17
 21
1.0
 31
0.0
 73
     1
 44
1.0
  0
ENDBLK
  5
243
330
241
100
AcDbEntity
  8
0
100
AcDbBlockEnd
  0
BLOCK
  5
24E
330
24D
100
AcDbEntity
  8
0
100
AcDbBlockBegin
  2
_D_4
 70
     0
 10
0.0
 20
0.0
 30
0.0
  3
_D_4
  1

  0
INSERT
  5
250
330
24D
100
AcDbEntity
  8
SLD-0
 62
     3
100
AcDbBlockReference
  2
_OPEN30
 10
1241.4879852658
 20
454.718314738
 30
-3.9997636863
 41
14.0
 42
14.0
 50
270.0
  0
INSERT
  5
251
330
24D
100
AcDbEntity
  8
SLD-0
 62
     3
100
AcDbBlockReference
  2
_OPEN30
 10
1241.4879852658
 20
549.718314738
 30
-3.9997636863
 41
14.0
 42
14.0
 50
90.0
  0
LINE
  5
252
330
24D
100
AcDbEntity
  8
SLD-0
 62
     3
100
AcDbLine
 10
1124.4631380843
 20
454.718314738
 30
0.0
 11
1248.4879852658
 21
454.718314738
 31
0.0
  0
LINE
  5
253
330
24D
100
AcDbEntity
  8
SLD-0
 62
     3
100
AcDbLine
 10
1140.4631150546
 20
549.718314738
 30
0.0
 11
1248.4879852658
 21
549.718314738
 31
0.0
  0
LINE
  5
254
330
24D
100
AcDbEntity
  8
SLD-0
 62
     3
100
AcDbLine
 10
1241.4879852658
 20
454.718314738
 30
0.0
 11
1241.4879852658
 21
549.718314738
 31
0.0
  0
MTEXT
  5
255
330
24D
100
AcDbEntity
  8
SLD-0
 62
     3
100
AcDbMText
 10
1215.2259156258
 20
488.6363704577
 30
0.0
 40
20.3729166667
 41
0.0
 71
     1
 72
     1
  1
95
  7
SLDTEXTSTYLE0
 11
6.123233995736766E-17
 21
1.0
 31
0.0
 73
     1
 44
1.0
  0
ENDBLK
  5
24F
330
24D
100
AcDbEntity
  8
0
100
AcDbBlockEnd
  0
BLOCK
  5
257
330
256
100
AcDbEntity
  8
0
100
AcDbBlockBegin
  2
SW_CENTERMARKSYMBOL_0
 70
     0
 10
0.0
 20
0.0
 30
0.0
  3
SW_CENTERMARKSYMBOL_0
  1

  0
LINE
  5
259
330
256
100
AcDbEntity
  8
SLD-0
 62
     0
100
AcDbLine
 10
0.0
 20
0.0
 30
0.0
 11
0.0
 21
2.5
 31
0.0
  0
LINE
  5
25A
330
256
100
AcDbEntity
  8
SLD-0
 62
     0
100
AcDbLine
 10
0.0
 20
0.0
 30
0.0
 11
-2.5
 21
0.0
 31
0.0
  0
LINE
  5
25B
330
256
100
AcDbEntity
  8
SLD-0
 62
     0
100
AcDbLine
 10
0.0
 20
0.0
 30
0.0
 11
0.0
 21
-2.5
 31
0.0
  0
LINE
  5
25C
330
256
100
AcDbEntity
  8
SLD-0
 62
     0
100
AcDbLine
 10
0.0
 20
0.0
 30
0.0
 11
2.5
 21
0.0
 31
0.0
  0
LINE
  5
25D
330
256
100
AcDbEntity
  8
SLD-0
 62
     0
100
AcDbLine
 10
0.0
 20
5.0
 30
0.0
 11
0.0
 21
21.5
 31
0.0
  0
LINE
  5
25E
330
256
100
AcDbEntity
  8
SLD-0
 62
     0
100
AcDbLine
 10
-5.0
 20
0.0
 30
0.0
 11
-21.5
 21
0.0
 31
0.0
  0
LINE
  5
25F
330
256
100
AcDbEntity
  8
SLD-0
 62
     0
100
AcDbLine
 10
0.0
 20
-5.0
 30
0.0
 11
0.0
 21
-21.5
 31
0.0
  0
LINE
  5
260
330
256
100
AcDbEntity
  8
SLD-0
 62
     0
100
AcDbLine
 10
5.0
 20
0.0
 30
0.0
 11
21.5
 21
0.0
 31
0.0
  0
ENDBLK
  5
258
330
256
100
AcDbEntity
  8
0
100
AcDbBlockEnd
  0
BLOCK
  5
263
330
262
100
AcDbEntity
  8
0
100
AcDbBlockBegin
  2
SW_CENTERMARKSYMBOL_1
 70
     0
 10
0.0
 20
0.0
 30
0.0
  3
SW_CENTERMARKSYMBOL_1
  1

  0
LINE
  5
265
330
262
100
AcDbEntity
  8
SLD-0
 62
     0
100
AcDbLine
 10
0.0
 20
0.0
 30
0.0
 11
0.0
 21
2.5
 31
0.0
  0
LINE
  5
266
330
262
100
AcDbEntity
  8
SLD-0
 62
     0
100
AcDbLine
 10
0.0
 20
0.0
 30
0.0
 11
-2.5
 21
0.0
 31
0.0
  0
LINE
  5
267
330
262
100
AcDbEntity
  8
SLD-0
 62
     0
100
AcDbLine
 10
0.0
 20
0.0
 30
0.0
 11
0.0
 21
-2.5
 31
0.0
  0
LINE
  5
268
330
262
100
AcDbEntity
  8
SLD-0
 62
     0
100
AcDbLine
 10
0.0
 20
0.0
 30
0.0
 11
2.5
 21
0.0
 31
0.0
  0
LINE
  5
269
330
262
100
AcDbEntity
  8
SLD-0
 62
     0
100
AcDbLine
 10
0.0
 20
5.0
 30
0.0
 11
0.0
 21
16.5
 31
0.0
  0
LINE
  5
26A
330
262
100
AcDbEntity
  8
SLD-0
 62
     0
100
AcDbLine
 10
-5.0
 20
0.0
 30
0.0
 11
-16.5
 21
0.0
 31
0.0
  0
LINE
  5
26B
330
262
100
AcDbEntity
  8
SLD-0
 62
     0
100
AcDbLine
 10
0.0
 20
-5.0
 30
0.0
 11
0.0
 21
-16.5
 31
0.0
  0
LINE
  5
26C
330
262
100
AcDbEntity
  8
SLD-0
 62
     0
100
AcDbLine
 10
5.0
 20
0.0
 30
0.0
 11
16.5
 21
0.0
 31
0.0
  0
ENDBLK
  5
264
330
262
100
AcDbEntity
  8
0
100
AcDbBlockEnd
  0
BLOCK
  5
3E4
330
3E3
100
AcDbEntity
  8
0
100
AcDbBlockBegin
  2
_D_5
 70
     0
 10
0.0
 20
0.0
 30
0.0
  3
_D_5
  1

  0
INSERT
  5
3E6
330
3E3
100
AcDbEntity
  8
SLD-0
 62
     3
100
AcDbBlockReference
  2
_OPEN30
 10
1097.4631380843
 20
1781.083228699
 30
0.0
 41
14.0
 42
14.0
 50
0.0
  0
INSERT
  5
3E7
330
3E3
100
AcDbEntity
  8
SLD-0
 62
     3
100
AcDbBlockReference
  2
_OPEN30
 10
392.4631380843
 20
1781.083228699
 30
0.0
 41
14.0
 42
14.0
 50
180.0
  0
LINE
  5
3E8
330
3E3
100
AcDbEntity
  8
SLD-0
 62
     3
100
AcDbLine
 10
1097.4631380843
 20
1686.0599416278
 30
0.0
 11
1097.4631380843
 21
1788.083228699
 31
0.0
  0
LINE
  5
3E9
330
3E3
100
AcDbEntity
  8
SLD-0
 62
     3
100
AcDbLine
 10
392.4631380843
 20
1694.0599416278
 30
0.0
 11
392.4631380843
 21
1788.083228699
 31
0.0
  0
LINE
  5
3EA
330
3E3
100
AcDbEntity
  8
SLD-0
 62
     3
100
AcDbLine
 10
1097.4631380843
 20
1781.083228699
 30
0.0
 11
392.4631380843
 21
1781.083228699
 31
0.0
  0
MTEXT
  5
3EB
330
3E3
100
AcDbEntity
  8
SLD-0
 62
     3
100
AcDbMText
 10
724.5902220713
 20
1807.345298339
 30
0.0
 40
20.3729166667
 41
0.0
 71
     1
 72
     1
  1
705
  7
SLDTEXTSTYLE0
 73
     1
 44
1.0
  0
ENDBLK
  5
3E5
330
3E3
100
AcDbEntity
  8
0
100
AcDbBlockEnd
  0
BLOCK
  5
3EE
330
3ED
100
AcDbEntity
  8
0
100
AcDbBlockBegin
  2
_D_6
 70
     0
 10
0.0
 20
0.0
 30
0.0
  3
_D_6
  1

  0
INSERT
  5
3F0
330
3ED
100
AcDbEntity
  8
SLD-0
 62
     3
100
AcDbBlockReference
  2
_OPEN30
 10
451.4631380843
 20
1389.4444096294
 30
0.0
 41
14.0
 42
14.0
 50
180.0
  0
INSERT
  5
3F1
330
3ED
100
AcDbEntity
  8
SLD-0
 62
     3
100
AcDbBlockReference
  2
_OPEN30
 10
502.4631380843
 20
1389.4444096294
 30
0.0
 41
14.0
 42
14.0
 50
0.0
  0
LINE
  5
3F2
330
3ED
100
AcDbEntity
  8
SLD-0
 62
     3
100
AcDbLine
 10
451.4631380843
 20
1372.4793081468
 30
0.0
 11
451.4631380843
 21
1396.4444096294
 31
0.0
  0
LINE
  5
3F3
330
3ED
100
AcDbEntity
  8
SLD-0
 62
     3
100
AcDbLine
 10
502.4631380843
 20
1373.0599416278
 30
0.0
 11
502.4631380843
 21
1396.4444096294
 31
0.0
  0
LINE
  5
3F4
330
3ED
100
AcDbEntity
  8
SLD-0
 62
     3
100
AcDbLine
 10
451.4631380843
 20
1389.4444096294
 30
0.0
 11
502.4631380843
 21
1389.4444096294
 31
0.0
  0
MTEXT
  5
3F5
330
3ED
100
AcDbEntity
  8
SLD-0
 62
     3
100
AcDbMText
 10
463.381193804
 20
1415.7064792694
 30
0.0
 40
20.3729166667
 41
0.0
 71
     1
 72
     1
  1
51
  7
SLDTEXTSTYLE0
 73
     1
 44
1.0
  0
ENDBLK
  5
3EF
330
3ED
100
AcDbEntity
  8
0
100
AcDbBlockEnd
  0
BLOCK
  5
3F9
330
3F8
100
AcDbEntity
  8
0
100
AcDbBlockBegin
  2
_D_7
 70
     0
 10
0.0
 20
0.0
 30
0.0
  3
_D_7
  1

  0
INSERT
  5
3FB
330
3F8
100
AcDbEntity
  8
SLD-0
 62
     3
100
AcDbBlockReference
  2
_OPEN30
 10
498.9631380843
 20
1307.9741896321
 30
0.0
 41
14.0
 42
14.0
 50
0.0
  0
INSERT
  5
3FC
330
3F8
100
AcDbEntity
  8
SLD-0
 62
     3
100
AcDbBlockReference
  2
_OPEN30
 10
502.4631380843
 20
1307.9741896321
 30
0.0
 41
14.0
 42
14.0
 50
180.0
  0
LINE
  5
3FD
330
3F8
100
AcDbEntity
  8
SLD-0
 62
     3
100
AcDbLine
 10
502.4631380843
 20
1325.4005665362
 30
0.0
 11
502.4631380843
 21
1300.9741896321
 31
0.0
  0
LINE
  5
3FE
330
3F8
100
AcDbEntity
  8
SLD-0
 62
     3
100
AcDbLine
 10
498.9631380843
 20
1307.9741896321
 30
0.0
 11
470.9631380843
 21
1307.9741896321
 31
0.0
  0
LINE
  5
3FF
330
3F8
100
AcDbEntity
  8
SLD-0
 62
     3
100
AcDbLine
 10
498.9631380843
 20
1307.9741896321
 30
0.0
 11
502.4631380843
 21
1307.9741896321
 31
0.0
  0
LINE
  5
400
330
3F8
100
AcDbEntity
  8
SLD-0
 62
     3
100
AcDbLine
 10
502.4631380843
 20
1307.9741896321
 30
0.0
 11
576.6455636403
 21
1307.9741896321
 31
0.0
  0
MTEXT
  5
401
330
3F8
100
AcDbEntity
  8
SLD-0
 62
     3
100
AcDbMText
 10
535.8997316143
 20
1334.2362592722
 30
0.0
 40
20.3729166667
 41
0.0
 71
     1
 72
     1
  1
3.5
  7
SLDTEXTSTYLE0
 73
     1
 44
1.0
  0
ENDBLK
  5
3FA
330
3F8
100
AcDbEntity
  8
0
100
AcDbBlockEnd
  0
BLOCK
  5
405
330
404
100
AcDbEntity
  8
0
100
AcDbBlockBegin
  2
_D_8
 70
     0
 10
0.0
 20
0.0
 30
0.0
  3
_D_8
  1

  0
INSERT
  5
407
330
404
100
AcDbEntity
  8
SLD-0
 62
     3
100
AcDbBlockReference
  2
_OPEN30
 10
661.3145556337
 20
1489.0599416276
 30
0.0
 41
14.0
 42
14.0
 50
90.0
  0
INSERT
  5
408
330
404
100
AcDbEntity
  8
SLD-0
 62
     3
100
AcDbBlockReference
  2
_OPEN30
 10
661.3145556337
 20
1177.5599416276
 30
0.0
 41
14.0
 42
14.0
 50
270.0
  0
LINE
  5
409
330
404
100
AcDbEntity
  8
SLD-0
 62
     3
100
AcDbLine
 10
555.2105007387
 20
1177.5599416276
 30
0.0
 11
668.3145556337
 21
1177.5599416276
 31
0.0
  0
LINE
  5
40A
330
404
100
AcDbEntity
  8
SLD-0
 62
     3
100
AcDbLine
 10
661.3145556337
 20
1489.0599416276
 30
0.0
 11
661.3145556337
 21
1177.5599416276
 31
0.0
  0
MTEXT
  5
40B
330
404
100
AcDbEntity
  8
SLD-0
 62
     3
100
AcDbMText
 10
635.0524859937
 20
1299.3550805194
 30
0.0
 40
20.3729166667
 41
0.0
 71
     1
 72
     1
  1
311.5
  7
SLDTEXTSTYLE0
 11
-7.044195017643634E-15
 21
1.0
 31
0.0
 73
     1
 44
1.0
  0
ENDBLK
  5
406
330
404
100
AcDbEntity
  8
0
100
AcDbBlockEnd
  0
BLOCK
  5
40F
330
40E
100
AcDbEntity
  8
0
100
AcDbBlockBegin
  2
_D_9
 70
     0
 10
0.0
 20
0.0
 30
0.0
  3
_D_9
  1

  0
INSERT
  5
411
330
40E
100
AcDbEntity
  8
SLD-0
 62
     3
100
AcDbBlockReference
  2
_OPEN30
 10
372.4631380843
 20
1105.0371271841
 30
0.0
 41
14.0
 42
14.0
 50
180.0
  0
INSERT
  5
412
330
40E
100
AcDbEntity
  8
SLD-0
 62
     3
100
AcDbBlockReference
  2
_OPEN30
 10
498.9631380843
 20
1105.0371271841
 30
0.0
 41
14.0
 42
14.0
 50
0.0
  0
LINE
  5
413
330
40E
100
AcDbEntity
  8
SLD-0
 62
     3
100
AcDbLine
 10
372.4631380843
 20
1265.5599416278
 30
0.0
 11
372.4631380843
 21
1098.0371271841
 31
0.0
  0
LINE
  5
414
330
40E
100
AcDbEntity
  8
SLD-0
 62
     3
100
AcDbLine
 10
498.9631380843
 20
1131.4126918552
 30
0.0
 11
498.9631380843
 21
1098.0371271841
 31
0.0
  0
LINE
  5
415
330
40E
100
AcDbEntity
  8
SLD-0
 62
     3
100
AcDbLine
 10
372.4631380843
 20
1105.0371271841
 30
0.0
 11
498.9631380843
 21
1105.0371271841
 31
0.0
  0
MTEXT
  5
416
330
40E
100
AcDbEntity
  8
SLD-0
 62
     3
100
AcDbMText
 10
401.7582769761
 20
1131.2991968242
 30
0.0
 40
20.3729166667
 41
0.0
 71
     1
 72
     1
  1
126.5
  7
SLDTEXTSTYLE0
 73
     1
 44
1.0
  0
ENDBLK
  5
410
330
40E
100
AcDbEntity
  8
0
100
AcDbBlockEnd
  0
BLOCK
  5
419
330
418
100
AcDbEntity
  8
0
100
AcDbBlockBegin
  2
_D_10
 70
     0
 10
0.0
 20
0.0
 30
0.0
  3
_D_10
  1

  0
INSERT
  5
41B
330
418
100
AcDbEntity
  8
SLD-0
 62
     3
100
AcDbBlockReference
  2
_OPEN30
 10
498.9631380843
 20
1105.0371271841
 30
0.0
 41
14.0
 42
14.0
 50
180.0
  0
INSERT
  5
41C
330
418
100
AcDbEntity
  8
SLD-0
 62
     3
100
AcDbBlockReference
  2
_OPEN30
 10
907.4631380841
 20
1105.0371271841
 30
0.0
 41
14.0
 42
14.0
 50
0.0
  0
LINE
  5
41D
330
418
100
AcDbEntity
  8
SLD-0
 62
     3
100
AcDbLine
 10
498.9631380843
 20
1131.4126918552
 30
0.0
 11
498.9631380843
 21
1098.0371271841
 31
0.0
  0
LINE
  5
41E
330
418
100
AcDbEntity
  8
SLD-0
 62
     3
100
AcDbLine
 10
907.4631380841
 20
1274.5599416276
 30
0.0
 11
907.4631380841
 21
1098.0371271841
 31
0.0
  0
LINE
  5
41F
330
418
100
AcDbEntity
  8
SLD-0
 62
     3
100
AcDbLine
 10
498.9631380843
 20
1105.0371271841
 30
0.0
 11
907.4631380841
 21
1105.0371271841
 31
0.0
  0
MTEXT
  5
420
330
418
100
AcDbEntity
  8
SLD-0
 62
     3
100
AcDbMText
 10
669.258276976
 20
1131.2991968242
 30
0.0
 40
20.3729166667
 41
0.0
 71
     1
 72
     1
  1
408.5
  7
SLDTEXTSTYLE0
 73
     1
 44
1.0
  0
ENDBLK
  5
41A
330
418
100
AcDbEntity
  8
0
100
AcDbBlockEnd
  0
BLOCK
  5
423
330
422
100
AcDbEntity
  8
0
100
AcDbBlockBegin
  2
_D_11
 70
     0
 10
0.0
 20
0.0
 30
0.0
  3
_D_11
  1

  0
INSERT
  5
425
330
422
100
AcDbEntity
  8
SLD-0
 62
     3
100
AcDbBlockReference
  2
_OPEN30
 10
1241.4879852658
 20
1272.5599416278
 30
-194.0
 41
14.0
 42
14.0
 50
270.0
  0
INSERT
  5
426
330
422
100
AcDbEntity
  8
SLD-0
 62
     3
100
AcDbBlockReference
  2
_OPEN30
 10
1241.4879852658
 20
1705.5599416278
 30
-194.0
 41
14.0
 42
14.0
 50
90.0
  0
LINE
  5
427
330
422
100
AcDbEntity
  8
SLD-0
 62
     3
100
AcDbLine
 10
1124.4631380843
 20
1272.5599416278
 30
0.0
 11
1248.4879852658
 21
1272.5599416278
 31
0.0
  0
LINE
  5
428
330
422
100
AcDbEntity
  8
SLD-0
 62
     3
100
AcDbLine
 10
1124.4631380843
 20
1705.5599416278
 30
0.0
 11
1248.4879852658
 21
1705.5599416278
 31
0.0
  0
LINE
  5
429
330
422
100
AcDbEntity
  8
SLD-0
 62
     3
100
AcDbLine
 10
1241.4879852658
 20
1272.5599416278
 30
0.0
 11
1241.4879852658
 21
1705.5599416278
 31
0.0
  0
MTEXT
  5
42A
330
422
100
AcDbEntity
  8
SLD-0
 62
     3
100
AcDbMText
 10
1215.2259156258
 20
1468.6870256148
 30
0.0
 40
20.3729166667
 41
0.0
 71
     1
 72
     1
  1
433
  7
SLDTEXTSTYLE0
 11
6.123233995736766E-17
 21
1.0
 31
0.0
 73
     1
 44
1.0
  0
ENDBLK
  5
424
330
422
100
AcDbEntity
  8
0
100
AcDbBlockEnd
  0
BLOCK
  5
42D
330
42C
100
AcDbEntity
  8
0
100
AcDbBlockBegin
  2
_D_12
 70
     0
 10
0.0
 20
0.0
 30
0.0
  3
_D_12
  1

  0
INSERT
  5
42F
330
42C
100
AcDbEntity
  8
SLD-0
 62
     3
100
AcDbBlockReference
  2
_OPEN30
 10
1000.7747968957
 20
1489.1034352027
 30
-194.0
 41
14.0
 42
14.0
 50
90.0267061816
  0
INSERT
  5
430
330
42C
100
AcDbEntity
  8
SLD-0
 62
     3
100
AcDbBlockReference
  2
_OPEN30
 10
1000.8820023758
 20
1259.1034601875
 30
-194.0
 41
14.0
 42
14.0
 50
270.0267061816
  0
LINE
  5
431
330
42C
100
AcDbEntity
  8
SLD-0
 62
     3
100
AcDbLine
 10
914.4631373237
 20
1489.0632044031
 30
0.0
 11
1007.7747961353
 21
1489.1066979782
 31
0.0
  0
LINE
  5
432
330
42C
100
AcDbEntity
  8
SLD-0
 62
     3
100
AcDbLine
 10
935.0703405768
 20
1259.072784659
 30
0.0
 11
1007.8820016153
 21
1259.106722963
 31
0.0
  0
LINE
  5
433
330
42C
100
AcDbEntity
  8
SLD-0
 62
     3
100
AcDbLine
 10
1000.7747968957
 20
1489.1034352027
 30
0.0
 11
1000.8820023758
 21
1259.1034601875
 31
0.0
  0
MTEXT
  5
434
330
42C
100
AcDbEntity
  8
SLD-0
 62
     3
100
AcDbMText
 10
974.5758288844
 20
1353.7182928614
 30
0.0
 40
20.3729166667
 41
0.0
 71
     1
 72
     1
  1
230
  7
SLDTEXTSTYLE0
 11
-0.0004661107826173349
 21
0.9999998913703633
 31
0.0
 73
     1
 44
1.0
  0
ENDBLK
  5
42E
330
42C
100
AcDbEntity
  8
0
100
AcDbBlockEnd
  0
BLOCK
  5
437
330
436
100
AcDbEntity
  8
0
100
AcDbBlockBegin
  2
_D_13
 70
     0
 10
0.0
 20
0.0
 30
0.0
  3
_D_13
  1

  0
INSERT
  5
439
330
436
100
AcDbEntity
  8
SLD-0
 62
     3
100
AcDbBlockReference
  2
_OPEN30
 10
1199.4879852658
 20
1299.0599416278
 30
-194.0
 41
14.0
 42
14.0
 50
270.0
  0
INSERT
  5
43A
330
436
100
AcDbEntity
  8
SLD-0
 62
     3
100
AcDbBlockReference
  2
_OPEN30
 10
1199.4879852658
 20
1679.0599416278
 30
-194.0
 41
14.0
 42
14.0
 50
90.0
  0
LINE
  5
43B
330
436
100
AcDbEntity
  8
SLD-0
 62
     3
100
AcDbLine
 10
1112.4631380843
 20
1299.0599416278
 30
0.0
 11
1206.4879852658
 21
1299.0599416278
 31
0.0
  0
LINE
  5
43C
330
436
100
AcDbEntity
  8
SLD-0
 62
     3
100
AcDbLine
 10
1112.4631380843
 20
1679.0599416278
 30
0.0
 11
1206.4879852658
 21
1679.0599416278
 31
0.0
  0
LINE
  5
43D
330
436
100
AcDbEntity
  8
SLD-0
 62
     3
100
AcDbLine
 10
1199.4879852658
 20
1299.0599416278
 30
0.0
 11
1199.4879852658
 21
1679.0599416278
 31
0.0
  0
MTEXT
  5
43E
330
436
100
AcDbEntity
  8
SLD-0
 62
     3
100
AcDbMText
 10
1173.2259156258
 20
1468.6870256148
 30
0.0
 40
20.3729166667
 41
0.0
 71
     1
 72
     1
  1
380
  7
SLDTEXTSTYLE0
 11
6.123233995736766E-17
 21
1.0
 31
0.0
 73
     1
 44
1.0
  0
ENDBLK
  5
438
330
436
100
AcDbEntity
  8
0
100
AcDbBlockEnd
  0
BLOCK
  5
441
330
440
100
AcDbEntity
  8
0
100
AcDbBlockBegin
  2
_D_14
 70
     0
 10
0.0
 20
0.0
 30
0.0
  3
_D_14
  1

  0
INSERT
  5
443
330
440
100
AcDbEntity
  8
SLD-0
 62
     3
100
AcDbBlockReference
  2
_OPEN30
 10
372.4631380843
 20
1781.0832286989
 30
-194.0
 41
14.0
 42
14.0
 50
0.0
  0
INSERT
  5
444
330
440
100
AcDbEntity
  8
SLD-0
 62
     3
100
AcDbBlockReference
  2
_OPEN30
 10
392.4631380843
 20
1781.0832286989
 30
-194.0
 41
14.0
 42
14.0
 50
180.0
  0
LINE
  5
445
330
440
100
AcDbEntity
  8
SLD-0
 62
     3
100
AcDbLine
 10
372.4631380843
 20
1712.5599416278
 30
0.0
 11
372.4631380843
 21
1788.0832286989
 31
0.0
  0
LINE
  5
446
330
440
100
AcDbEntity
  8
SLD-0
 62
     3
100
AcDbLine
 10
392.4631380843
 20
1694.0599416278
 30
0.0
 11
392.4631380843
 21
1788.0832286989
 31
0.0
  0
LINE
  5
447
330
440
100
AcDbEntity
  8
SLD-0
 62
     3
100
AcDbLine
 10
372.4631380843
 20
1781.0832286989
 30
0.0
 11
322.2530712446
 21
1781.0832286989
 31
0.0
  0
LINE
  5
448
330
440
100
AcDbEntity
  8
SLD-0
 62
     3
100
AcDbLine
 10
372.4631380843
 20
1781.0832286989
 30
0.0
 11
392.4631380843
 21
1781.0832286989
 31
0.0
  0
LINE
  5
449
330
440
100
AcDbEntity
  8
SLD-0
 62
     3
100
AcDbLine
 10
392.4631380843
 20
1781.0832286989
 30
0.0
 11
420.4631380843
 21
1781.0832286989
 31
0.0
  0
MTEXT
  5
44A
330
440
100
AcDbEntity
  8
SLD-0
 62
     3
100
AcDbMText
 10
322.2530712446
 20
1807.345298339
 30
0.0
 40
20.3729166667
 41
0.0
 71
     1
 72
     1
  1
20
  7
SLDTEXTSTYLE0
 73
     1
 44
1.0
  0
ENDBLK
  5
442
330
440
100
AcDbEntity
  8
0
100
AcDbBlockEnd
  0
BLOCK
  5
44D
330
44C
100
AcDbEntity
  8
0
100
AcDbBlockBegin
  2
_D_15
 70
     0
 10
0.0
 20
0.0
 30
0.0
  3
_D_15
  1

  0
INSERT
  5
44F
330
44C
100
AcDbEntity
  8
SLD-0
 62
     3
100
AcDbBlockReference
  2
_OPEN30
 10
1097.4631380843
 20
1781.0832286989
 30
-194.0
 41
14.0
 42
14.0
 50
0.0
  0
INSERT
  5
450
330
44C
100
AcDbEntity
  8
SLD-0
 62
     3
100
AcDbBlockReference
  2
_OPEN30
 10
1117.4631380843
 20
1781.0832286989
 30
-194.0
 41
14.0
 42
14.0
 50
180.0
  0
LINE
  5
451
330
44C
100
AcDbEntity
  8
SLD-0
 62
     3
100
AcDbLine
 10
1097.4631380843
 20
1694.0599416278
 30
0.0
 11
1097.4631380843
 21
1788.0832286989
 31
0.0
  0
LINE
  5
452
330
44C
100
AcDbEntity
  8
SLD-0
 62
     3
100
AcDbLine
 10
1117.4631380843
 20
1712.5599416278
 30
0.0
 11
1117.4631380843
 21
1788.0832286989
 31
0.0
  0
LINE
  5
453
330
44C
100
AcDbEntity
  8
SLD-0
 62
     3
100
AcDbLine
 10
1097.4631380843
 20
1781.0832286989
 30
0.0
 11
1069.4631380843
 21
1781.0832286989
 31
0.0
  0
LINE
  5
454
330
44C
100
AcDbEntity
  8
SLD-0
 62
     3
100
AcDbLine
 10
1097.4631380843
 20
1781.0832286989
 30
0.0
 11
1117.4631380843
 21
1781.0832286989
 31
0.0
  0
LINE
  5
455
330
44C
100
AcDbEntity
  8
SLD-0
 62
     3
100
AcDbLine
 10
1117.4631380843
 20
1781.0832286989
 30
0.0
 11
1169.3742513469
 21
1781.0832286989
 31
0.0
  0
MTEXT
  5
456
330
44C
100
AcDbEntity
  8
SLD-0
 62
     3
100
AcDbMText
 10
1142.2103627863
 20
1807.345298339
 30
0.0
 40
20.3729166667
 41
0.0
 71
     1
 72
     1
  1
20
  7
SLDTEXTSTYLE0
 73
     1
 44
1.0
  0
ENDBLK
  5
44E
330
44C
100
AcDbEntity
  8
0
100
AcDbBlockEnd
  0
BLOCK
  5
459
330
458
100
AcDbEntity
  8
0
100
AcDbBlockBegin
  2
_D_16
 70
     0
 10
0.0
 20
0.0
 30
0.0
  3
_D_16
  1

  0
INSERT
  5
45B
330
458
100
AcDbEntity
  8
SLD-0
 62
     3
100
AcDbBlockReference
  2
_OPEN30
 10
372.4631380843
 20
1823.0832286989
 30
-194.0
 41
14.0
 42
14.0
 50
180.0
  0
INSERT
  5
45C
330
458
100
AcDbEntity
  8
SLD-0
 62
     3
100
AcDbBlockReference
  2
_OPEN30
 10
1117.4631380843
 20
1823.0832286989
 30
-194.0
 41
14.0
 42
14.0
 50
0.0
  0
LINE
  5
45D
330
458
100
AcDbEntity
  8
SLD-0
 62
     3
100
AcDbLine
 10
372.4631380843
 20
1712.5599416278
 30
0.0
 11
372.4631380843
 21
1830.0832286989
 31
0.0
  0
LINE
  5
45E
330
458
100
AcDbEntity
  8
SLD-0
 62
     3
100
AcDbLine
 10
1117.4631380843
 20
1712.5599416278
 30
0.0
 11
1117.4631380843
 21
1830.0832286989
 31
0.0
  0
LINE
  5
45F
330
458
100
AcDbEntity
  8
SLD-0
 62
     3
100
AcDbLine
 10
372.4631380843
 20
1823.0832286989
 30
0.0
 11
1117.4631380843
 21
1823.0832286989
 31
0.0
  0
MTEXT
  5
460
330
458
100
AcDbEntity
  8
SLD-0
 62
     3
100
AcDbMText
 10
724.5902220713
 20
1849.345298339
 30
0.0
 40
20.3729166667
 41
0.0
 71
     1
 72
     1
  1
745
  7
SLDTEXTSTYLE0
 73
     1
 44
1.0
  0
ENDBLK
  5
45A
330
458
100
AcDbEntity
  8
0
100
AcDbBlockEnd
  0
BLOCK
  5
463
330
462
100
AcDbEntity
  8
0
100
AcDbBlockBegin
  2
_D_17
 70
     0
 10
0.0
 20
0.0
 30
0.0
  3
_D_17
  1

  0
INSERT
  5
465
330
462
100
AcDbEntity
  8
SLD-0
 62
     3
100
AcDbBlockReference
  2
_OPEN30
 10
907.4631380841
 20
1105.0371271841
 30
-194.0
 41
14.0
 42
14.0
 50
180.0
  0
INSERT
  5
466
330
462
100
AcDbEntity
  8
SLD-0
 62
     3
100
AcDbBlockReference
  2
_OPEN30
 10
1129.4858961713
 20
1105.0371271841
 30
-194.0
 41
14.0
 42
14.0
 50
0.0
  0
LINE
  5
467
330
462
100
AcDbEntity
  8
SLD-0
 62
     3
100
AcDbLine
 10
907.4631380841
 20
1274.5599416276
 30
0.0
 11
907.4631380841
 21
1098.0371271841
 31
0.0
  0
LINE
  5
468
330
462
100
AcDbEntity
  8
SLD-0
 62
     3
100
AcDbLine
 10
1129.4858961713
 20
1433.2861954971
 30
0.0
 11
1129.4858961713
 21
1098.0371271841
 31
0.0
  0
LINE
  5
469
330
462
100
AcDbEntity
  8
SLD-0
 62
     3
100
AcDbLine
 10
907.4631380841
 20
1105.0371271841
 30
0.0
 11
1129.4858961713
 21
1105.0371271841
 31
0.0
  0
MTEXT
  5
46A
330
462
100
AcDbEntity
  8
SLD-0
 62
     3
100
AcDbMText
 10
998.1016011147
 20
1131.2991968242
 30
0.0
 40
20.3729166667
 41
0.0
 71
     1
 72
     1
  1
222
  7
SLDTEXTSTYLE0
 73
     1
 44
1.0
  0
ENDBLK
  5
464
330
462
100
AcDbEntity
  8
0
100
AcDbBlockEnd
  0
BLOCK
  5
46E
330
46D
100
AcDbEntity
  8
0
100
AcDbBlockBegin
  2
_D_18
 70
     0
 10
0.0
 20
0.0
 30
0.0
  3
_D_18
  1

  0
INSERT
  5
470
330
46D
100
AcDbEntity
  8
SLD-0
 62
     3
100
AcDbBlockReference
  2
_OPEN30
 10
1117.4631380843
 20
1189.0371271841
 30
-194.0
 41
14.0
 42
14.0
 50
0.0
  0
INSERT
  5
471
330
46D
100
AcDbEntity
  8
SLD-0
 62
     3
100
AcDbBlockReference
  2
_OPEN30
 10
1129.4858961713
 20
1189.0371271841
 30
-194.0
 41
14.0
 42
14.0
 50
180.0
  0
LINE
  5
472
330
46D
100
AcDbEntity
  8
SLD-0
 62
     3
100
AcDbLine
 10
1117.4631380843
 20
1265.5599416278
 30
0.0
 11
1117.4631380843
 21
1182.0371271841
 31
0.0
  0
LINE
  5
473
330
46D
100
AcDbEntity
  8
SLD-0
 62
     3
100
AcDbLine
 10
1129.4858961713
 20
1433.2861954971
 30
0.0
 11
1129.4858961713
 21
1182.0371271841
 31
0.0
  0
LINE
  5
474
330
46D
100
AcDbEntity
  8
SLD-0
 62
     3
100
AcDbLine
 10
1117.4631380843
 20
1189.0371271841
 30
0.0
 11
1089.4631380843
 21
1189.0371271841
 31
0.0
  0
LINE
  5
475
330
46D
100
AcDbEntity
  8
SLD-0
 62
     3
100
AcDbLine
 10
1117.4631380843
 20
1189.0371271841
 30
0.0
 11
1129.4858961713
 21
1189.0371271841
 31
0.0
  0
LINE
  5
476
330
46D
100
AcDbEntity
  8
SLD-0
 62
     3
100
AcDbLine
 10
1129.4858961713
 20
1189.0371271841
 30
0.0
 11
1174.6964727865
 21
1189.0371271841
 31
0.0
  0
MTEXT
  5
477
330
46D
100
AcDbEntity
  8
SLD-0
 62
     3
100
AcDbMText
 10
1147.5325842259
 20
1215.2991968242
 30
0.0
 40
20.3729166667
 41
0.0
 71
     1
 72
     1
  1
12
  7
SLDTEXTSTYLE0
 73
     1
 44
1.0
  0
ENDBLK
  5
46F
330
46D
100
AcDbEntity
  8
0
100
AcDbBlockEnd
  0
BLOCK
  5
47A
330
479
100
AcDbEntity
  8
0
100
AcDbBlockBegin
  2
_D_19
 70
     0
 10
0.0
 20
0.0
 30
0.0
  3
_D_19
  1

  0
INSERT
  5
47C
330
479
100
AcDbEntity
  8
SLD-0
 62
     3
100
AcDbBlockReference
  2
_OPEN30
 10
372.4631380843
 20
1063.0371271841
 30
-194.0
 41
14.0
 42
14.0
 50
180.0
  0
INSERT
  5
47D
330
479
100
AcDbEntity
  8
SLD-0
 62
     3
100
AcDbBlockReference
  2
_OPEN30
 10
1129.4858961713
 20
1063.0371271841
 30
-194.0
 41
14.0
 42
14.0
 50
0.0
  0
LINE
  5
47E
330
479
100
AcDbEntity
  8
SLD-0
 62
     3
100
AcDbLine
 10
372.4631380843
 20
1265.5599416278
 30
0.0
 11
372.4631380843
 21
1056.0371271841
 31
0.0
  0
LINE
  5
47F
330
479
100
AcDbEntity
  8
SLD-0
 62
     3
100
AcDbLine
 10
1129.4858961713
 20
1433.2861954971
 30
0.0
 11
1129.4858961713
 21
1056.0371271841
 31
0.0
  0
LINE
  5
480
330
479
100
AcDbEntity
  8
SLD-0
 62
     3
100
AcDbLine
 10
372.4631380843
 20
1063.0371271841
 30
0.0
 11
1129.4858961713
 21
1063.0371271841
 31
0.0
  0
MTEXT
  5
481
330
479
100
AcDbEntity
  8
SLD-0
 62
     3
100
AcDbMText
 10
730.6016011148
 20
1089.2991968242
 30
0.0
 40
20.3729166667
 41
0.0
 71
     1
 72
     1
  1
757
  7
SLDTEXTSTYLE0
 73
     1
 44
1.0
  0
ENDBLK
  5
47B
330
479
100
AcDbEntity
  8
0
100
AcDbBlockEnd
  0
BLOCK
  5
483
330
482
100
AcDbEntity
  8
0
100
AcDbBlockBegin
  2
SW_CENTERMARKSYMBOL_2
 70
     0
 10
0.0
 20
0.0
 30
0.0
  3
SW_CENTERMARKSYMBOL_2
  1

  0
LINE
  5
485
330
482
100
AcDbEntity
  8
SLD-0
 62
     0
100
AcDbLine
 10
0.0
 20
0.0
 30
0.0
 11
0.0
 21
2.5
 31
0.0
  0
LINE
  5
486
330
482
100
AcDbEntity
  8
SLD-0
 62
     0
100
AcDbLine
 10
0.0
 20
0.0
 30
0.0
 11
-2.5
 21
0.0
 31
0.0
  0
LINE
  5
487
330
482
100
AcDbEntity
  8
SLD-0
 62
     0
100
AcDbLine
 10
0.0
 20
0.0
 30
0.0
 11
0.0
 21
-2.5
 31
0.0
  0
LINE
  5
488
330
482
100
AcDbEntity
  8
SLD-0
 62
     0
100
AcDbLine
 10
0.0
 20
0.0
 30
0.0
 11
2.5
 21
0.0
 31
0.0
  0
LINE
  5
489
330
482
100
AcDbEntity
  8
SLD-0
 62
     0
100
AcDbLine
 10
0.0
 20
5.0
 30
0.0
 11
0.0
 21
8.0
 31
0.0
  0
LINE
  5
48A
330
482
100
AcDbEntity
  8
SLD-0
 62
     0
100
AcDbLine
 10
-5.0
 20
0.0
 30
0.0
 11
-8.0
 21
0.0
 31
0.0
  0
LINE
  5
48B
330
482
100
AcDbEntity
  8
SLD-0
 62
     0
100
AcDbLine
 10
0.0
 20
-5.0
 30
0.0
 11
0.0
 21
-8.0
 31
0.0
  0
LINE
  5
48C
330
482
100
AcDbEntity
  8
SLD-0
 62
     0
100
AcDbLine
 10
5.0
 20
0.0
 30
0.0
 11
8.0
 21
0.0
 31
0.0
  0
ENDBLK
  5
484
330
482
100
AcDbEntity
  8
0
100
AcDbBlockEnd
  0
BLOCK
  5
48F
330
48E
100
AcDbEntity
  8
0
100
AcDbBlockBegin
  2
SW_CENTERMARKSYMBOL_3
 70
     0
 10
0.0
 20
0.0
 30
0.0
  3
SW_CENTERMARKSYMBOL_3
  1

  0
LINE
  5
491
330
48E
100
AcDbEntity
  8
SLD-0
 62
     0
100
AcDbLine
 10
0.0
 20
0.0
 30
0.0
 11
0.0
 21
2.5
 31
0.0
  0
LINE
  5
492
330
48E
100
AcDbEntity
  8
SLD-0
 62
     0
100
AcDbLine
 10
0.0
 20
0.0
 30
0.0
 11
-2.5
 21
0.0
 31
0.0
  0
LINE
  5
493
330
48E
100
AcDbEntity
  8
SLD-0
 62
     0
100
AcDbLine
 10
0.0
 20
0.0
 30
0.0
 11
0.0
 21
-2.5
 31
0.0
  0
LINE
  5
494
330
48E
100
AcDbEntity
  8
SLD-0
 62
     0
100
AcDbLine
 10
0.0
 20
0.0
 30
0.0
 11
2.5
 21
0.0
 31
0.0
  0
LINE
  5
495
330
48E
100
AcDbEntity
  8
SLD-0
 62
     0
100
AcDbLine
 10
0.0
 20
5.0
 30
0.0
 11
0.0
 21
8.0
 31
0.0
  0
LINE
  5
496
330
48E
100
AcDbEntity
  8
SLD-0
 62
     0
100
AcDbLine
 10
-5.0
 20
0.0
 30
0.0
 11
-8.0
 21
0.0
 31
0.0
  0
LINE
  5
497
330
48E
100
AcDbEntity
  8
SLD-0
 62
     0
100
AcDbLine
 10
0.0
 20
-5.0
 30
0.0
 11
0.0
 21
-8.0
 31
0.0
  0
LINE
  5
498
330
48E
100
AcDbEntity
  8
SLD-0
 62
     0
100
AcDbLine
 10
5.0
 20
0.0
 30
0.0
 11
8.0
 21
0.0
 31
0.0
  0
ENDBLK
  5
490
330
48E
100
AcDbEntity
  8
0
100
AcDbBlockEnd
  0
BLOCK
  5
49B
330
49A
100
AcDbEntity
  8
0
100
AcDbBlockBegin
  2
SW_CENTERMARKSYMBOL_4
 70
     0
 10
0.0
 20
0.0
 30
0.0
  3
SW_CENTERMARKSYMBOL_4
  1

  0
LINE
  5
49D
330
49A
100
AcDbEntity
  8
SLD-0
 62
     0
100
AcDbLine
 10
0.0
 20
0.0
 30
0.0
 11
0.0
 21
2.5
 31
0.0
  0
LINE
  5
49E
330
49A
100
AcDbEntity
  8
SLD-0
 62
     0
100
AcDbLine
 10
0.0
 20
0.0
 30
0.0
 11
-2.5
 21
0.0
 31
0.0
  0
LINE
  5
49F
330
49A
100
AcDbEntity
  8
SLD-0
 62
     0
100
AcDbLine
 10
0.0
 20
0.0
 30
0.0
 11
0.0
 21
-2.5
 31
0.0
  0
LINE
  5
4A0
330
49A
100
AcDbEntity
  8
SLD-0
 62
     0
100
AcDbLine
 10
0.0
 20
0.0
 30
0.0
 11
2.5
 21
0.0
 31
0.0
  0
LINE
  5
4A1
330
49A
100
AcDbEntity
  8
SLD-0
 62
     0
100
AcDbLine
 10
0.0
 20
5.0
 30
0.0
 11
0.0
 21
8.0
 31
0.0
  0
LINE
  5
4A2
330
49A
100
AcDbEntity
  8
SLD-0
 62
     0
100
AcDbLine
 10
-5.0
 20
0.0
 30
0.0
 11
-8.0
 21
0.0
 31
0.0
  0
LINE
  5
4A3
330
49A
100
AcDbEntity
  8
SLD-0
 62
     0
100
AcDbLine
 10
0.0
 20
-5.0
 30
0.0
 11
0.0
 21
-8.0
 31
0.0
  0
LINE
  5
4A4
330
49A
100
AcDbEntity
  8
SLD-0
 62
     0
100
AcDbLine
 10
5.0
 20
0.0
 30
0.0
 11
8.0
 21
0.0
 31
0.0
  0
ENDBLK
  5
49C
330
49A
100
AcDbEntity
  8
0
100
AcDbBlockEnd
  0
BLOCK
  5
4A7
330
4A6
100
AcDbEntity
  8
0
100
AcDbBlockBegin
  2
SW_CENTERMARKSYMBOL_5
 70
     0
 10
0.0
 20
0.0
 30
0.0
  3
SW_CENTERMARKSYMBOL_5
  1

  0
LINE
  5
4A9
330
4A6
100
AcDbEntity
  8
SLD-0
 62
     0
100
AcDbLine
 10
0.0
 20
0.0
 30
0.0
 11
0.0
 21
2.5
 31
0.0
  0
LINE
  5
4AA
330
4A6
100
AcDbEntity
  8
SLD-0
 62
     0
100
AcDbLine
 10
0.0
 20
0.0
 30
0.0
 11
-2.5
 21
0.0
 31
0.0
  0
LINE
  5
4AB
330
4A6
100
AcDbEntity
  8
SLD-0
 62
     0
100
AcDbLine
 10
0.0
 20
0.0
 30
0.0
 11
0.0
 21
-2.5
 31
0.0
  0
LINE
  5
4AC
330
4A6
100
AcDbEntity
  8
SLD-0
 62
     0
100
AcDbLine
 10
0.0
 20
0.0
 30
0.0
 11
2.5
 21
0.0
 31
0.0
  0
LINE
  5
4AD
330
4A6
100
AcDbEntity
  8
SLD-0
 62
     0
100
AcDbLine
 10
0.0
 20
5.0
 30
0.0
 11
0.0
 21
8.0
 31
0.0
  0
LINE
  5
4AE
330
4A6
100
AcDbEntity
  8
SLD-0
 62
     0
100
AcDbLine
 10
-5.0
 20
0.0
 30
0.0
 11
-8.0
 21
0.0
 31
0.0
  0
LINE
  5
4AF
330
4A6
100
AcDbEntity
  8
SLD-0
 62
     0
100
AcDbLine
 10
0.0
 20
-5.0
 30
0.0
 11
0.0
 21
-8.0
 31
0.0
  0
LINE
  5
4B0
330
4A6
100
AcDbEntity
  8
SLD-0
 62
     0
100
AcDbLine
 10
5.0
 20
0.0
 30
0.0
 11
8.0
 21
0.0
 31
0.0
  0
ENDBLK
  5
4A8
330
4A6
100
AcDbEntity
  8
0
100
AcDbBlockEnd
  0
BLOCK
  5
4B3
330
4B2
100
AcDbEntity
  8
0
100
AcDbBlockBegin
  2
SW_CENTERMARKSYMBOL_6
 70
     0
 10
0.0
 20
0.0
 30
0.0
  3
SW_CENTERMARKSYMBOL_6
  1

  0
LINE
  5
4B5
330
4B2
100
AcDbEntity
  8
SLD-0
 62
     0
100
AcDbLine
 10
0.0
 20
0.0
 30
0.0
 11
0.0
 21
2.5
 31
0.0
  0
LINE
  5
4B6
330
4B2
100
AcDbEntity
  8
SLD-0
 62
     0
100
AcDbLine
 10
0.0
 20
0.0
 30
0.0
 11
-2.5
 21
0.0
 31
0.0
  0
LINE
  5
4B7
330
4B2
100
AcDbEntity
  8
SLD-0
 62
     0
100
AcDbLine
 10
0.0
 20
0.0
 30
0.0
 11
0.0
 21
-2.5
 31
0.0
  0
LINE
  5
4B8
330
4B2
100
AcDbEntity
  8
SLD-0
 62
     0
100
AcDbLine
 10
0.0
 20
0.0
 30
0.0
 11
2.5
 21
0.0
 31
0.0
  0
LINE
  5
4B9
330
4B2
100
AcDbEntity
  8
SLD-0
 62
     0
100
AcDbLine
 10
0.0
 20
5.0
 30
0.0
 11
0.0
 21
207.5
 31
0.0
  0
LINE
  5
4BA
330
4B2
100
AcDbEntity
  8
SLD-0
 62
     0
100
AcDbLine
 10
-5.0
 20
0.0
 30
0.0
 11
-570.4170908695
 21
0.0
 31
0.0
  0
LINE
  5
4BB
330
4B2
100
AcDbEntity
  8
SLD-0
 62
     0
100
AcDbLine
 10
0.0
 20
-5.0
 30
0.0
 11
0.0
 21
-207.5
 31
0.0
  0
LINE
  5
4BC
330
4B2
100
AcDbEntity
  8
SLD-0
 62
     0
100
AcDbLine
 10
5.0
 20
0.0
 30
0.0
 11
207.5
 21
0.0
 31
0.0
  0
ENDBLK
  5
4B4
330
4B2
100
AcDbEntity
  8
0
100
AcDbBlockEnd
  0
ENDSEC
  0
SECTION
  2
ENTITIES
  0
LINE
  5
74
330
1F
100
AcDbEntity
  8
SLD-0
 62
     3
100
AcDbLine
 10
858.5591622282
 20
1283.037124577
 30
0.0
 11
956.5591728739
 21
1283.037124577
 31
0.0
  0
LINE
  5
75
330
1F
100
AcDbEntity
  8
SLD-0
 62
     3
100
AcDbLine
 10
858.5591622282
 20
1283.037124577
 30
0.0
 11
858.5591622282
 21
1283.737124577
 31
0.0
  0
LINE
  5
76
330
1F
100
AcDbEntity
  8
SLD-0
 62
     3
100
AcDbLine
 10
858.5591622282
 20
1283.737124577
 30
0.0
 11
956.5588465963
 21
1283.737124577
 31
0.0
  0
LINE
  5
77
330
1F
100
AcDbEntity
  8
SLD-0
 62
     3
100
AcDbLine
 10
956.5591728739
 20
1283.037124577
 30
0.0
 11
956.5588465963
 21
1283.737124577
 31
0.0
  0
LINE
  5
78
330
1F
100
AcDbEntity
  8
SLD-0
 62
     3
100
AcDbLine
 10
853.5572983282
 20
1287.0347935886
 30
0.0
 11
856.8580429318
 21
1283.737124577
 31
0.0
  0
LINE
  5
79
330
1F
100
AcDbEntity
  8
SLD-0
 62
     3
100
AcDbLine
 10
856.8580429318
 20
1283.737124577
 30
0.0
 11
858.5591622282
 21
1283.737124577
 31
0.0
  0
LINE
  5
7A
330
1F
100
AcDbEntity
  8
SLD-0
 62
     3
100
AcDbLine
 10
961.5572865962
 20
1287.0851335531
 30
0.0
 11
958.2123972525
 21
1283.737124577
 31
0.0
  0
LINE
  5
7B
330
1F
100
AcDbEntity
  8
SLD-0
 62
     3
100
AcDbLine
 10
958.2123972525
 20
1283.737124577
 30
0.0
 11
956.5588465963
 21
1283.737124577
 31
0.0
  0
LINE
  5
7C
330
1F
100
AcDbEntity
  8
SLD-0
 62
     3
100
AcDbLine
 10
1114.4402761694
 20
1538.1564212368
 30
0.0
 11
1113.7402761694
 21
1538.1564212368
 31
0.0
  0
LINE
  5
7D
330
1F
100
AcDbEntity
  8
SLD-0
 62
     3
100
AcDbLine
 10
1114.4402761694
 20
1538.1564212368
 30
0.0
 11
1114.4402761694
 21
1440.1564105911
 31
0.0
  0
LINE
  5
7E
330
1F
100
AcDbEntity
  8
SLD-0
 62
     3
100
AcDbLine
 10
1114.4402761694
 20
1440.1564105911
 30
0.0
 11
1113.7402761694
 21
1440.1560843135
 31
0.0
  0
LINE
  5
7F
330
1F
100
AcDbEntity
  8
SLD-0
 62
     3
100
AcDbLine
 10
1113.7402761694
 20
1538.1564212368
 30
0.0
 11
1113.7402761694
 21
1440.1560843135
 31
0.0
  0
LINE
  5
80
330
1F
100
AcDbEntity
  8
SLD-0
 62
     3
100
AcDbLine
 10
1109.4882861232
 20
1435.1541018717
 30
0.0
 11
1113.7402761694
 21
1439.4100575636
 31
0.0
  0
LINE
  5
81
330
1F
100
AcDbEntity
  8
SLD-0
 62
     3
100
AcDbLine
 10
1113.7402761694
 20
1439.4100575636
 30
0.0
 11
1113.7402761694
 21
1440.1560843135
 31
0.0
  0
LINE
  5
82
330
1F
100
AcDbEntity
  8
SLD-0
 62
     3
100
AcDbLine
 10
1109.4379461587
 20
1543.1540901397
 30
0.0
 11
1113.7402761694
 21
1538.8557689856
 31
0.0
  0
LINE
  5
83
330
1F
100
AcDbEntity
  8
SLD-0
 62
     3
100
AcDbLine
 10
1113.7402761694
 20
1538.8557689856
 30
0.0
 11
1113.7402761694
 21
1538.1564212368
 31
0.0
  0
LINE
  5
84
330
1F
100
AcDbEntity
  8
0
  6
Continuous
 62
     7
370
    18
100
AcDbLine
 10
397.0403063106
 20
482.3683152655
 30
0.0
 11
398.7403201865
 21
482.3683152655
 31
0.0
  0
ARC
  5
85
330
1F
100
AcDbEntity
  8
0
  6
Continuous
 62
     7
370
    18
100
AcDbCircle
 10
397.0403088284
 20
484.368314738
 30
0.0
 40
2.000000000000057
100
AcDbArc
 50
180.0
 51
270.0
  0
LINE
  5
86
330
1F
100
AcDbEntity
  8
0
  6
Continuous
 62
     7
370
    18
100
AcDbLine
 10
400.7402944373
 20
484.6183142373
 30
0.0
 11
408.4631490516
 21
484.6183142373
 31
0.0
  0
ARC
  5
87
330
1F
100
AcDbEntity
  8
0
  6
Continuous
 62
     7
370
    18
100
AcDbCircle
 10
725.2131380843
 20
481.418314738
 30
0.0
 40
2.0
100
AcDbArc
 50
0.0
 51
90.0
  0
LINE
  5
88
330
1F
100
AcDbEntity
  8
0
  6
Continuous
 62
     7
370
    18
100
AcDbLine
 10
719.7131372051
 20
483.4183144132
 30
0.0
 11
719.6429322468
 21
483.4170813421
 31
0.0
  0
ARC
  5
89
330
1F
100
AcDbEntity
  8
0
  6
Continuous
 62
     7
370
    18
100
AcDbCircle
 10
719.7131380843
 20
481.418314738
 30
0.0
 40
2.0
100
AcDbArc
 50
117.3927149821
 51
180.0
  0
LINE
  5
8A
330
1F
100
AcDbEntity
  8
0
  6
Continuous
 62
     7
370
    18
100
AcDbLine
 10
727.2131375032
 20
479.7183151105
 30
0.0
 11
727.2131375032
 21
481.4183140853
 31
0.0
  0
LINE
  5
8B
330
1F
100
AcDbEntity
  8
0
  6
Continuous
 62
     7
370
    18
100
AcDbLine
 10
717.71313874
 20
481.4183140853
 30
0.0
 11
717.71313874
 21
479.7183151105
 31
0.0
  0
LINE
  5
8C
330
1F
100
AcDbEntity
  8
0
  6
Continuous
 62
     7
370
    18
100
AcDbLine
 10
384.1909456061
 20
482.3683152655
 30
0.0
 11
385.8909296798
 21
482.3683152655
 31
0.0
  0
ARC
  5
8D
330
1F
100
AcDbEntity
  8
0
  6
Continuous
 62
     7
370
    18
100
AcDbCircle
 10
384.1909402562
 20
484.368314738
 30
0.0
 40
2.000000000000057
100
AcDbArc
 50
211.5524423517
 51
270.0
  0
LINE
  5
8E
330
1F
100
AcDbEntity
  8
0
  6
Continuous
 62
     7
370
    18
100
AcDbLine
 10
387.8909337329
 20
484.6183142373
 30
0.0
 11
397.8909539985
 21
484.6183142373
 31
0.0
  0
LINE
  5
8F
330
1F
100
AcDbEntity
  8
0
  6
Continuous
 62
     7
370
    18
100
AcDbLine
 10
1122.4444794463
 20
559.7667849371
 30
0.0
 11
1120.4828011798
 21
559.7667849371
 31
0.0
  0
LINE
  5
90
330
1F
100
AcDbEntity
  8
0
  6
Continuous
 62
     7
370
    18
100
AcDbLine
 10
867.5526368426
 20
559.7667849371
 30
0.0
 11
867.5517055201
 21
559.7667849371
 31
0.0
  0
LINE
  5
91
330
1F
100
AcDbEntity
  8
0
  6
Continuous
 62
     7
370
    18
100
AcDbLine
 10
867.5517055201
 20
539.7667816589
 30
0.0
 11
867.5526368426
 21
539.7667816589
 31
0.0
  0
LINE
  5
92
330
1F
100
AcDbEntity
  8
0
  6
Continuous
 62
     7
370
    18
100
AcDbLine
 10
947.5526350545
 20
559.7667849371
 30
0.0
 11
947.5516962813
 21
559.7667849371
 31
0.0
  0
LINE
  5
93
330
1F
100
AcDbEntity
  8
0
  6
Continuous
 62
     7
370
    18
100
AcDbLine
 10
947.5516962813
 20
539.7667816589
 30
0.0
 11
947.5526350545
 21
539.7667816589
 31
0.0
  0
LINE
  5
94
330
1F
100
AcDbEntity
  8
0
  6
Continuous
 62
     7
370
    18
100
AcDbLine
 10
1122.4817919539
 20
559.7280270169
 30
0.0
 11
1120.4828309821
 21
559.7280270169
 31
0.0
  0
LINE
  5
95
330
1F
100
AcDbEntity
  8
0
  6
Continuous
 62
     7
370
    18
100
AcDbLine
 10
1120.4828309821
 20
539.7280311892
 30
0.0
 11
1122.4817919539
 21
539.7280311892
 31
0.0
  0
LINE
  5
96
330
1F
100
AcDbEntity
  8
0
  6
Continuous
 62
     7
370
    18
100
AcDbLine
 10
907.5627016829
 20
528.2183146784
 30
0.0
 11
907.5698840426
 21
528.2183146784
 31
0.0
  0
LINE
  5
97
330
1F
100
AcDbEntity
  8
0
  6
Continuous
 62
     7
370
    18
100
AcDbLine
 10
907.5698840426
 20
571.2183124134
 30
0.0
 11
907.5627016829
 21
571.2183124134
 31
0.0
  0
LINE
  5
98
330
1F
100
AcDbEntity
  8
0
  6
Continuous
 62
     7
370
    18
100
AcDbLine
 10
907.5617629098
 20
574.7183120558
 30
0.0
 11
907.5591552066
 21
574.7183120558
 31
0.0
  0
LINE
  5
99
330
1F
100
AcDbEntity
  8
0
  6
Continuous
 62
     7
370
    18
100
AcDbLine
 10
907.5591552066
 20
524.718315036
 30
0.0
 11
907.5617629098
 21
524.718315036
 31
0.0
  0
SPLINE
  5
9A
330
1F
100
AcDbEntity
  8
0
  6
Continuous
 62
     7
370
    18
100
AcDbSpline
210
0.0
220
0.0
230
1.0
 70
     8
 71
     3
 72
    14
 73
    10
 74
     0
 42
0.000000001
 43
0.00000001
 40
0.0
 40
0.0
 40
0.0
 40
0.0
 40
0.0890108298691996
 40
0.3318810339590088
 40
0.5262981154796724
 40
0.6901071814306726
 40
0.8274425863515104
 40
0.9355329653392878
 40
0.9999999999999999
 40
0.9999999999999999
 40
0.9999999999999999
 40
0.9999999999999999
 10
1119.453667383091
 20
524.7333801100071
 30
0.0
 10
1119.495959049025
 20
524.728858453502
 30
0.0
 10
1119.653645499524
 20
524.7119992461631
 30
0.0
 10
1119.898962538928
 20
524.8041285470772
 30
0.0
 10
1120.136587384035
 20
524.9633662243779
 30
0.0
 10
1120.291481117828
 20
525.1448780113194
 30
0.0
 10
1120.383392343156
 20
525.3140090452129
 30
0.0
 10
1120.43006421275
 20
525.454133216368
 30
0.0
 10
1120.442161316272
 20
525.5159366696374
 30
0.0
 10
1120.446680765049
 20
525.5390262911137
 30
0.0
  0
SPLINE
  5
9B
330
1F
100
AcDbEntity
  8
0
  6
Continuous
 62
     7
370
    18
100
AcDbSpline
210
0.0
220
0.0
230
1.0
 70
     8
 71
     3
 72
    13
 73
     9
 74
     0
 42
0.000000001
 43
0.00000001
 40
0.0
 40
0.0
 40
0.0
 40
0.0
 40
0.0334959413005002
 40
0.1385932624845297
 40
0.3143292169857441
 40
0.583912527285327
 40
0.8322096877710765
 40
0.9999999999999999
 40
0.9999999999999999
 40
0.9999999999999999
 40
0.9999999999999999
 10
1120.445339660542
 20
573.9027938554104
 30
0.0
 10
1120.443582435873
 20
573.91309150213
 30
0.0
 10
1120.436311719176
 20
573.9556991853108
 30
0.0
 10
1120.395391864339
 20
574.0976417639658
 30
0.0
 10
1120.279698996711
 20
574.3238089204394
 30
0.0
 10
1120.044511255924
 20
574.5561349386288
 30
0.0
 10
1119.74732799288
 20
574.7023288970411
 30
0.0
 10
1119.5515221797
 20
574.7029884591743
 30
0.0
 10
1119.472562055485
 20
574.7032544324215
 30
0.0
  0
LINE
  5
9C
330
1F
100
AcDbEntity
  8
0
  6
Continuous
 62
     7
370
    18
100
AcDbLine
 10
1114.4631194877
 20
524.718315036
 30
0.0
 11
1119.4631147193
 21
524.718315036
 31
0.0
  0
LINE
  5
9D
330
1F
100
AcDbEntity
  8
0
  6
Continuous
 62
     7
370
    18
100
AcDbLine
 10
1119.4631147193
 20
574.7183120558
 30
0.0
 11
1114.4631194877
 21
574.7183120558
 31
0.0
  0
LINE
  5
9E
330
1F
100
AcDbEntity
  8
0
  6
Continuous
 62
     7
370
    18
100
AcDbLine
 10
1064.0068936156
 20
484.9183155904
 30
0.0
 11
1064.0068936156
 21
482.9183152625
 31
0.0
  0
LINE
  5
9F
330
1F
100
AcDbEntity
  8
0
  6
Continuous
 62
     7
370
    18
100
AcDbLine
 10
1080.0068962382
 20
482.9183152625
 30
0.0
 11
1080.0068962382
 21
484.9183155904
 31
0.0
  0
LINE
  5
A0
330
1F
100
AcDbEntity
  8
0
  6
Continuous
 62
     7
370
    18
100
AcDbLine
 10
734.9193903612
 20
484.8183138976
 30
0.0
 11
734.9193903612
 21
482.8183154324
 31
0.0
  0
LINE
  5
A1
330
1F
100
AcDbEntity
  8
0
  6
Continuous
 62
     7
370
    18
100
AcDbLine
 10
750.9193901898
 20
482.8183154324
 30
0.0
 11
750.9193901898
 21
484.8183138976
 31
0.0
  0
LINE
  5
A2
330
1F
100
AcDbEntity
  8
0
  6
Continuous
 62
     7
370
    18
100
AcDbLine
 10
834.4958710479
 20
522.8210097859
 30
0.0
 11
840.7612877892
 21
511.5346281538
 31
0.0
  0
ARC
  5
A3
330
1F
100
AcDbEntity
  8
0
  6
Continuous
 62
     7
370
    18
100
AcDbCircle
 10
843.4716140013
 20
511.0646345065
 30
0.0
 40
0.9999999999999432
100
AcDbArc
 50
239.0235505145
 51
270.0
  0
LINE
  5
A4
330
1F
100
AcDbEntity
  8
0
  6
Continuous
 62
     7
370
    18
100
AcDbLine
 10
840.7827678131
 20
511.5124067972
 30
0.0
 11
842.9569291877
 21
510.2072550664
 31
0.0
  0
LINE
  5
A5
330
1F
100
AcDbEntity
  8
0
  6
Continuous
 62
     7
370
    18
100
AcDbLine
 10
843.4716152953
 20
510.0646360526
 30
0.0
 11
844.4963607
 21
510.0646360526
 31
0.0
  0
LINE
  5
A6
330
1F
100
AcDbEntity
  8
0
  6
Continuous
 62
     7
370
    18
100
AcDbLine
 10
813.1738069462
 20
512.0725414464
 30
0.0
 11
820.9007295774
 21
498.1534375558
 31
0.0
  0
LINE
  5
A7
330
1F
100
AcDbEntity
  8
0
  6
Continuous
 62
     7
370
    18
100
AcDbLine
 10
820.0372892426
 20
523.9659479568
 30
0.0
 11
822.2114431666
 21
522.6607999513
 31
0.0
  0
ARC
  5
A8
330
1F
100
AcDbEntity
  8
0
  6
Continuous
 62
     7
370
    18
100
AcDbCircle
 10
821.7750429365
 20
498.6387975965
 30
0.0
 40
1.000000000000114
100
AcDbArc
 50
209.0360068763
 51
270.0
  0
ARC
  5
A9
330
1F
100
AcDbEntity
  8
0
  6
Continuous
 62
     7
370
    18
100
AcDbCircle
 10
821.5139114904
 20
526.6374190478
 30
0.0
 40
1.000000000000002
100
AcDbArc
 50
90.6049369843
 51
152.0648187592
  0
LINE
  5
AA
330
1F
100
AcDbEntity
  8
0
  6
Continuous
 62
     7
370
    18
100
AcDbLine
 10
820.630429964
 20
527.1058908412
 30
0.0
 11
819.6684929537
 21
525.2918011257
 31
0.0
  0
ARC
  5
AB
330
1F
100
AcDbEntity
  8
0
  6
Continuous
 62
     7
370
    18
100
AcDbCircle
 10
820.5519720137
 20
524.8233259846
 30
0.0
 40
1.00000000000005
100
AcDbArc
 50
152.0648187592
 51
239.0235505145
  0
ARC
  5
AC
330
1F
100
AcDbEntity
  8
0
  6
Continuous
 62
     7
370
    18
100
AcDbCircle
 10
815.0100579352
 20
514.3719949695
 30
0.0
 40
1.000000000000002
100
AcDbArc
 50
90.0
 51
152.0648187592
  0
LINE
  5
AD
330
1F
100
AcDbEntity
  8
0
  6
Continuous
 62
     7
370
    18
100
AcDbLine
 10
814.1265797423
 20
514.8404656658
 30
0.0
 11
813.164642732
 21
513.0263759503
 31
0.0
  0
ARC
  5
AE
330
1F
100
AcDbEntity
  8
0
  6
Continuous
 62
     7
370
    18
100
AcDbCircle
 10
814.0481184586
 20
512.5579019063
 30
0.0
 40
1.00000000000007
100
AcDbArc
 50
152.0648187592
 51
209.0360068763
  0
LINE
  5
AF
330
1F
100
AcDbEntity
  8
0
  6
Continuous
 62
     7
370
    18
100
AcDbLine
 10
816.0348075437
 20
515.3719938109
 30
0.0
 11
815.0100546884
 21
515.3719938109
 31
0.0
  0
LINE
  5
B0
330
1F
100
AcDbEntity
  8
0
  6
Continuous
 62
     7
370
    18
100
AcDbLine
 10
820.4527485179
 20
523.5499075363
 30
0.0
 11
816.7581397103
 21
516.58235553
 31
0.0
  0
SPLINE
  5
B1
330
1F
100
AcDbEntity
  8
0
  6
Continuous
 62
     7
370
    18
100
AcDbSpline
210
0.0
220
0.0
230
1.0
 70
     8
 71
     3
 72
    13
 73
     9
 74
     0
 42
0.000000001
 43
0.00000001
 40
0.0
 40
0.0
 40
0.0
 40
0.0
 40
0.1638571205058266
 40
0.4194234474302967
 40
0.6387038937450049
 40
0.8160873560689861
 40
0.9516121757617598
 40
1.0
 40
1.0
 40
1.0
 40
1.0
 10
816.7581397103238
 20
516.5823555300053
 30
0.0
 10
816.7022733069092
 20
516.4815582256056
 30
0.0
 10
816.5592726277602
 20
516.2235483644992
 30
0.0
 10
816.3029860643371
 20
515.8494069834085
 30
0.0
 10
816.0444837164144
 20
515.5427730351539
 30
0.0
 10
815.8755252080848
 20
515.3804035891887
 30
0.0
 10
815.7904866620706
 20
515.3231061731203
 30
0.0
 10
815.7989936377759
 20
515.3274982249663
 30
0.0
 10
815.8012318419385
 20
515.3286537835417
 30
0.0
  0
LINE
  5
B2
330
1F
100
AcDbEntity
  8
0
  6
Continuous
 62
     7
370
    18
100
AcDbLine
 10
1088.2582354354
 20
479.7183151105
 30
0.0
 11
1088.2582354354
 21
482.9183152625
 31
0.0
  0
LINE
  5
B3
330
1F
100
AcDbEntity
  8
0
  6
Continuous
 62
     7
370
    18
100
AcDbLine
 10
726.6680288123
 20
482.8183154324
 30
0.0
 11
726.6680288123
 21
482.7906458387
 31
0.0
  0
LINE
  5
B4
330
1F
100
AcDbEntity
  8
0
  6
Continuous
 62
     7
370
    18
100
AcDbLine
 10
914.0230405139
 20
536.1825904558
 30
0.0
 11
901.1004555034
 21
536.1847064206
 31
0.0
  0
LINE
  5
B5
330
1F
100
AcDbEntity
  8
0
  6
Continuous
 62
     7
370
    18
100
AcDbLine
 10
702.4631376373
 20
683.3183101127
 30
0.0
 11
700.4631373094
 21
683.3183101127
 31
0.0
  0
LINE
  5
B6
330
1F
100
AcDbEntity
  8
0
  6
Continuous
 62
     7
370
    18
100
AcDbLine
 10
700.4631373094
 20
656.1183116147
 30
0.0
 11
702.4631376373
 21
656.1183116147
 31
0.0
  0
LINE
  5
B7
330
1F
100
AcDbEntity
  8
0
  6
Continuous
 62
     7
370
    18
100
AcDbLine
 10
700.4631373094
 20
577.7183181355
 30
0.0
 11
722.7693504648
 21
577.7183181355
 31
0.0
  0
LINE
  5
B8
330
1F
100
AcDbEntity
  8
0
  6
Continuous
 62
     7
370
    18
100
AcDbLine
 10
722.7840020316
 20
611.7183199832
 30
0.0
 11
700.4631373094
 21
611.7183199832
 31
0.0
  0
ARC
  5
B9
330
1F
100
AcDbEntity
  8
0
  6
Continuous
 62
     7
370
    18
100
AcDbCircle
 10
714.7631380841
 20
797.9281849673
 30
0.0
 40
12.30000000000007
100
AcDbArc
 50
109.1406586702
 51
180.0
  0
ARC
  5
BA
330
1F
100
AcDbEntity
  8
0
  6
Continuous
 62
     7
370
    18
100
AcDbCircle
 10
1100.1631380841
 20
797.9281849673
 30
0.0
 40
12.29999999999995
100
AcDbArc
 50
0.0
 51
70.8593413298
  0
LINE
  5
BB
330
1F
100
AcDbEntity
  8
0
  6
Continuous
 62
     7
370
    18
100
AcDbLine
 10
702.4631376373
 20
797.9281774471
 30
0.0
 11
702.4631376373
 21
611.7183199832
 31
0.0
  0
LINE
  5
BC
330
1F
100
AcDbEntity
  8
0
  6
Continuous
 62
     7
370
    18
100
AcDbLine
 10
702.4631376373
 20
577.7183181355
 30
0.0
 11
702.4631376373
 21
479.7183151105
 31
0.0
  0
LINE
  5
BD
330
1F
100
AcDbEntity
  8
0
  6
Continuous
 62
     7
370
    18
100
AcDbLine
 10
1112.4631452369
 20
587.6891246745
 30
0.0
 11
1112.4631452369
 21
797.9281774471
 31
0.0
  0
LINE
  5
BE
330
1F
100
AcDbEntity
  8
0
  6
Continuous
 62
     7
370
    18
100
AcDbLine
 10
1112.4631452369
 20
479.7183151105
 30
0.0
 11
1112.4631452369
 21
511.7425850341
 31
0.0
  0
ARC
  5
BF
330
1F
100
AcDbEntity
  8
0
  6
Continuous
 62
     7
370
    18
100
AcDbCircle
 10
907.4631380841
 20
242.718314738
 30
0.0
 40
600.0
100
AcDbArc
 50
70.8593413298
 51
109.1406586702
  0
ARC
  5
C0
330
1F
100
AcDbEntity
  8
0
  6
Continuous
 62
     7
370
    18
100
AcDbCircle
 10
502.4631380843
 20
567.618314738
 30
0.0
 40
10.00000000000013
100
AcDbArc
 50
244.9089504107
 51
313.4108734922
  0
ARC
  5
C1
330
1F
100
AcDbEntity
  8
0
  6
Continuous
 62
     7
370
    18
100
AcDbCircle
 10
478.9631380843
 20
603.618314738
 30
0.0
 40
49.00000000000005
100
AcDbArc
 50
236.7536620513
 51
293.1443753534
  0
ARC
  5
C2
330
1F
100
AcDbEntity
  8
0
  6
Continuous
 62
     7
370
    18
100
AcDbCircle
 10
451.4631380843
 20
634.618314738
 30
0.0
 40
9.999999999999984
100
AcDbArc
 50
86.3520867526
 51
139.2935417039
  0
ARC
  5
C3
330
1F
100
AcDbEntity
  8
0
  6
Continuous
 62
     7
370
    18
100
AcDbCircle
 10
502.4631380843
 20
639.618314738
 30
0.0
 40
10.00000000000005
100
AcDbArc
 50
46.5891265078
 51
73.7397952917
  0
LWPOLYLINE
  5
C4
330
1F
100
AcDbEntity
  8
0
  6
Continuous
 62
     7
370
    18
100
AcDbPolyline
 90
        3
 70
   128
 43
0.0
 10
499.6631431388
 20
649.2183140228
 10
499.6182459401
 20
649.2051115939
 10
498.2225584792
 20
648.6746600578
  0
ARC
  5
C5
330
1F
100
AcDbEntity
  8
0
  6
Continuous
 62
     7
370
    18
100
AcDbCircle
 10
468.4066864714
 20
603.618314738
 30
0.0
 40
59.55645161290336
100
AcDbArc
 50
313.4108734922
 51
46.5891265078
  0
CIRCLE
  5
C6
330
1F
100
AcDbEntity
  8
0
  6
Continuous
 62
     7
370
    18
100
AcDbCircle
 10
451.4631380843
 20
603.618314738
 30
0.0
 40
14.0
  0
CIRCLE
  5
C7
330
1F
100
AcDbEntity
  8
0
  6
Continuous
 62
     7
370
    18
100
AcDbCircle
 10
502.4631380843
 20
603.618314738
 30
0.0
 40
18.99999999999994
  0
CIRCLE
  5
C8
330
1F
100
AcDbEntity
  8
0
  6
Continuous
 62
     7
370
    18
100
AcDbCircle
 10
451.4631380843
 20
634.618314738
 30
0.0
 40
3.5
  0
CIRCLE
  5
C9
330
1F
100
AcDbEntity
  8
0
  6
Continuous
 62
     7
370
    18
100
AcDbCircle
 10
451.4631380843
 20
572.618314738
 30
0.0
 40
3.5
  0
CIRCLE
  5
CA
330
1F
100
AcDbEntity
  8
0
  6
Continuous
 62
     7
370
    18
100
AcDbCircle
 10
502.4631380843
 20
639.618314738
 30
0.0
 40
3.5
  0
LINE
  5
CB
330
1F
100
AcDbEntity
  8
0
  6
Continuous
 62
     7
370
    18
100
AcDbLine
 10
498.2225584792
 20
648.6746600578
 30
0.0
 11
496.8974578189
 21
649.2183140228
 31
0.0
  0
ARC
  5
CC
330
1F
100
AcDbEntity
  8
0
  6
Continuous
 62
     7
370
    18
100
AcDbCircle
 10
478.9631380843
 20
603.618314738
 30
0.0
 40
48.99999999999997
100
AcDbArc
 50
111.4695452674
 51
123.2463379487
  0
CIRCLE
  5
CD
330
1F
100
AcDbEntity
  8
0
  6
Continuous
 62
     7
370
    18
100
AcDbCircle
 10
502.4631380843
 20
567.618314738
 30
0.0
 40
3.5
  0
ARC
  5
CE
330
1F
100
AcDbEntity
  8
0
  6
Continuous
 62
     7
370
    18
100
AcDbCircle
 10
487.49574678
 20
603.618314738
 30
0.0
 40
57.53260869565218
100
AcDbArc
 50
139.2935417039
 51
220.7064582961
  0
ARC
  5
CF
330
1F
100
AcDbEntity
  8
0
  6
Continuous
 62
     7
370
    18
100
AcDbCircle
 10
451.4631380843
 20
572.618314738
 30
0.0
 40
9.999999999999927
100
AcDbArc
 50
220.7064582961
 51
273.6479132474
  0
ARC
  5
D0
330
1F
100
AcDbEntity
  8
0
  6
Continuous
 62
     7
370
    18
100
AcDbCircle
 10
424.922650583
 20
592.618314738
 30
0.0
 40
6.0
100
AcDbArc
 50
9.9704028957
 51
90.0
  0
LINE
  5
D1
330
1F
100
AcDbEntity
  8
0
  6
Continuous
 62
     7
370
    18
100
AcDbLine
 10
424.9226438807
 20
598.6183217475
 30
0.0
 11
417.4631523894
 21
598.6183217475
 31
0.0
  0
ARC
  5
D2
330
1F
100
AcDbEntity
  8
0
  6
Continuous
 62
     7
370
    18
100
AcDbCircle
 10
502.4631380843
 20
603.618314738
 30
0.0
 40
113.5000000000001
100
AcDbArc
 50
221.5049321302
 51
290.6355827602
  0
LINE
  5
D3
330
1F
100
AcDbEntity
  8
0
  6
Continuous
 62
     7
370
    18
100
AcDbLine
 10
408.4631490516
 20
488.7183165858
 30
0.0
 11
408.4631490516
 21
479.7183151105
 31
0.0
  0
LINE
  5
D4
330
1F
100
AcDbEntity
  8
0
  6
Continuous
 62
     7
370
    18
100
AcDbLine
 10
596.4631426143
 20
479.7183151105
 30
0.0
 11
596.4631426143
 21
488.7183165858
 31
0.0
  0
LINE
  5
D5
330
1F
100
AcDbEntity
  8
0
  6
Continuous
 62
     7
370
    18
100
AcDbLine
 10
453.4631359385
 20
479.7183151105
 30
0.0
 11
453.4631359385
 21
499.0274465391
 31
0.0
  0
LINE
  5
D6
330
1F
100
AcDbEntity
  8
0
  6
Continuous
 62
     7
370
    18
100
AcDbLine
 10
551.4631408261
 20
488.7183165858
 30
0.0
 11
551.4631408261
 21
479.7183151105
 31
0.0
  0
ARC
  5
D7
330
1F
100
AcDbEntity
  8
0
  6
Continuous
 62
     7
370
    18
100
AcDbCircle
 10
502.4631380843
 20
603.618314738
 30
0.0
 40
115.5000000000001
100
AcDbArc
 50
244.8972792441
 51
290.2624154646
  0
LINE
  5
D8
330
1F
100
AcDbEntity
  8
0
  6
Continuous
 62
     7
370
    18
100
AcDbLine
 10
684.5894667314
 20
479.7183151105
 30
0.0
 11
684.5894667314
 21
488.7183165858
 31
0.0
  0
LINE
  5
D9
330
1F
100
AcDbEntity
  8
0
  6
Continuous
 62
     7
370
    18
100
AcDbLine
 10
686.5894670593
 20
488.7183165858
 30
0.0
 11
686.5894670593
 21
481.6183156082
 31
0.0
  0
LINE
  5
DA
330
1F
100
AcDbEntity
  8
0
  6
Continuous
 62
     7
370
    18
100
AcDbLine
 10
686.5894670593
 20
481.6183156082
 30
0.0
 11
694.5894683706
 21
481.6183156082
 31
0.0
  0
LINE
  5
DB
330
1F
100
AcDbEntity
  8
0
  6
Continuous
 62
     7
370
    18
100
AcDbLine
 10
694.5894683706
 20
481.6183156082
 30
0.0
 11
694.5894683706
 21
479.7183151105
 31
0.0
  0
LINE
  5
DC
330
1F
100
AcDbEntity
  8
0
  6
Continuous
 62
     7
370
    18
100
AcDbLine
 10
654.1239085602
 20
479.7183151105
 30
0.0
 11
654.1239085602
 21
481.6183156082
 31
0.0
  0
LINE
  5
DD
330
1F
100
AcDbEntity
  8
0
  6
Continuous
 62
     7
370
    18
100
AcDbLine
 10
654.1239085602
 20
481.6183156082
 30
0.0
 11
669.1239091562
 21
481.6183156082
 31
0.0
  0
LINE
  5
DE
330
1F
100
AcDbEntity
  8
0
  6
Continuous
 62
     7
370
    18
100
AcDbLine
 10
669.1239091562
 20
479.7183151105
 30
0.0
 11
669.1239091562
 21
481.6183156082
 31
0.0
  0
LINE
  5
DF
330
1F
100
AcDbEntity
  8
0
  6
Continuous
 62
     7
370
    18
100
AcDbLine
 10
669.1239091562
 20
481.6183156082
 30
0.0
 11
669.1239091562
 21
488.7183165858
 31
0.0
  0
LINE
  5
E0
330
1F
100
AcDbEntity
  8
0
  6
Continuous
 62
     7
370
    18
100
AcDbLine
 10
654.1239085602
 20
481.6183156082
 30
0.0
 11
654.1239085602
 21
488.7183165858
 31
0.0
  0
LINE
  5
E1
330
1F
100
AcDbEntity
  8
0
  6
Continuous
 62
     7
370
    18
100
AcDbLine
 10
400.890945177
 20
479.7183151105
 30
0.0
 11
400.890945177
 21
481.6183156082
 31
0.0
  0
LINE
  5
E2
330
1F
100
AcDbEntity
  8
0
  6
Continuous
 62
     7
370
    18
100
AcDbLine
 10
385.8909296798
 20
488.7183165858
 30
0.0
 11
385.8909296798
 21
479.7183151105
 31
0.0
  0
LINE
  5
E3
330
1F
100
AcDbEntity
  8
0
  6
Continuous
 62
     7
370
    18
100
AcDbLine
 10
387.8909337329
 20
481.6183156082
 30
0.0
 11
387.8909337329
 21
488.7183165858
 31
0.0
  0
LINE
  5
E4
330
1F
100
AcDbEntity
  8
0
  6
Continuous
 62
     7
370
    18
100
AcDbLine
 10
400.890945177
 20
481.6183156082
 30
0.0
 11
387.8909337329
 21
481.6183156082
 31
0.0
  0
LINE
  5
E5
330
1F
100
AcDbEntity
  8
0
  6
Continuous
 62
     7
370
    18
100
AcDbLine
 10
408.4631490516
 20
481.6183156082
 30
0.0
 11
400.890945177
 21
481.6183156082
 31
0.0
  0
LINE
  5
E6
330
1F
100
AcDbEntity
  8
0
  6
Continuous
 62
     7
370
    18
100
AcDbLine
 10
398.7403201865
 20
488.7183165858
 30
0.0
 11
398.7403201865
 21
481.6183156082
 31
0.0
  0
LINE
  5
E7
330
1F
100
AcDbEntity
  8
0
  6
Continuous
 62
     7
370
    18
100
AcDbLine
 10
400.7402944373
 20
481.6183156082
 30
0.0
 11
400.7402944373
 21
488.7183165858
 31
0.0
  0
LINE
  5
E8
330
1F
100
AcDbEntity
  8
0
  6
Continuous
 62
     7
370
    18
100
AcDbLine
 10
507.4631410645
 20
501.6183151612
 30
0.0
 11
497.4631357001
 21
501.6183151612
 31
0.0
  0
LINE
  5
E9
330
1F
100
AcDbEntity
  8
0
  6
Continuous
 62
     7
370
    18
100
AcDbLine
 10
507.4631410645
 20
491.6183135221
 30
0.0
 11
507.4631410645
 21
501.6183151612
 31
0.0
  0
LINE
  5
EA
330
1F
100
AcDbEntity
  8
0
  6
Continuous
 62
     7
370
    18
100
AcDbLine
 10
497.4631357001
 20
491.6183135221
 30
0.0
 11
507.4631410645
 21
491.6183135221
 31
0.0
  0
LINE
  5
EB
330
1F
100
AcDbEntity
  8
0
  6
Continuous
 62
     7
370
    18
100
AcDbLine
 10
497.4631357001
 20
501.6183151612
 30
0.0
 11
497.4631357001
 21
491.6183135221
 31
0.0
  0
ARC
  5
EC
330
1F
100
AcDbEntity
  8
0
  6
Continuous
 62
     7
370
    18
100
AcDbCircle
 10
452.6042420029
 20
638.9083126772
 30
0.0
 40
2.000000000000042
100
AcDbArc
 50
270.0
 51
304.9257131754
  0
ARC
  5
ED
330
1F
100
AcDbEntity
  8
0
  6
Continuous
 62
     7
370
    18
100
AcDbCircle
 10
452.2042420029
 20
639.3083126772
 30
0.0
 40
4.0
100
AcDbArc
 50
270.0
 51
307.212348842
  0
LINE
  5
EE
330
1F
100
AcDbEntity
  8
0
  6
Continuous
 62
     7
370
    18
100
AcDbLine
 10
452.2042560386
 20
635.3083184669
 30
0.0
 11
448.031811695
 21
635.3083184669
 31
0.0
  0
LINE
  5
EF
330
1F
100
AcDbEntity
  8
0
  6
Continuous
 62
     7
370
    18
100
AcDbLine
 10
448.8162684249
 20
636.9083157489
 30
0.0
 11
452.6042330073
 21
636.9083157489
 31
0.0
  0
ARC
  5
F0
330
1F
100
AcDbEntity
  8
0
  6
Continuous
 62
     7
370
    18
100
AcDbCircle
 10
450.978484127
 20
638.9083126772
 30
0.0
 40
2.0
100
AcDbArc
 50
270.0
 51
329.461591615
  0
LINE
  5
F1
330
1F
100
AcDbEntity
  8
0
  6
Continuous
 62
     7
370
    18
100
AcDbLine
 10
417.4631523894
 20
629.2183181951
 30
0.0
 11
417.4631523894
 21
488.7183165858
 31
0.0
  0
LINE
  5
F2
330
1F
100
AcDbEntity
  8
0
  6
Continuous
 62
     7
370
    18
100
AcDbLine
 10
700.4631373094
 20
488.7183165858
 30
0.0
 11
700.4631373094
 21
822.7183154533
 31
0.0
  0
LINE
  5
F3
330
1F
100
AcDbEntity
  8
0
  6
Continuous
 62
     7
370
    18
100
AcDbLine
 10
680.4631414818
 20
842.7183261821
 30
0.0
 11
400.4631328391
 21
842.7183261821
 31
0.0
  0
LINE
  5
F4
330
1F
100
AcDbEntity
  8
0
  6
Continuous
 62
     7
370
    18
100
AcDbLine
 10
542.4631374883
 20
488.7183165858
 30
0.0
 11
700.4631373094
 21
488.7183165858
 31
0.0
  0
ARC
  5
F5
330
1F
100
AcDbEntity
  8
0
  6
Continuous
 62
     7
370
    18
100
AcDbCircle
 10
400.4631380843
 20
822.718314738
 30
0.0
 40
20.0
100
AcDbArc
 50
90.0
 51
180.0
  0
ARC
  5
F6
330
1F
100
AcDbEntity
  8
0
  6
Continuous
 62
     7
370
    18
100
AcDbCircle
 10
522.4631380843
 20
629.218314738
 30
0.0
 40
20.00000000000011
100
AcDbArc
 50
0.0
 51
90.0
  0
LINE
  5
F7
330
1F
100
AcDbEntity
  8
0
  6
Continuous
 62
     7
370
    18
100
AcDbLine
 10
380.4631519126
 20
822.7183154533
 30
0.0
 11
380.4631519126
 21
488.7183165858
 31
0.0
  0
ARC
  5
F8
330
1F
100
AcDbEntity
  8
0
  6
Continuous
 62
     7
370
    18
100
AcDbCircle
 10
680.4631380843
 20
822.718314738
 30
0.0
 40
20.0
100
AcDbArc
 50
0.0
 51
90.0
  0
LINE
  5
F9
330
1F
100
AcDbEntity
  8
0
  6
Continuous
 62
     7
370
    18
100
AcDbLine
 10
542.4631374883
 20
488.7183165858
 30
0.0
 11
542.4631374883
 21
629.2183181951
 31
0.0
  0
LINE
  5
FA
330
1F
100
AcDbEntity
  8
0
  6
Continuous
 62
     7
370
    18
100
AcDbLine
 10
522.4631416606
 20
649.2183140228
 30
0.0
 11
437.4631333159
 21
649.2183140228
 31
0.0
  0
ARC
  5
FB
330
1F
100
AcDbEntity
  8
0
  6
Continuous
 62
     7
370
    18
100
AcDbCircle
 10
437.4631380843
 20
629.218314738
 30
0.0
 40
20.00000000000011
100
AcDbArc
 50
90.0
 51
180.0
  0
LINE
  5
FC
330
1F
100
AcDbEntity
  8
0
  6
Continuous
 62
     7
370
    18
100
AcDbLine
 10
380.4631519126
 20
488.7183165858
 30
0.0
 11
417.4631523894
 21
488.7183165858
 31
0.0
  0
LINE
  5
FD
330
1F
100
AcDbEntity
  8
0
  6
Continuous
 62
     7
370
    18
100
AcDbLine
 10
453.4631359385
 20
488.7183165858
 30
0.0
 11
490.705578308
 21
488.7183165858
 31
0.0
  0
LINE
  5
FE
330
1F
100
AcDbEntity
  8
0
  6
Continuous
 62
     7
370
    18
100
AcDbLine
 10
514.2206835555
 20
488.7183165858
 30
0.0
 11
542.4631374883
 21
488.7183165858
 31
0.0
  0
LINE
  5
FF
330
1F
100
AcDbEntity
  8
0
  6
Continuous
 62
     7
370
    18
100
AcDbLine
 10
395.0403022574
 20
484.3683155933
 30
0.0
 11
395.0403022574
 21
484.6183142373
 31
0.0
  0
ARC
  5
100
330
1F
100
AcDbEntity
  8
0
  6
Continuous
 62
     7
370
    18
100
AcDbCircle
 10
661.6239117987
 20
487.118314738
 30
0.0
 40
2.500000000000003
100
AcDbArc
 50
172.4751824258
 51
39.7918194996
  0
LWPOLYLINE
  5
101
330
1F
100
AcDbEntity
  8
0
  6
Continuous
 62
     7
370
    18
100
AcDbPolyline
 90
        3
 70
   128
 43
0.0
 10
659.702977817
 20
488.7183165858
 10
659.4593885349
 20
488.3692531595
 10
659.1454434203
 20
487.4457052657
  0
LINE
  5
102
330
1F
100
AcDbEntity
  8
0
  6
Continuous
 62
     7
370
    18
100
AcDbLine
 10
722.9728407221
 20
483.1092289398
 30
0.0
 11
723.937871586
 21
483.1092289398
 31
0.0
  0
SPLINE
  5
103
330
1F
100
AcDbEntity
  8
0
  6
Continuous
 62
     7
370
    18
100
AcDbSpline
210
0.0
220
0.0
230
1.0
 70
     8
 71
     3
 72
     9
 73
     5
 74
     0
 42
0.000000001
 43
0.00000001
 40
0.0
 40
0.0
 40
0.0
 40
0.0
 40
0.6022806587791603
 40
1.0
 40
1.0
 40
1.0
 40
1.0
 10
723.9378715859818
 20
483.1092289397535
 30
0.0
 10
723.8838561887497
 20
483.214285950037
 30
0.0
 10
723.7941714272605
 20
483.3887179341166
 30
0.0
 10
723.6942419514797
 20
483.4098927709971
 30
0.0
 10
723.6544980662037
 20
483.4183144131717
 30
0.0
  0
LINE
  5
104
330
1F
100
AcDbEntity
  8
0
  6
Continuous
 62
     7
370
    18
100
AcDbLine
 10
723.6544980662
 20
483.4183144132
 30
0.0
 11
725.2131371753
 21
483.4183144132
 31
0.0
  0
LINE
  5
105
330
1F
100
AcDbEntity
  8
0
  6
Continuous
 62
     7
370
    18
100
AcDbLine
 10
719.7131372051
 20
483.4183144132
 30
0.0
 11
719.7224671947
 21
483.4183144132
 31
0.0
  0
SPLINE
  5
106
330
1F
100
AcDbEntity
  8
0
  6
Continuous
 62
     7
370
    18
100
AcDbSpline
210
0.0
220
0.0
230
1.0
 70
     8
 71
     3
 72
     9
 73
     5
 74
     0
 42
0.000000001
 43
0.00000001
 40
0.0
 40
0.0
 40
0.0
 40
0.0
 40
0.6147245605213153
 40
1.0
 40
1.0
 40
1.0
 40
1.0
 10
719.7224671946931
 20
483.4183144131717
 30
0.0
 10
719.4954230349371
 20
483.3978031997617
 30
0.0
 10
719.1260801221315
 20
483.3644366894131
 30
0.0
 10
718.803505718691
 20
483.1802078043939
 30
0.0
 10
718.679225723641
 20
483.1092289397535
 30
0.0
  0
LINE
  5
107
330
1F
100
AcDbEntity
  8
0
  6
Continuous
 62
     7
370
    18
100
AcDbLine
 10
718.6792257236
 20
483.1092289398
 30
0.0
 11
718.9413557755
 21
483.1092289398
 31
0.0
  0
SPLINE
  5
108
330
1F
100
AcDbEntity
  8
0
  6
Continuous
 62
     7
370
    18
100
AcDbSpline
210
0.0
220
0.0
230
1.0
 70
     8
 71
     3
 72
     9
 73
     5
 74
     0
 42
0.000000001
 43
0.00000001
 40
0.0
 40
0.0
 40
0.0
 40
0.0
 40
0.6022804200318436
 40
0.9999999999999999
 40
0.9999999999999999
 40
0.9999999999999999
 40
0.9999999999999999
 10
718.9413557754922
 20
483.1092289397535
 30
0.0
 10
719.1402135404932
 20
483.214285950192
 30
0.0
 10
719.4703882537777
 20
483.3887180036745
 30
0.0
 10
719.8382796392432
 20
483.4098927871729
 30
0.0
 10
719.9845972465445
 20
483.4183144131717
 30
0.0
  0
LINE
  5
109
330
1F
100
AcDbEntity
  8
0
  6
Continuous
 62
     7
370
    18
100
AcDbLine
 10
719.9845972465
 20
483.4183144132
 30
0.0
 11
722.6894653397
 21
483.4183144132
 31
0.0
  0
SPLINE
  5
10A
330
1F
100
AcDbEntity
  8
0
  6
Continuous
 62
     7
370
    18
100
AcDbSpline
210
0.0
220
0.0
230
1.0
 70
     8
 71
     3
 72
     9
 73
     5
 74
     0
 42
0.000000001
 43
0.00000001
 40
0.0
 40
0.0
 40
0.0
 40
0.0
 40
0.614722807868182
 40
0.9999999999999999
 40
0.9999999999999999
 40
0.9999999999999999
 40
0.9999999999999999
 10
722.6894653396774
 20
483.4183144131717
 30
0.0
 10
722.7511370305251
 20
483.3978029150811
 30
0.0
 10
722.8514614207352
 20
483.3644358464967
 30
0.0
 10
722.9390823691309
 20
483.1802078030461
 30
0.0
 10
722.9728407221007
 20
483.1092289397535
 30
0.0
  0
LINE
  5
10B
330
1F
100
AcDbEntity
  8
0
  6
Continuous
 62
     7
370
    18
100
AcDbLine
 10
723.0767204421
 20
483.4183144132
 30
0.0
 11
723.0767204421
 21
483.1092289398
 31
0.0
  0
LINE
  5
10C
330
1F
100
AcDbEntity
  8
0
  6
Continuous
 62
     7
370
    18
100
AcDbLine
 10
723.6544980662
 20
483.4183144132
 30
0.0
 11
723.0767204421
 21
483.4183144132
 31
0.0
  0
LINE
  5
10D
330
1F
100
AcDbEntity
  8
0
  6
Continuous
 62
     7
370
    18
100
AcDbLine
 10
719.9845972465
 20
483.4183144132
 30
0.0
 11
719.7224671947
 21
483.4183144132
 31
0.0
  0
LINE
  5
10E
330
1F
100
AcDbEntity
  8
0
  6
Continuous
 62
     7
370
    18
100
AcDbLine
 10
723.0767204421
 20
483.4183144132
 30
0.0
 11
722.8145885276
 21
483.4183144132
 31
0.0
  0
LINE
  5
10F
330
1F
100
AcDbEntity
  8
0
  6
Continuous
 62
     7
370
    18
100
AcDbLine
 10
722.8145885276
 20
483.4183144132
 30
0.0
 11
722.6894653397
 21
483.4183144132
 31
0.0
  0
LINE
  5
110
330
1F
100
AcDbEntity
  8
0
  6
Continuous
 62
     7
370
    18
100
AcDbLine
 10
382.5000214385
 20
483.3301870832
 30
0.0
 11
382.5000214385
 21
483.3557369867
 31
0.0
  0
SPLINE
  5
111
330
1F
100
AcDbEntity
  8
0
  6
Continuous
 62
     7
370
    18
100
AcDbSpline
210
0.0
220
0.0
230
1.0
 70
     8
 71
     3
 72
     9
 73
     5
 74
     0
 42
0.000000001
 43
0.00000001
 40
0.0
 40
0.0
 40
0.0
 40
0.0
 40
0.6022813562980242
 40
1.0
 40
1.0
 40
1.0
 40
1.0
 10
382.5000214384962
 20
483.3557369867381
 30
0.0
 10
382.3949635792442
 20
483.5616401180092
 30
0.0
 10
382.2205303875916
 20
483.9035121170638
 30
0.0
 10
382.199361009397
 20
484.2844390464332
 30
0.0
 10
382.1909415530134
 20
484.4359407881316
 30
0.0
  0
LINE
  5
112
330
1F
100
AcDbEntity
  8
0
  6
Continuous
 62
     7
370
    18
100
AcDbLine
 10
382.190941553
 20
484.4359407881
 30
0.0
 11
382.190941553
 21
486.7252043197
 31
0.0
  0
SPLINE
  5
113
330
1F
100
AcDbEntity
  8
0
  6
Continuous
 62
     7
370
    18
100
AcDbSpline
210
0.0
220
0.0
230
1.0
 70
     8
 71
     3
 72
     9
 73
     5
 74
     0
 42
0.000000001
 43
0.00000001
 40
0.0
 40
0.0
 40
0.0
 40
0.0
 40
0.6147249519785676
 40
1.0
 40
1.0
 40
1.0
 40
1.0
 10
382.1909415530134
 20
486.7252043196973
 30
0.0
 10
382.2114603135328
 20
486.7344694984844
 30
0.0
 10
382.2448390798468
 20
486.7495415705669
 30
0.0
 10
382.4290496877068
 20
486.7627079753019
 30
0.0
 10
382.5000214384962
 20
486.7677806625184
 30
0.0
  0
LINE
  5
114
330
1F
100
AcDbEntity
  8
0
  6
Continuous
 62
     7
370
    18
100
AcDbLine
 10
382.5000214385
 20
486.7677806625
 30
0.0
 11
382.5000214385
 21
487.7670041034
 31
0.0
  0
SPLINE
  5
115
330
1F
100
AcDbEntity
  8
0
  6
Continuous
 62
     7
370
    18
100
AcDbSpline
210
0.0
220
0.0
230
1.0
 70
     8
 71
     3
 72
     9
 73
     5
 74
     0
 42
0.000000001
 43
0.00000001
 40
0.0
 40
0.0
 40
0.0
 40
0.0
 40
0.6022897075276772
 40
1.0
 40
1.0
 40
1.0
 40
1.0
 10
382.5000214384962
 20
487.767004103404
 30
0.0
 10
382.394963584633
 20
487.758889621201
 30
0.0
 10
382.2205328205835
 20
487.7454168985203
 30
0.0
 10
382.1993615752049
 20
487.7304000970769
 30
0.0
 10
382.1909415530133
 20
487.7244277605829
 30
0.0
  0
LINE
  5
116
330
1F
100
AcDbEntity
  8
0
  6
Continuous
 62
     7
370
    18
100
AcDbLine
 10
382.190941553
 20
487.7244277606
 30
0.0
 11
382.190941553
 21
488.7183165858
 31
0.0
  0
SPLINE
  5
117
330
1F
100
AcDbEntity
  8
0
  6
Continuous
 62
     7
370
    18
100
AcDbSpline
210
0.0
220
0.0
230
1.0
 70
     8
 71
     3
 72
     9
 73
     5
 74
     0
 42
0.000000001
 43
0.00000001
 40
0.0
 40
0.0
 40
0.0
 40
0.0
 40
0.6147250725923348
 40
1.0
 40
1.0
 40
1.0
 40
1.0
 10
382.1909415530133
 20
487.5114268371877
 30
0.0
 10
382.2114602939436
 20
487.5021594272333
 30
0.0
 10
382.244839021842
 20
487.4870837285711
 30
0.0
 10
382.4290496876134
 20
487.4739215512706
 30
0.0
 10
382.5000214384962
 20
487.4688504943666
 30
0.0
  0
LINE
  5
118
330
1F
100
AcDbEntity
  8
0
  6
Continuous
 62
     7
370
    18
100
AcDbLine
 10
382.5000214385
 20
487.6376173208
 30
0.0
 11
382.190941553
 21
487.6376173208
 31
0.0
  0
LINE
  5
119
330
1F
100
AcDbEntity
  8
0
  6
Continuous
 62
     7
370
    18
100
AcDbLine
 10
382.190941553
 20
487.7244277606
 30
0.0
 11
382.190941553
 21
487.6376173208
 31
0.0
  0
LINE
  5
11A
330
1F
100
AcDbEntity
  8
0
  6
Continuous
 62
     7
370
    18
100
AcDbLine
 10
397.8909539985
 20
488.7183165858
 30
0.0
 11
397.8909539985
 21
484.6183142373
 31
0.0
  0
LINE
  5
11B
330
1F
100
AcDbEntity
  8
0
  6
Continuous
 62
     7
370
    18
100
AcDbLine
 10
382.190941553
 20
484.4359407881
 30
0.0
 11
382.190941553
 21
484.3965570191
 31
0.0
  0
LINE
  5
11C
330
1F
100
AcDbEntity
  8
0
  6
Continuous
 62
     7
370
    18
100
AcDbLine
 10
382.190941553
 20
487.5982335517
 30
0.0
 11
382.5000214385
 21
487.5982335517
 31
0.0
  0
LINE
  5
11D
330
1F
100
AcDbEntity
  8
0
  6
Continuous
 62
     7
370
    18
100
AcDbLine
 10
382.190941553
 20
487.6376173208
 30
0.0
 11
382.190941553
 21
487.5982335517
 31
0.0
  0
LINE
  5
11E
330
1F
100
AcDbEntity
  8
0
  6
Continuous
 62
     7
370
    18
100
AcDbLine
 10
382.190941553
 20
487.5982335517
 30
0.0
 11
382.190941553
 21
487.5114268372
 31
0.0
  0
LWPOLYLINE
  5
11F
330
1F
100
AcDbEntity
  8
0
  6
Continuous
 62
     7
370
    18
100
AcDbPolyline
 90
        3
 70
   128
 43
0.0
 10
1122.4448966788
 20
559.7280270169
 10
1122.4446880626
 20
559.7554600546
 10
1122.4444794463
 20
559.7667849371
  0
LINE
  5
120
330
1F
100
AcDbEntity
  8
0
  6
Continuous
 62
     7
370
    18
100
AcDbLine
 10
1129.4444787311
 20
559.5332688401
 30
0.0
 11
1122.4826860236
 21
559.5332688401
 31
0.0
  0
LINE
  5
121
330
1F
100
AcDbEntity
  8
0
  6
Continuous
 62
     7
370
    18
100
AcDbLine
 10
1129.4444787311
 20
559.5332688401
 30
0.0
 11
1129.4445085334
 21
559.4995549629
 31
0.0
  0
LINE
  5
122
330
1F
100
AcDbEntity
  8
0
  6
Continuous
 62
     7
370
    18
100
AcDbLine
 10
1129.4445085334
 20
539.9370795796
 30
0.0
 11
1129.4444787311
 21
539.9033582518
 31
0.0
  0
LINE
  5
123
330
1F
100
AcDbEntity
  8
0
  6
Continuous
 62
     7
370
    18
100
AcDbLine
 10
1129.4444787311
 20
539.9033582518
 30
0.0
 11
1122.4826562213
 21
539.9033582518
 31
0.0
  0
LINE
  5
124
330
1F
100
AcDbEntity
  8
0
  6
Continuous
 62
     7
370
    18
100
AcDbLine
 10
859.068019967
 20
554.6257949183
 30
0.0
 11
859.068019967
 21
544.8108396241
 31
0.0
  0
LINE
  5
125
330
1F
100
AcDbEntity
  8
0
  6
Continuous
 62
     7
370
    18
100
AcDbLine
 10
867.568014841
 20
559.5332688401
 30
0.0
 11
859.068019967
 21
554.6257949183
 31
0.0
  0
LINE
  5
126
330
1F
100
AcDbEntity
  8
0
  6
Continuous
 62
     7
370
    18
100
AcDbLine
 10
876.068009715
 20
554.6257949183
 30
0.0
 11
867.568014841
 21
559.5332688401
 31
0.0
  0
LINE
  5
127
330
1F
100
AcDbEntity
  8
0
  6
Continuous
 62
     7
370
    18
100
AcDbLine
 10
876.068009715
 20
544.8108396241
 30
0.0
 11
876.068009715
 21
554.6257949183
 31
0.0
  0
LINE
  5
128
330
1F
100
AcDbEntity
  8
0
  6
Continuous
 62
     7
370
    18
100
AcDbLine
 10
867.568014841
 20
539.9033582518
 30
0.0
 11
876.068009715
 21
544.8108396241
 31
0.0
  0
LINE
  5
129
330
1F
100
AcDbEntity
  8
0
  6
Continuous
 62
     7
370
    18
100
AcDbLine
 10
859.068019967
 20
544.8108396241
 30
0.0
 11
867.568014841
 21
539.9033582518
 31
0.0
  0
LINE
  5
12A
330
1F
100
AcDbEntity
  8
0
  6
Continuous
 62
     7
370
    18
100
AcDbLine
 10
859.068019967
 20
544.8108396241
 30
0.0
 11
859.0647566127
 21
544.8108396241
 31
0.0
  0
LINE
  5
12B
330
1F
100
AcDbEntity
  8
0
  6
Continuous
 62
     7
370
    18
100
AcDbLine
 10
867.568014841
 20
539.9033582518
 30
0.0
 11
867.5647514867
 21
539.9033582518
 31
0.0
  0
LINE
  5
12C
330
1F
100
AcDbEntity
  8
0
  6
Continuous
 62
     7
370
    18
100
AcDbLine
 10
859.0647566127
 20
544.8108396241
 30
0.0
 11
867.5647514867
 21
539.9033582518
 31
0.0
  0
LINE
  5
12D
330
1F
100
AcDbEntity
  8
0
  6
Continuous
 62
     7
370
    18
100
AcDbLine
 10
859.068019967
 20
554.6257949183
 30
0.0
 11
859.0647566127
 21
554.6257949183
 31
0.0
  0
LINE
  5
12E
330
1F
100
AcDbEntity
  8
0
  6
Continuous
 62
     7
370
    18
100
AcDbLine
 10
859.0647566127
 20
554.6257949183
 30
0.0
 11
859.0647566127
 21
544.8108396241
 31
0.0
  0
LINE
  5
12F
330
1F
100
AcDbEntity
  8
0
  6
Continuous
 62
     7
370
    18
100
AcDbLine
 10
867.568014841
 20
559.5332688401
 30
0.0
 11
867.5647514867
 21
559.5332688401
 31
0.0
  0
LINE
  5
130
330
1F
100
AcDbEntity
  8
0
  6
Continuous
 62
     7
370
    18
100
AcDbLine
 10
867.5647514867
 20
559.5332688401
 30
0.0
 11
859.0647566127
 21
554.6257949183
 31
0.0
  0
CIRCLE
  5
131
330
1F
100
AcDbEntity
  8
0
  6
Continuous
 62
     7
370
    18
100
AcDbCircle
 10
867.5526417438
 20
549.7667893856
 30
0.0
 40
10.00000281497892
  0
ARC
  5
132
330
1F
100
AcDbEntity
  8
0
  6
Continuous
 62
     7
370
    18
100
AcDbCircle
 10
867.5517115547
 20
549.7667809886
 30
0.0
 40
10.00000394853157
100
AcDbArc
 50
90.0000345762
 51
179.9999654238
  0
ARC
  5
133
330
1F
100
AcDbEntity
  8
0
  6
Continuous
 62
     7
370
    18
100
AcDbCircle
 10
867.551712364
 20
549.7667864167
 30
0.0
 40
10.00000475781271
100
AcDbArc
 50
179.9999965244
 51
269.9999607869
  0
LINE
  5
134
330
1F
100
AcDbEntity
  8
0
  6
Continuous
 62
     7
370
    18
100
AcDbLine
 10
947.5680130528
 20
559.5332688401
 30
0.0
 11
947.5647496985
 21
559.5332688401
 31
0.0
  0
LINE
  5
135
330
1F
100
AcDbEntity
  8
0
  6
Continuous
 62
     7
370
    18
100
AcDbLine
 10
947.5680130528
 20
559.5332688401
 30
0.0
 11
939.0680032777
 21
554.6257949183
 31
0.0
  0
LINE
  5
136
330
1F
100
AcDbEntity
  8
0
  6
Continuous
 62
     7
370
    18
100
AcDbLine
 10
939.0680032777
 20
554.6257949183
 30
0.0
 11
939.0647399234
 21
554.6257949183
 31
0.0
  0
LINE
  5
137
330
1F
100
AcDbEntity
  8
0
  6
Continuous
 62
     7
370
    18
100
AcDbLine
 10
947.5647496985
 20
559.5332688401
 30
0.0
 11
939.0647399234
 21
554.6257949183
 31
0.0
  0
LINE
  5
138
330
1F
100
AcDbEntity
  8
0
  6
Continuous
 62
     7
370
    18
100
AcDbLine
 10
939.0680032777
 20
554.6257949183
 30
0.0
 11
939.0680032777
 21
544.8108396241
 31
0.0
  0
LINE
  5
139
330
1F
100
AcDbEntity
  8
0
  6
Continuous
 62
     7
370
    18
100
AcDbLine
 10
939.0680032777
 20
544.8108396241
 30
0.0
 11
939.0647399234
 21
544.8108396241
 31
0.0
  0
LINE
  5
13A
330
1F
100
AcDbEntity
  8
0
  6
Continuous
 62
     7
370
    18
100
AcDbLine
 10
939.0647399234
 20
554.6257949183
 30
0.0
 11
939.0647399234
 21
544.8108396241
 31
0.0
  0
LINE
  5
13B
330
1F
100
AcDbEntity
  8
0
  6
Continuous
 62
     7
370
    18
100
AcDbLine
 10
939.0680032777
 20
544.8108396241
 30
0.0
 11
947.5680130528
 21
539.9033582518
 31
0.0
  0
LINE
  5
13C
330
1F
100
AcDbEntity
  8
0
  6
Continuous
 62
     7
370
    18
100
AcDbLine
 10
947.5680130528
 20
539.9033582518
 30
0.0
 11
947.5647496985
 21
539.9033582518
 31
0.0
  0
LINE
  5
13D
330
1F
100
AcDbEntity
  8
0
  6
Continuous
 62
     7
370
    18
100
AcDbLine
 10
939.0647399234
 20
544.8108396241
 30
0.0
 11
947.5647496985
 21
539.9033582518
 31
0.0
  0
LINE
  5
13E
330
1F
100
AcDbEntity
  8
0
  6
Continuous
 62
     7
370
    18
100
AcDbLine
 10
956.0680079268
 20
554.6257949183
 30
0.0
 11
947.5680130528
 21
559.5332688401
 31
0.0
  0
LINE
  5
13F
330
1F
100
AcDbEntity
  8
0
  6
Continuous
 62
     7
370
    18
100
AcDbLine
 10
956.0680079268
 20
544.8108396241
 30
0.0
 11
956.0680079268
 21
554.6257949183
 31
0.0
  0
LINE
  5
140
330
1F
100
AcDbEntity
  8
0
  6
Continuous
 62
     7
370
    18
100
AcDbLine
 10
947.5680130528
 20
539.9033582518
 30
0.0
 11
956.0680079268
 21
544.8108396241
 31
0.0
  0
CIRCLE
  5
141
330
1F
100
AcDbEntity
  8
0
  6
Continuous
 62
     7
370
    18
100
AcDbCircle
 10
947.5526279097
 20
549.7667502896
 30
0.0
 40
9.999998219692253
  0
ARC
  5
142
330
1F
100
AcDbEntity
  8
0
  6
Continuous
 62
     7
370
    18
100
AcDbCircle
 10
947.5517053709
 20
549.7667704831
 30
0.0
 40
10.00001445401578
100
AcDbArc
 50
90.0000520794
 51
179.9999052319
  0
ARC
  5
143
330
1F
100
AcDbEntity
  8
0
  6
Continuous
 62
     7
370
    18
100
AcDbCircle
 10
947.5517061802
 20
549.7667969221
 30
0.0
 40
10.00001526327618
100
AcDbArc
 50
180.0000567162
 51
269.9999432838
  0
LWPOLYLINE
  5
144
330
1F
100
AcDbEntity
  8
0
  6
Continuous
 62
     7
370
    18
100
AcDbPolyline
 90
       16
 70
   128
 43
0.0
 10
1122.4837589072
 20
540.6834340403
 10
1122.4845337676
 20
541.6541552851
 10
1122.4851894187
 20
542.916678519
 10
1122.4857258605
 20
544.4253912875
 10
1122.486143093
 20
546.1257478902
 10
1122.4863815116
 20
547.9563033888
 10
1122.4864411162
 20
549.8508966276
 10
1122.4863517093
 20
551.7410418699
 10
1122.4860834884
 20
553.5584396431
 10
1122.4856662558
 20
555.2373907277
 10
1122.485129814
 20
556.7172175953
 10
1122.4844443606
 20
557.9444399783
 10
1122.4836695002
 20
558.8747045705
 10
1122.4828350352
 20
559.474379451
 10
1122.4819409655
 20
559.7217983315
 10
1122.4817919539
 20
559.7280270169
  0
ARC
  5
145
330
1F
100
AcDbEntity
  8
0
  6
Continuous
 62
     7
370
    18
100
AcDbCircle
 10
1002.180968247
 20
540.4534061837
 30
0.0
 40
120.3030105751859
100
AcDbArc
 50
359.6545291977
 51
0.1095536456
  0
LWPOLYLINE
  5
146
330
1F
100
AcDbEntity
  8
0
  6
Continuous
 62
     7
370
    18
100
AcDbPolyline
 90
       15
 70
   128
 43
0.0
 10
1120.4830694007
 20
540.1178530166
 10
1120.4837846564
 20
540.6834340403
 10
1120.4845297145
 20
541.6541552851
 10
1120.4851853656
 20
542.916678519
 10
1120.4857218074
 20
544.4253912875
 10
1120.4861390399
 20
546.1257478902
 10
1120.4863774585
 20
547.9563033888
 10
1120.4864370631
 20
549.8508966276
 10
1120.4863476561
 20
551.7410418699
 10
1120.4860794352
 20
553.5584396431
 10
1120.4856622027
 20
555.2373907277
 10
1120.4851257609
 20
556.7172175953
 10
1120.4844403075
 20
557.9444399783
 10
1120.4836654471
 20
558.8747045705
 10
1120.4830395984
 20
559.3499398539
  0
LINE
  5
147
330
1F
100
AcDbEntity
  8
0
  6
Continuous
 62
     7
370
    18
100
AcDbLine
 10
1129.4859039592
 20
553.9049810479
 30
0.0
 11
1122.4860238837
 21
553.9049810479
 31
0.0
  0
LINE
  5
148
330
1F
100
AcDbEntity
  8
0
  6
Continuous
 62
     7
370
    18
100
AcDbLine
 10
1129.4859039592
 20
553.9049810479
 30
0.0
 11
1129.485516529
 21
544.1237396309
 31
0.0
  0
LINE
  5
149
330
1F
100
AcDbEntity
  8
0
  6
Continuous
 62
     7
370
    18
100
AcDbLine
 10
1129.485516529
 20
544.1237396309
 30
0.0
 11
1122.4856364535
 21
544.1237396309
 31
0.0
  0
LINE
  5
14A
330
1F
100
AcDbEntity
  8
0
  6
Continuous
 62
     7
370
    18
100
AcDbLine
 10
1129.4821488666
 20
559.4995549629
 30
0.0
 11
1122.4827754306
 21
559.4995549629
 31
0.0
  0
LINE
  5
14B
330
1F
100
AcDbEntity
  8
0
  6
Continuous
 62
     7
370
    18
100
AcDbLine
 10
1129.4821488666
 20
559.4995549629
 30
0.0
 11
1129.4859039592
 21
553.9049810479
 31
0.0
  0
LINE
  5
14C
330
1F
100
AcDbEntity
  8
0
  6
Continuous
 62
     7
370
    18
100
AcDbLine
 10
1129.4813740062
 20
539.9370795796
 30
0.0
 11
1122.4827158259
 21
539.9370795796
 31
0.0
  0
LINE
  5
14D
330
1F
100
AcDbEntity
  8
0
  6
Continuous
 62
     7
370
    18
100
AcDbLine
 10
1129.485516529
 20
544.1237396309
 30
0.0
 11
1129.4813740062
 21
539.9370795796
 31
0.0
  0
CIRCLE
  5
14E
330
1F
100
AcDbEntity
  8
0
  6
Continuous
 62
     7
370
    18
100
AcDbCircle
 10
907.5698752663
 20
549.7182811209
 30
0.0
 40
21.50000019331652
  0
CIRCLE
  5
14F
330
1F
100
AcDbEntity
  8
0
  6
Continuous
 62
     7
370
    18
100
AcDbCircle
 10
907.5703368729
 20
549.718290434
 30
0.0
 40
18.00000088034477
  0
CIRCLE
  5
150
330
1F
100
AcDbEntity
  8
0
  6
Continuous
 62
     7
370
    18
100
AcDbCircle
 10
907.5689486472
 20
549.7182877442
 30
0.0
 40
14.99999721839779
  0
ARC
  5
151
330
1F
100
AcDbEntity
  8
0
  6
Continuous
 62
     7
370
    18
100
AcDbCircle
 10
907.5643356917
 20
549.7183135459
 30
0.0
 40
21.50004422386476
100
AcDbArc
 50
144.2037652281
 51
215.7962347719
  0
ARC
  5
152
330
1F
100
AcDbEntity
  8
0
  6
Continuous
 62
     7
370
    18
100
AcDbCircle
 10
907.5589727297
 20
549.7183247841
 30
0.0
 40
14.99998935787233
100
AcDbArc
 50
359.9999570733
 51
89.9999860084
  0
ARC
  5
153
330
1F
100
AcDbEntity
  8
0
  6
Continuous
 62
     7
370
    18
100
AcDbCircle
 10
907.5589750088
 20
549.7183000286
 30
0.0
 40
14.99998707868844
100
AcDbArc
 50
270.0000052857
 51
0.0000516325
  0
ARC
  5
154
330
1F
100
AcDbEntity
  8
0
  6
Continuous
 62
     7
370
    18
100
AcDbCircle
 10
886.0692283834
 20
534.2189590813
 30
0.0
 40
4.999355537964242
100
AcDbArc
 50
78.9460713491
 51
90.0007554227
  0
SPLINE
  5
155
330
1F
100
AcDbEntity
  8
0
  6
Continuous
 62
     7
370
    18
100
AcDbSpline
210
0.0
220
0.0
230
1.0
 70
     8
 71
     3
 72
    11
 73
     7
 74
     0
 42
0.000000001
 43
0.00000001
 40
0.0
 40
0.0
 40
0.0
 40
0.0
 40
0.0028172215274523
 40
0.4906817076146931
 40
0.8035246394481541
 40
1.0
 40
1.0
 40
1.0
 40
1.0
 10
890.1256012724806
 20
537.1428436348256
 30
0.0
 10
890.1237344846209
 20
537.145427081409
 30
0.0
 10
889.7985919121053
 20
537.595391689708
 30
0.0
 10
889.1432956812632
 20
538.2460032034552
 30
0.0
 10
888.0154974528006
 20
538.8776804753539
 30
0.0
 10
887.3027280316045
 20
539.0565582082106
 30
0.0
 10
887.0277690695691
 20
539.1255623409567
 30
0.0
  0
SPLINE
  5
156
330
1F
100
AcDbEntity
  8
0
  6
Continuous
 62
     7
370
    18
100
AcDbSpline
210
0.0
220
0.0
230
1.0
 70
     8
 71
     3
 72
    11
 73
     7
 74
     0
 42
0.000000001
 43
0.00000001
 40
0.0
 40
0.0
 40
0.0
 40
0.0
 40
0.1964753605518458
 40
0.5093182923853067
 40
0.9971827784725475
 40
1.0
 40
1.0
 40
1.0
 40
1.0
 10
887.0277690695691
 20
560.3110647508917
 30
0.0
 10
887.3027280316043
 20
560.3800688836376
 30
0.0
 10
888.0154974528003
 20
560.5589466164942
 30
0.0
 10
889.1432956812649
 20
561.1906238883932
 30
0.0
 10
889.7985919120995
 20
561.8412354021394
 30
0.0
 10
890.1237344846209
 20
562.2912000104391
 30
0.0
 10
890.1256012724806
 20
562.2937834570225
 30
0.0
  0
ARC
  5
157
330
1F
100
AcDbEntity
  8
0
  6
Continuous
 62
     7
370
    18
100
AcDbCircle
 10
886.069108622
 20
565.2189057595
 30
0.0
 40
5.000593286761853
100
AcDbArc
 50
270.0006169656
 51
281.0525562626
  0
SPLINE
  5
158
330
1F
100
AcDbEntity
  8
0
  6
Continuous
 62
     7
370
    18
100
AcDbSpline
210
0.0
220
0.0
230
1.0
 70
     8
 71
     3
 72
    11
 73
     7
 74
     0
 42
0.000000001
 43
0.00000001
 40
0.0
 40
0.0
 40
0.0
 40
0.0
 40
0.196475989062481
 40
0.509317043540743
 40
0.9971827762151663
 40
1.0
 40
1.0
 40
1.0
 40
1.0
 10
928.0989306973386
 20
539.1255623409567
 30
0.0
 10
927.8240070950696
 20
539.0565585301322
 30
0.0
 10
927.1113333634072
 20
538.8776826426007
 30
0.0
 10
925.984085490233
 20
538.2459979109685
 30
0.0
 10
925.329972459386
 20
537.5953924801474
 30
0.0
 10
925.0048279353853
 20
537.145427081442
 30
0.0
 10
925.0029611395764
 20
537.1428436348256
 30
0.0
  0
ARC
  5
159
330
1F
100
AcDbEntity
  8
0
  6
Continuous
 62
     7
370
    18
100
AcDbCircle
 10
929.0574911703
 20
534.218754583
 30
0.0
 40
4.999560036046065
100
AcDbArc
 50
89.9994713673
 51
101.0537018609
  0
SPLINE
  5
15A
330
1F
100
AcDbEntity
  8
0
  6
Continuous
 62
     7
370
    18
100
AcDbSpline
210
0.0
220
0.0
230
1.0
 70
     8
 71
     3
 72
    11
 73
     7
 74
     0
 42
0.000000001
 43
0.00000001
 40
0.0
 40
0.0
 40
0.0
 40
0.0
 40
0.0028172237848336
 40
0.490682956459257
 40
0.803524010937519
 40
1.0
 40
1.0
 40
1.0
 40
1.0
 10
925.0029611395764
 20
562.2937834570225
 30
0.0
 10
925.0048279353853
 20
562.2912000104062
 30
0.0
 10
925.3299724593825
 20
561.8412346116994
 30
0.0
 10
925.984085490234
 20
561.19062918088
 30
0.0
 10
927.111333363407
 20
560.5589444492474
 30
0.0
 10
927.8240070950696
 20
560.380068561716
 30
0.0
 10
928.0989306973386
 20
560.3110647508917
 30
0.0
  0
ARC
  5
15B
330
1F
100
AcDbEntity
  8
0
  6
Continuous
 62
     7
370
    18
100
AcDbCircle
 10
929.0576109316
 20
565.2191102578
 30
0.0
 40
5.000797785317376
100
AcDbArc
 50
258.9476704151
 51
269.9991563567
  0
LWPOLYLINE
  5
15C
330
1F
100
AcDbEntity
  8
0
  6
Continuous
 62
     7
370
    18
100
AcDbPolyline
 90
        3
 70
   128
 43
0.0
 10
864.0186103987
 20
539.3922260711
 10
862.3127031135
 20
540.7917133281
 10
861.1910033034
 20
542.0504740188
  0
LWPOLYLINE
  5
15D
330
1F
100
AcDbEntity
  8
0
  6
Continuous
 62
     7
370
    18
100
AcDbPolyline
 90
        3
 70
   128
 43
0.0
 10
861.4064144896
 20
557.6557299802
 10
862.3127031135
 20
558.6449137637
 10
864.0186103987
 20
560.0444010207
  0
SPLINE
  5
15E
330
1F
100
AcDbEntity
  8
0
  6
Continuous
 62
     7
370
    18
100
AcDbSpline
210
0.0
220
0.0
230
1.0
 70
    24
 71
     3
 72
    12
 73
     8
 74
     0
 42
0.000000001
 43
0.00000001
 40
0.0
 40
0.0
 40
0.0
 40
0.0
 40
0.409019058752933
 40
0.6622145010858005
 40
0.8095608069846285
 40
0.9044150139680729
 40
0.9999999999999999
 40
0.9999999999999999
 40
0.9999999999999999
 40
0.9999999999999999
 10
866.5912213729787
 20
539.2183146188077
 30
0.0
 10
866.2573475653522
 20
539.2183146188077
 30
0.0
 10
865.7167955489815
 20
539.2183146188077
 30
0.0
 10
865.0882318889594
 20
539.2183146188077
 30
0.0
 10
864.7700183329588
 20
539.2183146188077
 30
0.0
 10
864.6116457543031
 20
539.2183146188078
 30
0.0
 10
864.5920070137631
 20
539.2183146188077
 30
0.0
 10
864.5821499632765
 20
539.2183146188077
 30
0.0
  0
SPLINE
  5
15F
330
1F
100
AcDbEntity
  8
0
  6
Continuous
 62
     7
370
    18
100
AcDbSpline
210
0.0
220
0.0
230
1.0
 70
    24
 71
     3
 72
    13
 73
     9
 74
     0
 42
0.000000001
 43
0.00000001
 40
0.0
 40
0.0
 40
0.0
 40
0.0
 40
0.0830579603617568
 40
0.1746711445531288
 40
0.3146439096021131
 40
0.4537344130657235
 40
0.8351890967446017
 40
1.0
 40
1.0
 40
1.0
 40
1.0
 10
864.5821499632765
 20
560.2183124730404
 30
0.0
 10
864.5895638353282
 20
560.2183124730404
 30
0.0
 10
864.6051552309178
 20
560.2183124730404
 30
0.0
 10
864.741612705195
 20
560.2183124730404
 30
0.0
 10
864.971657727599
 20
560.2183124730404
 30
0.0
 10
865.4539659872029
 20
560.2183124730404
 30
0.0
 10
866.0134673007233
 20
560.2183124730404
 30
0.0
 10
866.4573114887095
 20
560.2183124730404
 30
0.0
 10
866.5912213729787
 20
560.2183124730404
 30
0.0
  0
SPLINE
  5
160
330
1F
100
AcDbEntity
  8
0
  6
Continuous
 62
     7
370
    18
100
AcDbSpline
210
0.0
220
0.0
230
1.0
 70
    24
 71
     3
 72
    12
 73
     8
 74
     0
 42
0.000000001
 43
0.00000001
 40
0.0
 40
0.0
 40
0.0
 40
0.0
 40
0.4090186062743019
 40
0.6622119071814806
 40
0.8095592141743964
 40
0.90441438370443
 40
1.0
 40
1.0
 40
1.0
 40
1.0
 10
948.5354858445097
 20
560.2183124730404
 30
0.0
 10
948.869346272766
 20
560.2183124730404
 30
0.0
 10
949.409875108219
 20
560.2183124730404
 30
0.0
 10
950.0382062037177
 20
560.2183124730404
 30
0.0
 10
950.3561966288152
 20
560.2183124730404
 30
0.0
 10
950.5143411293959
 20
560.2183124730404
 30
0.0
 10
950.5338394019687
 20
560.2183124730404
 30
0.0
 10
950.5436259316374
 20
560.2183124730404
 30
0.0
  0
ARC
  5
161
330
1F
100
AcDbEntity
  8
0
  6
Continuous
 62
     7
370
    18
100
AcDbCircle
 10
950.5436416269
 20
559.2183899762
 30
0.0
 40
0.9999224969670313
100
AcDbArc
 50
55.6976385347
 51
90.0008993419
  0
LWPOLYLINE
  5
162
330
1F
100
AcDbEntity
  8
0
  6
Continuous
 62
     7
370
    18
100
AcDbPolyline
 90
        3
 70
   128
 43
0.0
 10
951.1071580457
 20
560.0444010207
 10
952.8130727815
 20
558.6449137637
 10
953.7578213023
 20
557.6086944649
  0
LWPOLYLINE
  5
163
330
1F
100
AcDbEntity
  8
0
  6
Continuous
 62
     7
370
    18
100
AcDbPolyline
 90
        3
 70
   128
 43
0.0
 10
953.9732175874
 20
542.1002364466
 10
952.8130727815
 20
540.7917133281
 10
951.1071580457
 20
539.3922260711
  0
ARC
  5
164
330
1F
100
AcDbEntity
  8
0
  6
Continuous
 62
     7
370
    18
100
AcDbCircle
 10
950.5436218053
 20
540.2183013444
 30
0.0
 40
0.9999867256043314
100
AcDbArc
 50
270.0002364257
 51
304.3012256977
  0
SPLINE
  5
165
330
1F
100
AcDbEntity
  8
0
  6
Continuous
 62
     7
370
    18
100
AcDbSpline
210
0.0
220
0.0
230
1.0
 70
    24
 71
     3
 72
    13
 73
     9
 74
     0
 42
0.000000001
 43
0.00000001
 40
0.0
 40
0.0
 40
0.0
 40
0.0
 40
0.0830625517832195
 40
0.1746718878850853
 40
0.3146473751564951
 40
0.4537325044738476
 40
0.8351921848241675
 40
1.0
 40
1.0
 40
1.0
 40
1.0
 10
950.5436259316374
 20
539.2183146188077
 30
0.0
 10
950.5362767827427
 20
539.2183146188077
 30
0.0
 10
950.520822288699
 20
539.2183146188077
 30
0.0
 10
950.3845585894624
 20
539.2183146188078
 30
0.0
 10
950.1547099077733
 20
539.2183146188077
 30
0.0
 10
949.6726192796993
 20
539.2183146188078
 30
0.0
 10
949.1132276642182
 20
539.2183146188077
 30
0.0
 10
948.669390602007
 20
539.2183146188077
 30
0.0
 10
948.5354858445097
 20
539.2183146188077
 30
0.0
  0
ARC
  5
166
330
1F
100
AcDbEntity
  8
0
  6
Continuous
 62
     7
370
    18
100
AcDbCircle
 10
874.0638079359
 20
549.7183153677
 30
0.0
 40
6.500005167388218
100
AcDbArc
 50
280.0229397163
 51
79.1241075656
  0
LINE
  5
167
330
1F
100
AcDbEntity
  8
0
  6
Continuous
 62
     7
370
    18
100
AcDbLine
 10
866.591221373
 20
560.218312473
 30
0.0
 11
886.0691624688
 21
560.218312473
 31
0.0
  0
LINE
  5
168
330
1F
100
AcDbEntity
  8
0
  6
Continuous
 62
     7
370
    18
100
AcDbLine
 10
886.0691624688
 20
539.2183146188
 30
0.0
 11
866.591221373
 21
539.2183146188
 31
0.0
  0
ARC
  5
169
330
1F
100
AcDbEntity
  8
0
  6
Continuous
 62
     7
370
    18
100
AcDbCircle
 10
874.0591546005
 20
549.718318015
 30
0.0
 40
6.150793944731961
100
AcDbArc
 50
283.9176439423
 51
75.2287228612
  0
ARC
  5
16A
330
1F
100
AcDbEntity
  8
0
  6
Continuous
 62
     7
370
    18
100
AcDbCircle
 10
941.0638106066
 20
549.7183160312
 30
0.0
 40
6.500001515239644
100
AcDbArc
 50
101.124602696
 51
259.7315772527
  0
LINE
  5
16B
330
1F
100
AcDbEntity
  8
0
  6
Continuous
 62
     7
370
    18
100
AcDbLine
 10
929.0575372981
 20
560.218312473
 30
0.0
 11
948.5354858445
 21
560.218312473
 31
0.0
  0
LINE
  5
16C
330
1F
100
AcDbEntity
  8
0
  6
Continuous
 62
     7
370
    18
100
AcDbLine
 10
948.5354858445
 20
539.2183146188
 30
0.0
 11
929.0575372981
 21
539.2183146188
 31
0.0
  0
ARC
  5
16D
330
1F
100
AcDbEntity
  8
0
  6
Continuous
 62
     7
370
    18
100
AcDbCircle
 10
941.0591626424
 20
549.718317845
 30
0.0
 40
6.150795406042382
100
AcDbArc
 50
104.9383538674
 51
256.3597019468
  0
SPLINE
  5
16E
330
1F
100
AcDbEntity
  8
0
  6
Continuous
 62
     7
370
    18
100
AcDbSpline
210
0.0
220
0.0
230
1.0
 70
     8
 71
     3
 72
    11
 73
     7
 74
     0
 42
0.000000001
 43
0.00000001
 40
0.0
 40
0.0
 40
0.0
 40
0.0
 40
0.0395498983485426
 40
0.4851167822435055
 40
0.8963951458362251
 40
1.0
 40
1.0
 40
1.0
 40
1.0
 10
864.2995494412352
 20
539.2057082364378
 30
0.0
 10
864.2930061579536
 20
539.2099260721856
 30
0.0
 10
864.2127466209284
 20
539.2616618032876
 30
0.0
 10
864.0886238113663
 20
539.3441576742657
 30
0.0
 10
864.0225647297307
 20
539.3893439633059
 30
0.0
 10
864.0191177381528
 20
539.3917432802901
 30
0.0
 10
864.018424134152
 20
539.3922260711012
 30
0.0
  0
SPLINE
  5
16F
330
1F
100
AcDbEntity
  8
0
  6
Continuous
 62
     7
370
    18
100
AcDbSpline
210
0.0
220
0.0
230
1.0
 70
     8
 71
     3
 72
    10
 73
     6
 74
     0
 42
0.000000001
 43
0.00000001
 40
0.0
 40
0.0
 40
0.0
 40
0.0
 40
0.3881419599897703
 40
0.7803990352125871
 40
1.0
 40
1.0
 40
1.0
 40
1.0
 10
864.2799693154265
 20
539.2183146188077
 30
0.0
 10
864.2803081563405
 20
539.2180991048331
 30
0.0
 10
864.2809894305898
 20
539.2176657919856
 30
0.0
 10
864.2875961930849
 20
539.2133968811625
 30
0.0
 10
864.2963924066597
 20
539.2077389244088
 30
0.0
 10
864.2995494412352
 20
539.2057082364378
 30
0.0
  0
LINE
  5
170
330
1F
100
AcDbEntity
  8
0
  6
Continuous
 62
     7
370
    18
100
AcDbLine
 10
864.2799693154
 20
539.2183146188
 30
0.0
 11
864.276832621
 21
539.2183146188
 31
0.0
  0
LWPOLYLINE
  5
171
330
1F
100
AcDbEntity
  8
0
  6
Continuous
 62
     7
370
    18
100
AcDbPolyline
 90
        3
 70
   128
 43
0.0
 10
864.276832621
 20
539.2183146188
 10
862.4945345329
 20
540.6135252425
 10
861.1806246447
 20
542.0590421865
  0
LWPOLYLINE
  5
172
330
1F
100
AcDbEntity
  8
0
  6
Continuous
 62
     7
370
    18
100
AcDbPolyline
 90
        3
 70
   128
 43
0.0
 10
861.3960432815
 20
557.6476311991
 10
862.4945345329
 20
558.8231018493
 10
864.276832621
 20
560.218312473
  0
LINE
  5
173
330
1F
100
AcDbEntity
  8
0
  6
Continuous
 62
     7
370
    18
100
AcDbLine
 10
864.2799693154
 20
560.218312473
 30
0.0
 11
864.276832621
 21
560.218312473
 31
0.0
  0
SPLINE
  5
174
330
1F
100
AcDbEntity
  8
0
  6
Continuous
 62
     7
370
    18
100
AcDbSpline
210
0.0
220
0.0
230
1.0
 70
     8
 71
     3
 72
    10
 73
     6
 74
     0
 42
0.000000001
 43
0.00000001
 40
0.0
 40
0.0
 40
0.0
 40
0.0
 40
0.2543234452943274
 40
0.5813409904989255
 40
1.0
 40
1.0
 40
1.0
 40
1.0
 10
864.2995494412352
 20
560.2309188554104
 30
0.0
 10
864.2959375783339
 20
560.2285945545017
 30
0.0
 10
864.2876814619774
 20
560.2232815901743
 30
0.0
 10
864.2810686369395
 20
560.2190233302447
 30
0.0
 10
864.2803645973966
 20
560.2185680752759
 30
0.0
 10
864.2799693154265
 20
560.2183124730404
 30
0.0
  0
SPLINE
  5
175
330
1F
100
AcDbEntity
  8
0
  6
Continuous
 62
     7
370
    18
100
AcDbSpline
210
0.0
220
0.0
230
1.0
 70
     8
 71
     3
 72
    11
 73
     7
 74
     0
 42
0.000000001
 43
0.00000001
 40
0.0
 40
0.0
 40
0.0
 40
0.0
 40
0.4553489065150158
 40
0.5144963984295537
 40
0.9604185656056646
 40
1.0
 40
1.0
 40
1.0
 40
1.0
 10
864.018424134152
 20
560.0444010207472
 30
0.0
 10
864.0303664934326
 20
560.0526453048599
 30
0.0
 10
864.0438601040478
 20
560.0619604792743
 30
0.0
 10
864.1374159132567
 20
560.1249006550121
 30
0.0
 10
864.212745889774
 20
560.1749647336316
 30
0.0
 10
864.2930061028385
 20
560.2267009778315
 30
0.0
 10
864.2995494412352
 20
560.2309188554104
 30
0.0
  0
ARC
  5
176
330
1F
100
AcDbEntity
  8
0
  6
Continuous
 62
     7
370
    18
100
AcDbCircle
 10
864.5819405538
 20
559.2183899742
 30
0.0
 40
0.9999224991023733
100
AcDbArc
 50
89.9986737881
 51
124.3023614422
  0
ARC
  5
177
330
1F
100
AcDbEntity
  8
0
  6
Continuous
 62
     7
370
    18
100
AcDbCircle
 10
864.5819603748
 20
540.2183013454
 30
0.0
 40
0.9999867266178163
100
AcDbArc
 50
235.6987743205
 51
270.0001904491
  0
SPLINE
  5
178
330
1F
100
AcDbEntity
  8
0
  6
Continuous
 62
     7
370
    18
100
AcDbSpline
210
0.0
220
0.0
230
1.0
 70
     8
 71
     3
 72
    10
 73
     6
 74
     0
 42
0.000000001
 43
0.00000001
 40
0.0
 40
0.0
 40
0.0
 40
0.0
 40
0.5447834529930463
 40
0.9680217329298645
 40
0.9999999999999999
 40
0.9999999999999999
 40
0.9999999999999999
 40
0.9999999999999999
 10
864.2995494412352
 20
560.2309188554104
 30
0.0
 10
864.3908868821641
 20
560.2731672203219
 30
0.0
 10
864.553183712884
 20
560.348238030917
 30
0.0
 10
864.7558524004611
 20
560.3311493153243
 30
0.0
 10
864.8465686379592
 20
560.3095427427282
 30
0.0
 10
864.8529413150717
 20
560.3080249140081
 30
0.0
  0
SPLINE
  5
179
330
1F
100
AcDbEntity
  8
0
  6
Continuous
 62
     7
370
    18
100
AcDbSpline
210
0.0
220
0.0
230
1.0
 70
     8
 71
     3
 72
    10
 73
     6
 74
     0
 42
0.000000001
 43
0.00000001
 40
0.0
 40
0.0
 40
0.0
 40
0.0
 40
0.4959629896270403
 40
0.9680285934880792
 40
0.9999999999999999
 40
0.9999999999999999
 40
0.9999999999999999
 40
0.9999999999999999
 10
864.2995494412352
 20
539.2057082364378
 30
0.0
 10
864.3820149670953
 20
539.1664258941142
 30
0.0
 10
864.5429725157013
 20
539.0897539823312
 30
0.0
 10
864.7461024519154
 20
539.103150427345
 30
0.0
 10
864.8465686749831
 20
539.1270840519379
 30
0.0
 10
864.8529413150717
 20
539.1286021778401
 30
0.0
  0
SPLINE
  5
17A
330
1F
100
AcDbEntity
  8
0
  6
Continuous
 62
     7
370
    18
100
AcDbSpline
210
0.0
220
0.0
230
1.0
 70
     8
 71
     3
 72
    10
 73
     6
 74
     0
 42
0.000000001
 43
0.00000001
 40
0.0
 40
0.0
 40
0.0
 40
0.0
 40
0.5447813976031969
 40
0.9680207699331559
 40
1.0
 40
1.0
 40
1.0
 40
1.0
 10
950.8250939654279
 20
539.2057082364378
 30
0.0
 10
950.7338248845705
 20
539.1634597858897
 30
0.0
 10
950.5716490718293
 20
539.0883886145763
 30
0.0
 10
950.3691165374082
 20
539.1054783383178
 30
0.0
 10
950.2784374037323
 20
539.1270843496914
 30
0.0
 10
950.2720671700407
 20
539.1286021778401
 30
0.0
  0
SPLINE
  5
17B
330
1F
100
AcDbEntity
  8
0
  6
Continuous
 62
     7
370
    18
100
AcDbSpline
210
0.0
220
0.0
230
1.0
 70
     8
 71
     3
 72
    10
 73
     6
 74
     0
 42
0.000000001
 43
0.00000001
 40
0.0
 40
0.0
 40
0.0
 40
0.0
 40
0.4959535390719359
 40
0.9680276330166129
 40
1.0
 40
1.0
 40
1.0
 40
1.0
 10
950.8250939654279
 20
560.2309188554104
 30
0.0
 10
950.7426916086655
 20
560.2702011605221
 30
0.0
 10
950.5818544493603
 20
560.3468743846062
 30
0.0
 10
950.3788639056972
 20
560.3334763759489
 30
0.0
 10
950.2784373649802
 20
560.3095430388183
 30
0.0
 10
950.2720671700407
 20
560.3080249140081
 30
0.0
  0
SPLINE
  5
17C
330
1F
100
AcDbEntity
  8
0
  6
Continuous
 62
     7
370
    18
100
AcDbSpline
210
0.0
220
0.0
230
1.0
 70
     8
 71
     3
 72
    10
 73
     6
 74
     0
 42
0.000000001
 43
0.00000001
 40
0.0
 40
0.0
 40
0.0
 40
0.0
 40
0.586042399828863
 40
0.8207090414551576
 40
1.0
 40
1.0
 40
1.0
 40
1.0
 10
948.3156192110944
 20
562.0418793270405
 30
0.0
 10
948.8632702422386
 20
561.6582802714819
 30
0.0
 10
949.6302150110018
 20
561.1210781624151
 30
0.0
 10
950.4633387597161
 20
560.5048587472832
 30
0.0
 10
950.7293857354433
 20
560.3049121881542
 30
0.0
 10
950.8446144865919
 20
560.2183124730404
 30
0.0
  0
SPLINE
  5
17D
330
1F
100
AcDbEntity
  8
0
  6
Continuous
 62
     7
370
    18
100
AcDbSpline
210
0.0
220
0.0
230
1.0
 70
     8
 71
     3
 72
    10
 73
     6
 74
     0
 42
0.000000001
 43
0.00000001
 40
0.0
 40
0.0
 40
0.0
 40
0.0
 40
0.3880758379422254
 40
0.7803304064267553
 40
1.0
 40
1.0
 40
1.0
 40
1.0
 10
950.8446144865919
 20
560.2183124730404
 30
0.0
 10
950.8442820260985
 20
560.2185319914571
 30
0.0
 10
950.8436135252375
 20
560.218973392025
 30
0.0
 10
950.8370382402238
 20
560.2232300137682
 30
0.0
 10
950.8282491045475
 20
560.2288878099546
 30
0.0
 10
950.8250939654279
 20
560.2309188554104
 30
0.0
  0
SPLINE
  5
17E
330
1F
100
AcDbEntity
  8
0
  6
Continuous
 62
     7
370
    18
100
AcDbSpline
210
0.0
220
0.0
230
1.0
 70
     8
 71
     3
 72
    11
 73
     7
 74
     0
 42
0.000000001
 43
0.00000001
 40
0.0
 40
0.0
 40
0.0
 40
0.0
 40
0.036987590007136
 40
0.2730353173813752
 40
0.6578737630125271
 40
1.0
 40
1.0
 40
1.0
 40
1.0
 10
950.8446144865919
 20
539.2183146188077
 30
0.0
 10
950.8227945287231
 20
539.2018659937354
 30
0.0
 10
950.6617237717265
 20
539.0804453884393
 30
0.0
 10
950.1639434834361
 20
538.7087375109817
 30
0.0
 10
949.3124359536932
 20
538.0882472706818
 30
0.0
 10
948.6346165525339
 20
537.6166787268486
 30
0.0
 10
948.3156192110944
 20
537.3947477648076
 30
0.0
  0
SPLINE
  5
17F
330
1F
100
AcDbEntity
  8
0
  6
Continuous
 62
     7
370
    18
100
AcDbSpline
210
0.0
220
0.0
230
1.0
 70
     8
 71
     3
 72
    10
 73
     6
 74
     0
 42
0.000000001
 43
0.00000001
 40
0.0
 40
0.0
 40
0.0
 40
0.0
 40
0.2543779305217849
 40
0.5814571606029787
 40
1.0
 40
1.0
 40
1.0
 40
1.0
 10
950.8250939654279
 20
539.2057082364378
 30
0.0
 10
950.8287040947082
 20
539.2080319050117
 30
0.0
 10
950.8369561294521
 20
539.2133433474331
 30
0.0
 10
950.8435406166064
 20
539.2176153259378
 30
0.0
 10
950.8442284067595
 20
539.2180632076708
 30
0.0
 10
950.8446144865919
 20
539.2183146188077
 30
0.0
  0
ARC
  5
180
330
1F
100
AcDbEntity
  8
0
  6
Continuous
 62
     7
370
    18
100
AcDbCircle
 10
907.5591365537
 20
502.8697644152
 30
0.0
 40
71.84854764056968
100
AcDbArc
 50
89.9999851252
 51
127.0427172037
  0
ARC
  5
181
330
1F
100
AcDbEntity
  8
0
  6
Continuous
 62
     7
370
    18
100
AcDbCircle
 10
907.5617703604
 20
502.8697064646
 30
0.0
 40
71.84860637071141
100
AcDbArc
 50
55.4435194006
 51
124.5564805994
  0
ARC
  5
182
330
1F
100
AcDbEntity
  8
0
  6
Continuous
 62
     7
370
    18
100
AcDbCircle
 10
907.5591376825
 20
596.5668660462
 30
0.0
 40
71.8485510101989
100
AcDbArc
 50
232.9572836965
 51
270.0000139746
  0
ARC
  5
183
330
1F
100
AcDbEntity
  8
0
  6
Continuous
 62
     7
370
    18
100
AcDbCircle
 10
907.5617703604
 20
596.5669196251
 30
0.0
 40
71.84860554536291
100
AcDbArc
 50
235.4435189473
 51
304.5564810527
  0
LWPOLYLINE
  5
184
330
1F
100
AcDbEntity
  8
0
  6
Continuous
 62
     7
370
    18
100
AcDbPolyline
 90
       12
 70
   128
 43
0.0
 10
1114.4832956599
 20
560.218312473
 10
1114.4841301249
 20
558.8231018493
 10
1114.4848155784
 20
557.1293613622
 10
1114.4853520202
 20
555.1926127384
 10
1114.4857394504
 20
553.0763796279
 10
1114.4859182643
 20
550.8500418374
 10
1114.4859182643
 20
548.586592705
 10
1114.4857394504
 20
546.3602474639
 10
1114.4853520202
 20
544.2440143535
 10
1114.4848155784
 20
542.3072731802
 10
1114.4841301249
 20
540.6135252425
 10
1114.4832956599
 20
539.2183146188
  0
LINE
  5
185
330
1F
100
AcDbEntity
  8
0
  6
Continuous
 62
     7
370
    18
100
AcDbLine
 10
1119.4832908915
 20
560.218312473
 30
0.0
 11
1114.4832956599
 21
560.218312473
 31
0.0
  0
LINE
  5
186
330
1F
100
AcDbEntity
  8
0
  6
Continuous
 62
     7
370
    18
100
AcDbLine
 10
1119.4832908915
 20
539.2183146188
 30
0.0
 11
1114.4832956599
 21
539.2183146188
 31
0.0
  0
LWPOLYLINE
  5
187
330
1F
100
AcDbEntity
  8
0
  6
Continuous
 62
     7
370
    18
100
AcDbPolyline
 90
       19
 70
   128
 43
0.0
 10
1114.4429433154
 20
560.218312473
 10
1114.4449102687
 20
563.1769305775
 10
1114.4469666289
 20
565.8244794915
 10
1114.4491123961
 20
568.1473023007
 10
1114.4513475703
 20
570.1334184716
 10
1114.4536125468
 20
571.7725834558
 10
1114.4559669303
 20
573.0563408444
 10
1114.4583213138
 20
573.9780670712
 10
1114.4607054995
 20
574.5330161164
 10
1114.4631194877
 20
574.7183120558
 10
1114.4655334758
 20
574.5330161164
 10
1114.4679176616
 20
573.9780670712
 10
1114.470272045
 20
573.0563408444
 10
1114.4725966262
 20
571.7725834558
 10
1114.474891405
 20
570.1334184716
 10
1114.4770967769
 20
568.1473023007
 10
1114.4792425441
 20
565.8244794915
 10
1114.4813287066
 20
563.1769305775
 10
1114.4832956599
 20
560.218312473
  0
LWPOLYLINE
  5
188
330
1F
100
AcDbEntity
  8
0
  6
Continuous
 62
     7
370
    18
100
AcDbPolyline
 90
       19
 70
   128
 43
0.0
 10
1114.4832956599
 20
539.2183146188
 10
1114.4813287066
 20
536.2596965143
 10
1114.4792425441
 20
533.6121476004
 10
1114.4770967769
 20
531.2893247912
 10
1114.474891405
 20
529.3032086203
 10
1114.4725966262
 20
527.6640436361
 10
1114.470272045
 20
526.3802862475
 10
1114.4679176616
 20
525.4585600207
 10
1114.4655334758
 20
524.9036184261
 10
1114.4631194877
 20
524.718315036
 10
1114.4607054995
 20
524.9036184261
 10
1114.4583213138
 20
525.4585600207
 10
1114.4559669303
 20
526.3802862475
 10
1114.4536125468
 20
527.6640436361
 10
1114.4513475703
 20
529.3032086203
 10
1114.4491123961
 20
531.2893247912
 10
1114.4469666289
 20
533.6121476004
 10
1114.4449102687
 20
536.2596965143
 10
1114.4429433154
 20
539.2183146188
  0
LWPOLYLINE
  5
189
330
1F
100
AcDbEntity
  8
0
  6
Continuous
 62
     7
370
    18
100
AcDbPolyline
 90
        5
 70
   128
 43
0.0
 10
1114.4429433154
 20
539.2183146188
 10
1114.4421088504
 20
540.6135252425
 10
1114.441423397
 20
542.3072731802
 10
1114.4408571528
 20
544.2440143535
 10
1114.4407677459
 20
544.7183183143
  0
LWPOLYLINE
  5
18A
330
1F
100
AcDbEntity
  8
0
  6
Continuous
 62
     7
370
    18
100
AcDbPolyline
 90
        5
 70
   128
 43
0.0
 10
1114.4407677459
 20
554.7183162281
 10
1114.4408571528
 20
555.1926127384
 10
1114.441423397
 20
557.1293613622
 10
1114.4421088504
 20
558.8231018493
 10
1114.4429433154
 20
560.218312473
  0
LINE
  5
18B
330
1F
100
AcDbEntity
  8
0
  6
Continuous
 62
     7
370
    18
100
AcDbLine
 10
1114.4787359046
 20
555.9389522979
 30
0.0
 11
1114.4801366137
 21
555.9389522979
 31
0.0
  0
ARC
  5
18C
330
1F
100
AcDbEntity
  8
0
  6
Continuous
 62
     7
370
    18
100
AcDbCircle
 10
1496.4424161606
 20
544.648897755
 30
0.0
 40
381.9654150991043
100
AcDbArc
 50
179.9895867403
 51
180.1726855032
  0
ARC
  5
18D
330
1F
100
AcDbEntity
  8
0
  6
Continuous
 62
     7
370
    18
100
AcDbCircle
 10
1496.4488301489
 20
554.7877277046
 30
0.0
 40
381.9718290857335
100
AcDbArc
 50
179.827316034
 51
180.0104117225
  0
LINE
  5
18E
330
1F
100
AcDbEntity
  8
0
  6
Continuous
 62
     7
370
    18
100
AcDbLine
 10
1114.4801366137
 20
543.4976822445
 30
0.0
 11
1114.4787359046
 21
543.4976822445
 31
0.0
  0
ARC
  5
18F
330
1F
100
AcDbEntity
  8
0
  6
Continuous
 62
     7
370
    18
100
AcDbCircle
 10
732.510042556
 20
554.7877277049
 30
0.0
 40
381.9718288991235
100
AcDbArc
 50
359.9895882775
 51
0.172683966
  0
ARC
  5
190
330
1F
100
AcDbEntity
  8
0
  6
Continuous
 62
     7
370
    18
100
AcDbCircle
 10
732.5164565444
 20
544.6488977548
 30
0.0
 40
381.9654149124945
100
AcDbArc
 50
359.8273144967
 51
0.0104132598
  0
LINE
  5
191
330
1F
100
AcDbEntity
  8
0
  6
Continuous
 62
     7
370
    18
100
AcDbLine
 10
1114.4475030707
 20
543.4976822445
 30
0.0
 11
1114.4461023616
 21
543.4976822445
 31
0.0
  0
ARC
  5
192
330
1F
100
AcDbEntity
  8
0
  6
Continuous
 62
     7
370
    18
100
AcDbCircle
 10
732.4774088264
 20
554.7877277046
 30
0.0
 40
381.9718290857337
100
AcDbArc
 50
359.9895882775
 51
0.172683966
  0
ARC
  5
193
330
1F
100
AcDbEntity
  8
0
  6
Continuous
 62
     7
370
    18
100
AcDbCircle
 10
732.4838228148
 20
544.648897755
 30
0.0
 40
381.9654150991042
100
AcDbArc
 50
359.8273144968
 51
0.0104132597
  0
LINE
  5
194
330
1F
100
AcDbEntity
  8
0
  6
Continuous
 62
     7
370
    18
100
AcDbLine
 10
1114.4461023616
 20
555.9389522979
 30
0.0
 11
1114.4475030707
 21
555.9389522979
 31
0.0
  0
ARC
  5
195
330
1F
100
AcDbEntity
  8
0
  6
Continuous
 62
     7
370
    18
100
AcDbCircle
 10
1496.4097828041
 20
544.6488977553
 30
0.0
 40
381.9654152857139
100
AcDbArc
 50
179.9895867403
 51
180.1726855032
  0
ARC
  5
196
330
1F
100
AcDbEntity
  8
0
  6
Continuous
 62
     7
370
    18
100
AcDbCircle
 10
1496.4161967925
 20
554.7877277043
 30
0.0
 40
381.9718292723433
100
AcDbArc
 50
179.8273160341
 51
180.0104117224
  0
SPLINE
  5
197
330
1F
100
AcDbEntity
  8
0
  6
Continuous
 62
     7
370
    18
100
AcDbSpline
210
0.0
220
0.0
230
1.0
 70
     8
 71
     3
 72
    13
 73
     9
 74
     0
 42
0.000000001
 43
0.00000001
 40
0.0
 40
0.0
 40
0.0
 40
0.0
 40
0.2144998599607828
 40
0.4289899251522294
 40
0.6435325130866729
 40
0.8582247517160649
 40
0.9853904684835277
 40
1.0
 40
1.0
 40
1.0
 40
1.0
 10
1119.483290891545
 20
560.2183124730404
 30
0.0
 10
1119.595685084847
 20
560.2092557561518
 30
0.0
 10
1119.820468339161
 20
560.191142735934
 30
0.0
 10
1120.119585101565
 20
560.0498719699154
 30
0.0
 10
1120.347108475277
 20
559.8418784243684
 30
0.0
 10
1120.459316289603
 20
559.6169714704838
 30
0.0
 10
1120.482490472157
 20
559.4646514626935
 30
0.0
 10
1120.482961280586
 20
559.4039866616606
 30
0.0
 10
1120.48300979604
 20
559.3977353284176
 30
0.0
  0
LWPOLYLINE
  5
198
330
1F
100
AcDbEntity
  8
0
  6
Continuous
 62
     7
370
    18
100
AcDbPolyline
 90
       12
 70
   128
 43
0.0
 10
1120.483009796
 20
559.3977353284
 10
1120.4837846564
 20
558.1148124049
 10
1120.4844403075
 20
556.554854543
 10
1120.484946947
 20
554.7693303535
 10
1120.4853045749
 20
552.8171590278
 10
1120.4854535865
 20
550.7627508352
 10
1120.4854535865
 20
548.6738762567
 10
1120.4853045749
 20
546.6194680641
 10
1120.484946947
 20
544.6672967384
 10
1120.4844403075
 20
542.8817799995
 10
1120.4837846564
 20
541.3218221376
 10
1120.483009796
 20
540.0388917634
  0
SPLINE
  5
199
330
1F
100
AcDbEntity
  8
0
  6
Continuous
 62
     7
370
    18
100
AcDbSpline
210
0.0
220
0.0
230
1.0
 70
     8
 71
     3
 72
    13
 73
     9
 74
     0
 42
0.000000001
 43
0.00000001
 40
0.0
 40
0.0
 40
0.0
 40
0.0
 40
0.0146095315164723
 40
0.1417752482839351
 40
0.3564674869133271
 40
0.5710100748477707
 40
0.7855001400392173
 40
1.0
 40
1.0
 40
1.0
 40
1.0
 10
1120.48300979604
 20
540.0388917634305
 30
0.0
 10
1120.482961280586
 20
540.0326404301876
 30
0.0
 10
1120.482490472157
 20
539.9719756291547
 30
0.0
 10
1120.459316289603
 20
539.8196556213644
 30
0.0
 10
1120.347108475277
 20
539.5947486674797
 30
0.0
 10
1120.119585101565
 20
539.3867551219328
 30
0.0
 10
1119.820468339161
 20
539.2454843559141
 30
0.0
 10
1119.595685084847
 20
539.2273713356964
 30
0.0
 10
1119.483290891545
 20
539.2183146188078
 30
0.0
  0
LWPOLYLINE
  5
19A
330
1F
100
AcDbEntity
  8
0
  6
Continuous
 62
     7
370
    18
100
AcDbPolyline
 90
       10
 70
   128
 43
0.0
 10
1120.483009796
 20
540.0388917634
 10
1120.4810726451
 20
537.1170199225
 10
1120.4790460872
 20
534.5022908161
 10
1120.4769301223
 20
532.2082197974
 10
1120.4747247504
 20
530.2466532895
 10
1120.4724895762
 20
528.6277315328
 10
1120.4701947974
 20
527.359806628
 10
1120.4678404139
 20
526.4494425366
 10
1120.4654860305
 20
525.9013331244
 10
1120.4631912517
 20
525.71854058
  0
LWPOLYLINE
  5
19B
330
1F
100
AcDbEntity
  8
0
  6
Continuous
 62
     7
370
    18
100
AcDbPolyline
 90
       10
 70
   128
 43
0.0
 10
1120.4631912517
 20
573.7180716107
 10
1120.4654860305
 20
573.5352939675
 10
1120.4678404139
 20
572.9871920059
 10
1120.4701947974
 20
572.0768204639
 10
1120.4724895762
 20
570.8089030096
 10
1120.4747247504
 20
569.1899738023
 10
1120.4769301223
 20
567.2284072945
 10
1120.4790460872
 20
564.9343362758
 10
1120.4810726451
 20
562.3196071694
 10
1120.483009796
 20
559.3977353284
  0
LINE
  5
19C
330
1F
100
AcDbEntity
  8
0
  6
Continuous
 62
     7
370
    18
100
AcDbLine
 10
1080.0068962382
 20
484.9183155904
 30
0.0
 11
1064.0068936156
 21
484.9183155904
 31
0.0
  0
LINE
  5
19D
330
1F
100
AcDbEntity
  8
0
  6
Continuous
 62
     7
370
    18
100
AcDbLine
 10
1065.5190038489
 20
491.9183148751
 30
0.0
 11
1065.5190038489
 21
484.9183155904
 31
0.0
  0
LINE
  5
19E
330
1F
100
AcDbEntity
  8
0
  6
Continuous
 62
     7
370
    18
100
AcDbLine
 10
1072.019009571
 20
491.9183148751
 30
0.0
 11
1072.019009571
 21
484.9183155904
 31
0.0
  0
LINE
  5
19F
330
1F
100
AcDbEntity
  8
0
  6
Continuous
 62
     7
370
    18
100
AcDbLine
 10
1065.5190038489
 20
491.9183148751
 30
0.0
 11
1072.019009571
 21
491.9183148751
 31
0.0
  0
LINE
  5
1A0
330
1F
100
AcDbEntity
  8
0
  6
Continuous
 62
     7
370
    18
100
AcDbLine
 10
1078.519015293
 20
491.9183148751
 30
0.0
 11
1078.519015293
 21
484.9183155904
 31
0.0
  0
LINE
  5
1A1
330
1F
100
AcDbEntity
  8
0
  6
Continuous
 62
     7
370
    18
100
AcDbLine
 10
1072.019009571
 20
491.9183148751
 30
0.0
 11
1078.519015293
 21
491.9183148751
 31
0.0
  0
LINE
  5
1A2
330
1F
100
AcDbEntity
  8
0
  6
Continuous
 62
     7
370
    18
100
AcDbLine
 10
750.9193901898
 20
484.8183138976
 30
0.0
 11
734.9193903612
 21
484.8183138976
 31
0.0
  0
LINE
  5
1A3
330
1F
100
AcDbEntity
  8
0
  6
Continuous
 62
     7
370
    18
100
AcDbLine
 10
742.9315072479
 20
491.8183131823
 30
0.0
 11
742.9315072479
 21
484.8183138976
 31
0.0
  0
LINE
  5
1A4
330
1F
100
AcDbEntity
  8
0
  6
Continuous
 62
     7
370
    18
100
AcDbLine
 10
749.431507382
 20
491.8183131823
 30
0.0
 11
749.431507382
 21
484.8183138976
 31
0.0
  0
LINE
  5
1A5
330
1F
100
AcDbEntity
  8
0
  6
Continuous
 62
     7
370
    18
100
AcDbLine
 10
742.9315072479
 20
491.8183131823
 30
0.0
 11
749.431507382
 21
491.8183131823
 31
0.0
  0
LINE
  5
1A6
330
1F
100
AcDbEntity
  8
0
  6
Continuous
 62
     7
370
    18
100
AcDbLine
 10
736.4315071138
 20
491.8183131823
 30
0.0
 11
736.4315071138
 21
484.8183138976
 31
0.0
  0
LINE
  5
1A7
330
1F
100
AcDbEntity
  8
0
  6
Continuous
 62
     7
370
    18
100
AcDbLine
 10
736.4315071138
 20
491.8183131823
 30
0.0
 11
742.9315072479
 21
491.8183131823
 31
0.0
  0
LINE
  5
1A8
330
1F
100
AcDbEntity
  8
0
  6
Continuous
 62
     7
370
    18
100
AcDbLine
 10
851.7328488635
 20
513.3872969756
 30
0.0
 11
844.0059187817
 21
527.3064008663
 31
0.0
  0
ELLIPSE
  5
1A9
330
1F
100
AcDbEntity
  8
0
  6
Continuous
 62
     7
370
    18
100
AcDbEllipse
 10
835.1068162075
 20
523.780792492
 30
0.0
 11
0.5782858969689642
 21
0.9944117522333045
 31
0.0
210
0.0
220
0.0
230
1.0
 40
0.2596011401
 41
1.720632175040512
 42
2.988150392109595
  0
ELLIPSE
  5
1AA
330
1F
100
AcDbEntity
  8
0
  6
Continuous
 62
     7
370
    18
100
AcDbEllipse
 10
841.5133721948
 20
512.2401696597
 30
0.0
 11
0.7428302291007185
 21
0.7180893012468914
 31
0.0
210
0.0
220
0.0
230
1.0
 40
0.2365681538
 41
1.810798336850399
 42
3.078316553919763
  0
ARC
  5
1AB
330
1F
100
AcDbEntity
  8
0
  6
Continuous
 62
     7
370
    18
100
AcDbCircle
 10
850.8092294107
 20
512.8786694101
 30
0.0
 40
1.054407366241046
100
AcDbArc
 50
332.2269765918
 51
28.8411168495
  0
LINE
  5
1AC
330
1F
100
AcDbEntity
  8
0
  6
Continuous
 62
     7
370
    18
100
AcDbLine
 10
844.2763823079
 20
498.3078284869
 30
0.0
 11
851.7421695398
 21
512.3873471031
 31
0.0
  0
ELLIPSE
  5
1AD
330
1F
100
AcDbEntity
  8
0
  6
Continuous
 62
     7
370
    18
100
AcDbEllipse
 10
835.9714581164
 20
501.7888386446
 30
0.0
 11
0.2711165112768868
 21
0.9988558912582449
 31
0.0
210
0.0
220
0.0
230
1.0
 40
0.3197049924
 41
0.0865597485751053
 42
1.65735607537013
  0
LINE
  5
1AE
330
1F
100
AcDbEntity
  8
0
  6
Continuous
 62
     7
370
    18
100
AcDbLine
 10
821.5045842337
 20
527.6373705575
 30
0.0
 11
836.6973015474
 21
527.7977815578
 31
0.0
  0
ELLIPSE
  5
1AF
330
1F
100
AcDbEntity
  8
0
  6
Continuous
 62
     7
370
    18
100
AcDbEllipse
 10
823.374855729
 20
501.655836984
 30
0.0
 11
0.5782858969689642
 21
0.9944117522333045
 31
0.0
210
0.0
220
0.0
230
1.0
 40
0.2596011401
 41
0.1498358482456967
 42
1.720632175040512
  0
LINE
  5
1B0
330
1F
100
AcDbEntity
  8
0
  6
Continuous
 62
     7
370
    18
100
AcDbLine
 10
823.9081266331
 20
502.6615156541
 30
0.0
 11
836.2139525818
 21
502.7914500544
 31
0.0
  0
LINE
  5
1B1
330
1F
100
AcDbEntity
  8
0
  6
Continuous
 62
     7
370
    18
100
AcDbLine
 10
837.2386979865
 20
502.7914500544
 30
0.0
 11
836.2139525818
 21
502.7914500544
 31
0.0
  0
ARC
  5
1B2
330
1F
100
AcDbEntity
  8
0
  6
Continuous
 62
     7
370
    18
100
AcDbCircle
 10
843.4453663377
 20
498.7320290079
 30
0.0
 40
0.933023914323065
100
AcDbArc
 50
271.337517413
 51
332.9575005028
  0
ELLIPSE
  5
1B3
330
1F
100
AcDbEntity
  8
0
  6
Continuous
 62
     7
370
    18
100
AcDbEllipse
 10
822.5102138202
 20
523.6477908314
 30
0.0
 11
0.2711165112770004
 21
0.9988558912581311
 31
0.0
210
0.0
220
0.0
230
1.0
 40
0.3197049924
 41
1.657356075370215
 42
3.228152402165613
  0
LINE
  5
1B4
330
1F
100
AcDbEntity
  8
0
  6
Continuous
 62
     7
370
    18
100
AcDbLine
 10
836.6973015474
 20
527.7977815578
 30
0.0
 11
843.1873607444
 21
527.7977815578
 31
0.0
  0
ARC
  5
1B5
330
1F
100
AcDbEntity
  8
0
  6
Continuous
 62
     7
370
    18
100
AcDbCircle
 10
843.1856885032
 20
526.8675151543
 30
0.0
 40
0.9302679065085949
100
AcDbArc
 50
28.15017611
 51
89.8970055692
  0
LINE
  5
1B6
330
1F
100
AcDbEntity
  8
0
  6
Continuous
 62
     7
370
    18
100
AcDbLine
 10
821.7843684362
 20
497.6388483057
 30
0.0
 11
828.2744276332
 21
497.6388483057
 31
0.0
  0
LINE
  5
1B7
330
1F
100
AcDbEntity
  8
0
  6
Continuous
 62
     7
370
    18
100
AcDbLine
 10
828.2744276332
 20
497.6388483057
 30
0.0
 11
843.4671449469
 21
497.7992593059
 31
0.0
  0
ELLIPSE
  5
1B8
330
1F
100
AcDbEntity
  8
0
  6
Continuous
 62
     7
370
    18
100
AcDbEllipse
 10
841.17580191
 20
510.7616118908
 30
0.0
 11
0.7428302291006047
 21
0.7180893012468913
 31
0.0
210
0.0
220
0.0
230
1.0
 40
0.2365681538
 41
4.952390990440143
 42
5.232853322701287
  0
LINE
  5
1B9
330
1F
100
AcDbEntity
  8
0
  6
Continuous
 62
     7
370
    18
100
AcDbLine
 10
823.2924628066
 20
522.6451835344
 30
0.0
 11
822.2677174019
 21
522.6451835344
 31
0.0
  0
ELLIPSE
  5
1BA
330
1F
100
AcDbEntity
  8
0
  6
Continuous
 62
     7
370
    18
100
AcDbEllipse
 10
837.4811925243
 20
503.7940578807
 30
0.0
 11
0.2711165112768867
 21
0.998855891258188
 31
0.0
210
0.0
220
0.0
230
1.0
 40
0.3197049924
 41
3.228152402164941
 42
4.798948728959938
  0
ELLIPSE
  5
1BB
330
1F
100
AcDbEntity
  8
0
  6
Continuous
 62
     7
370
    18
100
AcDbEllipse
 10
816.9682997417
 20
513.1964598163
 30
0.0
 11
0.7428302291007185
 21
0.7180893012468914
 31
0.0
210
0.0
220
0.0
230
1.0
 40
0.2365681538
 41
0.2400020100552487
 42
1.810798336850399
  0
ELLIPSE
  5
1BC
330
1F
100
AcDbEntity
  8
0
  6
Continuous
 62
     7
370
    18
100
AcDbEllipse
 10
825.4661439067
 20
503.6671965756
 30
0.0
 11
0.5782858969690778
 21
0.9944117522333044
 31
0.0
210
0.0
220
0.0
230
1.0
 40
0.2596011401
 41
3.291428501835832
 42
4.862224828630282
  0
LINE
  5
1BD
330
1F
100
AcDbEntity
  8
0
  6
Continuous
 62
     7
370
    18
100
AcDbLine
 10
818.6742055224
 20
513.9357379386
 30
0.0
 11
817.6494601177
 21
513.9357379386
 31
0.0
  0
ELLIPSE
  5
1BE
330
1F
100
AcDbEntity
  8
0
  6
Continuous
 62
     7
370
    18
100
AcDbEllipse
 10
823.0499720441
 20
521.6425715952
 30
0.0
 11
0.2711165112768868
 21
0.9988558912582449
 31
0.0
210
0.0
220
0.0
230
1.0
 40
0.3197049924
 41
4.798948728959932
 42
6.369745055755061
  0
ELLIPSE
  5
1BF
330
1F
100
AcDbEntity
  8
0
  6
Continuous
 62
     7
370
    18
100
AcDbEllipse
 10
819.3553626585
 20
514.6750175852
 30
0.0
 11
0.7428302291007186
 21
0.7180893012470051
 31
0.0
210
0.0
220
0.0
230
1.0
 40
0.2365681538
 41
3.381594663644518
 42
4.952390990440298
  0
LINE
  5
1C0
330
1F
100
AcDbEntity
  8
0
  6
Continuous
 62
     7
370
    18
100
AcDbLine
 10
820.4527485179
 20
523.5499075363
 30
0.0
 11
820.4511987971
 21
523.5464206645
 31
0.0
  0
LINE
  5
1C1
330
1F
100
AcDbEntity
  8
0
  6
Continuous
 62
     7
370
    18
100
AcDbLine
 10
1040.5406343745
 20
485.9183138916
 30
0.0
 11
1040.5406343745
 21
479.7183151105
 31
0.0
  0
ELLIPSE
  5
1C2
330
1F
100
AcDbEntity
  8
0
  6
Continuous
 62
     7
370
    18
100
AcDbEllipse
 10
1043.0919520136
 20
485.918314738
 30
0.0
 11
0.0
 21
2.999999999999943
 31
0.0
210
0.0
220
0.0
230
1.0
 40
0.8504392368
 41
1.570796326794897
 42
3.141592653589793
  0
LINE
  5
1C3
330
1F
100
AcDbEntity
  8
0
  6
Continuous
 62
     7
370
    18
100
AcDbLine
 10
1043.0919515895
 20
482.9183152625
 30
0.0
 11
1068.5994314956
 21
482.9183152625
 31
0.0
  0
LINE
  5
1C4
330
1F
100
AcDbEntity
  8
0
  6
Continuous
 62
     7
370
    18
100
AcDbLine
 10
1068.5994314956
 20
482.9183152625
 30
0.0
 11
1074.897675495
 21
482.9183152625
 31
0.0
  0
LINE
  5
1C5
330
1F
100
AcDbEntity
  8
0
  6
Continuous
 62
     7
370
    18
100
AcDbLine
 10
1074.897675495
 20
482.9183152625
 30
0.0
 11
1086.7937791156
 21
482.9183152625
 31
0.0
  0
LINE
  5
1C6
330
1F
100
AcDbEntity
  8
0
  6
Continuous
 62
     7
370
    18
100
AcDbLine
 10
1086.7937791156
 20
482.9183152625
 30
0.0
 11
1088.2582354354
 21
482.9183152625
 31
0.0
  0
ARC
  5
1C7
330
1F
100
AcDbEntity
  8
0
  6
Continuous
 62
     7
370
    18
100
AcDbCircle
 10
1055.5666327472
 20
485.5433001669
 30
0.0
 40
2.678014465655258
100
AcDbArc
 50
171.9501723341
 51
258.5788599825
  0
LINE
  5
1C8
330
1F
100
AcDbEntity
  8
0
  6
Continuous
 62
     7
370
    18
100
AcDbLine
 10
1040.5406343745
 20
485.9183138916
 30
0.0
 11
1040.5406343745
 21
504.7183154831
 31
0.0
  0
LWPOLYLINE
  5
1C9
330
1F
100
AcDbEntity
  8
0
  6
Continuous
 62
     7
370
    18
100
AcDbPolyline
 90
        9
 70
   128
 43
0.0
 10
1040.5406343745
 20
504.7183154831
 10
1040.6085538672
 20
505.6937678466
 10
1040.8097493457
 20
506.6317326138
 10
1041.136472206
 20
507.4961676011
 10
1041.5761756705
 20
508.2538469443
 10
1042.1119320201
 20
508.8756612251
 10
1042.7231776523
 20
509.3377127061
 10
1043.386428337
 20
509.6222429285
 10
1044.0761732863
 20
509.71831444
  0
LINE
  5
1CA
330
1F
100
AcDbEntity
  8
0
  6
Continuous
 62
     7
370
    18
100
AcDbLine
 10
1044.0761732863
 20
509.71831444
 30
0.0
 11
1065.2893769549
 21
509.71831444
 31
0.0
  0
LWPOLYLINE
  5
1CB
330
1F
100
AcDbEntity
  8
0
  6
Continuous
 62
     7
370
    18
100
AcDbPolyline
 90
        9
 70
   128
 43
0.0
 10
1065.2893769549
 20
509.71831444
 10
1065.9791219043
 20
509.6222429285
 10
1066.642372589
 20
509.3377127061
 10
1067.2536182212
 20
508.8756612251
 10
1067.7893745707
 20
508.2538469443
 10
1068.2290482329
 20
507.4961676011
 10
1068.5557710933
 20
506.6317326138
 10
1068.7569665717
 20
505.6937678466
 10
1068.8249158667
 20
504.7183154831
  0
LINE
  5
1CC
330
1F
100
AcDbEntity
  8
0
  6
Continuous
 62
     7
370
    18
100
AcDbLine
 10
1068.8249158667
 20
504.7183154831
 30
0.0
 11
1068.8249158667
 21
491.9183148751
 31
0.0
  0
LINE
  5
1CD
330
1F
100
AcDbEntity
  8
0
  6
Continuous
 62
     7
370
    18
100
AcDbLine
 10
1052.9150056647
 20
499.7183165262
 30
0.0
 11
1056.4505445765
 21
499.7183165262
 31
0.0
  0
LINE
  5
1CE
330
1F
100
AcDbEntity
  8
0
  6
Continuous
 62
     7
370
    18
100
AcDbLine
 10
1052.9150056647
 20
485.9183138916
 30
0.0
 11
1052.9150056647
 21
499.7183165262
 31
0.0
  0
ARC
  5
1CF
330
1F
100
AcDbEntity
  8
0
  6
Continuous
 62
     7
370
    18
100
AcDbCircle
 10
1040.9295203507
 20
482.343300404
 30
0.0
 40
2.678014890846303
100
AcDbArc
 50
171.9501417812
 51
258.5788569959
  0
LINE
  5
1D0
330
1F
100
AcDbEntity
  8
0
  6
Continuous
 62
     7
370
    18
100
AcDbLine
 10
1038.2778930472
 20
482.7183156023
 30
0.0
 11
1038.2778930472
 21
504.7183154831
 31
0.0
  0
LWPOLYLINE
  5
1D1
330
1F
100
AcDbEntity
  8
0
  6
Continuous
 62
     7
370
    18
100
AcDbPolyline
 90
        9
 70
   128
 43
0.0
 10
1038.2778930472
 20
504.7183154831
 10
1038.34581254
 20
505.6937678466
 10
1038.5470080184
 20
506.6317326138
 10
1038.8737308787
 20
507.4961676011
 10
1039.3134343432
 20
508.2538469443
 10
1039.8491906928
 20
508.8756612251
 10
1040.460436325
 20
509.3377127061
 10
1041.1236870097
 20
509.6222429285
 10
1041.813431959
 20
509.71831444
  0
LINE
  5
1D2
330
1F
100
AcDbEntity
  8
0
  6
Continuous
 62
     7
370
    18
100
AcDbLine
 10
1041.813431959
 20
509.71831444
 30
0.0
 11
1044.0761732863
 21
509.71831444
 31
0.0
  0
LINE
  5
1D3
330
1F
100
AcDbEntity
  8
0
  6
Continuous
 62
     7
370
    18
100
AcDbLine
 10
1052.9150056647
 20
499.7183165262
 30
0.0
 11
1058.430432062
 21
482.9183152625
 31
0.0
  0
LINE
  5
1D4
330
1F
100
AcDbEntity
  8
0
  6
Continuous
 62
     7
370
    18
100
AcDbLine
 10
1056.4505445765
 20
499.7183165262
 30
0.0
 11
1061.9659709739
 21
482.9183152625
 31
0.0
  0
ELLIPSE
  5
1D5
330
1F
100
AcDbEntity
  8
0
  6
Continuous
 62
     7
370
    18
100
AcDbEllipse
 10
771.8343241545
 20
485.818314738
 30
0.0
 11
0.0
 21
2.999999999999943
 31
0.0
210
0.0
220
0.0
230
1.0
 40
0.8504392368
 41
3.141592653589854
 42
4.712388980384701
  0
LINE
  5
1D6
330
1F
100
AcDbEntity
  8
0
  6
Continuous
 62
     7
370
    18
100
AcDbLine
 10
774.385641049
 20
485.8183140615
 30
0.0
 11
774.385641049
 21
479.7183151105
 31
0.0
  0
LINE
  5
1D7
330
1F
100
AcDbEntity
  8
0
  6
Continuous
 62
     7
370
    18
100
AcDbLine
 10
746.3268346148
 20
482.8183154324
 30
0.0
 11
771.8343238341
 21
482.8183154324
 31
0.0
  0
LINE
  5
1D8
330
1F
100
AcDbEntity
  8
0
  6
Continuous
 62
     7
370
    18
100
AcDbLine
 10
740.0286148297
 20
482.8183154324
 30
0.0
 11
746.3268346148
 21
482.8183154324
 31
0.0
  0
LINE
  5
1D9
330
1F
100
AcDbEntity
  8
0
  6
Continuous
 62
     7
370
    18
100
AcDbLine
 10
728.132496308
 20
482.8183154324
 30
0.0
 11
740.0286148297
 21
482.8183154324
 31
0.0
  0
LINE
  5
1DA
330
1F
100
AcDbEntity
  8
0
  6
Continuous
 62
     7
370
    18
100
AcDbLine
 10
726.6680288123
 20
482.8183154324
 30
0.0
 11
728.132496308
 21
482.8183154324
 31
0.0
  0
ARC
  5
1DB
330
1F
100
AcDbEntity
  8
0
  6
Continuous
 62
     7
370
    18
100
AcDbCircle
 10
759.3596238081
 20
485.4433148312
 30
0.0
 40
2.678034806935731
100
AcDbArc
 50
281.4217281993
 51
8.0494529273
  0
LINE
  5
1DC
330
1F
100
AcDbEntity
  8
0
  6
Continuous
 62
     7
370
    18
100
AcDbLine
 10
773.1128490524
 20
509.6183164725
 30
0.0
 11
770.8501077252
 21
509.6183164725
 31
0.0
  0
LWPOLYLINE
  5
1DD
330
1F
100
AcDbEntity
  8
0
  6
Continuous
 62
     7
370
    18
100
AcDbPolyline
 90
        9
 70
   128
 43
0.0
 10
773.1128490524
 20
509.6183164725
 10
773.8025977271
 20
509.5222412357
 10
774.4658390986
 20
509.2377110133
 10
775.0770865934
 20
508.7756632576
 10
775.6128503936
 20
508.1538489768
 10
776.0525389569
 20
507.3961659083
 10
776.3792562293
 20
506.531730921
 10
776.5804479824
 20
505.5937661538
 10
776.6483823763
 20
504.6183137903
  0
LWPOLYLINE
  5
1DE
330
1F
100
AcDbEntity
  8
0
  6
Continuous
 62
     7
370
    18
100
AcDbPolyline
 90
        9
 70
   128
 43
0.0
 10
770.8501077252
 20
509.6183164725
 10
771.5398563998
 20
509.5222412357
 10
772.2030977713
 20
509.2377110133
 10
772.8143452661
 20
508.7756632576
 10
773.3501072036
 20
508.1538489768
 10
773.7897976296
 20
507.3961659083
 10
774.116514902
 20
506.531730921
 10
774.3177066552
 20
505.5937661538
 10
774.385641049
 20
504.6183137903
  0
LINE
  5
1DF
330
1F
100
AcDbEntity
  8
0
  6
Continuous
 62
     7
370
    18
100
AcDbLine
 10
774.385641049
 20
504.6183137903
 30
0.0
 11
774.385641049
 21
485.8183140615
 31
0.0
  0
LINE
  5
1E0
330
1F
100
AcDbEntity
  8
0
  6
Continuous
 62
     7
370
    18
100
AcDbLine
 10
776.6483823763
 20
504.6183137903
 30
0.0
 11
776.6483823763
 21
482.6183139095
 31
0.0
  0
ARC
  5
1E1
330
1F
100
AcDbEntity
  8
0
  6
Continuous
 62
     7
370
    18
100
AcDbCircle
 10
773.6055744518
 20
482.3947883728
 30
0.0
 40
3.051007002774671
100
AcDbArc
 50
298.6884941042
 51
4.2014175971
  0
LINE
  5
1E2
330
1F
100
AcDbEntity
  8
0
  6
Continuous
 62
     7
370
    18
100
AcDbLine
 10
746.1013706163
 20
491.8183131823
 30
0.0
 11
746.1013706163
 21
504.6183137903
 31
0.0
  0
LWPOLYLINE
  5
1E3
330
1F
100
AcDbEntity
  8
0
  6
Continuous
 62
     7
370
    18
100
AcDbPolyline
 90
        9
 70
   128
 43
0.0
 10
746.1013706163
 20
504.6183137903
 10
746.1693048937
 20
505.5937661538
 10
746.3704971125
 20
506.531730921
 10
746.6972155491
 20
507.3961659083
 10
747.1369045781
 20
508.1538489768
 10
747.6726672141
 20
508.7756632576
 10
748.2839142433
 20
509.2377110133
 10
748.9471558476
 20
509.5222412357
 10
749.6369045222
 20
509.6183164725
  0
LINE
  5
1E4
330
1F
100
AcDbEntity
  8
0
  6
Continuous
 62
     7
370
    18
100
AcDbLine
 10
749.6369045222
 20
509.6183164725
 30
0.0
 11
770.8501077252
 21
509.6183164725
 31
0.0
  0
LINE
  5
1E5
330
1F
100
AcDbEntity
  8
0
  6
Continuous
 62
     7
370
    18
100
AcDbLine
 10
762.0112734841
 20
485.8183140615
 30
0.0
 11
762.0112734841
 21
499.6183148334
 31
0.0
  0
LINE
  5
1E6
330
1F
100
AcDbEntity
  8
0
  6
Continuous
 62
     7
370
    18
100
AcDbLine
 10
758.4757392289
 20
499.6183148334
 30
0.0
 11
762.0112734841
 21
499.6183148334
 31
0.0
  0
LINE
  5
1E7
330
1F
100
AcDbEntity
  8
0
  6
Continuous
 62
     7
370
    18
100
AcDbLine
 10
758.4757392289
 20
499.6183148334
 30
0.0
 11
752.9603063123
 21
482.8183154324
 31
0.0
  0
LINE
  5
1E8
330
1F
100
AcDbEntity
  8
0
  6
Continuous
 62
     7
370
    18
100
AcDbLine
 10
762.0112734841
 20
499.6183148334
 30
0.0
 11
756.4958405675
 21
482.8183154324
 31
0.0
  0
SPLINE
  5
1E9
330
1F
100
AcDbEntity
  8
0
  6
Continuous
 62
     7
370
    18
100
AcDbSpline
210
0.0
220
0.0
230
1.0
 70
     8
 71
     3
 72
    17
 73
    13
 74
     0
 42
0.000000001
 43
0.00000001
 40
0.0
 40
0.0
 40
0.0
 40
0.0
 40
0.0184110500465982
 40
0.1411920206219558
 40
0.2638629658962942
 40
0.3722546429740112
 40
0.4805994210916726
 40
0.5766877948013394
 40
0.6727946236230394
 40
0.7671445585149914
 40
0.861534788765256
 40
1.0
 40
1.0
 40
1.0
 40
1.0
 10
852.2423791693617
 20
539.1543215820607
 30
0.0
 10
852.1393000512002
 20
539.2545400335671
 30
0.0
 10
851.3487992953869
 20
540.023102697618
 30
0.0
 10
850.0296478881626
 20
541.6327856190552
 30
0.0
 10
848.6724926582745
 20
544.090965641902
 30
0.0
 10
847.8494642288786
 20
546.6706310059004
 30
0.0
 10
847.5244849037109
 20
549.1552813472583
 30
0.0
 10
847.6497322753062
 20
551.5572182786053
 30
0.0
 10
848.1322600565784
 20
553.7952306016356
 30
0.0
 10
848.9682219297239
 20
555.8976991400714
 30
0.0
 10
850.2518999902402
 20
558.1524191566999
 30
0.0
 10
851.5001308780892
 20
559.4880723810181
 30
0.0
 10
852.2423791693617
 20
560.2823055097874
 30
0.0
  0
SPLINE
  5
1EA
330
1F
100
AcDbEntity
  8
0
  6
Continuous
 62
     7
370
    18
100
AcDbSpline
210
0.0
220
0.0
230
1.0
 70
     8
 71
     3
 72
    11
 73
     7
 74
     0
 42
0.000000001
 43
0.00000001
 40
0.0
 40
0.0
 40
0.0
 40
0.0
 40
0.2467239925331621
 40
0.4934420691481825
 40
0.7467336281820091
 40
1.0
 40
1.0
 40
1.0
 40
1.0
 10
872.6144867943693
 20
525.3793230960187
 30
0.0
 10
870.7829389427425
 20
526.2787765780405
 30
0.0
 10
867.1198871561224
 20
528.0776619750969
 30
0.0
 10
861.8902696040994
 20
531.3285603243334
 30
0.0
 10
856.8638397466929
 20
534.9603399928196
 30
0.0
 10
853.7828149632786
 20
537.756374060711
 30
0.0
 10
852.2423791693617
 20
539.1543215820607
 30
0.0
  0
SPLINE
  5
1EB
330
1F
100
AcDbEntity
  8
0
  6
Continuous
 62
     7
370
    18
100
AcDbSpline
210
0.0
220
0.0
230
1.0
 70
     8
 71
     3
 72
    19
 73
    15
 74
     0
 42
0.000000001
 43
0.00000001
 40
0.0
 40
0.0
 40
0.0
 40
0.0
 40
0.0807436919256438
 40
0.161709690746786
 40
0.2423969701460313
 40
0.3247445768397632
 40
0.4074115515234406
 40
0.4897178597451027
 40
0.5622879675781258
 40
0.6351050759544467
 40
0.7076944841199145
 40
0.8149391791905426
 40
0.922236116672717
 40
1.0
 40
1.0
 40
1.0
 40
1.0
 10
942.500098328488
 20
525.3793230960187
 30
0.0
 10
940.9167483336095
 20
524.0677397435029
 30
0.0
 10
937.7456889987018
 20
521.4409619325593
 30
0.0
 10
932.4857878114551
 20
518.1693696662788
 30
0.0
 10
926.8743089782387
 20
515.4414914517911
 30
0.0
 10
920.9088186812626
 20
513.4109703158642
 30
0.0
 10
914.6926303779172
 20
512.1072920750071
 30
0.0
 10
908.6034944246175
 20
511.6052988229462
 30
0.0
 10
902.7557802506803
 20
511.8524889958061
 30
0.0
 10
897.2222997587544
 20
512.7034920068222
 30
0.0
 10
890.960094185913
 20
514.3780276467243
 30
0.0
 10
884.1785401739662
 20
517.2465594938022
 30
0.0
 10
877.7624868635402
 20
521.1033860177363
 30
0.0
 10
874.1376635370683
 20
524.1141700611755
 30
0.0
 10
872.6144867943693
 20
525.3793230960188
 30
0.0
  0
SPLINE
  5
1EC
330
1F
100
AcDbEntity
  8
0
  6
Continuous
 62
     7
370
    18
100
AcDbSpline
210
0.0
220
0.0
230
1.0
 70
     8
 71
     3
 72
    12
 73
     8
 74
     0
 42
0.000000001
 43
0.00000001
 40
0.0
 40
0.0
 40
0.0
 40
0.0
 40
0.2113423766585567
 40
0.4226980813859677
 40
0.638293709990457
 40
0.853893948943828
 40
1.0
 40
1.0
 40
1.0
 40
1.0
 10
962.8679144190717
 20
539.1543215820607
 30
0.0
 10
961.5877706264704
 20
537.982773488963
 30
0.0
 10
959.0274023104414
 20
535.6396034204071
 30
0.0
 10
954.8444659246882
 20
532.4660149844608
 30
0.0
 10
950.4283518255821
 20
529.5534291343251
 30
0.0
 10
946.2846223192631
 20
527.1990078072636
 30
0.0
 10
943.5889687845685
 20
525.902876633078
 30
0.0
 10
942.500098328488
 20
525.3793230960187
 30
0.0
  0
SPLINE
  5
1ED
330
1F
100
AcDbEntity
  8
0
  6
Continuous
 62
     7
370
    18
100
AcDbSpline
210
0.0
220
0.0
230
1.0
 70
     8
 71
     3
 72
    17
 73
    13
 74
     0
 42
0.000000001
 43
0.00000001
 40
0.0
 40
0.0
 40
0.0
 40
0.0
 40
0.0184112018056877
 40
0.1411918887415593
 40
0.2638630742518682
 40
0.3722543977739312
 40
0.4805995140686774
 40
0.5766876149581375
 40
0.6727947148969289
 40
0.7671446255664252
 40
0.8615347416026042
 40
1.0
 40
1.0
 40
1.0
 40
1.0
 10
962.8679144190717
 20
560.2823055097874
 30
0.0
 10
962.970968737008
 20
560.1820871598919
 30
0.0
 10
963.7612720504983
 20
559.4135323280212
 30
0.0
 10
965.080047594468
 20
557.8038315579239
 30
0.0
 10
966.4368513362807
 20
555.3456686637563
 30
0.0
 10
967.2596260317468
 20
552.7659972334866
 30
0.0
 10
967.584528604655
 20
550.2813505116636
 30
0.0
 10
967.4592931515853
 20
547.879412433925
 30
0.0
 10
966.9769161507272
 20
545.6413989945975
 30
0.0
 10
966.1411890843175
 20
543.5389265208746
 30
0.0
 10
964.857859002918
 20
541.2842182344224
 30
0.0
 10
963.6099636526358
 20
539.9485588644884
 30
0.0
 10
962.8679144190717
 20
539.1543215820607
 30
0.0
  0
SPLINE
  5
1EE
330
1F
100
AcDbEntity
  8
0
  6
Continuous
 62
     7
370
    18
100
AcDbSpline
210
0.0
220
0.0
230
1.0
 70
     8
 71
     3
 72
    11
 73
     7
 74
     0
 42
0.000000001
 43
0.00000001
 40
0.0
 40
0.0
 40
0.0
 40
0.0
 40
0.2467237083189248
 40
0.4934422553180591
 40
0.7467334075146951
 40
1.0
 40
1.0
 40
1.0
 40
1.0
 10
942.500098328488
 20
574.0573039958294
 30
0.0
 10
944.3313350553966
 20
573.1578535093756
 30
0.0
 10
947.9937702007824
 20
571.358971352461
 30
0.0
 10
953.2223272229771
 20
568.1080691786541
 30
0.0
 10
958.2476357992322
 20
564.4762930623101
 30
0.0
 10
961.3278713260299
 20
561.6802561733754
 30
0.0
 10
962.8679144190717
 20
560.2823055097874
 30
0.0
  0
SPLINE
  5
1EF
330
1F
100
AcDbEntity
  8
0
  6
Continuous
 62
     7
370
    18
100
AcDbSpline
210
0.0
220
0.0
230
1.0
 70
     8
 71
     3
 72
    19
 73
    15
 74
     0
 42
0.000000001
 43
0.00000001
 40
0.0
 40
0.0
 40
0.0
 40
0.0
 40
0.0807435935086767
 40
0.1617097622958694
 40
0.2423970568413058
 40
0.324744534849681
 40
0.4074116085623269
 40
0.4897179501199417
 40
0.5622879604621029
 40
0.6351049973250743
 40
0.7076944994727846
 40
0.8149392547990737
 40
0.9222361344827239
 40
1.0
 40
1.0
 40
1.0
 40
1.0
 10
872.6144867943693
 20
574.0573039958294
 30
0.0
 10
874.1980793886379
 20
575.3688875483612
 30
0.0
 10
877.3696298592664
 20
577.9956701238516
 30
0.0
 10
882.6301930683048
 20
581.267263434461
 30
0.0
 10
888.242252095993
 20
583.9951399820252
 30
0.0
 10
894.208181468654
 20
586.0256685889475
 30
0.0
 10
900.4246639095237
 20
587.3293374403052
 30
0.0
 10
906.5139164848919
 20
587.8313284827233
 30
0.0
 10
912.3615690893954
 20
587.5841350951348
 30
0.0
 10
917.8948607924106
 20
586.7331460884735
 30
0.0
 10
924.1566925869797
 20
585.0585951430827
 30
0.0
 10
930.9376374915034
 20
582.1900717457321
 30
0.0
 10
937.3529005586244
 20
578.3332398736328
 30
0.0
 10
940.9771587754807
 20
575.3224568354109
 30
0.0
 10
942.500098328488
 20
574.0573039958294
 30
0.0
  0
SPLINE
  5
1F0
330
1F
100
AcDbEntity
  8
0
  6
Continuous
 62
     7
370
    18
100
AcDbSpline
210
0.0
220
0.0
230
1.0
 70
     8
 71
     3
 72
    12
 73
     8
 74
     0
 42
0.000000001
 43
0.00000001
 40
0.0
 40
0.0
 40
0.0
 40
0.0
 40
0.2113426683840096
 40
0.422698261937387
 40
0.6382936692610848
 40
0.8538940664981717
 40
1.0
 40
1.0
 40
1.0
 40
1.0
 10
852.2423791693617
 20
560.2823055097874
 30
0.0
 10
853.5228521603518
 20
561.453855987945
 30
0.0
 10
856.0838764527385
 20
563.7970285932479
 30
0.0
 10
860.2677758572585
 20
566.9706217813928
 30
0.0
 10
864.6848255752343
 20
569.8831949380864
 30
0.0
 10
868.8293276683148
 20
572.2376297175457
 30
0.0
 10
871.5254343107865
 20
573.5337538025401
 30
0.0
 10
872.6144867943693
 20
574.0573039958294
 30
0.0
  0
SPLINE
  5
1F1
330
1F
100
AcDbEntity
  8
0
  6
Continuous
 62
     7
370
    18
100
AcDbSpline
210
0.0
220
0.0
230
1.0
 70
     8
 71
     3
 72
    19
 73
    15
 74
     0
 42
0.000000001
 43
0.00000001
 40
0.0
 40
0.0
 40
0.0
 40
0.0
 40
0.0796155241173681
 40
0.1592513445567446
 40
0.2386271730461635
 40
0.3180407671620172
 40
0.4020905768393838
 40
0.486175996325129
 40
0.580877077140218
 40
0.6756015586093661
 40
0.7795872620726002
 40
0.8835654489597419
 40
0.9902926258725059
 40
1.0
 40
1.0
 40
1.0
 40
1.0
 10
729.9757261755037
 20
594.7183153340634
 30
0.0
 10
729.9521435360691
 20
593.8258118660827
 30
0.0
 10
729.9049722452962
 20
592.0405774049246
 30
0.0
 10
729.5455434598557
 20
589.4463473399026
 30
0.0
 10
728.9923041928533
 20
587.0117599433253
 30
0.0
 10
728.2497344841111
 20
584.741153199297
 30
0.0
 10
727.3407412700681
 20
582.6948801043633
 30
0.0
 10
726.2535352717983
 20
580.8391102550607
 30
0.0
 10
725.0251303992409
 20
579.2894681237639
 30
0.0
 10
723.6458443392149
 20
578.0767176976341
 30
0.0
 10
722.1957018646109
 20
577.3226968199017
 30
0.0
 10
720.7182865125759
 20
577.1640403626942
 30
0.0
 10
719.696393984778
 20
577.3091121965884
 30
0.0
 10
719.2112356797011
 20
577.6868272957887
 30
0.0
 10
719.1707870917488
 20
577.7183181354818
 30
0.0
  0
SPLINE
  5
1F2
330
1F
100
AcDbEntity
  8
0
  6
Continuous
 62
     7
370
    18
100
AcDbSpline
210
0.0
220
0.0
230
1.0
 70
     8
 71
     3
 72
    18
 73
    14
 74
     0
 42
0.000000001
 43
0.00000001
 40
0.0
 40
0.0
 40
0.0
 40
0.0
 40
0.0026387625218019
 40
0.0964588003256725
 40
0.1972368976374566
 40
0.2980255124437118
 40
0.4040928579714161
 40
0.5101283364503646
 40
0.6148843678383497
 40
0.7195510826369055
 40
0.8138440207022268
 40
0.9080655392695138
 40
1.0
 40
1.0
 40
1.0
 40
1.0
 10
719.1315914498736
 20
611.7183199832258
 30
0.0
 10
719.1426024472465
 20
611.7269334931226
 30
0.0
 10
719.5451046005143
 20
612.0417965489612
 30
0.0
 10
720.4523473630427
 20
612.2325262931835
 30
0.0
 10
721.832006310868
 20
612.2112260221852
 30
0.0
 10
723.3080939975165
 20
611.5861781497109
 30
0.0
 10
724.7938410696589
 20
610.40587253552
 30
0.0
 10
726.232851678006
 20
608.6620763237717
 30
0.0
 10
727.5353741780178
 20
606.3986823681603
 30
0.0
 10
728.6063063592337
 20
603.7699812170978
 30
0.0
 10
729.3839264349333
 20
600.8651394882035
 30
0.0
 10
729.8830907813173
 20
597.8458057876616
 30
0.0
 10
729.9451016599389
 20
595.7522385004335
 30
0.0
 10
729.9757261755037
 20
594.7183153340634
 30
0.0
  0
ARC
  5
1F3
330
1F
100
AcDbEntity
  8
0
  6
Continuous
 62
     7
370
    18
100
AcDbCircle
 10
907.5573370099
 20
522.1230413311
 30
0.0
 40
62.59529071517212
100
AcDbArc
 50
123.9337887167
 51
145.3989427718
  0
ARC
  5
1F4
330
1F
100
AcDbEntity
  8
0
  6
Continuous
 62
     7
370
    18
100
AcDbCircle
 10
907.5574079917
 20
577.313657574
 30
0.0
 40
62.59538992188492
100
AcDbArc
 50
214.6010744399
 51
236.0661940715
  0
ARC
  5
1F5
330
1F
100
AcDbEntity
  8
0
  6
Continuous
 62
     7
370
    18
100
AcDbCircle
 10
907.5572925614
 20
577.3135551209
 30
0.0
 40
62.59524048111644
100
AcDbArc
 50
236.0662293831
 51
303.9337706169
  0
ARC
  5
1F6
330
1F
100
AcDbEntity
  8
0
  6
Continuous
 62
     7
370
    18
100
AcDbCircle
 10
907.5572925614
 20
522.1230952684
 30
0.0
 40
62.59522115156858
100
AcDbArc
 50
56.0662174787
 51
123.9337825213
  0
ARC
  5
1F7
330
1F
100
AcDbEntity
  8
0
  6
Continuous
 62
     7
370
    18
100
AcDbCircle
 10
907.5572303979
 20
522.1230234085
 30
0.0
 40
62.59531547434901
100
AcDbArc
 50
34.6010615237
 51
56.0662069877
  0
ARC
  5
1F8
330
1F
100
AcDbEntity
  8
0
  6
Continuous
 62
     7
370
    18
100
AcDbCircle
 10
907.5571594162
 20
577.3136754966
 30
0.0
 40
62.5954146810632
100
AcDbArc
 50
303.933810224
 51
325.3989212645
  0
SPLINE
  5
1F9
330
1F
100
AcDbEntity
  8
0
  6
Continuous
 62
     7
370
    18
100
AcDbSpline
210
0.0
220
0.0
230
1.0
 70
     8
 71
     3
 72
     9
 73
     5
 74
     0
 42
0.000000001
 43
0.00000001
 40
0.0
 40
0.0
 40
0.0
 40
0.0
 40
0.7775029308288692
 40
0.9999999999999999
 40
0.9999999999999999
 40
0.9999999999999999
 40
0.9999999999999999
 10
722.314239199655
 20
577.4843699047383
 30
0.0
 10
722.1427748845371
 20
577.5019799471225
 30
0.0
 10
721.9222428346638
 20
577.5246294339424
 30
0.0
 10
721.7247264730141
 20
577.6830663794564
 30
0.0
 10
721.6807796614338
 20
577.7183181354818
 30
0.0
  0
SPLINE
  5
1FA
330
1F
100
AcDbEntity
  8
0
  6
Continuous
 62
     7
370
    18
100
AcDbSpline
210
0.0
220
0.0
230
1.0
 70
     8
 71
     3
 72
     9
 73
     5
 74
     0
 42
0.000000001
 43
0.00000001
 40
0.0
 40
0.0
 40
0.0
 40
0.0
 40
0.0434591965653151
 40
1.0
 40
1.0
 40
1.0
 40
1.0
 10
721.6340533452202
 20
611.7183199832258
 30
0.0
 10
721.6423900948953
 20
611.7248251290821
 30
0.0
 10
721.8342194505685
 20
611.8745091170643
 30
0.0
 10
722.0464876822728
 20
611.9085402120932
 30
0.0
 10
722.2495309071709
 20
611.9410923430737
 30
0.0
  0
ARC
  5
1FB
330
1F
100
AcDbEntity
  8
0
  6
Continuous
 62
     7
370
    18
100
AcDbCircle
 10
867.5572954504
 20
549.7183135459
 30
0.0
 40
13.99999903613186
100
AcDbArc
 50
145.3989512533
 51
214.6010487467
  0
ARC
  5
1FC
330
1F
100
AcDbEntity
  8
0
  6
Continuous
 62
     7
370
    18
100
AcDbCircle
 10
947.5572396038
 20
549.7183135459
 30
0.0
 40
14.00004024891279
100
AcDbArc
 50
325.3990676121
 51
34.6009323879
  0
LINE
  5
1FD
330
1F
100
AcDbEntity
  8
0
  6
Continuous
 62
     7
370
    18
100
AcDbLine
 10
1117.4631404685
 20
457.3183147451
 30
0.0
 11
1117.4631404685
 21
454.718314738
 31
0.0
  0
LINE
  5
1FE
330
1F
100
AcDbEntity
  8
0
  6
Continuous
 62
     7
370
    18
100
AcDbLine
 10
1117.4631404685
 20
454.718314738
 30
0.0
 11
372.4631357001
 21
454.718314738
 31
0.0
  0
LINE
  5
1FF
330
1F
100
AcDbEntity
  8
0
  6
Continuous
 62
     7
370
    18
100
AcDbLine
 10
1117.4631404685
 20
457.3183147451
 30
0.0
 11
372.4631357001
 21
457.3183147451
 31
0.0
  0
LINE
  5
200
330
1F
100
AcDbEntity
  8
0
  6
Continuous
 62
     7
370
    18
100
AcDbLine
 10
372.4631357001
 20
457.3183147451
 30
0.0
 11
372.4631357001
 21
454.718314738
 31
0.0
  0
LINE
  5
201
330
1F
100
AcDbEntity
  8
0
  6
Continuous
 62
     7
370
    18
100
AcDbLine
 10
1117.4631404685
 20
460.3183145383
 30
0.0
 11
1117.4631404685
 21
457.3183147451
 31
0.0
  0
LINE
  5
202
330
1F
100
AcDbEntity
  8
0
  6
Continuous
 62
     7
370
    18
100
AcDbLine
 10
372.4631357001
 20
457.3183147451
 30
0.0
 11
372.4631357001
 21
460.3183145383
 31
0.0
  0
LINE
  5
203
330
1F
100
AcDbEntity
  8
0
  6
Continuous
 62
     7
370
    18
100
AcDbLine
 10
372.4631357001
 20
479.7183151105
 30
0.0
 11
1117.4631404685
 21
479.7183151105
 31
0.0
  0
LINE
  5
204
330
1F
100
AcDbEntity
  8
0
  6
Continuous
 62
     7
370
    18
100
AcDbLine
 10
1117.4631404685
 20
479.7183151105
 30
0.0
 11
1117.4631404685
 21
474.718314291
 31
0.0
  0
LINE
  5
205
330
1F
100
AcDbEntity
  8
0
  6
Continuous
 62
     7
370
    18
100
AcDbLine
 10
372.4631357001
 20
474.718314291
 30
0.0
 11
372.4631357001
 21
479.7183151105
 31
0.0
  0
LINE
  5
206
330
1F
100
AcDbEntity
  8
0
  6
Continuous
 62
     7
370
    18
100
AcDbLine
 10
1117.4631404685
 20
474.718314291
 30
0.0
 11
1117.4631404685
 21
460.3183145383
 31
0.0
  0
LINE
  5
207
330
1F
100
AcDbEntity
  8
0
  6
Continuous
 62
     7
370
    18
100
AcDbLine
 10
372.4631357001
 20
474.718314291
 30
0.0
 11
372.4631357001
 21
460.3183145383
 31
0.0
  0
LINE
  5
208
330
1F
100
AcDbEntity
  8
SLD-0
 62
     3
100
AcDbLine
 10
1114.4631155978
 20
574.718314738
 30
0.0
 11
1112.4631155978
 21
574.718314738
 31
0.0
  0
LINE
  5
209
330
1F
100
AcDbEntity
  8
SLD-0
 62
     3
100
AcDbLine
 10
1114.4631155978
 20
574.718314738
 30
0.0
 11
1114.4631155978
 21
524.718314738
 31
0.0
  0
LINE
  5
20A
330
1F
100
AcDbEntity
  8
SLD-0
 62
     3
100
AcDbLine
 10
1114.4631155978
 20
524.718314738
 30
0.0
 11
1112.4631155978
 21
524.718314738
 31
0.0
  0
LINE
  5
20B
330
1F
100
AcDbEntity
  8
SLD-0
 62
     3
100
AcDbLine
 10
1112.4631155978
 20
574.718314738
 30
0.0
 11
1112.4631155978
 21
524.718314738
 31
0.0
  0
LINE
  5
20C
330
1F
100
AcDbEntity
  8
SLD-0
 62
     3
100
AcDbLine
 10
1112.4631381586
 20
587.7182242268
 30
0.0
 11
1112.4631015639
 21
511.7183218636
 31
0.0
  0
LINE
  5
20D
330
1F
100
AcDbEntity
  8
SLD-0
  6
CENTER
 62
     3
100
AcDbLine
 10
498.9631380843
 20
669.5598270354
 30
0.0
 11
498.9631380843
 21
535.5315602361
 31
0.0
  0
LINE
  5
20E
330
1F
100
AcDbEntity
  8
SLD-0
  6
HIDDEN
 62
     3
100
AcDbLine
 10
473.9631380843
 20
572.618314738
 30
0.0
 11
473.9631380843
 21
547.618314738
 31
0.0
  0
LINE
  5
20F
330
1F
100
AcDbEntity
  8
SLD-0
  6
HIDDEN
 62
     3
100
AcDbLine
 10
473.9631380843
 20
657.618314738
 30
0.0
 11
523.9631380843
 21
657.618314738
 31
0.0
  0
LINE
  5
210
330
1F
100
AcDbEntity
  8
SLD-0
  6
HIDDEN
 62
     3
100
AcDbLine
 10
473.9631380843
 20
657.618314738
 30
0.0
 11
473.9631380843
 21
572.618314738
 31
0.0
  0
LINE
  5
211
330
1F
100
AcDbEntity
  8
SLD-0
  6
HIDDEN
 62
     3
100
AcDbLine
 10
473.9631380843
 20
572.618314738
 30
0.0
 11
523.9631380843
 21
572.618314738
 31
0.0
  0
LINE
  5
212
330
1F
100
AcDbEntity
  8
SLD-0
  6
HIDDEN
 62
     3
100
AcDbLine
 10
523.9631380843
 20
657.618314738
 30
0.0
 11
523.9631380843
 21
572.618314738
 31
0.0
  0
LINE
  5
213
330
1F
100
AcDbEntity
  8
SLD-0
  6
HIDDEN
 62
     3
100
AcDbLine
 10
473.9631380843
 20
547.618314738
 30
0.0
 11
523.9631380843
 21
547.618314738
 31
0.0
  0
LINE
  5
214
330
1F
100
AcDbEntity
  8
SLD-0
  6
HIDDEN
 62
     3
100
AcDbLine
 10
523.9631380843
 20
547.618314738
 30
0.0
 11
523.9631380843
 21
572.618314738
 31
0.0
  0
LINE
  5
215
330
1F
100
AcDbEntity
  8
SLD-0
  6
HIDDEN
 62
     3
100
AcDbLine
 10
473.9631380843
 20
623.618314738
 30
0.0
 11
428.9631380843
 21
623.618314738
 31
0.0
  0
LINE
  5
216
330
1F
100
AcDbEntity
  8
SLD-0
  6
HIDDEN
 62
     3
100
AcDbLine
 10
428.9631380843
 20
623.618314738
 30
0.0
 11
428.9631380843
 21
583.618314738
 31
0.0
  0
LINE
  5
217
330
1F
100
AcDbEntity
  8
SLD-0
  6
HIDDEN
 62
     3
100
AcDbLine
 10
428.9631380843
 20
583.618314738
 30
0.0
 11
473.9631380843
 21
583.618314738
 31
0.0
  0
DIMENSION
  5
218
330
1F
100
AcDbEntity
  8
SLD-0
 62
     3
100
AcDbDimension
  2
_D
 10
260.4631380843
 20
842.718314738
 30
0.0
 11
260.4631380843
 21
648.718314738
 31
0.0
 70
   160
  1
<>
 71
     2
 42
-1.0
  3
SLDDIMSTYLE0
100
AcDbAlignedDimension
 13
372.4631380843
 23
454.718314738
 33
0.0
 14
400.4631380843
 24
842.718314738
 34
0.0
 50
90.0
100
AcDbRotatedDimension
  0
DIMENSION
  5
22A
330
1F
100
AcDbEntity
  8
SLD-0
 62
     3
100
AcDbDimension
  2
_D_1
 10
302.4631380843
 20
603.618314738
 30
0.0
 11
302.4631380843
 21
529.168314738
 31
0.0
 70
   160
  1
<>
 71
     2
 42
-1.0
  3
SLDDIMSTYLE1
100
AcDbAlignedDimension
 13
372.4631380843
 23
454.718314738
 33
0.0
 14
480.9631380843
 24
603.618314738
 34
0.0
 50
90.0
100
AcDbRotatedDimension
  0
DIMENSION
  5
235
330
1F
100
AcDbEntity
  8
SLD-0
 62
     3
100
AcDbDimension
  2
_D_2
 10
1283.4879852658
 20
842.718314738
 30
0.0
 11
1283.4879852658
 21
648.718314738
 31
0.0
 70
   160
  1
<>
 71
     2
 42
-1.0
  3
SLDDIMSTYLE0
100
AcDbAlignedDimension
 13
1117.4631380843
 23
454.718314738
 33
0.0
 14
907.4631380841
 24
842.718314738
 34
0.0
 50
90.0
100
AcDbRotatedDimension
  0
DIMENSION
  5
23F
330
1F
100
AcDbEntity
  8
SLD-0
 62
     3
100
AcDbDimension
  2
_D_3
 10
1199.4879852658
 20
479.718314738
 30
0.0
 11
1199.4879852658
 21
420.8341785463
 31
0.0
 70
   160
  1
<>
 71
     2
 42
-1.0
  3
SLDDIMSTYLE2
100
AcDbAlignedDimension
 13
1117.4631380843
 23
454.718314738
 33
0.0
 14
1117.4631380843
 24
479.718314738
 34
0.0
 50
90.0
100
AcDbRotatedDimension
  0
DIMENSION
  5
24C
330
1F
100
AcDbEntity
  8
SLD-0
 62
     3
100
AcDbDimension
  2
_D_4
 10
1241.4879852658
 20
549.718314738
 30
0.0
 11
1241.4879852658
 21
502.218314738
 31
0.0
 70
   160
  1
<>
 71
     2
 42
-1.0
  3
SLDDIMSTYLE0
100
AcDbAlignedDimension
 13
1117.4631380843
 23
454.718314738
 33
0.0
 14
1133.4631150546
 24
549.718314738
 34
0.0
 50
90.0
100
AcDbRotatedDimension
  0
INSERT
  5
261
330
1F
100
AcDbEntity
  8
SLD-0
 62
     3
100
AcDbBlockReference
  2
SW_CENTERMARKSYMBOL_0
 10
502.4631380843
 20
603.618314738
 30
0.0
  0
INSERT
  5
26D
330
1F
100
AcDbEntity
  8
SLD-0
 62
     3
100
AcDbBlockReference
  2
SW_CENTERMARKSYMBOL_1
 10
451.4631380843
 20
603.618314738
 30
0.0
  0
LINE
  5
26E
330
1F
100
AcDbEntity
  8
SLD-0
  6
CENTER
 62
     3
 48
2.8571428571
370
    18
100
AcDbLine
 10
1133.4631150546
 20
549.718314738
 30
0.0
 11
817.4468934723
 21
549.718314738
 31
0.0
  0
LINE
  5
26F
330
1F
100
AcDbEntity
  8
0
  6
Continuous
 62
     7
370
    18
100
AcDbLine
 10
666.3739147591
 20
1699.0599350713
 30
0.0
 11
666.3739147591
 21
1700.7599489472
 31
0.0
  0
LINE
  5
270
330
1F
100
AcDbEntity
  8
0
  6
Continuous
 62
     7
370
    18
100
AcDbLine
 10
656.8739104079
 20
1700.7599489472
 30
0.0
 11
656.8739104079
 21
1699.0599350713
 31
0.0
  0
ARC
  5
271
330
1F
100
AcDbEntity
  8
0
  6
Continuous
 62
     7
370
    18
100
AcDbCircle
 10
664.3739117987
 20
1700.7599416278
 30
0.0
 40
2.0
100
AcDbArc
 50
0.0
 51
57.7159454248
  0
ARC
  5
272
330
1F
100
AcDbEntity
  8
0
  6
Continuous
 62
     7
370
    18
100
AcDbCircle
 10
658.8739117987
 20
1700.7599416278
 30
0.0
 40
2.0
100
AcDbArc
 50
122.259113849
 51
180.0
  0
LINE
  5
273
330
1F
100
AcDbEntity
  8
0
  6
Continuous
 62
     7
370
    18
100
AcDbLine
 10
664.1239139246
 20
1692.5599442504
 30
0.0
 11
664.1239139246
 21
1697.0599459193
 31
0.0
  0
LINE
  5
274
330
1F
100
AcDbEntity
  8
0
  6
Continuous
 62
     7
370
    18
100
AcDbLine
 10
659.1239112424
 20
1697.0599459193
 30
0.0
 11
659.1239112424
 21
1692.5599442504
 31
0.0
  0
LINE
  5
275
330
1F
100
AcDbEntity
  8
0
  6
Continuous
 62
     7
370
    18
100
AcDbLine
 10
1122.4398004817
 20
1539.1480343125
 30
0.0
 11
1120.4398262309
 21
1539.1470992647
 31
0.0
  0
LINE
  5
276
330
1F
100
AcDbEntity
  8
0
  6
Continuous
 62
     7
370
    18
100
AcDbLine
 10
1120.4491245555
 20
1519.147103437
 30
0.0
 11
1122.4491286086
 21
1519.1480347596
 31
0.0
  0
LINE
  5
277
330
1F
100
AcDbEntity
  8
0
  6
Continuous
 62
     7
370
    18
100
AcDbLine
 10
937.375037651
 20
1704.0739075921
 30
0.0
 11
937.3759764241
 21
1702.073903539
 31
0.0
  0
LINE
  5
278
330
1F
100
AcDbEntity
  8
0
  6
Continuous
 62
     7
370
    18
100
AcDbLine
 10
957.3759722518
 20
1702.0832316659
 30
0.0
 11
957.3750334786
 21
1704.083235719
 31
0.0
  0
LINE
  5
279
330
1F
100
AcDbEntity
  8
0
  6
Continuous
 62
     7
370
    18
100
AcDbLine
 10
942.3666435288
 20
1696.0762308619
 30
0.0
 11
942.3689830111
 21
1691.0762356303
 31
0.0
  0
LINE
  5
27A
330
1F
100
AcDbEntity
  8
0
  6
Continuous
 62
     7
370
    18
100
AcDbLine
 10
952.3689734744
 20
1691.0808996938
 30
0.0
 11
952.3666488933
 21
1696.0808949254
 31
0.0
  0
LINE
  5
27B
330
1F
100
AcDbEntity
  8
0
  6
Continuous
 62
     7
370
    18
100
AcDbLine
 10
877.552642207
 20
1271.0459695838
 30
0.0
 11
877.5517034339
 21
1273.0459736369
 31
0.0
  0
LINE
  5
27C
330
1F
100
AcDbEntity
  8
0
  6
Continuous
 62
     7
370
    18
100
AcDbLine
 10
857.5517076062
 20
1273.0366604112
 30
0.0
 11
857.5526389288
 21
1271.036656358
 31
0.0
  0
LINE
  5
27D
330
1F
100
AcDbEntity
  8
0
  6
Continuous
 62
     7
370
    18
100
AcDbLine
 10
957.5526255177
 20
1271.0832671903
 30
0.0
 11
957.5517016457
 21
1273.0832712434
 31
0.0
  0
LINE
  5
27E
330
1F
100
AcDbEntity
  8
0
  6
Continuous
 62
     7
370
    18
100
AcDbLine
 10
937.5516909169
 20
1273.0739431165
 30
0.0
 11
937.5526296901
 21
1271.0739390634
 31
0.0
  0
LINE
  5
27F
330
1F
100
AcDbEntity
  8
0
  6
Continuous
 62
     7
370
    18
100
AcDbLine
 10
857.3750468897
 20
1704.0366248868
 30
0.0
 11
857.3759782123
 21
1702.0366208337
 31
0.0
  0
LINE
  5
280
330
1F
100
AcDbEntity
  8
0
  6
Continuous
 62
     7
370
    18
100
AcDbLine
 10
877.3759740399
 20
1702.0459340594
 30
0.0
 11
877.3750501679
 21
1704.0459381125
 31
0.0
  0
LINE
  5
281
330
1F
100
AcDbEntity
  8
0
  6
Continuous
 62
     7
370
    18
100
AcDbLine
 10
862.3666602181
 20
1696.0389481566
 30
0.0
 11
862.3689922499
 21
1691.0389380239
 31
0.0
  0
LINE
  5
282
330
1F
100
AcDbEntity
  8
0
  6
Continuous
 62
     7
370
    18
100
AcDbLine
 10
872.3689901637
 20
1691.0436020873
 30
0.0
 11
872.3666506814
 21
1696.0436122201
 31
0.0
  0
LINE
  5
283
330
1F
100
AcDbEntity
  8
0
  6
Continuous
 62
     7
370
    18
100
AcDbLine
 10
1122.4771129893
 20
1459.1111520014
 30
0.0
 11
1120.4771089362
 21
1459.1102188162
 31
0.0
  0
LINE
  5
284
330
1F
100
AcDbEntity
  8
0
  6
Continuous
 62
     7
370
    18
100
AcDbLine
 10
1120.4864370631
 20
1439.1102211259
 30
0.0
 11
1122.4864411162
 21
1439.1111524485
 31
0.0
  0
LINE
  5
285
330
1F
100
AcDbEntity
  8
0
  6
Continuous
 62
     7
370
    18
100
AcDbLine
 10
886.0642897891
 20
1272.0499502204
 30
0.0
 11
886.0698777245
 21
1260.0499408029
 31
0.0
  0
LINE
  5
286
330
1F
100
AcDbEntity
  8
0
  6
Continuous
 62
     7
370
    18
100
AcDbLine
 10
929.0698754596
 20
1260.0699828647
 30
0.0
 11
929.0642875241
 21
1272.0699922822
 31
0.0
  0
ARC
  5
287
330
1F
100
AcDbEntity
  8
0
  6
Continuous
 62
     7
370
    18
100
AcDbCircle
 10
928.0698752264
 20
1260.0695217749
 30
0.0
 40
1.000000000000044
100
AcDbArc
 50
270.0267061816
 51
0.0267061816
  0
ARC
  5
288
330
1F
100
AcDbEntity
  8
0
  6
Continuous
 62
     7
370
    18
100
AcDbCircle
 10
887.0698796802
 20
1260.0504112328
 30
0.0
 40
1.000000000000044
100
AcDbArc
 50
180.0267061816
 51
270.0267061816
  0
ARC
  5
289
330
1F
100
AcDbEntity
  8
0
  6
Continuous
 62
     7
370
    18
100
AcDbCircle
 10
885.0642865681
 20
1272.0494777077
 30
0.0
 40
1.000000000000158
100
AcDbArc
 50
0.0267061816
 51
90.0267061816
  0
ARC
  5
28A
330
1F
100
AcDbEntity
  8
0
  6
Continuous
 62
     7
370
    18
100
AcDbCircle
 10
930.0642816798
 20
1272.0704526929
 30
0.0
 40
1.000000000000044
100
AcDbArc
 50
90.0267061816
 51
180.0267061816
  0
LINE
  5
28B
330
1F
100
AcDbEntity
  8
0
  6
Continuous
 62
     7
370
    18
100
AcDbLine
 10
858.5591602134
 20
1283.0371277116
 30
0.0
 11
858.5628929542
 21
1275.0371264003
 31
0.0
  0
LINE
  5
28C
330
1F
100
AcDbEntity
  8
0
  6
Continuous
 62
     7
370
    18
100
AcDbLine
 10
956.5628754901
 20
1275.0827984593
 30
0.0
 11
956.5591501998
 21
1283.0827997706
 31
0.0
  0
ARC
  5
28D
330
1F
100
AcDbEntity
  8
0
  6
Continuous
 62
     7
370
    18
100
AcDbCircle
 10
954.562880686
 20
1275.0818720812
 30
0.0
 40
2.000000000000088
100
AcDbArc
 50
270.0267061816
 51
0.0267061816
  0
ARC
  5
28E
330
1F
100
AcDbEntity
  8
0
  6
Continuous
 62
     7
370
    18
100
AcDbCircle
 10
860.5628908972
 20
1275.0380576676
 30
0.0
 40
2.000000000000088
100
AcDbArc
 50
180.0267061816
 51
270.0267061816
  0
ARC
  5
28F
330
1F
100
AcDbEntity
  8
0
  6
Continuous
 62
     7
370
    18
100
AcDbCircle
 10
1119.4407417371
 20
1537.1587518994
 30
0.0
 40
1.000000000000272
100
AcDbArc
 50
0.0267061816
 51
90.0267061816
  0
ARC
  5
290
330
1F
100
AcDbEntity
  8
0
  6
Continuous
 62
     7
370
    18
100
AcDbCircle
 10
1119.4854883722
 20
1441.1587623278
 30
0.0
 40
1.000000000000044
100
AcDbArc
 50
270.0267061816
 51
0.0267061816
  0
LINE
  5
291
330
1F
100
AcDbEntity
  8
0
  6
Continuous
 62
     7
370
    18
100
AcDbLine
 10
1119.4402861403
 20
1538.1587499462
 30
0.0
 11
1114.4402909087
 21
1538.1564216397
 31
0.0
  0
LINE
  5
292
330
1F
100
AcDbEntity
  8
0
  6
Continuous
 62
     7
370
    18
100
AcDbLine
 10
1114.4859480666
 20
1440.1564316533
 30
0.0
 11
1119.4859432982
 21
1440.158763685
 31
0.0
  0
ARC
  5
293
330
1F
100
AcDbEntity
  8
0
  6
Continuous
 62
     7
370
    18
100
AcDbCircle
 10
859.5427091353
 20
1701.0376284261
 30
0.0
 40
1.000000000000044
100
AcDbArc
 50
90.0267061816
 51
180.0267061816
  0
LINE
  5
294
330
1F
100
AcDbEntity
  8
0
  6
Continuous
 62
     7
370
    18
100
AcDbLine
 10
858.5427093314
 20
1701.0371552489
 30
0.0
 11
858.5450413631
 21
1696.0371600173
 31
0.0
  0
ARC
  5
295
330
1F
100
AcDbEntity
  8
0
  6
Continuous
 62
     7
370
    18
100
AcDbCircle
 10
955.185936061
 20
1701.0822087703
 30
0.0
 40
1.000000000000158
100
AcDbArc
 50
0.0267061816
 51
90.0267061816
  0
LINE
  5
296
330
1F
100
AcDbEntity
  8
0
  6
Continuous
 62
     7
370
    18
100
AcDbLine
 10
956.1882602977
 20
1696.0826681636
 30
0.0
 11
956.1859357165
 21
1701.0826782964
 31
0.0
  0
SPLINE
  5
297
330
1F
100
AcDbEntity
  8
0
  6
Continuous
 62
     7
370
    18
100
AcDbSpline
210
0.0
220
0.0
230
1.0
 70
     8
 71
     3
 72
    12
 73
     8
 74
     0
 42
0.000000001
 43
0.00000001
 40
0.0
 40
0.0
 40
0.0
 40
0.0
 40
0.1494689572307006
 40
0.332103145703317
 40
0.5315435034127088
 40
0.7616178170126136
 40
1.0
 40
1.0
 40
1.0
 40
1.0
 10
820.7700910972524
 20
1281.255336262986
 30
0.0
 10
820.7719379091205
 20
1281.251951459708
 30
0.0
 10
820.7760413165594
 20
1281.244430809017
 30
0.0
 10
820.804177780566
 20
1281.100458491366
 30
0.0
 10
820.8026418105494
 20
1280.856621608552
 30
0.0
 10
820.756140855363
 20
1280.523238645085
 30
0.0
 10
820.6770924252037
 20
1280.277789693482
 30
0.0
 10
820.6368672655988
 20
1280.152888753221
 30
0.0
  0
LINE
  5
298
330
1F
100
AcDbEntity
  8
0
  6
Continuous
 62
     7
370
    18
100
AcDbLine
 10
820.6368672656
 20
1280.1528887532
 30
0.0
 11
819.6121218609
 21
1277.3333357356
 31
0.0
  0
ARC
  5
299
330
1F
100
AcDbEntity
  8
0
  6
Continuous
 62
     7
370
    18
100
AcDbCircle
 10
820.5519720137
 20
1276.9917499651
 30
0.0
 40
1.000000000000033
100
AcDbArc
 50
160.0267061816
 51
250.0267061816
  0
ARC
  5
29A
330
1F
100
AcDbEntity
  8
0
  6
Continuous
 62
     7
370
    18
100
AcDbCircle
 10
844.433553478
 20
1268.3121691237
 30
0.0
 40
0.9999999999999555
100
AcDbArc
 50
250.0267061816
 51
340.0267061816
  0
LINE
  5
29B
330
1F
100
AcDbEntity
  8
0
  6
Continuous
 62
     7
370
    18
100
AcDbLine
 10
845.373405795
 20
1267.9705934308
 30
0.0
 11
851.8634649919
 21
1285.8277724765
 31
0.0
  0
LINE
  5
29C
330
1F
100
AcDbEntity
  8
0
  6
Continuous
 62
     7
370
    18
100
AcDbLine
 10
819.5983233856
 20
1297.5543008826
 30
0.0
 11
813.1082641887
 21
1279.6971069358
 31
0.0
  0
ARC
  5
29D
330
1F
100
AcDbEntity
  8
0
  6
Continuous
 62
     7
370
    18
100
AcDbCircle
 10
814.0481184586
 20
1279.3555265348
 30
0.0
 40
1.000000000000033
100
AcDbArc
 50
160.0267061816
 51
250.0267061816
  0
LINE
  5
29E
330
1F
100
AcDbEntity
  8
0
  6
Continuous
 62
     7
370
    18
100
AcDbLine
 10
705.4406317877
 20
1523.8724069379
 30
0.0
 11
700.4631373094
 21
1524.3932174228
 31
0.0
  0
LINE
  5
29F
330
1F
100
AcDbEntity
  8
0
  6
Continuous
 62
     7
370
    18
100
AcDbLine
 10
700.4631373094
 20
1497.0447279222
 30
0.0
 11
702.6100668119
 21
1496.8200882606
 31
0.0
  0
LINE
  5
2A0
330
1F
100
AcDbEntity
  8
0
  6
Continuous
 62
     7
370
    18
100
AcDbLine
 10
725.4471785383
 20
1583.3742560528
 30
0.0
 11
700.4631373094
 21
1595.0103344105
 31
0.0
  0
LINE
  5
2A1
330
1F
100
AcDbEntity
  8
0
  6
Continuous
 62
     7
370
    18
100
AcDbLine
 10
700.4631373094
 20
1575.9260447405
 30
0.0
 11
718.14319184
 21
1567.69173012
 31
0.0
  0
LINE
  5
2A2
330
1F
100
AcDbEntity
  8
0
  6
Continuous
 62
     7
370
    18
100
AcDbLine
 10
700.4631373094
 20
1386.9634436152
 30
0.0
 11
729.6877547162
 21
1386.9770707272
 31
0.0
  0
LINE
  5
2A3
330
1F
100
AcDbEntity
  8
0
  6
Continuous
 62
     7
370
    18
100
AcDbLine
 10
714.1014735209
 20
1420.9698082588
 30
0.0
 11
700.4631373094
 21
1420.9634529136
 31
0.0
  0
LINE
  5
2A4
330
1F
100
AcDbEntity
  8
0
  6
Continuous
 62
     7
370
    18
100
AcDbLine
 10
853.368988912
 20
1691.0347507976
 30
0.0
 11
847.425072174
 21
1685.085283377
 31
0.0
  0
LINE
  5
2A5
330
1F
100
AcDbEntity
  8
0
  6
Continuous
 62
     7
370
    18
100
AcDbLine
 10
967.3184442328
 20
1685.1411776326
 30
0.0
 11
961.3689768123
 21
1691.0850869201
 31
0.0
  0
LINE
  5
2A6
330
1F
100
AcDbEntity
  8
0
  6
Continuous
 62
     7
370
    18
100
AcDbLine
 10
1109.4379412936
 20
1543.1540885649
 30
0.0
 11
1103.4796225833
 21
1549.1068565927
 31
0.0
  0
LINE
  5
2A7
330
1F
100
AcDbEntity
  8
0
  6
Continuous
 62
     7
370
    18
100
AcDbLine
 10
1103.5283195781
 20
1429.1885809682
 30
0.0
 11
1109.4882774161
 21
1435.1541006647
 31
0.0
  0
LINE
  5
2A8
330
1F
100
AcDbEntity
  8
0
  6
Continuous
 62
     7
370
    18
100
AcDbLine
 10
961.5572827863
 20
1287.085132458
 30
0.0
 11
967.5141858863
 21
1293.0475936912
 31
0.0
  0
LINE
  5
2A9
330
1F
100
AcDbEntity
  8
0
  6
Continuous
 62
     7
370
    18
100
AcDbLine
 10
847.5984918879
 20
1292.988048651
 30
0.0
 11
853.557294886
 21
1287.0347963355
 31
0.0
  0
LINE
  5
2AA
330
1F
100
AcDbEntity
  8
0
  6
Continuous
 62
     7
370
    18
100
AcDbLine
 10
829.9733313726
 20
1299.2697225593
 30
0.0
 11
828.2120811747
 21
1294.4236861251
 31
0.0
  0
LINE
  5
2AB
330
1F
100
AcDbEntity
  8
0
  6
Continuous
 62
     7
370
    18
100
AcDbLine
 10
843.2497146534
 20
1288.9583723329
 30
0.0
 11
845.0108381914
 21
1293.8040511392
 31
0.0
  0
LINE
  5
2AC
330
1F
100
AcDbEntity
  8
0
  6
Continuous
 62
     7
370
    18
100
AcDbLine
 10
654.1239085602
 20
1697.0599459193
 30
0.0
 11
669.1239091562
 21
1697.0599459193
 31
0.0
  0
LINE
  5
2AD
330
1F
100
AcDbEntity
  8
0
  6
Continuous
 62
     7
370
    18
100
AcDbLine
 10
654.1239085602
 20
1697.0599459193
 30
0.0
 11
654.1239085602
 21
1699.0599350713
 31
0.0
  0
LINE
  5
2AE
330
1F
100
AcDbEntity
  8
0
  6
Continuous
 62
     7
370
    18
100
AcDbLine
 10
654.1239085602
 20
1699.0599350713
 30
0.0
 11
669.1239091562
 21
1699.0599350713
 31
0.0
  0
LINE
  5
2AF
330
1F
100
AcDbEntity
  8
0
  6
Continuous
 62
     7
370
    18
100
AcDbLine
 10
669.1239091562
 20
1697.0599459193
 30
0.0
 11
669.1239091562
 21
1699.0599350713
 31
0.0
  0
LINE
  5
2B0
330
1F
100
AcDbEntity
  8
0
  6
Continuous
 62
     7
370
    18
100
AcDbLine
 10
654.1239085602
 20
1692.5599442504
 30
0.0
 11
654.1239085602
 21
1697.0599459193
 31
0.0
  0
LINE
  5
2B1
330
1F
100
AcDbEntity
  8
0
  6
Continuous
 62
     7
370
    18
100
AcDbLine
 10
669.1239091562
 20
1692.5599442504
 30
0.0
 11
669.1239091562
 21
1697.0599459193
 31
0.0
  0
LINE
  5
2B2
330
1F
100
AcDbEntity
  8
0
  6
Continuous
 62
     7
370
    18
100
AcDbLine
 10
400.4631328391
 20
1282.5599478267
 30
0.0
 11
380.4631519126
 21
1282.5599478267
 31
0.0
  0
LINE
  5
2B3
330
1F
100
AcDbEntity
  8
0
  6
Continuous
 62
     7
370
    18
100
AcDbLine
 10
380.4631519126
 20
1282.5599478267
 30
0.0
 11
380.4631519126
 21
1692.5599442504
 31
0.0
  0
LINE
  5
2B4
330
1F
100
AcDbEntity
  8
0
  6
Continuous
 62
     7
370
    18
100
AcDbLine
 10
400.4631328391
 20
1692.5599442504
 30
0.0
 11
380.4631519126
 21
1692.5599442504
 31
0.0
  0
LINE
  5
2B5
330
1F
100
AcDbEntity
  8
0
  6
Continuous
 62
     7
370
    18
100
AcDbLine
 10
700.4631373094
 20
1282.5599478267
 30
0.0
 11
700.4631373094
 21
1692.5599442504
 31
0.0
  0
LINE
  5
2B6
330
1F
100
AcDbEntity
  8
0
  6
Continuous
 62
     7
370
    18
100
AcDbLine
 10
700.4631373094
 20
1282.5599478267
 30
0.0
 11
680.4631414818
 21
1282.5599478267
 31
0.0
  0
LINE
  5
2B7
330
1F
100
AcDbEntity
  8
0
  6
Continuous
 62
     7
370
    18
100
AcDbLine
 10
700.4631373094
 20
1692.5599442504
 30
0.0
 11
680.4631414818
 21
1692.5599442504
 31
0.0
  0
LINE
  5
2B8
330
1F
100
AcDbEntity
  8
0
  6
Continuous
 62
     7
370
    18
100
AcDbLine
 10
680.4631414818
 20
1282.5599478267
 30
0.0
 11
400.4631328391
 21
1282.5599478267
 31
0.0
  0
LINE
  5
2B9
330
1F
100
AcDbEntity
  8
0
  6
Continuous
 62
     7
370
    18
100
AcDbLine
 10
680.4631414818
 20
1692.5599442504
 30
0.0
 11
400.4631328391
 21
1692.5599442504
 31
0.0
  0
SPLINE
  5
2BA
330
1F
100
AcDbEntity
  8
0
  6
Continuous
 62
     7
370
    18
100
AcDbSpline
210
0.0
220
0.0
230
1.0
 70
     8
 71
     3
 72
     9
 73
     5
 74
     0
 42
0.000000001
 43
0.00000001
 40
0.0
 40
0.0
 40
0.0
 40
0.0
 40
0.4983194386997223
 40
1.0
 40
1.0
 40
1.0
 40
1.0
 10
657.8058215784002
 20
1702.450858213708
 30
0.0
 10
657.8275748385994
 20
1702.460998110113
 30
0.0
 10
657.8712280829038
 20
1702.481346295669
 30
0.0
 10
657.914880742689
 20
1702.461043654251
 30
0.0
 10
657.9367804335524
 20
1702.450858213708
 30
0.0
  0
SPLINE
  5
2BB
330
1F
100
AcDbEntity
  8
0
  6
Continuous
 62
     7
370
    18
100
AcDbSpline
210
0.0
220
0.0
230
1.0
 70
     8
 71
     3
 72
    11
 73
     7
 74
     0
 42
0.000000001
 43
0.00000001
 40
0.0
 40
0.0
 40
0.0
 40
0.0
 40
0.2970195633475635
 40
0.6027783413554927
 40
0.8001791213983731
 40
1.0
 40
1.0
 40
1.0
 40
1.0
 10
657.9367804335524
 20
1702.450858213708
 30
0.0
 10
658.0344495234701
 20
1702.506121310666
 30
0.0
 10
658.232661423585
 20
1702.618273512181
 30
0.0
 10
658.5228012146149
 20
1702.706872082064
 30
0.0
 10
658.7837924236367
 20
1702.752800873551
 30
0.0
 10
658.9333049364035
 20
1702.757549380449
 30
0.0
 10
659.0085166500975
 20
1702.759938099191
 30
0.0
  0
LINE
  5
2BC
330
1F
100
AcDbEntity
  8
0
  6
Continuous
 62
     7
370
    18
100
AcDbLine
 10
659.0085166501
 20
1702.7599380992
 30
0.0
 11
661.4823403763
 21
1702.7599380992
 31
0.0
  0
SPLINE
  5
2BD
330
1F
100
AcDbEntity
  8
0
  6
Continuous
 62
     7
370
    18
100
AcDbSpline
210
0.0
220
0.0
230
1.0
 70
     8
 71
     3
 72
    11
 73
     7
 74
     0
 42
0.000000001
 43
0.00000001
 40
0.0
 40
0.0
 40
0.0
 40
0.0
 40
0.3031051571797321
 40
0.6152482348840137
 40
0.8064902329766909
 40
1.0
 40
1.0
 40
1.0
 40
1.0
 10
661.4823403762747
 20
1702.759938099191
 30
0.0
 10
661.4974185241449
 20
1702.754420055522
 30
0.0
 10
661.5280244166636
 20
1702.743219432416
 30
0.0
 10
661.5669661773342
 20
1702.661975328769
 30
0.0
 10
661.5990651645819
 20
1702.56153967532
 30
0.0
 10
661.6155951504777
 20
1702.487896720785
 30
0.0
 10
661.6239088581967
 20
1702.450858213708
 30
0.0
  0
LINE
  5
2BE
330
1F
100
AcDbEntity
  8
0
  6
Continuous
 62
     7
370
    18
100
AcDbLine
 10
661.6239088582
 20
1702.4508582137
 30
0.0
 11
662.6152980136
 21
1702.4508582137
 31
0.0
  0
SPLINE
  5
2BF
330
1F
100
AcDbEntity
  8
0
  6
Continuous
 62
     7
370
    18
100
AcDbSpline
210
0.0
220
0.0
230
1.0
 70
     8
 71
     3
 72
    11
 73
     7
 74
     0
 42
0.000000001
 43
0.00000001
 40
0.0
 40
0.0
 40
0.0
 40
0.0
 40
0.2970222483154638
 40
0.6027785271858865
 40
0.8001794275744847
 40
1.0
 40
1.0
 40
1.0
 40
1.0
 10
662.6152980135847
 20
1702.450858213708
 30
0.0
 10
662.6023984232995
 20
1702.506121151235
 30
0.0
 10
662.5762199263102
 20
1702.61827204996
 30
0.0
 10
662.537886260152
 20
1702.706872564619
 30
0.0
 10
662.5034125889438
 20
1702.752800781281
 30
0.0
 10
662.4836639835903
 20
1702.75754935126
 30
0.0
 10
662.4737295316626
 20
1702.759938099191
 30
0.0
  0
LINE
  5
2C0
330
1F
100
AcDbEntity
  8
0
  6
Continuous
 62
     7
370
    18
100
AcDbLine
 10
662.4737295317
 20
1702.7599380992
 30
0.0
 11
664.370267372
 21
1702.7599380992
 31
0.0
  0
SPLINE
  5
2C1
330
1F
100
AcDbEntity
  8
0
  6
Continuous
 62
     7
370
    18
100
AcDbSpline
210
0.0
220
0.0
230
1.0
 70
     8
 71
     3
 72
    11
 73
     7
 74
     0
 42
0.000000001
 43
0.00000001
 40
0.0
 40
0.0
 40
0.0
 40
0.0
 40
0.3031037645510308
 40
0.6152487382119817
 40
0.8064918979083193
 40
1.0
 40
1.0
 40
1.0
 40
1.0
 10
664.3702673720289
 20
1702.759938099191
 30
0.0
 10
664.4844144347115
 20
1702.754419983085
 30
0.0
 10
664.7161134252872
 20
1702.743219152318
 30
0.0
 10
665.0109131078699
 20
1702.661975128333
 30
0.0
 10
665.2539134472893
 20
1702.561540526064
 30
0.0
 10
665.3790563452502
 20
1702.487896825682
 30
0.0
 10
665.4419961379934
 20
1702.450858213708
 30
0.0
  0
SPLINE
  5
2C2
330
1F
100
AcDbEntity
  8
0
  6
Continuous
 62
     7
370
    18
100
AcDbSpline
210
0.0
220
0.0
230
1.0
 70
     8
 71
     3
 72
    11
 73
     7
 74
     0
 42
0.000000001
 43
0.00000001
 40
0.0
 40
0.0
 40
0.0
 40
0.0
 40
0.303102892113064
 40
0.6152461378223616
 40
0.8064910347428237
 40
1.0
 40
1.0
 40
1.0
 40
1.0
 10
661.765477340119
 20
1702.759938099191
 30
0.0
 10
661.7503978964522
 20
1702.754420068854
 30
0.0
 10
661.719789249297
 20
1702.743219427284
 30
0.0
 10
661.6808647113606
 20
1702.661974184665
 30
0.0
 10
661.6487501508029
 20
1702.561540838752
 30
0.0
 10
661.6322217093776
 20
1702.487896873688
 30
0.0
 10
661.6239088581967
 20
1702.450858213708
 30
0.0
  0
SPLINE
  5
2C3
330
1F
100
AcDbEntity
  8
0
  6
Continuous
 62
     7
370
    18
100
AcDbSpline
210
0.0
220
0.0
230
1.0
 70
     8
 71
     3
 72
    11
 73
     7
 74
     0
 42
0.000000001
 43
0.00000001
 40
0.0
 40
0.0
 40
0.0
 40
0.0
 40
0.3031020485939168
 40
0.6152448403521779
 40
0.80648731281209
 40
1.0
 40
1.0
 40
1.0
 40
1.0
 10
658.8775577949453
 20
1702.759938099191
 30
0.0
 10
658.7634108297424
 20
1702.754419971918
 30
0.0
 10
658.5317121932311
 20
1702.743219126037
 30
0.0
 10
658.2369111916261
 20
1702.661975300086
 30
0.0
 10
657.993910535811
 20
1702.561538954084
 30
0.0
 10
657.8687640362562
 20
1702.487896633892
 30
0.0
 10
657.8058215784002
 20
1702.450858213708
 30
0.0
  0
LINE
  5
2C4
330
1F
100
AcDbEntity
  8
0
  6
Continuous
 62
     7
370
    18
100
AcDbLine
 10
662.1850865888
 20
1702.7599380992
 30
0.0
 11
662.1850865888
 21
1702.4508582137
 31
0.0
  0
LINE
  5
2C5
330
1F
100
AcDbEntity
  8
0
  6
Continuous
 62
     7
370
    18
100
AcDbLine
 10
662.4737295317
 20
1702.7599380992
 30
0.0
 11
662.1850865888
 21
1702.7599380992
 31
0.0
  0
LINE
  5
2C6
330
1F
100
AcDbEntity
  8
0
  6
Continuous
 62
     7
370
    18
100
AcDbLine
 10
659.0085166501
 20
1702.7599380992
 30
0.0
 11
658.8775577949
 21
1702.7599380992
 31
0.0
  0
LINE
  5
2C7
330
1F
100
AcDbEntity
  8
0
  6
Continuous
 62
     7
370
    18
100
AcDbLine
 10
662.0541277336
 20
1702.4508582137
 30
0.0
 11
662.0541277336
 21
1702.7599380992
 31
0.0
  0
LINE
  5
2C8
330
1F
100
AcDbEntity
  8
0
  6
Continuous
 62
     7
370
    18
100
AcDbLine
 10
662.1850865888
 20
1702.7599380992
 30
0.0
 11
662.0541277336
 21
1702.7599380992
 31
0.0
  0
LINE
  5
2C9
330
1F
100
AcDbEntity
  8
0
  6
Continuous
 62
     7
370
    18
100
AcDbLine
 10
662.0541277336
 20
1702.7599380992
 30
0.0
 11
661.7654773401
 21
1702.7599380992
 31
0.0
  0
CIRCLE
  5
2CA
330
1F
100
AcDbEntity
  8
0
  6
Continuous
 62
     7
370
    18
100
AcDbCircle
 10
722.4631380843
 20
1294.0599416278
 30
0.0
 40
4.749999999999901
  0
SPLINE
  5
2CB
330
1F
100
AcDbEntity
  8
0
  6
Continuous
 62
     7
370
    18
100
AcDbSpline
210
0.0
220
0.0
230
1.0
 70
     8
 71
     3
 72
     9
 73
     5
 74
     0
 42
0.000000001
 43
0.00000001
 40
0.0
 40
0.0
 40
0.0
 40
0.0
 40
0.4983229660374262
 40
1.0
 40
1.0
 40
1.0
 40
1.0
 10
722.9728407221007
 20
1290.276022412584
 30
0.0
 10
723.1331372888459
 20
1290.319569811982
 30
0.0
 10
723.454809332219
 20
1290.406957715744
 30
0.0
 10
723.7764911871304
 20
1290.494330647203
 30
0.0
 10
723.9378715859818
 20
1290.538163640306
 30
0.0
  0
SPLINE
  5
2CC
330
1F
100
AcDbEntity
  8
0
  6
Continuous
 62
     7
370
    18
100
AcDbSpline
210
0.0
220
0.0
230
1.0
 70
     8
 71
     3
 72
    11
 73
     7
 74
     0
 42
0.000000001
 43
0.00000001
 40
0.0
 40
0.0
 40
0.0
 40
0.0
 40
0.297020856283756
 40
0.6027795407680047
 40
0.8001881994121844
 40
1.0
 40
1.0
 40
1.0
 40
1.0
 10
723.9378715859818
 20
1290.538163640306
 30
0.0
 10
723.9120469408376
 20
1290.633233412734
 30
0.0
 10
723.8596379351695
 20
1290.826169742129
 30
0.0
 10
723.7829212603219
 20
1291.108600982167
 30
0.0
 10
723.7139194365577
 20
1291.362650943839
 30
0.0
 10
723.6743849162165
 20
1291.50818611412
 30
0.0
 10
723.6544980662037
 20
1291.581393935487
 30
0.0
  0
SPLINE
  5
2CD
330
1F
100
AcDbEntity
  8
0
  6
Continuous
 62
     7
370
    18
100
AcDbSpline
210
0.0
220
0.0
230
1.0
 70
     8
 71
     3
 72
    11
 73
     7
 74
     0
 42
0.000000001
 43
0.00000001
 40
0.0
 40
0.0
 40
0.0
 40
0.0
 40
0.3031022918020306
 40
0.615246028861235
 40
0.8064904195632021
 40
1.0
 40
1.0
 40
1.0
 40
1.0
 10
725.2038090484309
 20
1294.286267616555
 30
0.0
 10
725.3149215150213
 20
1294.316448961019
 30
0.0
 10
725.540460897849
 20
1294.377711949882
 30
0.0
 10
725.8274240623866
 20
1294.455659402427
 30
0.0
 10
726.0639650613472
 20
1294.519910753934
 30
0.0
 10
726.18578297099
 20
1294.553000646462
 30
0.0
 10
726.2470505194832
 20
1294.569642998979
 30
0.0
  0
LINE
  5
2CE
330
1F
100
AcDbEntity
  8
0
  6
Continuous
 62
     7
370
    18
100
AcDbLine
 10
726.2470505195
 20
1294.569642999
 30
0.0
 11
725.9849204676
 21
1295.5346720002
 31
0.0
  0
SPLINE
  5
2CF
330
1F
100
AcDbEntity
  8
0
  6
Continuous
 62
     7
370
    18
100
AcDbSpline
210
0.0
220
0.0
230
1.0
 70
     8
 71
     3
 72
    11
 73
     7
 74
     0
 42
0.000000001
 43
0.00000001
 40
0.0
 40
0.0
 40
0.0
 40
0.0
 40
0.2970255329546215
 40
0.6027790877889523
 40
0.8001788574856014
 40
1.0
 40
1.0
 40
1.0
 40
1.0
 10
725.9849204676318
 20
1295.534672000215
 30
0.0
 10
725.8898475086679
 20
1295.508846540522
 30
0.0
 10
725.696907895337
 20
1295.456436746387
 30
0.0
 10
725.4144775959627
 20
1295.379723274933
 30
0.0
 10
725.1604261806152
 20
1295.310725102084
 30
0.0
 10
725.0148904427247
 20
1295.271186452243
 30
0.0
 10
724.9416789965796
 20
1295.251296617791
 30
0.0
  0
SPLINE
  5
2D0
330
1F
100
AcDbEntity
  8
0
  6
Continuous
 62
     7
370
    18
100
AcDbSpline
210
0.0
220
0.0
230
1.0
 70
     8
 71
     3
 72
    11
 73
     7
 74
     0
 42
0.000000001
 43
0.00000001
 40
0.0
 40
0.0
 40
0.0
 40
0.0
 40
0.3031014537885508
 40
0.615244327836599
 40
0.8064881897884323
 40
1.0
 40
1.0
 40
1.0
 40
1.0
 10
722.2368109034468
 20
1296.800615050599
 30
0.0
 10
722.2066295509939
 20
1296.911727504369
 30
0.0
 10
722.1453665459145
 20
1297.137266861173
 30
0.0
 10
722.0674192015598
 20
1297.424230199327
 30
0.0
 10
722.0031673278562
 20
1297.660771707781
 30
0.0
 10
721.9700778055346
 20
1297.782591377912
 30
0.0
 10
721.9534355210233
 20
1297.843860246942
 30
0.0
  0
SPLINE
  5
2D1
330
1F
100
AcDbEntity
  8
0
  6
Continuous
 62
     7
370
    18
100
AcDbSpline
210
0.0
220
0.0
230
1.0
 70
     8
 71
     3
 72
     9
 73
     5
 74
     0
 42
0.000000001
 43
0.00000001
 40
0.0
 40
0.0
 40
0.0
 40
0.0
 40
0.4983190662841448
 40
1.0
 40
1.0
 40
1.0
 40
1.0
 10
721.9534355210233
 20
1297.843860246942
 30
0.0
 10
721.7931383312384
 20
1297.800320112261
 30
0.0
 10
721.4714625202361
 20
1297.712946103065
 30
0.0
 10
721.1497844245447
 20
1297.625559308108
 30
0.0
 10
720.9884046571422
 20
1297.58171901922
 30
0.0
  0
SPLINE
  5
2D2
330
1F
100
AcDbEntity
  8
0
  6
Continuous
 62
     7
370
    18
100
AcDbSpline
210
0.0
220
0.0
230
1.0
 70
     8
 71
     3
 72
    11
 73
     7
 74
     0
 42
0.000000001
 43
0.00000001
 40
0.0
 40
0.0
 40
0.0
 40
0.0
 40
0.297020856283756
 40
0.6027795407680047
 40
0.8001881994121844
 40
1.0
 40
1.0
 40
1.0
 40
1.0
 10
720.9884046571422
 20
1297.58171901922
 30
0.0
 10
721.0142293022865
 20
1297.486649246791
 30
0.0
 10
721.0666383079546
 20
1297.293712917397
 30
0.0
 10
721.1433549828022
 20
1297.011281677358
 30
0.0
 10
721.2123568065664
 20
1296.757231715686
 30
0.0
 10
721.2518913269076
 20
1296.611696545405
 30
0.0
 10
721.2717781769205
 20
1296.538488724038
 30
0.0
  0
SPLINE
  5
2D3
330
1F
100
AcDbEntity
  8
0
  6
Continuous
 62
     7
370
    18
100
AcDbSpline
210
0.0
220
0.0
230
1.0
 70
     8
 71
     3
 72
    11
 73
     7
 74
     0
 42
0.000000001
 43
0.00000001
 40
0.0
 40
0.0
 40
0.0
 40
0.0
 40
0.3031022918020306
 40
0.615246028861235
 40
0.8064904195632021
 40
1.0
 40
1.0
 40
1.0
 40
1.0
 10
719.7224671946931
 20
1293.83361504297
 30
0.0
 10
719.6113547281028
 20
1293.803433698506
 30
0.0
 10
719.3858153452751
 20
1293.742170709643
 30
0.0
 10
719.0988521807375
 20
1293.664223257099
 30
0.0
 10
718.8623111817769
 20
1293.599971905592
 30
0.0
 10
718.7404932721341
 20
1293.566882013063
 30
0.0
 10
718.679225723641
 20
1293.550239660546
 30
0.0
  0
LINE
  5
2D4
330
1F
100
AcDbEntity
  8
0
  6
Continuous
 62
     7
370
    18
100
AcDbLine
 10
718.6792257236
 20
1293.5502396605
 30
0.0
 11
718.9413557755
 21
1292.5852106593
 31
0.0
  0
SPLINE
  5
2D5
330
1F
100
AcDbEntity
  8
0
  6
Continuous
 62
     7
370
    18
100
AcDbSpline
210
0.0
220
0.0
230
1.0
 70
     8
 71
     3
 72
    11
 73
     7
 74
     0
 42
0.000000001
 43
0.00000001
 40
0.0
 40
0.0
 40
0.0
 40
0.0
 40
0.2970255329546215
 40
0.6027790877889523
 40
0.8001788574856014
 40
1.0
 40
1.0
 40
1.0
 40
1.0
 10
718.9413557754922
 20
1292.58521065931
 30
0.0
 10
719.0364287344562
 20
1292.611036119003
 30
0.0
 10
719.2293683477872
 20
1292.663445913139
 30
0.0
 10
719.5117986471613
 20
1292.740159384592
 30
0.0
 10
719.765850062509
 20
1292.809157557442
 30
0.0
 10
719.9113858003994
 20
1292.848696207282
 30
0.0
 10
719.9845972465445
 20
1292.868586041734
 30
0.0
  0
SPLINE
  5
2D6
330
1F
100
AcDbEntity
  8
0
  6
Continuous
 62
     7
370
    18
100
AcDbSpline
210
0.0
220
0.0
230
1.0
 70
     8
 71
     3
 72
    11
 73
     7
 74
     0
 42
0.000000001
 43
0.00000001
 40
0.0
 40
0.0
 40
0.0
 40
0.0
 40
0.3031014537885508
 40
0.615244327836599
 40
0.8064881897884323
 40
1.0
 40
1.0
 40
1.0
 40
1.0
 10
722.6894653396774
 20
1291.319267608926
 30
0.0
 10
722.7196466921301
 20
1291.208155155156
 30
0.0
 10
722.7809096972097
 20
1290.982615798352
 30
0.0
 10
722.8588570415643
 20
1290.695652460198
 30
0.0
 10
722.9231089152679
 20
1290.459110951744
 30
0.0
 10
722.9561984375895
 20
1290.337291281614
 30
0.0
 10
722.9728407221007
 20
1290.276022412584
 30
0.0
  0
LINE
  5
2D7
330
1F
100
AcDbEntity
  8
0
  6
Continuous
 62
     7
370
    18
100
AcDbLine
 10
723.6544980662
 20
1291.5813939355
 30
0.0
 11
723.0767204421
 21
1293.7084899924
 31
0.0
  0
LINE
  5
2D8
330
1F
100
AcDbEntity
  8
0
  6
Continuous
 62
     7
370
    18
100
AcDbLine
 10
723.0767204421
 20
1293.7084899924
 30
0.0
 11
725.2038090484
 21
1294.2862676166
 31
0.0
  0
LINE
  5
2D9
330
1F
100
AcDbEntity
  8
0
  6
Continuous
 62
     7
370
    18
100
AcDbLine
 10
719.9845972465
 20
1292.8685860417
 30
0.0
 11
722.1116877155
 21
1293.4463636659
 31
0.0
  0
LINE
  5
2DA
330
1F
100
AcDbEntity
  8
0
  6
Continuous
 62
     7
370
    18
100
AcDbLine
 10
722.1116877155
 20
1293.4463636659
 30
0.0
 11
722.6894653397
 21
1291.3192676089
 31
0.0
  0
LINE
  5
2DB
330
1F
100
AcDbEntity
  8
0
  6
Continuous
 62
     7
370
    18
100
AcDbLine
 10
724.9416789966
 20
1295.2512966178
 30
0.0
 11
722.8145885276
 21
1294.6735189937
 31
0.0
  0
LINE
  5
2DC
330
1F
100
AcDbEntity
  8
0
  6
Continuous
 62
     7
370
    18
100
AcDbLine
 10
722.8145885276
 20
1294.6735189937
 30
0.0
 11
722.2368109034
 21
1296.8006150506
 31
0.0
  0
LINE
  5
2DD
330
1F
100
AcDbEntity
  8
0
  6
Continuous
 62
     7
370
    18
100
AcDbLine
 10
721.2717781769
 20
1296.538488724
 30
0.0
 11
721.8495558011
 21
1294.4113926671
 31
0.0
  0
LINE
  5
2DE
330
1F
100
AcDbEntity
  8
0
  6
Continuous
 62
     7
370
    18
100
AcDbLine
 10
721.8495558011
 20
1294.4113926671
 30
0.0
 11
719.7224671947
 21
1293.833615043
 31
0.0
  0
LWPOLYLINE
  5
2DF
330
1F
100
AcDbEntity
  8
0
  6
Continuous
 62
     7
370
    18
100
AcDbPolyline
 90
       18
 70
   128
 43
0.0
 10
1122.4491286086
 20
1519.1480347596
 10
1122.4490392016
 20
1519.3287485919
 10
1122.4488007831
 20
1519.8643559299
 10
1122.4483835505
 20
1520.735500165
 10
1122.4478471087
 20
1521.9106951437
 10
1122.4471914576
 20
1523.3474651061
 10
1122.4464165973
 20
1524.9938832305
 10
1122.4455821322
 20
1526.7904454551
 10
1122.4446880626
 20
1528.6722162447
 10
1122.4438237952
 20
1530.5711829744
 10
1122.4429595279
 20
1532.4187146209
 10
1122.4421548652
 20
1534.1480316303
 10
1122.4414098071
 20
1535.696642258
 10
1122.4408137607
 20
1537.0085628412
 10
1122.4403369235
 20
1538.036389061
 10
1122.440009098
 20
1538.7429611466
 10
1122.439830284
 20
1539.102753409
 10
1122.4398004817
 20
1539.1480343125
  0
LWPOLYLINE
  5
2E0
330
1F
100
AcDbEntity
  8
0
  6
Continuous
 62
     7
370
    18
100
AcDbPolyline
 90
        9
 70
   128
 43
0.0
 10
1120.4431938933
 20
1531.8923460029
 10
1120.4429554748
 20
1532.417779573
 10
1120.442150812
 20
1534.1471003077
 10
1120.4414355563
 20
1535.6957072101
 10
1120.4408097075
 20
1537.0076315186
 10
1120.4403328704
 20
1538.0354540132
 10
1120.4400050448
 20
1538.7420298241
 10
1120.4398262309
 20
1539.1018183611
 10
1120.4398262309
 20
1539.1470992647
  0
LINE
  5
2E1
330
1F
100
AcDbEntity
  8
0
  6
Continuous
 62
     7
370
    18
100
AcDbLine
 10
1129.4405150222
 20
1537.6634129963
 30
0.0
 11
1122.4405157374
 21
1537.660149642
 31
0.0
  0
LINE
  5
2E2
330
1F
100
AcDbEntity
  8
0
  6
Continuous
 62
     7
370
    18
100
AcDbLine
 10
1129.4444787311
 20
1529.163414397
 30
0.0
 11
1122.4444794463
 21
1529.1601510427
 31
0.0
  0
LINE
  5
2E3
330
1F
100
AcDbEntity
  8
0
  6
Continuous
 62
     7
370
    18
100
AcDbLine
 10
1129.4405150222
 20
1537.6634129963
 30
0.0
 11
1129.4444787311
 21
1529.163414397
 31
0.0
  0
LINE
  5
2E4
330
1F
100
AcDbEntity
  8
0
  6
Continuous
 62
     7
370
    18
100
AcDbLine
 10
1129.4484424399
 20
1520.6634157978
 30
0.0
 11
1122.4484431552
 21
1520.6601524435
 31
0.0
  0
LINE
  5
2E5
330
1F
100
AcDbEntity
  8
0
  6
Continuous
 62
     7
370
    18
100
AcDbLine
 10
1129.4444787311
 20
1529.163414397
 30
0.0
 11
1129.4484424399
 21
1520.6634157978
 31
0.0
  0
LWPOLYLINE
  5
2E6
330
1F
100
AcDbEntity
  8
0
  6
Continuous
 62
     7
370
    18
100
AcDbPolyline
 90
       18
 70
   128
 43
0.0
 10
957.3750334786
 20
1704.083235719
 10
957.1943270968
 20
1704.083146312
 10
956.6587197589
 20
1704.0828929923
 10
955.7875680732
 20
1704.082490661
 10
954.6123730945
 20
1704.081939318
 10
953.1756031321
 20
1704.0812687657
 10
951.529188733
 20
1704.0805088065
 10
949.7326302337
 20
1704.0796743415
 10
947.8508519935
 20
1704.078795173
 10
945.9518927144
 20
1704.0779011033
 10
944.1043573426
 20
1704.077036836
 10
942.3750328826
 20
1704.0762321732
 10
940.8264297055
 20
1704.0755169175
 10
939.5145016717
 20
1704.0749059699
 10
938.4866791772
 20
1704.0744291327
 10
937.7801108169
 20
1704.0741013072
 10
937.4203222798
 20
1704.0739224933
 10
937.375037651
 20
1704.0739075921
  0
LWPOLYLINE
  5
2E7
330
1F
100
AcDbEntity
  8
0
  6
Continuous
 62
     7
370
    18
100
AcDbPolyline
 90
       11
 70
   128
 43
0.0
 10
957.3759722518
 20
1702.0832316659
 10
957.1952509688
 20
1702.0831422589
 10
956.6596436309
 20
1702.0828889392
 10
955.7885068463
 20
1702.0824866078
 10
954.6133118676
 20
1702.0819352649
 10
953.1765419053
 20
1702.0812796138
 10
951.530112605
 20
1702.0805047534
 10
949.7335541057
 20
1702.0796702884
 10
947.8517907666
 20
1702.0787911199
 10
945.9528165864
 20
1702.0779119513
 10
945.4975265073
 20
1702.0776884339
  0
LINE
  5
2E8
330
1F
100
AcDbEntity
  8
0
  6
Continuous
 62
     7
370
    18
100
AcDbLine
 10
947.3596501159
 20
1711.0785560391
 30
0.0
 11
947.3629134702
 21
1704.0785567544
 31
0.0
  0
LINE
  5
2E9
330
1F
100
AcDbEntity
  8
0
  6
Continuous
 62
     7
370
    18
100
AcDbLine
 10
947.3596501159
 20
1711.0785560391
 30
0.0
 11
955.859659891
 21
1711.082519748
 31
0.0
  0
LINE
  5
2EA
330
1F
100
AcDbEntity
  8
0
  6
Continuous
 62
     7
370
    18
100
AcDbLine
 10
955.859659891
 20
1711.082519748
 30
0.0
 11
955.8629232453
 21
1704.0825204633
 31
0.0
  0
LINE
  5
2EB
330
1F
100
AcDbEntity
  8
0
  6
Continuous
 62
     7
370
    18
100
AcDbLine
 10
938.8596552419
 20
1711.0746072314
 30
0.0
 11
938.8629185962
 21
1704.0746079467
 31
0.0
  0
LINE
  5
2EC
330
1F
100
AcDbEntity
  8
0
  6
Continuous
 62
     7
370
    18
100
AcDbLine
 10
938.8596552419
 20
1711.0746072314
 30
0.0
 11
947.3596501159
 21
1711.0785560391
 31
0.0
  0
LWPOLYLINE
  5
2ED
330
1F
100
AcDbEntity
  8
0
  6
Continuous
 62
     7
370
    18
100
AcDbPolyline
 90
       18
 70
   128
 43
0.0
 10
857.5526389288
 20
1271.036656358
 10
857.7333527612
 20
1271.036745765
 10
858.2689600991
 20
1271.0369841836
 10
859.1401043343
 20
1271.0374014161
 10
860.315299313
 20
1271.0379378579
 10
861.7520692753
 20
1271.0386084102
 10
863.398491125
 20
1271.0393832705
 10
865.1950496243
 20
1271.0402177356
 10
867.076820414
 20
1271.0410969041
 10
868.9757871436
 20
1271.0419760726
 10
870.8233225154
 20
1271.0428403399
 10
872.5526320743
 20
1271.0436450026
 10
874.1012501525
 20
1271.0443602584
 10
875.4131632852
 20
1271.0449861072
 10
876.4409857797
 20
1271.0454629443
 10
877.1475690411
 20
1271.0457907699
 10
877.5073575782
 20
1271.0459546826
 10
877.552642207
 20
1271.0459695838
  0
LWPOLYLINE
  5
2EE
330
1F
100
AcDbEntity
  8
0
  6
Continuous
 62
     7
370
    18
100
AcDbPolyline
 90
       11
 70
   128
 43
0.0
 10
857.5517076062
 20
1273.0366604112
 10
857.7324214386
 20
1273.036734917
 10
858.2680287765
 20
1273.0369882367
 10
859.1391730117
 20
1273.0373905681
 10
860.3143679904
 20
1273.037941911
 10
861.7511379527
 20
1273.0386124633
 10
863.3975523518
 20
1273.0393724225
 10
865.1941183018
 20
1273.0402217887
 10
867.0758890914
 20
1273.041086056
 10
868.974855821
 20
1273.0419801257
 10
870.8179878997
 20
1273.0428443931
  0
LINE
  5
2EF
330
1F
100
AcDbEntity
  8
0
  6
Continuous
 62
     7
370
    18
100
AcDbLine
 10
876.068009715
 20
1264.0452848456
 30
0.0
 11
876.0647463607
 21
1271.0452841304
 31
0.0
  0
LINE
  5
2F0
330
1F
100
AcDbEntity
  8
0
  6
Continuous
 62
     7
370
    18
100
AcDbLine
 10
876.068009715
 20
1264.0452848456
 30
0.0
 11
867.568014841
 21
1264.0413211368
 31
0.0
  0
LINE
  5
2F1
330
1F
100
AcDbEntity
  8
0
  6
Continuous
 62
     7
370
    18
100
AcDbLine
 10
867.568014841
 20
1264.0413211368
 30
0.0
 11
867.5647514867
 21
1271.0413204215
 31
0.0
  0
LINE
  5
2F2
330
1F
100
AcDbEntity
  8
0
  6
Continuous
 62
     7
370
    18
100
AcDbLine
 10
867.568014841
 20
1264.0413211368
 30
0.0
 11
859.068019967
 21
1264.0373574279
 31
0.0
  0
LINE
  5
2F3
330
1F
100
AcDbEntity
  8
0
  6
Continuous
 62
     7
370
    18
100
AcDbLine
 10
859.068019967
 20
1264.0373574279
 30
0.0
 11
859.0647566127
 21
1271.0373567126
 31
0.0
  0
LWPOLYLINE
  5
2F4
330
1F
100
AcDbEntity
  8
0
  6
Continuous
 62
     7
370
    18
100
AcDbPolyline
 90
       18
 70
   128
 43
0.0
 10
937.5526296901
 20
1271.0739390634
 10
937.7333360719
 20
1271.0740284703
 10
938.2689434098
 20
1271.0742817901
 10
939.1400950955
 20
1271.0746841214
 10
940.3152900742
 20
1271.0752354644
 10
941.7520600366
 20
1271.0759060166
 10
943.3984744357
 20
1271.0766659759
 10
945.195032935
 20
1271.0775004409
 10
947.0768111752
 20
1271.0783796094
 10
948.9757704543
 20
1271.0792736791
 10
950.8233058261
 20
1271.0801230453
 10
952.5526302861
 20
1271.080927708
 10
954.1012334632
 20
1271.0816578649
 10
955.413161497
 20
1271.0822688125
 10
956.4409839915
 20
1271.0827456496
 10
957.1475523518
 20
1271.0830734752
 10
957.5073408889
 20
1271.0832373879
 10
957.5526255177
 20
1271.0832671903
  0
LWPOLYLINE
  5
2F5
330
1F
100
AcDbEntity
  8
0
  6
Continuous
 62
     7
370
    18
100
AcDbPolyline
 90
       12
 70
   128
 43
0.0
 10
944.2854213523
 20
1273.0770872615
 10
945.194109063
 20
1273.077504494
 10
947.0758724021
 20
1273.0783836625
 10
948.9748465823
 20
1273.079262831
 10
950.8223819541
 20
1273.0801270984
 10
952.551691513
 20
1273.0809317611
 10
954.1003095912
 20
1273.081661918
 10
955.4122227239
 20
1273.0822728656
 10
956.4400452184
 20
1273.0827497027
 10
957.1466284799
 20
1273.0830775283
 10
957.5064170169
 20
1273.0832414411
 10
957.5517016457
 20
1273.0832712434
  0
LINE
  5
2F6
330
1F
100
AcDbEntity
  8
0
  6
Continuous
 62
     7
370
    18
100
AcDbLine
 10
947.5680130528
 20
1264.0786038421
 30
0.0
 11
947.5647496985
 21
1271.0786031268
 31
0.0
  0
LINE
  5
2F7
330
1F
100
AcDbEntity
  8
0
  6
Continuous
 62
     7
370
    18
100
AcDbLine
 10
947.5680130528
 20
1264.0786038421
 30
0.0
 11
939.0680032777
 21
1264.0746550343
 31
0.0
  0
LINE
  5
2F8
330
1F
100
AcDbEntity
  8
0
  6
Continuous
 62
     7
370
    18
100
AcDbLine
 10
939.0680032777
 20
1264.0746550343
 30
0.0
 11
939.0647399234
 21
1271.0746543191
 31
0.0
  0
LINE
  5
2F9
330
1F
100
AcDbEntity
  8
0
  6
Continuous
 62
     7
370
    18
100
AcDbLine
 10
956.0680079268
 20
1264.0825675509
 30
0.0
 11
956.0647445725
 21
1271.0825668357
 31
0.0
  0
LINE
  5
2FA
330
1F
100
AcDbEntity
  8
0
  6
Continuous
 62
     7
370
    18
100
AcDbLine
 10
956.0680079268
 20
1264.0825675509
 30
0.0
 11
947.5680130528
 21
1264.0786038421
 31
0.0
  0
LWPOLYLINE
  5
2FB
330
1F
100
AcDbEntity
  8
0
  6
Continuous
 62
     7
370
    18
100
AcDbPolyline
 90
        6
 70
   128
 43
0.0
 10
859.9933820771
 20
1702.0378427289
 10
859.5154496836
 20
1702.0376192115
 10
858.4876271891
 20
1702.0371423743
 10
857.7810513781
 20
1702.0368145488
 10
857.4212628411
 20
1702.0366357348
 10
857.3759782123
 20
1702.0366208337
  0
LWPOLYLINE
  5
2FC
330
1F
100
AcDbEntity
  8
0
  6
Continuous
 62
     7
370
    18
100
AcDbPolyline
 90
       18
 70
   128
 43
0.0
 10
877.3750501679
 20
1704.0459381125
 10
877.194328885
 20
1704.0458636067
 10
876.658721547
 20
1704.045610287
 10
875.7875847625
 20
1704.0452079556
 10
874.6123897838
 20
1704.0446566127
 10
873.1756198214
 20
1704.0439860604
 10
871.5291905211
 20
1704.0432112
 10
869.7326320218
 20
1704.042376735
 10
867.8508612322
 20
1704.0414975665
 10
865.9518945025
 20
1704.040618398
 10
864.1043665813
 20
1704.0397541306
 10
862.3750495719
 20
1704.0389494679
 10
860.8264389442
 20
1704.0382342122
 10
859.514518361
 20
1704.0376083634
 10
858.4866958665
 20
1704.0371315263
 10
857.7801200556
 20
1704.0368037007
 10
857.420324068
 20
1704.036639788
 10
857.3750468897
 20
1704.0366248868
  0
LINE
  5
2FD
330
1F
100
AcDbEntity
  8
0
  6
Continuous
 62
     7
370
    18
100
AcDbLine
 10
867.3596668052
 20
1711.0412733338
 30
0.0
 11
867.3629301595
 21
1704.0412740491
 31
0.0
  0
LINE
  5
2FE
330
1F
100
AcDbEntity
  8
0
  6
Continuous
 62
     7
370
    18
100
AcDbLine
 10
875.8596616792
 20
1711.0452370427
 30
0.0
 11
875.8629250335
 21
1704.045237758
 31
0.0
  0
LINE
  5
2FF
330
1F
100
AcDbEntity
  8
0
  6
Continuous
 62
     7
370
    18
100
AcDbLine
 10
867.3596668052
 20
1711.0412733338
 30
0.0
 11
875.8596616792
 21
1711.0452370427
 31
0.0
  0
LINE
  5
300
330
1F
100
AcDbEntity
  8
0
  6
Continuous
 62
     7
370
    18
100
AcDbLine
 10
858.8596644806
 20
1711.037309625
 30
0.0
 11
858.8629278349
 21
1704.0373103402
 31
0.0
  0
LINE
  5
301
330
1F
100
AcDbEntity
  8
0
  6
Continuous
 62
     7
370
    18
100
AcDbLine
 10
858.8596644806
 20
1711.037309625
 30
0.0
 11
867.3596668052
 21
1711.0412733338
 31
0.0
  0
LWPOLYLINE
  5
302
330
1F
100
AcDbEntity
  8
0
  6
Continuous
 62
     7
370
    18
100
AcDbPolyline
 90
       19
 70
   128
 43
0.0
 10
1122.4864411162
 20
1439.1111524485
 10
1122.4864411162
 20
1439.1119086824
 10
1122.4863517093
 20
1439.3158608757
 10
1122.4860834884
 20
1439.8738385818
 10
1122.4856662558
 20
1440.7656768046
 10
1122.485129814
 20
1441.9591443322
 10
1122.4844443606
 20
1443.4111023031
 10
1122.4836695002
 20
1445.069076278
 10
1122.4828350352
 20
1446.8731412373
 10
1122.4819409655
 20
1448.7580934248
 10
1122.4810766982
 20
1450.6558047317
 10
1122.4802124309
 20
1452.4976925633
 10
1122.4794077681
 20
1454.2171785317
 10
1122.4786925124
 20
1455.7521173439
 10
1122.478096466
 20
1457.0470394276
 10
1122.4776196288
 20
1458.0551346473
 10
1122.4772918033
 20
1458.7399715267
 10
1122.4771427916
 20
1459.0767992369
 10
1122.4771129893
 20
1459.1111520014
  0
LWPOLYLINE
  5
303
330
1F
100
AcDbEntity
  8
0
  6
Continuous
 62
     7
370
    18
100
AcDbPolyline
 90
        9
 70
   128
 43
0.0
 10
1120.4864370631
 20
1439.1102211259
 10
1120.4864370631
 20
1439.1109773598
 10
1120.4863476561
 20
1439.3149295531
 10
1120.4860794352
 20
1439.8729072593
 10
1120.4856622027
 20
1440.764745482
 10
1120.4851257609
 20
1441.9582130096
 10
1120.4844403075
 20
1443.4101709805
 10
1120.4836654471
 20
1445.0681449554
 10
1120.483009796
 20
1446.4496576868
  0
LINE
  5
304
330
1F
100
AcDbEntity
  8
0
  6
Continuous
 62
     7
370
    18
100
AcDbLine
 10
1129.4821488666
 20
1448.3505652926
 30
0.0
 11
1122.4821495818
 21
1448.3473019383
 31
0.0
  0
LINE
  5
305
330
1F
100
AcDbEntity
  8
0
  6
Continuous
 62
     7
370
    18
100
AcDbLine
 10
1129.4859039592
 20
1440.2861946903
 30
0.0
 11
1122.4859046744
 21
1440.282931336
 31
0.0
  0
LINE
  5
306
330
1F
100
AcDbEntity
  8
0
  6
Continuous
 62
     7
370
    18
100
AcDbLine
 10
1129.4821488666
 20
1448.3505652926
 30
0.0
 11
1129.4859039592
 21
1440.2861946903
 31
0.0
  0
LINE
  5
307
330
1F
100
AcDbEntity
  8
0
  6
Continuous
 62
     7
370
    18
100
AcDbLine
 10
1129.4780063437
 20
1457.2277942381
 30
0.0
 11
1122.478007059
 21
1457.2245308838
 31
0.0
  0
LINE
  5
308
330
1F
100
AcDbEntity
  8
0
  6
Continuous
 62
     7
370
    18
100
AcDbLine
 10
1129.4780063437
 20
1457.2277942381
 30
0.0
 11
1129.4821488666
 21
1448.3505652926
 31
0.0
  0
LINE
  5
309
330
1F
100
AcDbEntity
  8
0
  6
Continuous
 62
     7
370
    18
100
AcDbLine
 10
1129.4776189135
 20
1458.040648856
 30
0.0
 11
1122.4776196288
 21
1458.0373873643
 31
0.0
  0
LINE
  5
30A
330
1F
100
AcDbEntity
  8
0
  6
Continuous
 62
     7
370
    18
100
AcDbLine
 10
1129.4776189135
 20
1458.040648856
 30
0.0
 11
1129.4780063437
 21
1457.2277942381
 31
0.0
  0
LINE
  5
30B
330
1F
100
AcDbEntity
  8
0
  6
Continuous
 62
     7
370
    18
100
AcDbLine
 10
864.2799693154
 20
1276.315303304
 30
0.0
 11
864.276832621
 21
1283.0397950194
 31
0.0
  0
LWPOLYLINE
  5
30C
330
1F
100
AcDbEntity
  8
0
  6
Continuous
 62
     7
370
    18
100
AcDbPolyline
 90
       19
 70
   128
 43
0.0
 10
864.276832621
 20
1283.0397950194
 10
868.5045677232
 20
1283.0417619727
 10
872.9337441729
 20
1283.043818333
 10
877.5415259408
 20
1283.0459790013
 10
882.3041456746
 20
1283.0481992743
 10
887.1970313596
 20
1283.050479152
 10
892.1949404286
 20
1283.0528037332
 10
897.2721087741
 20
1283.0551730178
 10
902.4023401545
 20
1283.0575572036
 10
907.5591552066
 20
1283.0599711917
 10
912.7159851598
 20
1283.0623702786
 10
917.8462016391
 20
1283.0647544644
 10
922.9233699845
 20
1283.0671237491
 10
927.9212790536
 20
1283.0694483302
 10
932.8141647386
 20
1283.0717282079
 10
937.5767844724
 20
1283.0739484809
 10
942.1845662402
 20
1283.0761091493
 10
946.61374269
 20
1283.0781655095
 10
950.8414852427
 20
1283.0801324628
  0
LINE
  5
30D
330
1F
100
AcDbEntity
  8
0
  6
Continuous
 62
     7
370
    18
100
AcDbLine
 10
950.8446144866
 20
1276.3556556485
 30
0.0
 11
950.8414852427
 21
1283.0801324628
 31
0.0
  0
LWPOLYLINE
  5
30E
330
1F
100
AcDbEntity
  8
0
  6
Continuous
 62
     7
370
    18
100
AcDbPolyline
 90
       18
 70
   128
 43
0.0
 10
947.7488684462
 20
1276.4786945365
 10
943.5110378074
 20
1276.4767275832
 10
939.0923070716
 20
1276.4746563218
 10
934.5148938703
 20
1276.4725254558
 10
929.8018353986
 20
1276.4703349851
 10
924.9768543052
 20
1276.4680849097
 10
920.0642245816
 20
1276.4657901309
 10
915.0886821555
 20
1276.4634655498
 10
910.0752609776
 20
1276.4611409686
 10
905.0492036151
 20
1276.4587865851
 10
900.0357824372
 20
1276.456462004
 10
895.0602400111
 20
1276.4541374228
 10
890.1476251887
 20
1276.451842644
 10
885.3226440953
 20
1276.4495925687
 10
880.6095856236
 20
1276.447402098
 10
876.0321575211
 20
1276.4452712319
 10
871.6134267854
 20
1276.4432148717
 10
867.3756035971
 20
1276.4412330173
  0
LWPOLYLINE
  5
30F
330
1F
100
AcDbEntity
  8
0
  6
Continuous
 62
     7
370
    18
100
AcDbPolyline
 90
       25
 70
   128
 43
0.0
 10
928.070335369
 20
1259.0695189021
 10
927.8949636029
 20
1259.0694443963
 10
927.3718136357
 20
1259.0691910766
 10
926.5098708676
 20
1259.0687887452
 10
925.3238576459
 20
1259.0682374022
 10
923.8340842532
 20
1259.0675519488
 10
922.0660316752
 20
1259.0667174838
 10
920.0499492692
 20
1259.0657787106
 10
917.8203481244
 20
1259.0647505305
 10
915.4153603124
 20
1259.0636180423
 10
912.8761279391
 20
1259.0624408505
 10
910.2461325931
 20
1259.0612189553
 10
907.5703459786
 20
1259.0599672578
 10
904.8945593642
 20
1259.0587155602
 10
902.264549117
 20
1259.057493665
 10
899.7253316449
 20
1259.0563164733
 10
897.3203438329
 20
1259.055183985
 10
895.0907426881
 20
1259.0541558049
 10
893.074660282
 20
1259.0532170318
 10
891.3066077041
 20
1259.0523825667
 10
889.8168194102
 20
1259.0516971133
 10
888.6308210896
 20
1259.0511457704
 10
887.7688634204
 20
1259.050743439
 10
887.2457283544
 20
1259.0504901193
 10
887.0704608964
 20
1259.0504156135
  0
SPLINE
  5
310
330
1F
100
AcDbEntity
  8
0
  6
Continuous
 62
     7
370
    18
100
AcDbSpline
210
0.0
220
0.0
230
1.0
 70
     8
 71
     3
 72
    10
 73
     6
 74
     0
 42
0.000000001
 43
0.00000001
 40
0.0
 40
0.0
 40
0.0
 40
0.0
 40
0.3880758379422254
 40
0.7803304064267553
 40
1.0
 40
1.0
 40
1.0
 40
1.0
 10
950.8446144865919
 20
1276.355655648515
 30
0.0
 10
950.8442820260985
 20
1276.34648244126
 30
0.0
 10
950.8436135252375
 20
1276.328037251311
 30
0.0
 10
950.8370382402238
 20
1276.304539375045
 30
0.0
 10
950.8282491045475
 20
1276.294312973524
 30
0.0
 10
950.8250939654279
 20
1276.290641882226
 30
0.0
  0
SPLINE
  5
311
330
1F
100
AcDbEntity
  8
0
  6
Continuous
 62
     7
370
    18
100
AcDbSpline
210
0.0
220
0.0
230
1.0
 70
     8
 71
     3
 72
    12
 73
     8
 74
     0
 42
0.000000001
 43
0.00000001
 40
0.0
 40
0.0
 40
0.0
 40
0.0
 40
0.2442994197438785
 40
0.4960986966883428
 40
0.7288996252543611
 40
0.9681384118961628
 40
1.0
 40
1.0
 40
1.0
 40
1.0
 10
950.8250939654279
 20
1276.290641882226
 30
0.0
 10
950.7860828098443
 20
1276.255229620496
 30
0.0
 10
950.7068628777558
 20
1276.183317960168
 30
0.0
 10
950.5733124313095
 20
1276.081401259931
 30
0.0
 10
950.4334652558185
 20
1275.986801219028
 30
0.0
 10
950.3326631064741
 20
1275.926892592965
 30
0.0
 10
950.2784398603587
 20
1275.897328355318
 30
0.0
 10
950.2720671700407
 20
1275.893853761957
 30
0.0
  0
SPLINE
  5
312
330
1F
100
AcDbEntity
  8
0
  6
Continuous
 62
     7
370
    18
100
AcDbSpline
210
0.0
220
0.0
230
1.0
 70
     8
 71
     3
 72
    10
 73
     6
 74
     0
 42
0.000000001
 43
0.00000001
 40
0.0
 40
0.0
 40
0.0
 40
0.0
 40
0.2543234452943274
 40
0.5813409904989255
 40
1.0
 40
1.0
 40
1.0
 40
1.0
 10
864.2995494412352
 20
1276.250319340036
 30
0.0
 10
864.2959375783339
 20
1276.254637938238
 30
0.0
 10
864.2876814619774
 20
1276.264509533654
 30
0.0
 10
864.2810686369395
 20
1276.287724892242
 30
0.0
 10
864.2803645973966
 20
1276.305386961234
 30
0.0
 10
864.2799693154265
 20
1276.315303304002
 30
0.0
  0
SPLINE
  5
313
330
1F
100
AcDbEntity
  8
0
  6
Continuous
 62
     7
370
    18
100
AcDbSpline
210
0.0
220
0.0
230
1.0
 70
     8
 71
     3
 72
    12
 73
     8
 74
     0
 42
0.000000001
 43
0.00000001
 40
0.0
 40
0.0
 40
0.0
 40
0.0
 40
0.2676566742407064
 40
0.5452829222073526
 40
0.7544040203304454
 40
0.9681376458368338
 40
0.9999999999999999
 40
0.9999999999999999
 40
0.9999999999999999
 40
0.9999999999999999
 10
864.2995494412352
 20
1276.250319340036
 30
0.0
 10
864.3424940731795
 20
1276.211558346851
 30
0.0
 10
864.4299829223412
 20
1276.13259260579
 30
0.0
 10
864.5701997096279
 20
1276.027930578896
 30
0.0
 10
864.7064251191352
 20
1275.937806822905
 30
0.0
 10
864.7974262784511
 20
1275.88425182916
 30
0.0
 10
864.8465661605259
 20
1275.857507526914
 30
0.0
 10
864.8529413150717
 20
1275.854037859247
 30
0.0
  0
LWPOLYLINE
  5
314
330
1F
100
AcDbEntity
  8
0
  6
Continuous
 62
     7
370
    18
100
AcDbPolyline
 90
        9
 70
   128
 43
0.0
 10
887.2199493455
 20
1273.0504886888
 10
887.0776283549
 20
1273.0504141829
 10
886.9347262191
 20
1273.0503545783
 10
886.7913174437
 20
1273.0502800725
 10
886.6474765347
 20
1273.0502204679
 10
886.5033078002
 20
1273.050145962
 10
886.3589006471
 20
1273.0500863574
 10
886.2142997788
 20
1273.0500118516
 10
886.069639306
 20
1273.0499522469
  0
LWPOLYLINE
  5
315
330
1F
100
AcDbEntity
  8
0
  6
Continuous
 62
     7
370
    18
100
AcDbPolyline
 90
        9
 70
   128
 43
0.0
 10
929.0579992341
 20
1273.0699794076
 10
928.9133238601
 20
1273.0699198029
 10
928.768737893
 20
1273.0698452971
 10
928.6243158387
 20
1273.0697856925
 10
928.4801620053
 20
1273.0697111867
 10
928.3363210963
 20
1273.069651582
 10
928.192912321
 20
1273.0695770762
 10
928.0500101851
 20
1273.0695174716
 10
927.9076742934
 20
1273.0694429658
  0
LWPOLYLINE
  5
316
330
1F
100
AcDbEntity
  8
0
  6
Continuous
 62
     7
370
    18
100
AcDbPolyline
 90
        7
 70
   128
 43
0.0
 10
858.5591602134
 20
1283.0371277116
 10
858.6105021643
 20
1283.0371426127
 10
859.0186747717
 20
1283.0373363278
 10
859.8216312932
 20
1283.0377088569
 10
860.9930562781
 20
1283.0382601998
 10
862.4945345329
 20
1283.0389605544
 10
864.276832621
 20
1283.0397950194
  0
LWPOLYLINE
  5
317
330
1F
100
AcDbEntity
  8
0
  6
Continuous
 62
     7
370
    18
100
AcDbPolyline
 90
        7
 70
   128
 43
0.0
 10
950.8414852427
 20
1283.0801324628
 10
952.6237833308
 20
1283.0809669278
 10
954.125254135
 20
1283.0816672824
 10
955.29667912
 20
1283.0822186254
 10
956.0996430921
 20
1283.0825911544
 10
956.5078156995
 20
1283.0827848695
 10
956.5591501998
 20
1283.0827997706
  0
LINE
  5
318
330
1F
100
AcDbEntity
  8
0
  6
Continuous
 62
     7
370
    18
100
AcDbLine
 10
944.2854213523
 20
1273.0770872615
 30
0.0
 11
929.0579992341
 21
1273.0699794076
 31
0.0
  0
LINE
  5
319
330
1F
100
AcDbEntity
  8
0
  6
Continuous
 62
     7
370
    18
100
AcDbLine
 10
886.069639306
 20
1273.0499522469
 30
0.0
 11
870.8179878997
 21
1273.0428443931
 31
0.0
  0
SPLINE
  5
31A
330
1F
100
AcDbEntity
  8
0
  6
Continuous
 62
     7
370
    18
100
AcDbSpline
210
0.0
220
0.0
230
1.0
 70
     8
 71
     3
 72
    25
 73
    21
 74
     0
 42
0.000000001
 43
0.00000001
 40
0.0
 40
0.0
 40
0.0
 40
0.0
 40
0.0526977914402213
 40
0.1057628385834543
 40
0.1599955325117646
 40
0.2146226382895527
 40
0.2673170405881095
 40
0.3745131843111895
 40
0.4291388876016923
 40
0.4818489490072691
 40
0.5349269402795135
 40
0.5891739996246323
 40
0.6438030255262319
 40
0.6965555595175446
 40
0.7496759872018849
 40
0.8039465848709297
 40
0.8586173554819276
 40
0.9217178931654073
 40
0.9854470076506948
 40
0.9999999999999999
 40
0.9999999999999999
 40
0.9999999999999999
 40
0.9999999999999999
 10
1119.483290891545
 20
1445.87643236737
 30
0.0
 10
1119.510889692161
 20
1445.876822451711
 30
0.0
 10
1119.566279631944
 20
1445.877605338925
 30
0.0
 10
1119.649493621363
 20
1445.883848541269
 30
0.0
 10
1119.732523042196
 20
1445.893901346091
 30
0.0
 10
1119.813570195525
 20
1445.908036026329
 30
0.0
 10
1119.917998972794
 20
1445.931893536503
 30
0.0
 10
1120.016860320278
 20
1445.963221616378
 30
0.0
 10
1120.107575327332
 20
1446.001279962603
 30
0.0
 10
1120.170988663086
 20
1446.032924482623
 30
0.0
 10
1120.229453050913
 20
1446.067387438989
 30
0.0
 10
1120.283338283394
 20
1446.104963514334
 30
0.0
 10
1120.331256987
 20
1446.144979759238
 30
0.0
 10
1120.372871410744
 20
1446.186839382674
 30
0.0
 10
1120.408188745918
 20
1446.230432797038
 30
0.0
 10
1120.437328226396
 20
1446.27610570278
 30
0.0
 10
1120.460910187074
 20
1446.325913555
 30
0.0
 10
1120.47711638626
 20
1446.379563511719
 30
0.0
 10
1120.482712067088
 20
1446.421869003632
 30
0.0
 10
1120.482963123529
 20
1446.445301484237
 30
0.0
 10
1120.48300979604
 20
1446.449657686755
 30
0.0
  0
SPLINE
  5
31B
330
1F
100
AcDbEntity
  8
0
  6
Continuous
 62
     7
370
    18
100
AcDbSpline
210
0.0
220
0.0
230
1.0
 70
     8
 71
     3
 72
    25
 73
    21
 74
     0
 42
0.000000001
 43
0.00000001
 40
0.0
 40
0.0
 40
0.0
 40
0.0
 40
0.0145532512213887
 40
0.0776559732882712
 40
0.1413862801432889
 40
0.2117741807182237
 40
0.2472485776528065
 40
0.2821791941331092
 40
0.3561773626548017
 40
0.4265156165950769
 40
0.4619775397749796
 40
0.4968903796845328
 40
0.5708283628938347
 40
0.6411447607285333
 40
0.6766057805944463
 40
0.7114926504733142
 40
0.7854231360440824
 40
0.8557452295601072
 40
0.9260672672414951
 40
0.9999999999999999
 40
0.9999999999999999
 40
0.9999999999999999
 40
0.9999999999999999
 10
1120.44319389333
 20
1531.868787267015
 30
0.0
 10
1120.443147755101
 20
1531.873143494116
 30
0.0
 10
1120.442901562065
 20
1531.896388269477
 30
0.0
 10
1120.437269157601
 20
1531.938690633637
 30
0.0
 10
1120.419670250586
 20
1531.996969887738
 30
0.0
 10
1120.395255213929
 20
1532.045923754069
 30
0.0
 10
1120.369266973812
 20
1532.085410102581
 30
0.0
 10
1120.338746492881
 20
1532.125000436352
 30
0.0
 10
1120.293516366463
 20
1532.172211811618
 30
0.0
 10
1120.239159068764
 20
1532.216320819218
 30
0.0
 10
1120.191781711387
 20
1532.248643320978
 30
0.0
 10
1120.14011069559
 20
1532.280207491649
 30
0.0
 10
1120.070205385934
 20
1532.316205182324
 30
0.0
 10
1119.993419851743
 20
1532.347522763778
 30
0.0
 10
1119.930056460353
 20
1532.369041455104
 30
0.0
 10
1119.863071733386
 20
1532.389052182659
 30
0.0
 10
1119.776288681524
 20
1532.409785350358
 30
0.0
 10
1119.668167333114
 20
1532.427569745107
 30
0.0
 10
1119.557239799167
 20
1532.438942566854
 30
0.0
 10
1119.481669472516
 20
1532.440356567363
 30
0.0
 10
1119.442938547032
 20
1532.441081263826
 30
0.0
  0
LWPOLYLINE
  5
31C
330
1F
100
AcDbEntity
  8
0
  6
Continuous
 62
     7
370
    18
100
AcDbPolyline
 90
       19
 70
   128
 43
0.0
 10
1120.4431938933
 20
1531.868787267
 10
1120.4451608466
 20
1527.6979596994
 10
1120.4471874045
 20
1523.3280265413
 10
1120.4493033694
 20
1518.7815593265
 10
1120.4515087413
 20
1514.0820497356
 10
1120.4537439155
 20
1509.2537792109
 10
1120.4560386943
 20
1504.3216904334
 10
1120.4583930777
 20
1499.3112653203
 10
1120.4607474612
 20
1494.2483909137
 10
1120.4631018447
 20
1489.1592232263
 10
1120.4654860305
 20
1484.070055437
 10
1120.4678404139
 20
1479.0071805648
 10
1120.4701947974
 20
1473.9967554517
 10
1120.4724895762
 20
1469.0646676056
 10
1120.4747247504
 20
1464.2363952182
 10
1120.4769301223
 20
1459.53688749
 10
1120.4790460872
 20
1454.9904221378
 10
1120.4810726451
 20
1450.6204852543
 10
1120.483009796
 20
1446.4496576868
  0
LINE
  5
31D
330
1F
100
AcDbEntity
  8
0
  6
Continuous
 62
     7
370
    18
100
AcDbLine
 10
1119.442938547
 20
1532.4410812638
 30
0.0
 11
1114.4429433154
 21
1532.4387529574
 31
0.0
  0
LINE
  5
31E
330
1F
100
AcDbEntity
  8
0
  6
Continuous
 62
     7
370
    18
100
AcDbLine
 10
1119.4832908915
 20
1445.8764323674
 30
0.0
 11
1114.4832956599
 21
1445.8741003356
 31
0.0
  0
LWPOLYLINE
  5
31F
330
1F
100
AcDbEntity
  8
0
  6
Continuous
 62
     7
370
    18
100
AcDbPolyline
 90
       19
 70
   128
 43
0.0
 10
1114.4429433154
 20
1532.4387529574
 10
1114.4449102687
 20
1528.2110178552
 10
1114.4469666289
 20
1523.7818339549
 10
1114.4491123961
 20
1519.1740503244
 10
1114.4513475703
 20
1514.4114343158
 10
1114.4536125468
 20
1509.5185504935
 10
1114.4559669303
 20
1504.5206376992
 10
1114.4583213138
 20
1499.4434749417
 10
1114.4607054995
 20
1494.3132505461
 10
1114.4631194877
 20
1489.1564265592
 10
1114.4655334758
 20
1483.9996027469
 10
1114.4679176616
 20
1478.8693783514
 10
1114.470272045
 20
1473.7922155939
 10
1114.4725966262
 20
1468.7943027995
 10
1114.474891405
 20
1463.9014189772
 10
1114.4770967769
 20
1459.1388029687
 10
1114.4792425441
 20
1454.5310193382
 10
1114.4813287066
 20
1450.1018354378
 10
1114.4832956599
 20
1445.8741003356
  0
LWPOLYLINE
  5
320
330
1F
100
AcDbEntity
  8
0
  6
Continuous
 62
     7
370
    18
100
AcDbPolyline
 90
        7
 70
   128
 43
0.0
 10
1114.4402909087
 20
1538.1564216397
 10
1114.4402909087
 20
1538.1050834141
 10
1114.440499525
 20
1537.6969108067
 10
1114.4408571528
 20
1536.8939505599
 10
1114.441423397
 20
1535.722525575
 10
1114.4421088504
 20
1534.2210473202
 10
1114.4429433154
 20
1532.4387529574
  0
LWPOLYLINE
  5
321
330
1F
100
AcDbEntity
  8
0
  6
Continuous
 62
     7
370
    18
100
AcDbPolyline
 90
        7
 70
   128
 43
0.0
 10
1114.4832956599
 20
1445.8741003356
 10
1114.4841301249
 20
1444.0918022476
 10
1114.4848155784
 20
1442.5903277181
 10
1114.4853520202
 20
1441.4189027331
 10
1114.4857394504
 20
1440.6159424863
 10
1114.4859182643
 20
1440.2077698789
 10
1114.4859480666
 20
1440.1564316533
  0
SPLINE
  5
322
330
1F
100
AcDbEntity
  8
0
  6
Continuous
 62
     7
370
    18
100
AcDbSpline
210
0.0
220
0.0
230
1.0
 70
     8
 71
     3
 72
    25
 73
    21
 74
     0
 42
0.000000001
 43
0.00000001
 40
0.0
 40
0.0
 40
0.0
 40
0.0
 40
0.0527071610136779
 40
0.1057719643196872
 40
0.1599948744009333
 40
0.2146129669008479
 40
0.2673167989767205
 40
0.3745146897091599
 40
0.4291328802524824
 40
0.4818507353048883
 40
0.5349389673915904
 40
0.5891751776792421
 40
0.6438088665489654
 40
0.6965544381482698
 40
0.7496747002053987
 40
0.803945575731319
 40
0.8586125050142508
 40
0.9217174202093918
 40
0.9854487143164373
 40
1.0
 40
1.0
 40
1.0
 40
1.0
 10
951.4719384716916
 20
1701.080472924516
 30
0.0
 10
951.4714914689426
 20
1701.108076690721
 30
0.0
 10
951.4705944303255
 20
1701.163471527361
 30
0.0
 10
951.4635182379656
 20
1701.246685534844
 30
0.0
 10
951.4520955651741
 20
1701.329706036155
 30
0.0
 10
951.4360434522355
 20
1701.410745623355
 30
0.0
 10
951.4089358235098
 20
1701.515178224868
 30
0.0
 10
951.3733483137811
 20
1701.614042483212
 30
0.0
 10
951.3300895869012
 20
1701.704745937012
 30
0.0
 10
951.2941318399895
 20
1701.768170843664
 30
0.0
 10
951.254975735798
 20
1701.82665095059
 30
0.0
 10
951.2122514308211
 20
1701.880499956581
 30
0.0
 10
951.1667889834282
 20
1701.928438226002
 30
0.0
 10
951.1192209508462
 20
1701.970059560431
 30
0.0
 10
951.0696737994173
 20
1702.005355270453
 30
0.0
 10
951.0177523415771
 20
1702.03447713386
 30
0.0
 10
950.9611526988018
 20
1702.058057701084
 30
0.0
 10
950.9001574442809
 20
1702.074302563952
 30
0.0
 10
950.8520694872635
 20
1702.079842922509
 30
0.0
 10
950.82542695931
 20
1702.080124574034
 30
0.0
 10
950.8204746054578
 20
1702.08017692785
 30
0.0
  0
SPLINE
  5
323
330
1F
100
AcDbEntity
  8
0
  6
Continuous
 62
     7
370
    18
100
AcDbSpline
210
0.0
220
0.0
230
1.0
 70
     8
 71
     3
 72
    25
 73
    21
 74
     0
 42
0.000000001
 43
0.00000001
 40
0.0
 40
0.0
 40
0.0
 40
0.0
 40
0.0145565167896541
 40
0.0776563852553182
 40
0.1413892313769449
 40
0.2117719130866783
 40
0.2472510348685461
 40
0.2821833223377732
 40
0.3561806824130493
 40
0.4265192918907809
 40
0.4619779267142532
 40
0.4968853507891765
 40
0.5708400728944734
 40
0.6411571948495096
 40
0.6766030800931581
 40
0.7114974306717673
 40
0.7854297072454898
 40
0.855753341899453
 40
0.9260666892624186
 40
1.0
 40
1.0
 40
1.0
 40
1.0
 10
865.8188122319151
 20
1702.040554740236
 30
0.0
 10
865.815091603343
 20
1702.040497329005
 30
0.0
 10
865.7952427226007
 20
1702.040191050471
 30
0.0
 10
865.7591512654661
 20
1702.034659566632
 30
0.0
 10
865.7094119869429
 20
1702.017017003862
 30
0.0
 10
865.6676130751914
 20
1701.992639092216
 30
0.0
 10
865.6339259288904
 20
1701.966628937793
 30
0.0
 10
865.600131052615
 20
1701.936081910994
 30
0.0
 10
865.5598307172271
 20
1701.890887685483
 30
0.0
 10
865.5221770816921
 20
1701.836513139936
 30
0.0
 10
865.4945957590712
 20
1701.789158822818
 30
0.0
 10
865.4676355656187
 20
1701.737499622712
 30
0.0
 10
865.4369193863574
 20
1701.667569689041
 30
0.0
 10
865.4101899603172
 20
1701.590780541984
 30
0.0
 10
865.3918133358005
 20
1701.527441120787
 30
0.0
 10
865.3747392621777
 20
1701.460444443062
 30
0.0
 10
865.357042703307
 20
1701.37366655075
 30
0.0
 10
865.3418597300009
 20
1701.265547949149
 30
0.0
 10
865.3321585423569
 20
1701.154625879119
 30
0.0
 10
865.3309544313142
 20
1701.079060213663
 30
0.0
 10
865.3303372668196
 20
1701.04032919626
 30
0.0
  0
LWPOLYLINE
  5
324
330
1F
100
AcDbEntity
  8
0
  6
Continuous
 62
     7
370
    18
100
AcDbPolyline
 90
       18
 70
   128
 43
0.0
 10
865.8188122319
 20
1702.0405547402
 10
870.2577638434
 20
1702.0426260016
 10
874.8645323323
 20
1702.0447717689
 10
879.615305643
 20
1702.0469920419
 10
884.4855415629
 20
1702.0492570184
 10
889.4500869321
 20
1702.0515666984
 10
894.4832670497
 20
1702.0539210818
 10
899.5590942906
 20
1702.0562754653
 10
904.6513575124
 20
1702.0586596511
 10
909.7337263631
 20
1702.0610289357
 10
914.7799449967
 20
1702.063368418
 10
919.7639512824
 20
1702.0656929992
 10
924.6599960135
 20
1702.067987778
 10
929.4427770184
 20
1702.070208051
 10
934.087603073
 20
1702.0723687194
 10
938.5704386043
 20
1702.0744697831
 10
942.8681719111
 20
1702.0764665387
 10
945.4975265073
 20
1702.0776884339
  0
LINE
  5
325
330
1F
100
AcDbEntity
  8
0
  6
Continuous
 62
     7
370
    18
100
AcDbLine
 10
865.3303372668
 20
1701.0403291963
 30
0.0
 11
865.3326692985
 21
1696.0403339646
 31
0.0
  0
LINE
  5
326
330
1F
100
AcDbEntity
  8
0
  6
Continuous
 62
     7
370
    18
100
AcDbLine
 10
951.4719384717
 20
1701.0804729245
 30
0.0
 11
951.4742630528
 21
1696.0804776929
 31
0.0
  0
LWPOLYLINE
  5
327
330
1F
100
AcDbEntity
  8
0
  6
Continuous
 62
     7
370
    18
100
AcDbPolyline
 90
       19
 70
   128
 43
0.0
 10
865.3326692985
 20
1696.0403339646
 10
869.8318886565
 20
1696.0424201272
 10
874.5008545922
 20
1696.0445956967
 10
879.3154942798
 20
1696.0468457721
 10
884.2509525823
 20
1696.0491405509
 10
889.2817783164
 20
1696.0514949344
 10
894.3820285605
 20
1696.053864219
 10
899.525387864
 20
1696.0562633059
 10
904.6853470611
 20
1696.0586623929
 10
909.8352628755
 20
1696.061076381
 10
914.948581438
 20
1696.0634605668
 10
919.9989425944
 20
1696.0658000491
 10
924.9602693128
 20
1696.0681246303
 10
929.8069912003
 20
1696.0703747056
 10
934.5141041087
 20
1696.0725800775
 10
939.0573340463
 20
1696.0746960423
 10
943.4132265853
 20
1696.0767226003
 10
947.559340577
 20
1696.0786597512
 10
951.4742630528
 20
1696.0804776929
  0
LWPOLYLINE
  5
328
330
1F
100
AcDbEntity
  8
0
  6
Continuous
 62
     7
370
    18
100
AcDbPolyline
 90
        6
 70
   128
 43
0.0
 10
859.9933820771
 20
1702.0378427289
 10
860.3277417826
 20
1702.0379917405
 10
861.2601223396
 20
1702.0384238742
 10
862.515247147
 20
1702.0390199206
 10
864.0517058777
 20
1702.0397351764
 10
865.8188122319
 20
1702.0405547402
  0
LWPOLYLINE
  5
329
330
1F
100
AcDbEntity
  8
0
  6
Continuous
 62
     7
370
    18
100
AcDbPolyline
 90
        8
 70
   128
 43
0.0
 10
858.5450413631
 20
1696.0371600173
 10
858.5454660462
 20
1696.0371600173
 10
858.768968563
 20
1696.0372643254
 10
859.3949812459
 20
1696.0375623486
 10
860.402985196
 20
1696.0380242846
 10
861.7599296378
 20
1696.0386650346
 10
863.4213122534
 20
1696.039439895
 10
865.3326692985
 20
1696.0403339646
  0
LWPOLYLINE
  5
32A
330
1F
100
AcDbEntity
  8
0
  6
Continuous
 62
     7
370
    18
100
AcDbPolyline
 90
        6
 70
   128
 43
0.0
 10
951.4742630528
 20
1696.0804776929
 10
953.1100827264
 20
1696.0812376521
 10
954.436971526
 20
1696.0818635009
 10
955.4114329623
 20
1696.0823105357
 10
956.0015040444
 20
1696.0825936578
 10
956.1882602977
 20
1696.0826681636
  0
LINE
  5
32B
330
1F
100
AcDbEntity
  8
0
  6
Continuous
 62
     7
370
    18
100
AcDbLine
 10
1065.5190038489
 20
1328.2205031894
 30
0.0
 11
1065.5190038489
 21
1320.7149522088
 31
0.0
  0
LINE
  5
32C
330
1F
100
AcDbEntity
  8
0
  6
Continuous
 62
     7
370
    18
100
AcDbLine
 10
1072.019009571
 20
1331.9732712291
 30
0.0
 11
1065.5190038489
 21
1328.2205031894
 31
0.0
  0
LINE
  5
32D
330
1F
100
AcDbEntity
  8
0
  6
Continuous
 62
     7
370
    18
100
AcDbLine
 10
1078.519015293
 20
1328.2205031894
 30
0.0
 11
1072.019009571
 21
1331.9732712291
 31
0.0
  0
LINE
  5
32E
330
1F
100
AcDbEntity
  8
0
  6
Continuous
 62
     7
370
    18
100
AcDbLine
 10
1078.519015293
 20
1320.7149522088
 30
0.0
 11
1078.519015293
 21
1328.2205031894
 31
0.0
  0
LINE
  5
32F
330
1F
100
AcDbEntity
  8
0
  6
Continuous
 62
     7
370
    18
100
AcDbLine
 10
1072.019009571
 20
1316.9621692679
 30
0.0
 11
1078.519015293
 21
1320.7149522088
 31
0.0
  0
LINE
  5
330
330
1F
100
AcDbEntity
  8
0
  6
Continuous
 62
     7
370
    18
100
AcDbLine
 10
1065.5190038489
 20
1320.7149522088
 30
0.0
 11
1072.019009571
 21
1316.9621692679
 31
0.0
  0
CIRCLE
  5
331
330
1F
100
AcDbEntity
  8
0
  6
Continuous
 62
     7
370
    18
100
AcDbCircle
 10
1072.0068860664
 20
1324.5161936457
 30
0.0
 40
8.000000000000227
  0
LINE
  5
332
330
1F
100
AcDbEntity
  8
0
  6
Continuous
 62
     7
370
    18
100
AcDbLine
 10
736.4315071138
 20
1657.3079989932
 30
0.0
 11
736.4315071138
 21
1649.8024480126
 31
0.0
  0
LINE
  5
333
330
1F
100
AcDbEntity
  8
0
  6
Continuous
 62
     7
370
    18
100
AcDbLine
 10
749.431507382
 20
1657.3079989932
 30
0.0
 11
742.9315072479
 21
1661.0607670329
 31
0.0
  0
LINE
  5
334
330
1F
100
AcDbEntity
  8
0
  6
Continuous
 62
     7
370
    18
100
AcDbLine
 10
749.431507382
 20
1649.8024480126
 30
0.0
 11
749.431507382
 21
1657.3079989932
 31
0.0
  0
LINE
  5
335
330
1F
100
AcDbEntity
  8
0
  6
Continuous
 62
     7
370
    18
100
AcDbLine
 10
742.9315072479
 20
1646.0496650718
 30
0.0
 11
749.431507382
 21
1649.8024480126
 31
0.0
  0
LINE
  5
336
330
1F
100
AcDbEntity
  8
0
  6
Continuous
 62
     7
370
    18
100
AcDbLine
 10
736.4315071138
 20
1649.8024480126
 30
0.0
 11
742.9315072479
 21
1646.0496650718
 31
0.0
  0
LINE
  5
337
330
1F
100
AcDbEntity
  8
0
  6
Continuous
 62
     7
370
    18
100
AcDbLine
 10
742.9315072479
 20
1661.0607670329
 30
0.0
 11
736.4315071138
 21
1657.3079989932
 31
0.0
  0
CIRCLE
  5
338
330
1F
100
AcDbEntity
  8
0
  6
Continuous
 62
     7
370
    18
100
AcDbCircle
 10
742.9193901022
 20
1653.6036896099
 30
0.0
 40
8.0
  0
LINE
  5
339
330
1F
100
AcDbEntity
  8
0
  6
Continuous
 62
     7
370
    18
100
AcDbLine
 10
1065.5190038489
 20
1657.3079989932
 30
0.0
 11
1065.5190038489
 21
1649.8024480126
 31
0.0
  0
LINE
  5
33A
330
1F
100
AcDbEntity
  8
0
  6
Continuous
 62
     7
370
    18
100
AcDbLine
 10
1072.019009571
 20
1661.0607670329
 30
0.0
 11
1065.5190038489
 21
1657.3079989932
 31
0.0
  0
LINE
  5
33B
330
1F
100
AcDbEntity
  8
0
  6
Continuous
 62
     7
370
    18
100
AcDbLine
 10
1078.519015293
 20
1649.8024480126
 30
0.0
 11
1078.519015293
 21
1657.3079989932
 31
0.0
  0
LINE
  5
33C
330
1F
100
AcDbEntity
  8
0
  6
Continuous
 62
     7
370
    18
100
AcDbLine
 10
1072.019009571
 20
1646.0496650718
 30
0.0
 11
1078.519015293
 21
1649.8024480126
 31
0.0
  0
LINE
  5
33D
330
1F
100
AcDbEntity
  8
0
  6
Continuous
 62
     7
370
    18
100
AcDbLine
 10
1065.5190038489
 20
1649.8024480126
 30
0.0
 11
1072.019009571
 21
1646.0496650718
 31
0.0
  0
LINE
  5
33E
330
1F
100
AcDbEntity
  8
0
  6
Continuous
 62
     7
370
    18
100
AcDbLine
 10
1078.519015293
 20
1657.3079989932
 30
0.0
 11
1072.019009571
 21
1661.0607670329
 31
0.0
  0
CIRCLE
  5
33F
330
1F
100
AcDbEntity
  8
0
  6
Continuous
 62
     7
370
    18
100
AcDbCircle
 10
1072.0068860664
 20
1653.6036896099
 30
0.0
 40
8.0
  0
LINE
  5
340
330
1F
100
AcDbEntity
  8
0
  6
Continuous
 62
     7
370
    18
100
AcDbLine
 10
736.4315071138
 20
1328.2205031894
 30
0.0
 11
736.4315071138
 21
1320.7149522088
 31
0.0
  0
LINE
  5
341
330
1F
100
AcDbEntity
  8
0
  6
Continuous
 62
     7
370
    18
100
AcDbLine
 10
742.9315072479
 20
1331.9732712291
 30
0.0
 11
736.4315071138
 21
1328.2205031894
 31
0.0
  0
LINE
  5
342
330
1F
100
AcDbEntity
  8
0
  6
Continuous
 62
     7
370
    18
100
AcDbLine
 10
749.431507382
 20
1328.2205031894
 30
0.0
 11
742.9315072479
 21
1331.9732712291
 31
0.0
  0
LINE
  5
343
330
1F
100
AcDbEntity
  8
0
  6
Continuous
 62
     7
370
    18
100
AcDbLine
 10
749.431507382
 20
1320.7149522088
 30
0.0
 11
749.431507382
 21
1328.2205031894
 31
0.0
  0
LINE
  5
344
330
1F
100
AcDbEntity
  8
0
  6
Continuous
 62
     7
370
    18
100
AcDbLine
 10
742.9315072479
 20
1316.9621692679
 30
0.0
 11
749.431507382
 21
1320.7149522088
 31
0.0
  0
LINE
  5
345
330
1F
100
AcDbEntity
  8
0
  6
Continuous
 62
     7
370
    18
100
AcDbLine
 10
736.4315071138
 20
1320.7149522088
 30
0.0
 11
742.9315072479
 21
1316.9621692679
 31
0.0
  0
CIRCLE
  5
346
330
1F
100
AcDbEntity
  8
0
  6
Continuous
 62
     7
370
    18
100
AcDbCircle
 10
742.9193901022
 20
1324.5161936457
 30
0.0
 40
8.0
  0
LINE
  5
347
330
1F
100
AcDbEntity
  8
0
  6
Continuous
 62
     7
370
    18
100
AcDbLine
 10
843.1873607444
 20
1288.981036999
 30
0.0
 11
827.9946434306
 21
1294.5027218841
 31
0.0
  0
LINE
  5
348
330
1F
100
AcDbEntity
  8
0
  6
Continuous
 62
     7
370
    18
100
AcDbLine
 10
836.3650503563
 20
1270.1806144498
 30
0.0
 11
821.1723330425
 21
1275.7022844336
 31
0.0
  0
LWPOLYLINE
  5
349
330
1F
100
AcDbEntity
  8
0
  6
Continuous
 62
     7
370
    18
100
AcDbPolyline
 90
        9
 70
   128
 43
0.0
 10
843.1873607444
 20
1288.981036999
 10
843.3101090597
 20
1288.9364229224
 10
843.4309202241
 20
1288.8925241015
 10
843.5477229761
 20
1288.8500706933
 10
843.6585131096
 20
1288.8098077558
 10
843.7614056276
 20
1288.7724058412
 10
843.8546347426
 20
1288.7385206006
 10
843.9366060304
 20
1288.7087331794
 10
844.0059187817
 20
1288.6835353158
  0
LWPOLYLINE
  5
34A
330
1F
100
AcDbEntity
  8
0
  6
Continuous
 62
     7
370
    18
100
AcDbPolyline
 90
        9
 70
   128
 43
0.0
 10
827.1854135202
 20
1294.7968261025
 10
827.2526997136
 20
1294.772373297
 10
827.3328307079
 20
1294.7432415269
 10
827.4244579481
 20
1294.7099523328
 10
827.5259944605
 20
1294.6730421565
 10
827.6357042598
 20
1294.6331666491
 10
827.7517247008
 20
1294.5910112641
 10
827.872059028
 20
1294.547276356
 10
827.9946434306
 20
1294.5027218841
  0
LINE
  5
34B
330
1F
100
AcDbEntity
  8
0
  6
Continuous
 62
     7
370
    18
100
AcDbLine
 10
844.0919729875
 20
1267.3723118089
 30
0.0
 11
836.3650503563
 21
1270.1806144498
 31
0.0
  0
LINE
  5
34C
330
1F
100
AcDbEntity
  8
0
  6
Continuous
 62
     7
370
    18
100
AcDbLine
 10
851.7328488635
 20
1285.875247576
 30
0.0
 11
844.0059187817
 21
1288.6835353158
 31
0.0
  0
LINE
  5
34D
330
1F
100
AcDbEntity
  8
0
  6
Continuous
 62
     7
370
    18
100
AcDbLine
 10
827.1854135202
 20
1294.7968261025
 30
0.0
 11
819.7196188377
 21
1297.5102083467
 31
0.0
  0
LINE
  5
34E
330
1F
100
AcDbEntity
  8
0
  6
Continuous
 62
     7
370
    18
100
AcDbLine
 10
821.1723330425
 20
1275.7022844336
 30
0.0
 11
820.2103885817
 21
1276.0518954776
 31
0.0
  0
LINE
  5
34F
330
1F
100
AcDbEntity
  8
0
  6
Continuous
 62
     7
370
    18
100
AcDbLine
 10
820.7883077668
 20
1281.1618463777
 30
0.0
 11
817.3000353383
 21
1282.429637172
 31
0.0
  0
ELLIPSE
  5
350
330
1F
100
AcDbEntity
  8
0
  6
Continuous
 62
     7
370
    18
100
AcDbEllipse
 10
819.3553626585
 20
1280.6186407604
 30
0.0
 11
0.3415821053092714
 21
0.939851937984031
 31
0.0
210
0.0
220
0.0
230
1.0
 40
0.7247506473
 41
0.0
 42
1.570796326794878
  0
LINE
  5
351
330
1F
100
AcDbEntity
  8
0
  6
Continuous
 62
     7
370
    18
100
AcDbLine
 10
818.6742055224
 20
1280.8662073396
 30
0.0
 11
817.6494601177
 21
1278.0466394208
 31
0.0
  0
LINE
  5
352
330
1F
100
AcDbEntity
  8
0
  6
Continuous
 62
     7
370
    18
100
AcDbLine
 10
816.6267189192
 20
1277.354361274
 30
0.0
 11
814.6684753703
 21
1278.066070535
 31
0.0
  0
ELLIPSE
  5
353
330
1F
100
AcDbEntity
  8
0
  6
Continuous
 62
     7
370
    18
100
AcDbEllipse
 10
816.9682997417
 20
1278.2942086503
 30
0.0
 11
0.341582105309385
 21
0.9398519379842583
 31
0.0
210
0.0
220
0.0
230
1.0
 40
0.7247506473
 41
3.14159265359
 42
4.712388980384741
  0
LINE
  5
354
330
1F
100
AcDbEntity
  8
0
  6
Continuous
 62
     7
370
    18
100
AcDbLine
 10
814.6684753703
 20
1278.066070535
 30
0.0
 11
813.70653836
 21
1278.4156815789
 31
0.0
  0
LINE
  5
355
330
1F
100
AcDbEntity
  8
0
  6
Continuous
 62
     7
370
    18
100
AcDbLine
 10
820.2103885817
 20
1276.0518954776
 30
0.0
 11
816.6267189192
 21
1277.354361274
 31
0.0
  0
LWPOLYLINE
  5
356
330
1F
100
AcDbEntity
  8
0
  6
Continuous
 62
     7
370
    18
100
AcDbPolyline
 90
        6
 70
   128
 43
0.0
 10
851.7328488635
 20
1285.875247576
 10
851.7883109855
 20
1285.8550863049
 10
851.8289837049
 20
1285.840304353
 10
851.8541592168
 20
1285.8311550401
 10
851.8634202885
 20
1285.8277873776
 10
851.8634649919
 20
1285.8277724765
  0
ARC
  5
357
330
1F
100
AcDbEntity
  8
0
  6
Continuous
 62
     7
370
    18
100
AcDbCircle
 10
792.8187065395
 20
1223.6965825573
 30
0.0
 40
78.5627802120515
100
AcDbArc
 50
69.9760484198
 51
70.0701725163
  0
LWPOLYLINE
  5
358
330
1F
100
AcDbEntity
  8
0
  6
Continuous
 62
     7
370
    18
100
AcDbPolyline
 90
        9
 70
   128
 43
0.0
 10
1041.813431959
 20
1644.6234302304
 10
1041.1236870097
 20
1645.3131751798
 10
1040.460436325
 20
1645.9764258645
 10
1039.8491906928
 20
1646.5876714967
 10
1039.3134343432
 20
1647.1234278462
 10
1038.8737308787
 20
1647.5631164096
 10
1038.5470080184
 20
1647.8898392699
 10
1038.34581254
 20
1648.0910347484
 10
1038.2778930472
 20
1648.1589691422
  0
LINE
  5
359
330
1F
100
AcDbEntity
  8
0
  6
Continuous
 62
     7
370
    18
100
AcDbLine
 10
1038.2778930472
 20
1648.1589691422
 30
0.0
 11
1040.5406343745
 21
1650.4217104695
 31
0.0
  0
LWPOLYLINE
  5
35A
330
1F
100
AcDbEntity
  8
0
  6
Continuous
 62
     7
370
    18
100
AcDbPolyline
 90
        9
 70
   128
 43
0.0
 10
1044.0761732863
 20
1646.8861715577
 10
1043.386428337
 20
1647.5759165071
 10
1042.7231776523
 20
1648.2391671918
 10
1042.1119320201
 20
1648.850412824
 10
1041.5761756705
 20
1649.3861691735
 10
1041.136472206
 20
1649.8258577369
 10
1040.8097493457
 20
1650.1525805972
 10
1040.6085538672
 20
1650.3537760756
 10
1040.5406343745
 20
1650.4217104695
  0
LINE
  5
35B
330
1F
100
AcDbEntity
  8
0
  6
Continuous
 62
     7
370
    18
100
AcDbLine
 10
1063.0266356276
 20
1623.4102265618
 30
0.0
 11
1041.813431959
 21
1644.6234302304
 31
0.0
  0
LINE
  5
35C
330
1F
100
AcDbEntity
  8
0
  6
Continuous
 62
     7
370
    18
100
AcDbLine
 10
1065.2893769549
 20
1625.6729678891
 30
0.0
 11
1044.0761732863
 21
1646.8861715577
 31
0.0
  0
LINE
  5
35D
330
1F
100
AcDbEntity
  8
0
  6
Continuous
 62
     7
370
    18
100
AcDbLine
 10
1066.5621745395
 20
1619.8747025512
 30
0.0
 11
1068.8249158667
 21
1622.1374438785
 31
0.0
  0
LWPOLYLINE
  5
35E
330
1F
100
AcDbEntity
  8
0
  6
Continuous
 62
     7
370
    18
100
AcDbPolyline
 90
        9
 70
   128
 43
0.0
 10
1066.5621745395
 20
1619.8747025512
 10
1066.4942252444
 20
1619.9426369451
 10
1066.293029766
 20
1620.1438175223
 10
1065.9663069056
 20
1620.4705403827
 10
1065.5266332435
 20
1620.910228946
 10
1064.9908768939
 20
1621.4459852956
 10
1064.3796312617
 20
1622.0572458289
 10
1063.716380577
 20
1622.7204816125
 10
1063.0266356276
 20
1623.4102265618
  0
LWPOLYLINE
  5
35F
330
1F
100
AcDbEntity
  8
0
  6
Continuous
 62
     7
370
    18
100
AcDbPolyline
 90
        9
 70
   128
 43
0.0
 10
1068.8249158667
 20
1622.1374438785
 10
1068.7569665717
 20
1622.2053782723
 10
1068.5557710933
 20
1622.4065588496
 10
1068.2290482329
 20
1622.73328171
 10
1067.7893745707
 20
1623.1729702733
 10
1067.2536182212
 20
1623.708741524
 10
1066.642372589
 20
1624.3199871562
 10
1065.9791219043
 20
1624.9832229398
 10
1065.2893769549
 20
1625.6729678891
  0
LINE
  5
360
330
1F
100
AcDbEntity
  8
0
  6
Continuous
 62
     7
370
    18
100
AcDbLine
 10
1056.4505445765
 20
1634.5118002675
 30
0.0
 11
1061.9659709739
 21
1640.027241566
 31
0.0
  0
LINE
  5
361
330
1F
100
AcDbEntity
  8
0
  6
Continuous
 62
     7
370
    18
100
AcDbLine
 10
1058.430432062
 20
1643.5627804778
 30
0.0
 11
1061.9659709739
 21
1640.027241566
 31
0.0
  0
LINE
  5
362
330
1F
100
AcDbEntity
  8
0
  6
Continuous
 62
     7
370
    18
100
AcDbLine
 10
1052.9150056647
 20
1638.0473391793
 30
0.0
 11
1058.430432062
 21
1643.5627804778
 31
0.0
  0
LWPOLYLINE
  5
363
330
1F
100
AcDbEntity
  8
0
  6
Continuous
 62
     7
370
    18
100
AcDbPolyline
 90
        9
 70
   128
 43
0.0
 10
1040.5406343745
 20
1650.4217104695
 10
1040.5896591948
 20
1650.4542099021
 10
1040.7348561095
 20
1650.5504565022
 10
1040.9706222819
 20
1650.706754782
 10
1041.2878978061
 20
1650.9170846723
 10
1041.6745233344
 20
1651.1733846448
 10
1042.1155977057
 20
1651.4657901309
 10
1042.5942230033
 20
1651.783065655
 10
1043.0919515895
 20
1652.1130369685
  0
LWPOLYLINE
  5
364
330
1F
100
AcDbEntity
  8
0
  6
Continuous
 62
     7
370
    18
100
AcDbPolyline
 90
       10
 70
   128
 43
0.0
 10
1070.5162274646
 20
1624.6887610934
 10
1070.2225255774
 20
1624.2457197688
 10
1069.937764387
 20
1623.8161490939
 10
1069.6705567645
 20
1623.4131024859
 10
1069.4290685462
 20
1623.0487988971
 10
1069.2206013011
 20
1622.7343396924
 10
1069.0515029239
 20
1622.4792467139
 10
1068.926899414
 20
1622.2912983678
 10
1068.8506054686
 20
1622.1762017987
 10
1068.8249158667
 20
1622.1374438785
  0
ARC
  5
365
330
1F
100
AcDbEntity
  8
0
  6
Continuous
 62
     7
370
    18
100
AcDbCircle
 10
1071.3621273136
 20
1664.8550500805
 30
0.0
 40
5.000000000000201
100
AcDbArc
 50
45.0
 51
123.5412476541
  0
LINE
  5
366
330
1F
100
AcDbEntity
  8
0
  6
Continuous
 62
     7
370
    18
100
AcDbLine
 10
1086.7937791156
 20
1656.4944700978
 30
0.0
 11
1074.897675495
 21
1668.3905886195
 31
0.0
  0
ARC
  5
367
330
1F
100
AcDbEntity
  8
0
  6
Continuous
 62
     7
370
    18
100
AcDbCircle
 10
1083.258246537
 20
1652.9589308571
 30
0.0
 40
4.99999999999997
100
AcDbArc
 50
326.4587523459
 51
45.0
  0
LINE
  5
368
330
1F
100
AcDbEntity
  8
0
  6
Continuous
 62
     7
370
    18
100
AcDbLine
 10
1070.5162274646
 20
1624.6887610934
 30
0.0
 11
1087.4256777572
 21
1650.1962409995
 31
0.0
  0
LINE
  5
369
330
1F
100
AcDbEntity
  8
0
  6
Continuous
 62
     7
370
    18
100
AcDbLine
 10
1068.5994314956
 20
1669.0224872611
 30
0.0
 11
1043.0919515895
 21
1652.1130369685
 31
0.0
  0
LINE
  5
36A
330
1F
100
AcDbEntity
  8
0
  6
Continuous
 62
     7
370
    18
100
AcDbLine
 10
1066.5621745395
 20
1358.2451807044
 30
0.0
 11
1068.8249158667
 21
1355.9824393771
 31
0.0
  0
LWPOLYLINE
  5
36B
330
1F
100
AcDbEntity
  8
0
  6
Continuous
 62
     7
370
    18
100
AcDbPolyline
 90
        9
 70
   128
 43
0.0
 10
1065.2893769549
 20
1352.4469153665
 10
1065.9791219043
 20
1353.1366603158
 10
1066.642372589
 20
1353.7998960994
 10
1067.2536182212
 20
1354.4111417315
 10
1067.7893745707
 20
1354.9469129823
 10
1068.2290482329
 20
1355.3866015456
 10
1068.5557710933
 20
1355.713324406
 10
1068.7569665717
 20
1355.9145049832
 10
1068.8249158667
 20
1355.9824393771
  0
LWPOLYLINE
  5
36C
330
1F
100
AcDbEntity
  8
0
  6
Continuous
 62
     7
370
    18
100
AcDbPolyline
 90
        9
 70
   128
 43
0.0
 10
1063.0266356276
 20
1354.7096566937
 10
1063.716380577
 20
1355.3994016431
 10
1064.3796312617
 20
1356.0626374267
 10
1064.9908768939
 20
1356.67389796
 10
1065.5266332435
 20
1357.2096543096
 10
1065.9663069056
 20
1357.6493428729
 10
1066.293029766
 20
1357.9760657332
 10
1066.4942252444
 20
1358.1772463105
 10
1066.5621745395
 20
1358.2451807044
  0
LINE
  5
36D
330
1F
100
AcDbEntity
  8
0
  6
Continuous
 62
     7
370
    18
100
AcDbLine
 10
1044.0761732863
 20
1331.2337116979
 30
0.0
 11
1065.2893769549
 21
1352.4469153665
 31
0.0
  0
LINE
  5
36E
330
1F
100
AcDbEntity
  8
0
  6
Continuous
 62
     7
370
    18
100
AcDbLine
 10
1041.813431959
 20
1333.4964530251
 30
0.0
 11
1063.0266356276
 21
1354.7096566937
 31
0.0
  0
LINE
  5
36F
330
1F
100
AcDbEntity
  8
0
  6
Continuous
 62
     7
370
    18
100
AcDbLine
 10
1038.2778930472
 20
1329.9609141133
 30
0.0
 11
1040.5406343745
 21
1327.698172786
 31
0.0
  0
LWPOLYLINE
  5
370
330
1F
100
AcDbEntity
  8
0
  6
Continuous
 62
     7
370
    18
100
AcDbPolyline
 90
        9
 70
   128
 43
0.0
 10
1040.5406343745
 20
1327.698172786
 10
1040.6085538672
 20
1327.7661071799
 10
1040.8097493457
 20
1327.9673026584
 10
1041.136472206
 20
1328.2940255187
 10
1041.5761756705
 20
1328.733714082
 10
1042.1119320201
 20
1329.2694704316
 10
1042.7231776523
 20
1329.8807160638
 10
1043.386428337
 20
1330.5439667485
 10
1044.0761732863
 20
1331.2337116979
  0
LWPOLYLINE
  5
371
330
1F
100
AcDbEntity
  8
0
  6
Continuous
 62
     7
370
    18
100
AcDbPolyline
 90
        9
 70
   128
 43
0.0
 10
1038.2778930472
 20
1329.9609141133
 10
1038.34581254
 20
1330.0288485072
 10
1038.5470080184
 20
1330.2300439857
 10
1038.8737308787
 20
1330.556766846
 10
1039.3134343432
 20
1330.9964554093
 10
1039.8491906928
 20
1331.5322117589
 10
1040.460436325
 20
1332.1434573911
 10
1041.1236870097
 20
1332.8067080758
 10
1041.813431959
 20
1333.4964530251
  0
LINE
  5
372
330
1F
100
AcDbEntity
  8
0
  6
Continuous
 62
     7
370
    18
100
AcDbLine
 10
1052.9150056647
 20
1340.0725440762
 30
0.0
 11
1058.430432062
 21
1334.5571027778
 31
0.0
  0
LINE
  5
373
330
1F
100
AcDbEntity
  8
0
  6
Continuous
 62
     7
370
    18
100
AcDbLine
 10
1056.4505445765
 20
1343.6080829881
 30
0.0
 11
1061.9659709739
 21
1338.0926416896
 31
0.0
  0
LINE
  5
374
330
1F
100
AcDbEntity
  8
0
  6
Continuous
 62
     7
370
    18
100
AcDbLine
 10
1061.9659709739
 20
1338.0926416896
 30
0.0
 11
1058.430432062
 21
1334.5571027778
 31
0.0
  0
LWPOLYLINE
  5
375
330
1F
100
AcDbEntity
  8
0
  6
Continuous
 62
     7
370
    18
100
AcDbPolyline
 90
        9
 70
   128
 43
0.0
 10
1068.8249158667
 20
1355.9824393771
 10
1068.8574003982
 20
1355.9334294579
 10
1068.9536618995
 20
1355.7882325433
 10
1069.1099452781
 20
1355.5524663709
 10
1069.3202900695
 20
1355.2351759456
 10
1069.576590042
 20
1354.8485653184
 10
1069.868980627
 20
1354.4074760459
 10
1070.1862561511
 20
1353.9288656495
 10
1070.5162274646
 20
1353.4311221621
  0
LWPOLYLINE
  5
376
330
1F
100
AcDbEntity
  8
0
  6
Continuous
 62
     7
370
    18
100
AcDbPolyline
 90
       10
 70
   128
 43
0.0
 10
1043.0919515895
 20
1326.0068462871
 10
1042.6489102649
 20
1326.3005481742
 10
1042.21933959
 20
1326.5853242658
 10
1041.816292982
 20
1326.8525169871
 10
1041.4519893931
 20
1327.0940052054
 10
1041.1375152873
 20
1327.3024724505
 10
1040.88243721
 20
1327.4715857289
 10
1040.694503765
 20
1327.5961743377
 10
1040.5794071959
 20
1327.6724831841
 10
1040.5406343745
 20
1327.698172786
  0
ARC
  5
377
330
1F
100
AcDbEntity
  8
0
  6
Continuous
 62
     7
370
    18
100
AcDbCircle
 10
1083.2582465365
 20
1325.1609523975
 30
0.0
 40
5.000000000000201
100
AcDbArc
 50
315.0
 51
33.5412476542
  0
LINE
  5
378
330
1F
100
AcDbEntity
  8
0
  6
Continuous
 62
     7
370
    18
100
AcDbLine
 10
1074.897675495
 20
1309.7292946361
 30
0.0
 11
1086.7937791156
 21
1321.6254131577
 31
0.0
  0
ARC
  5
379
330
1F
100
AcDbEntity
  8
0
  6
Continuous
 62
     7
370
    18
100
AcDbCircle
 10
1071.3621273131
 20
1313.264833174
 30
0.0
 40
5.000000000000168
100
AcDbArc
 50
236.4587523459
 51
315.0
  0
LINE
  5
37A
330
1F
100
AcDbEntity
  8
0
  6
Continuous
 62
     7
370
    18
100
AcDbLine
 10
1043.0919515895
 20
1326.0068462871
 30
0.0
 11
1068.5994314956
 21
1309.0973959945
 31
0.0
  0
LINE
  5
37B
330
1F
100
AcDbEntity
  8
0
  6
Continuous
 62
     7
370
    18
100
AcDbLine
 10
1087.4256777572
 20
1327.9236422561
 30
0.0
 11
1070.5162274646
 21
1353.4311221621
 31
0.0
  0
LINE
  5
37C
330
1F
100
AcDbEntity
  8
0
  6
Continuous
 62
     7
370
    18
100
AcDbLine
 10
776.6483823763
 20
1648.1589691422
 30
0.0
 11
774.385641049
 21
1650.4217104695
 31
0.0
  0
LWPOLYLINE
  5
37D
330
1F
100
AcDbEntity
  8
0
  6
Continuous
 62
     7
370
    18
100
AcDbPolyline
 90
        9
 70
   128
 43
0.0
 10
776.6483823763
 20
1648.1589691422
 10
776.5804479824
 20
1648.0910347484
 10
776.3792562293
 20
1647.8898392699
 10
776.0525389569
 20
1647.5631164096
 10
775.6128503936
 20
1647.1234278462
 10
775.0770865934
 20
1646.5876714967
 10
774.4658390986
 20
1645.9764258645
 10
773.8025977271
 20
1645.3131751798
 10
773.1128490524
 20
1644.6234302304
  0
LWPOLYLINE
  5
37E
330
1F
100
AcDbEntity
  8
0
  6
Continuous
 62
     7
370
    18
100
AcDbPolyline
 90
        9
 70
   128
 43
0.0
 10
774.385641049
 20
1650.4217104695
 10
774.3177066552
 20
1650.3537760756
 10
774.116514902
 20
1650.1525805972
 10
773.7897976296
 20
1649.8258577369
 10
773.3501072036
 20
1649.3861691735
 10
772.8143452661
 20
1648.850412824
 10
772.2030977713
 20
1648.2391671918
 10
771.5398563998
 20
1647.5759165071
 10
770.8501077252
 20
1646.8861715577
  0
LINE
  5
37F
330
1F
100
AcDbEntity
  8
0
  6
Continuous
 62
     7
370
    18
100
AcDbLine
 10
773.1128490524
 20
1644.6234302304
 30
0.0
 11
751.8996463152
 21
1623.4102265618
 31
0.0
  0
LINE
  5
380
330
1F
100
AcDbEntity
  8
0
  6
Continuous
 62
     7
370
    18
100
AcDbLine
 10
770.8501077252
 20
1646.8861715577
 30
0.0
 11
749.6369045222
 21
1625.6729678891
 31
0.0
  0
LINE
  5
381
330
1F
100
AcDbEntity
  8
0
  6
Continuous
 62
     7
370
    18
100
AcDbLine
 10
748.3641122928
 20
1619.8747025512
 30
0.0
 11
746.1013706163
 21
1622.1374438785
 31
0.0
  0
LWPOLYLINE
  5
382
330
1F
100
AcDbEntity
  8
0
  6
Continuous
 62
     7
370
    18
100
AcDbPolyline
 90
        9
 70
   128
 43
0.0
 10
751.8996463152
 20
1623.4102265618
 10
751.2098976405
 20
1622.7204816125
 10
750.5466558034
 20
1622.0572458289
 10
749.9354087742
 20
1621.4459852956
 10
749.3996463711
 20
1620.910228946
 10
748.959957342
 20
1620.4705403827
 10
748.6332389055
 20
1620.1438175223
 10
748.4320466867
 20
1619.9426369451
 10
748.3641122928
 20
1619.8747025512
  0
LWPOLYLINE
  5
383
330
1F
100
AcDbEntity
  8
0
  6
Continuous
 62
     7
370
    18
100
AcDbPolyline
 90
        9
 70
   128
 43
0.0
 10
749.6369045222
 20
1625.6729678891
 10
748.9471558476
 20
1624.9832229398
 10
748.2839142433
 20
1624.3199871562
 10
747.6726672141
 20
1623.708741524
 10
747.1369045781
 20
1623.1729702733
 10
746.6972155491
 20
1622.73328171
 10
746.3704971125
 20
1622.4065588496
 10
746.1693048937
 20
1622.2053782723
 10
746.1013706163
 20
1622.1374438785
  0
LINE
  5
384
330
1F
100
AcDbEntity
  8
0
  6
Continuous
 62
     7
370
    18
100
AcDbLine
 10
762.0112734841
 20
1638.0473391793
 30
0.0
 11
756.4958405675
 21
1643.5627804778
 31
0.0
  0
LINE
  5
385
330
1F
100
AcDbEntity
  8
0
  6
Continuous
 62
     7
370
    18
100
AcDbLine
 10
758.4757392289
 20
1634.5118002675
 30
0.0
 11
752.9603063123
 21
1640.027241566
 31
0.0
  0
LINE
  5
386
330
1F
100
AcDbEntity
  8
0
  6
Continuous
 62
     7
370
    18
100
AcDbLine
 10
752.9603063123
 20
1640.027241566
 30
0.0
 11
756.4958405675
 21
1643.5627804778
 31
0.0
  0
LWPOLYLINE
  5
387
330
1F
100
AcDbEntity
  8
0
  6
Continuous
 62
     7
370
    18
100
AcDbPolyline
 90
        9
 70
   128
 43
0.0
 10
771.8343238341
 20
1652.1130369685
 10
772.3320617335
 20
1651.783065655
 10
772.8106702672
 20
1651.4657901309
 10
773.2517595397
 20
1651.1733846448
 10
773.6383776175
 20
1650.9170846723
 10
773.9556680428
 20
1650.706754782
 10
774.1914342152
 20
1650.5504565022
 10
774.3366180914
 20
1650.4542099021
 10
774.385641049
 20
1650.4217104695
  0
LWPOLYLINE
  5
388
330
1F
100
AcDbEntity
  8
0
  6
Continuous
 62
     7
370
    18
100
AcDbPolyline
 90
        9
 70
   128
 43
0.0
 10
746.1013706163
 20
1622.1374438785
 10
746.0688723479
 20
1622.1864537976
 10
745.9726263298
 20
1622.3316507123
 10
745.8163313096
 20
1622.5674168847
 10
745.6059935614
 20
1622.88470731
 10
745.3496963537
 20
1623.2713179372
 10
745.0572889249
 20
1623.7124072097
 10
744.7400083876
 20
1624.1910176061
 10
744.4100476679
 20
1624.6887610934
  0
ARC
  5
389
330
1F
100
AcDbEntity
  8
0
  6
Continuous
 62
     7
370
    18
100
AcDbCircle
 10
731.6680296316
 20
1652.9589308571
 30
0.0
 40
5.000000000000201
100
AcDbArc
 50
135.0
 51
213.5412476541
  0
LINE
  5
38A
330
1F
100
AcDbEntity
  8
0
  6
Continuous
 62
     7
370
    18
100
AcDbLine
 10
740.0286148297
 20
1668.3905886195
 30
0.0
 11
728.132496308
 21
1656.4944700978
 31
0.0
  0
ARC
  5
38B
330
1F
100
AcDbEntity
  8
0
  6
Continuous
 62
     7
370
    18
100
AcDbCircle
 10
743.564148855
 20
1664.8550500805
 30
0.0
 40
4.999999999999899
100
AcDbArc
 50
56.4587523458
 51
135.0
  0
LINE
  5
38C
330
1F
100
AcDbEntity
  8
0
  6
Continuous
 62
     7
370
    18
100
AcDbLine
 10
727.5005883532
 20
1650.1962409995
 30
0.0
 11
744.4100476679
 21
1624.6887610934
 31
0.0
  0
LINE
  5
38D
330
1F
100
AcDbEntity
  8
0
  6
Continuous
 62
     7
370
    18
100
AcDbLine
 10
771.8343238341
 20
1652.1130369685
 30
0.0
 11
746.3268346148
 21
1669.0224872611
 31
0.0
  0
LINE
  5
38E
330
1F
100
AcDbEntity
  8
0
  6
Continuous
 62
     7
370
    18
100
AcDbLine
 10
748.3641122928
 20
1358.2451807044
 30
0.0
 11
746.1013706163
 21
1355.9824393771
 31
0.0
  0
LWPOLYLINE
  5
38F
330
1F
100
AcDbEntity
  8
0
  6
Continuous
 62
     7
370
    18
100
AcDbPolyline
 90
        9
 70
   128
 43
0.0
 10
748.3641122928
 20
1358.2451807044
 10
748.4320466867
 20
1358.1772463105
 10
748.6332389055
 20
1357.9760657332
 10
748.959957342
 20
1357.6493428729
 10
749.3996463711
 20
1357.2096543096
 10
749.9354087742
 20
1356.67389796
 10
750.5466558034
 20
1356.0626374267
 10
751.2098976405
 20
1355.3994016431
 10
751.8996463152
 20
1354.7096566937
  0
LWPOLYLINE
  5
390
330
1F
100
AcDbEntity
  8
0
  6
Continuous
 62
     7
370
    18
100
AcDbPolyline
 90
        9
 70
   128
 43
0.0
 10
746.1013706163
 20
1355.9824393771
 10
746.1693048937
 20
1355.9145049832
 10
746.3704971125
 20
1355.713324406
 10
746.6972155491
 20
1355.3866015456
 10
747.1369045781
 20
1354.9469129823
 10
747.6726672141
 20
1354.4111417315
 10
748.2839142433
 20
1353.7998960994
 10
748.9471558476
 20
1353.1366603158
 10
749.6369045222
 20
1352.4469153665
  0
LINE
  5
391
330
1F
100
AcDbEntity
  8
0
  6
Continuous
 62
     7
370
    18
100
AcDbLine
 10
749.6369045222
 20
1352.4469153665
 30
0.0
 11
770.8501077252
 21
1331.2337116979
 31
0.0
  0
LINE
  5
392
330
1F
100
AcDbEntity
  8
0
  6
Continuous
 62
     7
370
    18
100
AcDbLine
 10
751.8996463152
 20
1354.7096566937
 30
0.0
 11
773.1128490524
 21
1333.4964530251
 31
0.0
  0
LINE
  5
393
330
1F
100
AcDbEntity
  8
0
  6
Continuous
 62
     7
370
    18
100
AcDbLine
 10
776.6483823763
 20
1329.9609141133
 30
0.0
 11
774.385641049
 21
1327.698172786
 31
0.0
  0
LWPOLYLINE
  5
394
330
1F
100
AcDbEntity
  8
0
  6
Continuous
 62
     7
370
    18
100
AcDbPolyline
 90
        9
 70
   128
 43
0.0
 10
770.8501077252
 20
1331.2337116979
 10
771.5398563998
 20
1330.5439667485
 10
772.2030977713
 20
1329.8807160638
 10
772.8143452661
 20
1329.2694704316
 10
773.3501072036
 20
1328.733714082
 10
773.7897976296
 20
1328.2940255187
 10
774.116514902
 20
1327.9673026584
 10
774.3177066552
 20
1327.7661071799
 10
774.385641049
 20
1327.698172786
  0
LWPOLYLINE
  5
395
330
1F
100
AcDbEntity
  8
0
  6
Continuous
 62
     7
370
    18
100
AcDbPolyline
 90
        9
 70
   128
 43
0.0
 10
773.1128490524
 20
1333.4964530251
 10
773.8025977271
 20
1332.8067080758
 10
774.4658390986
 20
1332.1434573911
 10
775.0770865934
 20
1331.5322117589
 10
775.6128503936
 20
1330.9964554093
 10
776.0525389569
 20
1330.556766846
 10
776.3792562293
 20
1330.2300439857
 10
776.5804479824
 20
1330.0288485072
 10
776.6483823763
 20
1329.9609141133
  0
LINE
  5
396
330
1F
100
AcDbEntity
  8
0
  6
Continuous
 62
     7
370
    18
100
AcDbLine
 10
758.4757392289
 20
1343.6080829881
 30
0.0
 11
752.9603063123
 21
1338.0926416896
 31
0.0
  0
LINE
  5
397
330
1F
100
AcDbEntity
  8
0
  6
Continuous
 62
     7
370
    18
100
AcDbLine
 10
762.0112734841
 20
1340.0725440762
 30
0.0
 11
756.4958405675
 21
1334.5571027778
 31
0.0
  0
LINE
  5
398
330
1F
100
AcDbEntity
  8
0
  6
Continuous
 62
     7
370
    18
100
AcDbLine
 10
756.4958405675
 20
1334.5571027778
 30
0.0
 11
752.9603063123
 21
1338.0926416896
 31
0.0
  0
LWPOLYLINE
  5
399
330
1F
100
AcDbEntity
  8
0
  6
Continuous
 62
     7
370
    18
100
AcDbPolyline
 90
        9
 70
   128
 43
0.0
 10
744.4100476679
 20
1353.4311221621
 10
744.7400083876
 20
1353.9288656495
 10
745.0572889249
 20
1354.4074760459
 10
745.3496963537
 20
1354.8485653184
 10
745.6059935614
 20
1355.2351759456
 10
745.8163313096
 20
1355.5524663709
 10
745.9726263298
 20
1355.7882325433
 10
746.0688723479
 20
1355.9334294579
 10
746.1013706163
 20
1355.9824393771
  0
LWPOLYLINE
  5
39A
330
1F
100
AcDbEntity
  8
0
  6
Continuous
 62
     7
370
    18
100
AcDbPolyline
 90
        9
 70
   128
 43
0.0
 10
774.385641049
 20
1327.698172786
 10
774.3366180914
 20
1327.6656733535
 10
774.1914342152
 20
1327.5694267533
 10
773.9556680428
 20
1327.4131284736
 10
773.6383776175
 20
1327.2027985833
 10
773.2517595397
 20
1326.9464986108
 10
772.8106702672
 20
1326.6540931247
 10
772.3320617335
 20
1326.3368176005
 10
771.8343238341
 20
1326.0068462871
  0
ARC
  5
39B
330
1F
100
AcDbEntity
  8
0
  6
Continuous
 62
     7
370
    18
100
AcDbCircle
 10
743.564148855
 20
1313.2648331751
 30
0.0
 40
5.000000000000201
100
AcDbArc
 50
225.0
 51
303.5412476541
  0
LINE
  5
39C
330
1F
100
AcDbEntity
  8
0
  6
Continuous
 62
     7
370
    18
100
AcDbLine
 10
728.132496308
 20
1321.6254131577
 30
0.0
 11
740.0286148297
 21
1309.7292946361
 31
0.0
  0
ARC
  5
39D
330
1F
100
AcDbEntity
  8
0
  6
Continuous
 62
     7
370
    18
100
AcDbCircle
 10
731.6680296316
 20
1325.1609523985
 30
0.0
 40
4.99999999999997
100
AcDbArc
 50
146.4587523459
 51
225.0
  0
LINE
  5
39E
330
1F
100
AcDbEntity
  8
0
  6
Continuous
 62
     7
370
    18
100
AcDbLine
 10
746.3268346148
 20
1309.0973959945
 30
0.0
 11
771.8343238341
 21
1326.0068462871
 31
0.0
  0
LINE
  5
39F
330
1F
100
AcDbEntity
  8
0
  6
Continuous
 62
     7
370
    18
100
AcDbLine
 10
744.4100476679
 20
1353.4311221621
 30
0.0
 11
727.5005883532
 21
1327.9236422561
 31
0.0
  0
CIRCLE
  5
3A0
330
1F
100
AcDbEntity
  8
0
  6
Continuous
 62
     7
370
    18
100
AcDbCircle
 10
907.4631380841
 20
1489.0599416276
 30
0.0
 40
205.0000000000001
  0
LWPOLYLINE
  5
3A1
330
1F
100
AcDbEntity
  8
0
  6
Continuous
 62
     7
370
    18
100
AcDbPolyline
 90
        9
 70
   128
 43
0.0
 10
872.4261808204
 20
1691.0436318896
 10
870.0333076524
 20
1691.0425143025
 10
867.722301464
 20
1691.0414414189
 10
865.49822865
 20
1691.0403983376
 10
863.3659618901
 20
1691.039414861
 10
861.3301726984
 20
1691.0384611867
 10
859.3953314232
 20
1691.0375522159
 10
857.5656774448
 20
1691.0367028497
 10
855.8452266263
 20
1691.035898187
  0
LWPOLYLINE
  5
3A2
330
1F
100
AcDbEntity
  8
0
  6
Continuous
 62
     7
370
    18
100
AcDbPolyline
 90
        9
 70
   128
 43
0.0
 10
958.8927465486
 20
1691.0839395307
 10
957.1722882794
 20
1691.083134868
 10
955.3426343011
 20
1691.0822855018
 10
953.4077930259
 20
1691.0813765309
 10
951.3720112847
 20
1691.0804228566
 10
949.2397445249
 20
1691.07943938
 10
947.0156717109
 20
1691.0783962987
 10
944.7046655225
 20
1691.0773234151
 10
942.3117923545
 20
1691.076205828
  0
LWPOLYLINE
  5
3A3
330
1F
100
AcDbEntity
  8
0
  6
Continuous
 62
     7
370
    18
100
AcDbPolyline
 90
        5
 70
   128
 43
0.0
 10
855.8452266263
 20
1691.035898187
 10
854.7806057142
 20
1691.0354064486
 10
854.0023776697
 20
1691.0350488208
 10
853.5282450723
 20
1691.0348253034
 10
853.368988912
 20
1691.0347507976
  0
LWPOLYLINE
  5
3A4
330
1F
100
AcDbEntity
  8
0
  6
Continuous
 62
     7
370
    18
100
AcDbPolyline
 90
        5
 70
   128
 43
0.0
 10
961.3689768123
 20
1691.0850869201
 10
961.2097281026
 20
1691.0850124143
 10
960.7355880546
 20
1691.0847888968
 10
959.95736001
 20
1691.084431269
 10
958.8927465486
 20
1691.0839395307
  0
LINE
  5
3A5
330
1F
100
AcDbEntity
  8
0
  6
Continuous
 62
     7
370
    18
100
AcDbLine
 10
372.4631357001
 20
1699.0599350713
 30
0.0
 11
654.1239085602
 21
1699.0599350713
 31
0.0
  0
LINE
  5
3A6
330
1F
100
AcDbEntity
  8
0
  6
Continuous
 62
     7
370
    18
100
AcDbLine
 10
669.1239091562
 20
1699.0599350713
 30
0.0
 11
858.5436332034
 21
1699.0599350713
 31
0.0
  0
LINE
  5
3A7
330
1F
100
AcDbEntity
  8
0
  6
Continuous
 62
     7
370
    18
100
AcDbLine
 10
956.1868744897
 20
1699.0599350713
 30
0.0
 11
1117.4631404685
 21
1699.0599350713
 31
0.0
  0
LINE
  5
3A8
330
1F
100
AcDbEntity
  8
0
  6
Continuous
 62
     7
370
    18
100
AcDbLine
 10
1117.4631404685
 20
1699.0599350713
 30
0.0
 11
1117.4631404685
 21
1694.0599398396
 31
0.0
  0
LINE
  5
3A9
330
1F
100
AcDbEntity
  8
0
  6
Continuous
 62
     7
370
    18
100
AcDbLine
 10
372.4631357001
 20
1694.0599398396
 30
0.0
 11
372.4631357001
 21
1699.0599350713
 31
0.0
  0
CIRCLE
  5
3AA
330
1F
100
AcDbEntity
  8
0
  6
Continuous
 62
     7
370
    18
100
AcDbCircle
 10
1097.4631380843
 20
1299.0599416278
 30
0.0
 40
5.5
  0
CIRCLE
  5
3AB
330
1F
100
AcDbEntity
  8
0
  6
Continuous
 62
     7
370
    18
100
AcDbCircle
 10
1097.4631380843
 20
1679.0599416278
 30
0.0
 40
5.499999999999773
  0
LINE
  5
3AC
330
1F
100
AcDbEntity
  8
0
  6
Continuous
 62
     7
370
    18
100
AcDbLine
 10
380.4631519126
 20
1692.5599442504
 30
0.0
 11
378.9631414222
 21
1692.5599442504
 31
0.0
  0
LINE
  5
3AD
330
1F
100
AcDbEntity
  8
0
  6
Continuous
 62
     7
370
    18
100
AcDbLine
 10
378.9631414222
 20
1692.5599442504
 30
0.0
 11
378.9631414222
 21
1285.5599390052
 31
0.0
  0
LINE
  5
3AE
330
1F
100
AcDbEntity
  8
0
  6
Continuous
 62
     7
370
    18
100
AcDbLine
 10
378.9631414222
 20
1285.5599390052
 30
0.0
 11
380.4631519126
 21
1285.5599390052
 31
0.0
  0
LINE
  5
3AF
330
1F
100
AcDbEntity
  8
0
  6
Continuous
 62
     7
370
    18
100
AcDbLine
 10
1117.4631404685
 20
1694.0599398396
 30
0.0
 11
1117.4631404685
 21
1538.1578297995
 31
0.0
  0
LINE
  5
3B0
330
1F
100
AcDbEntity
  8
0
  6
Continuous
 62
     7
370
    18
100
AcDbLine
 10
1117.4631404685
 20
1440.1578211866
 30
0.0
 11
1117.4631404685
 21
1284.0599434159
 31
0.0
  0
LINE
  5
3B1
330
1F
100
AcDbEntity
  8
0
  6
Continuous
 62
     7
370
    18
100
AcDbLine
 10
372.4631357001
 20
1694.0599398396
 30
0.0
 11
372.4631357001
 21
1284.0599434159
 31
0.0
  0
LINE
  5
3B2
330
1F
100
AcDbEntity
  8
0
  6
Continuous
 62
     7
370
    18
100
AcDbLine
 10
1117.4631404685
 20
1279.0599481843
 30
0.0
 11
956.5610277461
 21
1279.0599481843
 31
0.0
  0
LINE
  5
3B3
330
1F
100
AcDbEntity
  8
0
  6
Continuous
 62
     7
370
    18
100
AcDbLine
 10
858.5610154079
 20
1279.0599481843
 30
0.0
 11
849.4037452148
 21
1279.0599481843
 31
0.0
  0
LINE
  5
3B4
330
1F
100
AcDbEntity
  8
0
  6
Continuous
 62
     7
370
    18
100
AcDbLine
 10
813.0928042339
 20
1279.0599481843
 30
0.0
 11
372.4631357001
 21
1279.0599481843
 31
0.0
  0
LINE
  5
3B5
330
1F
100
AcDbEntity
  8
0
  6
Continuous
 62
     7
370
    18
100
AcDbLine
 10
1117.4631404685
 20
1284.0599434159
 30
0.0
 11
1117.4631404685
 21
1279.0599481843
 31
0.0
  0
LINE
  5
3B6
330
1F
100
AcDbEntity
  8
0
  6
Continuous
 62
     7
370
    18
100
AcDbLine
 10
372.4631357001
 20
1279.0599481843
 30
0.0
 11
372.4631357001
 21
1284.0599434159
 31
0.0
  0
LINE
  5
3B7
330
1F
100
AcDbEntity
  8
0
  6
Continuous
 62
     7
370
    18
100
AcDbLine
 10
1117.4631404685
 20
1702.0599411509
 30
0.0
 11
1117.4631404685
 21
1699.0599350713
 31
0.0
  0
LINE
  5
3B8
330
1F
100
AcDbEntity
  8
0
  6
Continuous
 62
     7
370
    18
100
AcDbLine
 10
372.4631357001
 20
1699.0599350713
 30
0.0
 11
372.4631357001
 21
1702.0599411509
 31
0.0
  0
LINE
  5
3B9
330
1F
100
AcDbEntity
  8
0
  6
Continuous
 62
     7
370
    18
100
AcDbLine
 10
1117.4631404685
 20
1279.0599481843
 30
0.0
 11
1117.4631404685
 21
1276.0599421046
 31
0.0
  0
LINE
  5
3BA
330
1F
100
AcDbEntity
  8
0
  6
Continuous
 62
     7
370
    18
100
AcDbLine
 10
372.4631357001
 20
1276.0599421046
 30
0.0
 11
372.4631357001
 21
1279.0599481843
 31
0.0
  0
LINE
  5
3BB
330
1F
100
AcDbEntity
  8
0
  6
Continuous
 62
     7
370
    18
100
AcDbLine
 10
1117.4631404685
 20
1705.5599407933
 30
0.0
 11
955.8622377919
 21
1705.5599407933
 31
0.0
  0
LINE
  5
3BC
330
1F
100
AcDbEntity
  8
0
  6
Continuous
 62
     7
370
    18
100
AcDbLine
 10
938.8622331428
 20
1705.5599407933
 30
0.0
 11
875.8622246789
 21
1705.5599407933
 31
0.0
  0
LINE
  5
3BD
330
1F
100
AcDbEntity
  8
0
  6
Continuous
 62
     7
370
    18
100
AcDbLine
 10
858.8622200297
 20
1705.5599407933
 30
0.0
 11
372.4631357001
 21
1705.5599407933
 31
0.0
  0
LINE
  5
3BE
330
1F
100
AcDbEntity
  8
0
  6
Continuous
 62
     7
370
    18
100
AcDbLine
 10
1117.4631404685
 20
1705.5599407933
 30
0.0
 11
1117.4631404685
 21
1702.0599411509
 31
0.0
  0
LINE
  5
3BF
330
1F
100
AcDbEntity
  8
0
  6
Continuous
 62
     7
370
    18
100
AcDbLine
 10
372.4631357001
 20
1705.5599407933
 30
0.0
 11
372.4631357001
 21
1702.0599411509
 31
0.0
  0
LINE
  5
3C0
330
1F
100
AcDbEntity
  8
0
  6
Continuous
 62
     7
370
    18
100
AcDbLine
 10
1117.4631404685
 20
1272.5599424623
 30
0.0
 11
957.5519400643
 21
1272.5599424623
 31
0.0
  0
LINE
  5
3C1
330
1F
100
AcDbEntity
  8
0
  6
Continuous
 62
     7
370
    18
100
AcDbLine
 10
937.5519442367
 20
1272.5599424623
 30
0.0
 11
929.1922735976
 21
1272.5599424623
 31
0.0
  0
LINE
  5
3C2
330
1F
100
AcDbEntity
  8
0
  6
Continuous
 62
     7
370
    18
100
AcDbLine
 10
885.9241890716
 20
1272.5599424623
 30
0.0
 11
877.5519269513
 21
1272.5599424623
 31
0.0
  0
LINE
  5
3C3
330
1F
100
AcDbEntity
  8
0
  6
Continuous
 62
     7
370
    18
100
AcDbLine
 10
857.5519311236
 20
1272.5599424623
 30
0.0
 11
847.0413747238
 21
1272.5599424623
 31
0.0
  0
LINE
  5
3C4
330
1F
100
AcDbEntity
  8
0
  6
Continuous
 62
     7
370
    18
100
AcDbLine
 10
829.8183965491
 20
1272.5599424623
 30
0.0
 11
372.4631357001
 21
1272.5599424623
 31
0.0
  0
LINE
  5
3C5
330
1F
100
AcDbEntity
  8
0
  6
Continuous
 62
     7
370
    18
100
AcDbLine
 10
1117.4631404685
 20
1276.0599421046
 30
0.0
 11
1117.4631404685
 21
1272.5599424623
 31
0.0
  0
LINE
  5
3C6
330
1F
100
AcDbEntity
  8
0
  6
Continuous
 62
     7
370
    18
100
AcDbLine
 10
372.4631357001
 20
1276.0599421046
 30
0.0
 11
372.4631357001
 21
1272.5599424623
 31
0.0
  0
LINE
  5
3C7
330
1F
100
AcDbEntity
  8
SLD-0
  6
CENTER
 62
     3
100
AcDbLine
 10
498.9631380843
 20
1310.6396533698
 30
0.0
 11
498.9631380843
 21
1138.4126918552
 31
0.0
  0
LINE
  5
3C8
330
1F
100
AcDbEntity
  8
SLD-0
  6
HIDDEN
 62
     3
100
AcDbLine
 10
527.9631380843
 20
1349.0599416278
 30
0.0
 11
527.9631380843
 21
1357.0599416278
 31
0.0
  0
LINE
  5
3C9
330
1F
100
AcDbEntity
  8
SLD-0
  6
HIDDEN
 62
     3
100
AcDbLine
 10
509.3353919492
 20
1349.0599416278
 30
0.0
 11
527.9631380843
 21
1349.0599416278
 31
0.0
  0
LINE
  5
3CA
330
1F
100
AcDbEntity
  8
SLD-0
  6
HIDDEN
 62
     3
100
AcDbLine
 10
498.2225585351
 20
1349.0599416278
 30
0.0
 11
509.3353919492
 21
1349.0599416278
 31
0.0
  0
LINE
  5
3CB
330
1F
100
AcDbEntity
  8
SLD-0
  6
HIDDEN
 62
     3
100
AcDbLine
 10
452.0993889969
 20
1349.0599416278
 30
0.0
 11
498.2225585351
 21
1349.0599416278
 31
0.0
  0
LINE
  5
3CC
330
1F
100
AcDbEntity
  8
SLD-0
  6
HIDDEN
 62
     3
100
AcDbLine
 10
443.8825298062
 20
1349.0599416278
 30
0.0
 11
452.0993889969
 21
1349.0599416278
 31
0.0
  0
LINE
  5
3CD
330
1F
100
AcDbEntity
  8
SLD-0
  6
HIDDEN
 62
     3
100
AcDbLine
 10
429.9631380843
 20
1349.0599416278
 30
0.0
 11
443.8825298062
 21
1349.0599416278
 31
0.0
  0
LINE
  5
3CE
330
1F
100
AcDbEntity
  8
SLD-0
  6
HIDDEN
 62
     3
100
AcDbLine
 10
429.9631380843
 20
1357.0599416278
 30
0.0
 11
429.9631380843
 21
1349.0599416278
 31
0.0
  0
LINE
  5
3CF
330
1F
100
AcDbEntity
  8
SLD-0
  6
HIDDEN
 62
     3
100
AcDbLine
 10
605.9631380843
 20
1357.0599416278
 30
0.0
 11
398.9631380843
 21
1357.0599416278
 31
0.0
  0
LINE
  5
3D0
330
1F
100
AcDbEntity
  8
SLD-0
  6
CENTER
 62
     3
100
AcDbLine
 10
451.4631380843
 20
1365.4793081468
 30
0.0
 11
451.4631380843
 21
1330.509177214
 31
0.0
  0
LINE
  5
3D1
330
1F
100
AcDbEntity
  8
SLD-0
  6
CENTER
 62
     3
100
AcDbLine
 10
447.4616975119
 20
1177.5599416276
 30
0.0
 11
548.2105007387
 21
1177.5599416276
 31
0.0
  0
LINE
  5
3D2
330
1F
100
AcDbEntity
  8
SLD-0
  6
HIDDEN
 62
     3
100
AcDbLine
 10
523.9631380843
 20
1217.5599416276
 30
0.0
 11
523.9631380843
 21
1272.5599416278
 31
0.0
  0
LINE
  5
3D3
330
1F
100
AcDbEntity
  8
SLD-0
  6
HIDDEN
 62
     3
100
AcDbLine
 10
473.9631380843
 20
1217.5599416276
 30
0.0
 11
523.9631380843
 21
1217.5599416276
 31
0.0
  0
LINE
  5
3D4
330
1F
100
AcDbEntity
  8
SLD-0
  6
HIDDEN
 62
     3
100
AcDbLine
 10
473.9631380843
 20
1217.5599416276
 30
0.0
 11
473.9631380843
 21
1197.4624860494
 31
0.0
  0
LINE
  5
3D5
330
1F
100
AcDbEntity
  8
SLD-0
  6
HIDDEN
 62
     3
100
AcDbLine
 10
523.9631380843
 20
1217.5599416276
 30
0.0
 11
523.9631380843
 21
1197.4624860494
 31
0.0
  0
LINE
  5
3D6
330
1F
100
AcDbEntity
  8
SLD-0
  6
HIDDEN
 62
     3
100
AcDbLine
 10
473.9631380843
 20
1217.5599416276
 30
0.0
 11
473.9631380843
 21
1227.5599416276
 31
0.0
  0
LINE
  5
3D7
330
1F
100
AcDbEntity
  8
SLD-0
  6
HIDDEN
 62
     3
100
AcDbLine
 10
473.9631380843
 20
1227.5599416276
 30
0.0
 11
428.9631380843
 21
1227.5599416276
 31
0.0
  0
LINE
  5
3D8
330
1F
100
AcDbEntity
  8
SLD-0
  6
HIDDEN
 62
     3
100
AcDbLine
 10
428.9631380843
 20
1227.5599416276
 30
0.0
 11
428.9631380843
 21
1272.5599416278
 31
0.0
  0
ARC
  5
3D9
330
1F
100
AcDbEntity
  8
SLD-0
  6
HIDDEN
 62
     3
370
    18
100
AcDbCircle
 10
478.9631380843
 20
1177.5599416276
 30
0.0
 40
19.99999999999987
100
AcDbArc
 50
120.0
 51
240.0
  0
CIRCLE
  5
3DA
330
1F
100
AcDbEntity
  8
SLD-0
  6
HIDDEN
 62
     3
100
AcDbCircle
 10
392.4631380843
 20
1679.0599416278
 30
0.0
 40
5.500000000000057
  0
CIRCLE
  5
3DB
330
1F
100
AcDbEntity
  8
SLD-0
  6
HIDDEN
 62
     3
100
AcDbCircle
 10
392.4631380843
 20
1299.0599416278
 30
0.0
 40
5.49999999999999
  0
ARC
  5
3DC
330
1F
100
AcDbEntity
  8
SLD-0
  6
HIDDEN
 62
     3
100
AcDbCircle
 10
518.9631380843
 20
1177.5599416276
 30
0.0
 40
19.99999999999981
100
AcDbArc
 50
300.0
 51
60.0
  0
ARC
  5
3DD
330
1F
100
AcDbEntity
  8
SLD-0
  6
HIDDEN
 62
     3
100
AcDbCircle
 10
605.9631380843
 20
1367.0599416278
 30
0.0
 40
9.999999999999886
100
AcDbArc
 50
270.0
 51
0.0
  0
ARC
  5
3DE
330
1F
100
AcDbEntity
  8
SLD-0
  6
HIDDEN
 62
     3
100
AcDbCircle
 10
398.9631380843
 20
1367.0599416278
 30
0.0
 40
10.0
100
AcDbArc
 50
180.0
 51
270.0
  0
CIRCLE
  5
3DF
330
1F
100
AcDbEntity
  8
SLD-0
  6
HIDDEN
 62
     3
100
AcDbCircle
 10
498.9631380843
 20
1177.5599416276
 30
0.0
 40
17.49999999999999
  0
ARC
  5
3E0
330
1F
100
AcDbEntity
  8
SLD-0
  6
HIDDEN
 62
     3
100
AcDbCircle
 10
498.9631380843
 20
1212.200957779
 30
0.0
 40
59.99999999999977
100
AcDbArc
 50
240.0
 51
300.0
  0
ARC
  5
3E1
330
1F
100
AcDbEntity
  8
SLD-0
  6
HIDDEN
 62
     3
100
AcDbCircle
 10
498.9631380843
 20
1142.9189254763
 30
0.0
 40
59.99999999999977
100
AcDbArc
 50
60.0
 51
120.0
  0
DIMENSION
  5
3E2
330
1F
100
AcDbEntity
  8
SLD-0
 62
     3
100
AcDbDimension
  2
_D_5
 10
392.4631380843
 20
1781.083228699
 30
0.0
 11
744.9631380843
 21
1781.083228699
 31
0.0
 70
   160
  1
<>
 71
     2
 42
-1.0
  3
SLDDIMSTYLE0
100
AcDbAlignedDimension
 13
1097.4631380843
 23
1679.0599416278
 33
0.0
 14
392.4631380843
 24
1687.0599416278
 34
0.0
100
AcDbRotatedDimension
  0
DIMENSION
  5
3EC
330
1F
100
AcDbEntity
  8
SLD-0
 62
     3
100
AcDbDimension
  2
_D_6
 10
502.4631380843
 20
1389.4444096294
 30
0.0
 11
476.9631380843
 21
1389.4444096294
 31
0.0
 70
   160
  1
<>
 71
     2
 42
-1.0
  3
SLDDIMSTYLE0
100
AcDbAlignedDimension
 13
451.4631380843
 23
1365.4793081468
 33
0.0
 14
502.4631380843
 24
1366.0599416278
 34
0.0
100
AcDbRotatedDimension
  0
DIMENSION
  5
3F6
330
1F
100
AcDbEntity
  8
SLD-0
 62
     3
100
AcDbDimension
  2
_D_7
 10
502.4631380843
 20
1307.9741896321
 30
0.0
 11
556.2726476273
 21
1307.9741896321
 31
0.0
 70
   160
  1
<>
 71
     2
 42
-1.0
  3
SLDDIMSTYLE3
100
AcDbAlignedDimension
 13
498.9631380843
 23
1310.6396533698
 33
0.0
 14
502.4631380843
 24
1332.4005665362
 34
0.0
100
AcDbRotatedDimension
  0
DIMENSION
  5
402
330
1F
100
AcDbEntity
  8
SLD-0
 62
     3
100
AcDbDimension
  2
_D_8
 10
661.3145556337
 20
1177.5599416276
 30
0.0
 11
661.3145556337
 21
1333.3099416276
 31
0.0
 70
   160
  1
<>
 71
     2
 42
-1.0
  3
SLDDIMSTYLE4
100
AcDbAlignedDimension
 13
337.0460472147
 23
1489.0599416276
 33
0.0
 14
548.2105007387
 24
1177.5599416276
 34
0.0
 50
90.0
100
AcDbRotatedDimension
  0
DIMENSION
  5
40C
330
1F
100
AcDbEntity
  8
SLD-0
 62
     3
100
AcDbDimension
  2
_D_9
 10
498.9631380843
 20
1105.0371271841
 30
0.0
 11
435.7131380843
 21
1105.0371271841
 31
0.0
 70
   160
  1
<>
 71
     2
 42
-1.0
  3
SLDDIMSTYLE5
100
AcDbAlignedDimension
 13
372.4631380843
 23
1272.5599416278
 33
0.0
 14
498.9631380843
 24
1138.4126918552
 34
0.0
100
AcDbRotatedDimension
  0
DIMENSION
  5
417
330
1F
100
AcDbEntity
  8
SLD-0
 62
     3
100
AcDbDimension
  2
_D_10
 10
907.4631380841
 20
1105.0371271841
 30
0.0
 11
703.2131380842
 21
1105.0371271841
 31
0.0
 70
   160
  1
<>
 71
     2
 42
-1.0
  3
SLDDIMSTYLE5
100
AcDbAlignedDimension
 13
498.9631380843
 23
1138.4126918552
 33
0.0
 14
907.4631380841
 24
1281.5599416276
 34
0.0
100
AcDbRotatedDimension
  0
DIMENSION
  5
421
330
1F
100
AcDbEntity
  8
SLD-0
 62
     3
100
AcDbDimension
  2
_D_11
 10
1241.4879852658
 20
1705.5599416278
 30
0.0
 11
1241.4879852658
 21
1489.0599416278
 31
0.0
 70
   160
  1
<>
 71
     2
 42
-1.0
  3
SLDDIMSTYLE0
100
AcDbAlignedDimension
 13
1117.4631380843
 23
1272.5599416278
 33
0.0
 14
1117.4631380843
 24
1705.5599416278
 34
0.0
 50
90.0
100
AcDbRotatedDimension
  0
DIMENSION
  5
42B
330
1F
100
AcDbEntity
  8
SLD-0
 62
     3
100
AcDbDimension
  2
_D_12
 10
1000.8820023758
 20
1259.1034601875
 30
0.0
 11
1000.8283996358
 21
1374.1034476951
 31
0.0
 70
   160
  1
<>
 71
     2
 42
-1.0
  3
SLDDIMSTYLE0
100
AcDbAlignedDimension
 13
907.4631380841
 23
1489.0599416276
 33
0.0
 14
928.0703413372
 24
1259.0695218835
 34
0.0
 50
-89.9732938184
100
AcDbRotatedDimension
  0
DIMENSION
  5
435
330
1F
100
AcDbEntity
  8
SLD-0
 62
     3
100
AcDbDimension
  2
_D_13
 10
1199.4879852658
 20
1679.0599416278
 30
0.0
 11
1199.4879852658
 21
1489.0599416278
 31
0.0
 70
   160
  1
<>
 71
     2
 42
-1.0
  3
SLDDIMSTYLE0
100
AcDbAlignedDimension
 13
1105.4631380843
 23
1299.0599416278
 33
0.0
 14
1105.4631380843
 24
1679.0599416278
 34
0.0
 50
90.0
100
AcDbRotatedDimension
  0
DIMENSION
  5
43F
330
1F
100
AcDbEntity
  8
SLD-0
 62
     3
100
AcDbDimension
  2
_D_14
 10
392.4631380843
 20
1781.0832286989
 30
0.0
 11
335.8350155249
 21
1781.0832286989
 31
0.0
 70
   160
  1
<>
 71
     2
 42
-1.0
  3
SLDDIMSTYLE2
100
AcDbAlignedDimension
 13
372.4631380843
 23
1705.5599416278
 33
0.0
 14
392.4631380843
 24
1687.0599416278
 34
0.0
100
AcDbRotatedDimension
  0
DIMENSION
  5
44B
330
1F
100
AcDbEntity
  8
SLD-0
 62
     3
100
AcDbDimension
  2
_D_15
 10
1117.4631380843
 20
1781.0832286989
 30
0.0
 11
1155.7923070666
 21
1781.0832286989
 31
0.0
 70
   160
  1
<>
 71
     2
 42
-1.0
  3
SLDDIMSTYLE2
100
AcDbAlignedDimension
 13
1097.4631380843
 23
1687.0599416278
 33
0.0
 14
1117.4631380843
 24
1705.5599416278
 34
0.0
100
AcDbRotatedDimension
  0
DIMENSION
  5
457
330
1F
100
AcDbEntity
  8
SLD-0
 62
     3
100
AcDbDimension
  2
_D_16
 10
1117.4631380843
 20
1823.0832286989
 30
0.0
 11
744.9631380843
 21
1823.0832286989
 31
0.0
 70
   160
  1
<>
 71
     2
 42
-1.0
  3
SLDDIMSTYLE1
100
AcDbAlignedDimension
 13
372.4631380843
 23
1705.5599416278
 33
0.0
 14
1117.4631380843
 24
1705.5599416278
 34
0.0
100
AcDbRotatedDimension
  0
DIMENSION
  5
461
330
1F
100
AcDbEntity
  8
SLD-0
 62
     3
100
AcDbDimension
  2
_D_17
 10
1129.4858961713
 20
1105.0371271841
 30
0.0
 11
1018.4745171277
 21
1105.0371271841
 31
0.0
 70
   160
  1
<>
 71
     2
 42
-1.0
  3
SLDDIMSTYLE0
100
AcDbAlignedDimension
 13
907.4631380841
 23
1281.5599416276
 33
0.0
 14
1129.4858961713
 24
1440.2861954971
 34
0.0
100
AcDbRotatedDimension
  0
DIMENSION
  5
46B
330
1F
100
AcDbEntity
  8
SLD-0
 62
     3
100
AcDbDimension
  2
_D_18
 10
1129.4858961713
 20
1189.0371271841
 30
0.0
 11
1161.1145285062
 21
1189.0371271841
 31
0.0
 70
   160
  1
<>
 71
     2
 42
-1.0
  3
SLDDIMSTYLE6
100
AcDbAlignedDimension
 13
1117.4631380843
 23
1272.5599416278
 33
0.0
 14
1129.4858961713
 24
1440.2861954971
 34
0.0
100
AcDbRotatedDimension
  0
DIMENSION
  5
478
330
1F
100
AcDbEntity
  8
SLD-0
 62
     3
100
AcDbDimension
  2
_D_19
 10
1129.4858961713
 20
1063.0371271841
 30
0.0
 11
750.9745171278
 21
1063.0371271841
 31
0.0
 70
   160
  1
<>
 71
     2
 42
-1.0
  3
SLDDIMSTYLE0
100
AcDbAlignedDimension
 13
372.4631380843
 23
1272.5599416278
 33
0.0
 14
1129.4858961713
 24
1440.2861954971
 34
0.0
100
AcDbRotatedDimension
  0
INSERT
  5
48D
330
1F
100
AcDbEntity
  8
SLD-0
 62
     3
100
AcDbBlockReference
  2
SW_CENTERMARKSYMBOL_2
 10
392.4631380843
 20
1679.0599416278
 30
0.0
  0
INSERT
  5
499
330
1F
100
AcDbEntity
  8
SLD-0
 62
     3
100
AcDbBlockReference
  2
SW_CENTERMARKSYMBOL_3
 10
392.4631380843
 20
1299.0599416278
 30
0.0
  0
INSERT
  5
4A5
330
1F
100
AcDbEntity
  8
SLD-0
 62
     3
100
AcDbBlockReference
  2
SW_CENTERMARKSYMBOL_4
 10
1097.4631380843
 20
1679.0599416278
 30
0.0
  0
INSERT
  5
4B1
330
1F
100
AcDbEntity
  8
SLD-0
 62
     3
100
AcDbBlockReference
  2
SW_CENTERMARKSYMBOL_5
 10
1097.4631380843
 20
1299.0599416278
 30
0.0
  0
INSERT
  5
4BD
330
1F
100
AcDbEntity
  8
SLD-0
 62
     3
100
AcDbBlockReference
  2
SW_CENTERMARKSYMBOL_6
 10
907.4631380841
 20
1489.0599416276
 30
0.0
  0
LINE
  5
4BE
330
1F
100
AcDbEntity
  8
SLD-0
  6
CENTER
 62
     3
 48
2.8571428571
370
    18
100
AcDbLine
 10
502.4631380843
 20
1332.4005665362
 30
0.0
 11
502.4631380843
 21
1366.0599416278
 31
0.0
  0
ENDSEC
  0
SECTION
  2
OBJECTS
  0
DICTIONARY
  5
C
330
0
100
AcDbDictionary
281
     1
  3
ACAD_GROUP
350
D
  3
ACAD_LAYOUT
350
1A
  3
ACAD_MLINESTYLE
350
17
  3
ACAD_PLOTSETTINGS
350
19
  3
ACAD_PLOTSTYLENAME
350
E
  3
ACAD_SCALELIST
350
47
  0
DICTIONARY
  5
D
102
{ACAD_REACTORS
330
C
102
}
330
C
100
AcDbDictionary
281
     1
  0
DICTIONARY
  5
1A
102
{ACAD_REACTORS
330
C
102
}
330
C
100
AcDbDictionary
281
     1
  3
Layout1
350
1E
  3
Layout2
350
26
  3
Model
350
22
  0
DICTIONARY
  5
17
102
{ACAD_REACTORS
330
C
102
}
330
C
100
AcDbDictionary
281
     1
  3
Standard
350
18
  0
DICTIONARY
  5
19
102
{ACAD_REACTORS
330
C
102
}
330
C
100
AcDbDictionary
281
     1
  0
ACDBDICTIONARYWDFLT
  5
E
102
{ACAD_REACTORS
330
C
102
}
330
C
100
AcDbDictionary
281
     1
  3
Normal
350
F
100
AcDbDictionaryWithDefault
340
F
  0
DICTIONARY
  5
47
102
{ACAD_REACTORS
330
C
102
}
330
C
100
AcDbDictionary
281
     1
  3
A0
350
48
  3
A1
350
49
  3
A2
350
4A
  3
A3
350
4B
  3
A4
350
4C
  3
A5
350
4D
  3
A6
350
4E
  3
A7
350
4F
  3
A8
350
50
  3
A9
350
51
  3
B0
350
52
  3
B1
350
53
  3
B2
350
54
  3
B3
350
55
  3
B4
350
56
  3
B5
350
57
  3
B6
350
58
  3
B7
350
59
  3
B8
350
5A
  3
B9
350
5B
  3
C0
350
5C
  3
C1
350
5D
  3
C2
350
5E
  3
C3
350
5F
  3
C4
350
60
  3
C5
350
61
  3
C6
350
62
  3
C7
350
63
  3
C8
350
64
  3
C9
350
65
  3
D0
350
66
  3
D1
350
67
  3
D2
350
68
  0
LAYOUT
  5
1E
102
{ACAD_REACTORS
330
1A
102
}
330
1A
100
AcDbPlotSettings
  1

  2
none_device
  4

  6

 40
0.0
 41
0.0
 42
0.0
 43
0.0
 44
0.0
 45
0.0
 46
0.0
 47
0.0
 48
0.0
 49
0.0
140
0.0
141
0.0
142
1.0
143
1.0
 70
   688
 72
     1
 73
     0
 74
     5
  7

 75
    16
147
1.0
148
0.0
149
0.0
100
AcDbLayout
  1
Layout1
 70
     1
 71
     1
 10
0.0
 20
0.0
 11
420.0
 21
297.0
 12
0.0
 22
0.0
 32
0.0
 14
1.0000000000E+20
 24
1.0000000000E+20
 34
1.0000000000E+20
 15
-1.0000000000E+20
 25
-1.0000000000E+20
 35
-1.0000000000E+20
146
0.0
 13
0.0
 23
0.0
 33
0.0
 16
1.0
 26
0.0
 36
0.0
 17
0.0
 27
1.0
 37
0.0
 76
     0
330
1B
  0
LAYOUT
  5
26
102
{ACAD_REACTORS
330
1A
102
}
330
1A
100
AcDbPlotSettings
  1

  2
none_device
  4

  6

 40
0.0
 41
0.0
 42
0.0
 43
0.0
 44
0.0
 45
0.0
 46
0.0
 47
0.0
 48
0.0
 49
0.0
140
0.0
141
0.0
142
1.0
143
1.0
 70
   688
 72
     1
 73
     0
 74
     5
  7

 75
    16
147
1.0
148
0.0
149
0.0
100
AcDbLayout
  1
Layout2
 70
     1
 71
     2
 10
0.0
 20
0.0
 11
0.0
 21
0.0
 12
0.0
 22
0.0
 32
0.0
 14
0.0
 24
0.0
 34
0.0
 15
0.0
 25
0.0
 35
0.0
146
0.0
 13
0.0
 23
0.0
 33
0.0
 16
1.0
 26
0.0
 36
0.0
 17
0.0
 27
1.0
 37
0.0
 76
     0
330
23
  0
LAYOUT
  5
22
102
{ACAD_REACTORS
330
1A
102
}
330
1A
100
AcDbPlotSettings
  1

  2
none_device
  4
Letter_(8.50_x_11.00_Inches)
  6

 40
6.35
 41
6.35
 42
6.35000508
 43
6.35000508
 44
215.9
 45
279.4
 46
0.0
 47
0.0
 48
0.0
 49
0.0
140
0.0
141
0.0
142
1.0
143
1.0
 70
  1712
 72
     1
 73
     0
 74
     0
  7

 75
     0
147
1.0
148
0.0
149
0.0
100
AcDbLayout
  1
Model
 70
     1
 71
     0
 10
0.0
 20
0.0
 11
1470.0
 21
2079.0
 12
0.0
 22
0.0
 32
0.0
 14
0.0
 24
0.0
 34
0.0
 15
1470.0
 25
2079.0
 35
0.0
146
0.0
 13
0.0
 23
0.0
 33
0.0
 16
1.0
 26
0.0
 36
0.0
 17
0.0
 27
1.0
 37
0.0
 76
     0
330
1F
331
29
  0
MLINESTYLE
  5
18
102
{ACAD_REACTORS
330
17
102
}
330
17
100
AcDbMlineStyle
  2
Standard
 70
     0
  3

 62
   256
 51
90.0
 52
90.0
 71
     2
 49
0.5
 62
   256
  6
BYLAYER
 49
-0.5
 62
   256
  6
BYLAYER
  0
ACDBPLACEHOLDER
  5
F
102
{ACAD_REACTORS
330
E
102
}
330
E
  0
SCALE
  5
48
102
{ACAD_REACTORS
330
47
102
}
330
47
100
AcDbScale
 70
     0
300
1:1
140
1.0
141
1.0
290
     1
  0
SCALE
  5
49
102
{ACAD_REACTORS
330
47
102
}
330
47
100
AcDbScale
 70
     0
300
1:2
140
1.0
141
2.0
290
     0
  0
SCALE
  5
4A
102
{ACAD_REACTORS
330
47
102
}
330
47
100
AcDbScale
 70
     0
300
1:4
140
1.0
141
4.0
290
     0
  0
SCALE
  5
4B
102
{ACAD_REACTORS
330
47
102
}
330
47
100
AcDbScale
 70
     0
300
1:5
140
1.0
141
5.0
290
     0
  0
SCALE
  5
4C
102
{ACAD_REACTORS
330
47
102
}
330
47
100
AcDbScale
 70
     0
300
1:8
140
1.0
141
8.0
290
     0
  0
SCALE
  5
4D
102
{ACAD_REACTORS
330
47
102
}
330
47
100
AcDbScale
 70
     0
300
1:10
140
1.0
141
10.0
290
     0
  0
SCALE
  5
4E
102
{ACAD_REACTORS
330
47
102
}
330
47
100
AcDbScale
 70
     0
300
1:16
140
1.0
141
16.0
290
     0
  0
SCALE
  5
4F
102
{ACAD_REACTORS
330
47
102
}
330
47
100
AcDbScale
 70
     0
300
1:20
140
1.0
141
20.0
290
     0
  0
SCALE
  5
50
102
{ACAD_REACTORS
330
47
102
}
330
47
100
AcDbScale
 70
     0
300
1:30
140
1.0
141
30.0
290
     0
  0
SCALE
  5
51
102
{ACAD_REACTORS
330
47
102
}
330
47
100
AcDbScale
 70
     0
300
1:40
140
1.0
141
40.0
290
     0
  0
SCALE
  5
52
102
{ACAD_REACTORS
330
47
102
}
330
47
100
AcDbScale
 70
     0
300
1:50
140
1.0
141
50.0
290
     0
  0
SCALE
  5
53
102
{ACAD_REACTORS
330
47
102
}
330
47
100
AcDbScale
 70
     0
300
1:100
140
1.0
141
100.0
290
     0
  0
SCALE
  5
54
102
{ACAD_REACTORS
330
47
102
}
330
47
100
AcDbScale
 70
     0
300
2:1
140
2.0
141
1.0
290
     0
  0
SCALE
  5
55
102
{ACAD_REACTORS
330
47
102
}
330
47
100
AcDbScale
 70
     0
300
4:1
140
4.0
141
1.0
290
     0
  0
SCALE
  5
56
102
{ACAD_REACTORS
330
47
102
}
330
47
100
AcDbScale
 70
     0
300
8:1
140
8.0
141
1.0
290
     0
  0
SCALE
  5
57
102
{ACAD_REACTORS
330
47
102
}
330
47
100
AcDbScale
 70
     0
300
10:1
140
10.0
141
1.0
290
     0
  0
SCALE
  5
58
102
{ACAD_REACTORS
330
47
102
}
330
47
100
AcDbScale
 70
     0
300
100:1
140
100.0
141
1.0
290
     0
  0
SCALE
  5
59
102
{ACAD_REACTORS
330
47
102
}
330
47
100
AcDbScale
 70
     0
300
1/128" = 1'-0"
140
0.0078125
141
12.0
290
     0
  0
SCALE
  5
5A
102
{ACAD_REACTORS
330
47
102
}
330
47
100
AcDbScale
 70
     0
300
1/64" = 1'-0"
140
0.015625
141
12.0
290
     0
  0
SCALE
  5
5B
102
{ACAD_REACTORS
330
47
102
}
330
47
100
AcDbScale
 70
     0
300
1/32" = 1'-0"
140
0.03125
141
12.0
290
     0
  0
SCALE
  5
5C
102
{ACAD_REACTORS
330
47
102
}
330
47
100
AcDbScale
 70
     0
300
1/16" = 1'-0"
140
0.0625
141
12.0
290
     0
  0
SCALE
  5
5D
102
{ACAD_REACTORS
330
47
102
}
330
47
100
AcDbScale
 70
     0
300
3/32" = 1'-0"
140
0.09375
141
12.0
290
     0
  0
SCALE
  5
5E
102
{ACAD_REACTORS
330
47
102
}
330
47
100
AcDbScale
 70
     0
300
1/8" = 1'-0"
140
0.125
141
12.0
290
     0
  0
SCALE
  5
5F
102
{ACAD_REACTORS
330
47
102
}
330
47
100
AcDbScale
 70
     0
300
3/16" = 1'-0"
140
0.1875
141
12.0
290
     0
  0
SCALE
  5
60
102
{ACAD_REACTORS
330
47
102
}
330
47
100
AcDbScale
 70
     0
300
1/4" = 1'-0"
140
0.25
141
12.0
290
     0
  0
SCALE
  5
61
102
{ACAD_REACTORS
330
47
102
}
330
47
100
AcDbScale
 70
     0
300
3/8" = 1'-0"
140
0.375
141
12.0
290
     0
  0
SCALE
  5
62
102
{ACAD_REACTORS
330
47
102
}
330
47
100
AcDbScale
 70
     0
300
1/2" = 1'-0"
140
0.5
141
12.0
290
     0
  0
SCALE
  5
63
102
{ACAD_REACTORS
330
47
102
}
330
47
100
AcDbScale
 70
     0
300
3/4" = 1'-0"
140
0.75
141
12.0
290
     0
  0
SCALE
  5
64
102
{ACAD_REACTORS
330
47
102
}
330
47
100
AcDbScale
 70
     0
300
1" = 1'-0"
140
1.0
141
12.0
290
     0
  0
SCALE
  5
65
102
{ACAD_REACTORS
330
47
102
}
330
47
100
AcDbScale
 70
     0
300
1-1/2" = 1'-0"
140
1.5
141
12.0
290
     0
  0
SCALE
  5
66
102
{ACAD_REACTORS
330
47
102
}
330
47
100
AcDbScale
 70
     0
300
3" = 1'-0"
140
3.0
141
12.0
290
     0
  0
SCALE
  5
67
102
{ACAD_REACTORS
330
47
102
}
330
47
100
AcDbScale
 70
     0
300
6" = 1'-0"
140
6.0
141
12.0
290
     0
  0
SCALE
  5
68
102
{ACAD_REACTORS
330
47
102
}
330
47
100
AcDbScale
 70
     0
300
1'-0" = 1'-0"
140
12.0
141
12.0
290
     0
  0
ENDSEC
  0
EOF
