  0
SECTION
  2
HEADER
  9
$ACADVER
  1
AC1015
  9
$ACADMAINTVER
 70
     6
  9
$DWGCODEPAGE
  3
DOS932
  9
$INSBASE
 10
0.0
 20
0.0
 30
0.0
  9
$EXTMIN
 10
0.0
 20
0.0
 30
0.0
  9
$EXTMAX
 10
44.0
 20
34.0
 30
0.0
  9
$LIMMIN
 10
0.0
 20
0.0
  9
$LIMMAX
 10
44.0
 20
34.0
  9
$ORTHOMODE
 70
     0
  9
$REGENMODE
 70
     1
  9
$FILLMODE
 70
     1
  9
$QTEXTMODE
 70
     0
  9
$MIRRTEXT
 70
     1
  9
$LTSCALE
 40
1.0
  9
$ATTMODE
 70
     1
  9
$TEXTSIZE
 40
0.1377952756
  9
$TRACEWID
 40
0.05
  9
$TEXTSTYLE
  7
Standard
  9
$CLAYER
  8
0
  9
$CELTYPE
  6
ByLayer
  9
$CECOLOR
 62
   256
  9
$CELTSCALE
 40
1.0
  9
$DISPSILH
 70
     0
  9
$DIMSCALE
 40
1.0
  9
$DIMASZ
 40
0.14
  9
$DIMEXO
 40
0.0393700787
  9
$DIMDLI
 40
0.38
  9
$DIMRND
 40
0.0
  9
$DIMDLE
 40
0.0
  9
$DIMEXE
 40
0.0393700787
  9
$DIMTP
 40
0.0
  9
$DIMTM
 40
0.0
  9
$DIMTXT
 40
0.1377952756
  9
$DIMCEN
 40
0.09
  9
$DIMTSZ
 40
0.0
  9
$DIMTOL
 70
     0
  9
$DIMLIM
 70
     0
  9
$DIMTIH
 70
     1
  9
$DIMTOH
 70
     1
  9
$DIMSE1
 70
     0
  9
$DIMSE2
 70
     0
  9
$DIMTAD
 70
     1
  9
$DIMZIN
 70
     1
  9
$DIMBLK
  1

  9
$DIMASO
 70
     1
  9
$DIMSHO
 70
     1
  9
$DIMPOST
  1

  9
$DIMAPOST
  1

  9
$DIMALT
 70
     0
  9
$DIMALTD
 70
     2
  9
$DIMALTF
 40
25.4
  9
$DIMLFAC
 40
1.0
  9
$DIMTOFL
 70
     0
  9
$DIMTVP
 40
0.0
  9
$DIMTIX
 70
     0
  9
$DIMSOXD
 70
     0
  9
$DIMSAH
 70
     0
  9
$DIMBLK1
  1

  9
$DIMBLK2
  1

  9
$DIMSTYLE
  2
Standard
  9
$DIMCLRD
 70
     0
  9
$DIMCLRE
 70
     0
  9
$DIMCLRT
 70
     0
  9
$DIMTFAC
 40
1.0
  9
$DIMGAP
 40
0.06
  9
$DIMJUST
 70
     0
  9
$DIMSD1
 70
     0
  9
$DIMSD2
 70
     0
  9
$DIMTOLJ
 70
     1
  9
$DIMTZIN
 70
     1
  9
$DIMALTZ
 70
     0
  9
$DIMALTTZ
 70
     0
  9
$DIMUPT
 70
     0
  9
$DIMDEC
 70
     0
  9
$DIMTDEC
 70
     4
  9
$DIMALTU
 70
     2
  9
$DIMALTTD
 70
     2
  9
$DIMTXSTY
  7
Standard
  9
$DIMAUNIT
 70
     0
  9
$DIMADEC
 70
     0
  9
$DIMALTRND
 40
0.0
  9
$DIMAZIN
 70
     0
  9
$DIMDSEP
 70
    46
  9
$DIMATFIT
 70
     3
  9
$DIMFRAC
 70
     0
  9
$DIMLDRBLK
  1

  9
$DIMLUNIT
 70
     2
  9
$DIMLWD
 70
    -2
  9
$DIMLWE
 70
    -2
  9
$DIMTMOVE
 70
     0
  9
$LUNITS
 70
     2
  9
$LUPREC
 70
     4
  9
$SKETCHINC
 40
0.1
  9
$FILLETRAD
 40
0.5
  9
$AUNITS
 70
     0
  9
$AUPREC
 70
     0
  9
$MENU
  1
.
  9
$ELEVATION
 40
0.0
  9
$PELEVATION
 40
0.0
  9
$THICKNESS
 40
0.0
  9
$LIMCHECK
 70
     0
  9
$CHAMFERA
 40
0.0
  9
$CHAMFERB
 40
0.0
  9
$CHAMFERC
 40
0.0
  9
$CHAMFERD
 40
0.0
  9
$SKPOLY
 70
     0
  9
$TDCREATE
 40
2459691.448570023
  9
$TDUCREATE
 40
2459691.073570023
  9
$TDUPDATE
 40
2459691.448573461
  9
$TDUUPDATE
 40
2459691.073573461
  9
$TDINDWG
 40
0.0000000116
  9
$TDUSRTIMER
 40
0.0000000116
  9
$USRTIMER
 70
     1
  9
$ANGBASE
 50
0.0
  9
$ANGDIR
 70
     0
  9
$PDMODE
 70
     0
  9
$PDSIZE
 40
-1.0
  9
$PLINEWID
 40
0.0
  9
$SPLFRAME
 70
     0
  9
$SPLINETYPE
 70
     6
  9
$SPLINESEGS
 70
     8
  9
$HANDSEED
  5
57C
  9
$SURFTAB1
 70
     6
  9
$SURFTAB2
 70
     6
  9
$SURFTYPE
 70
     6
  9
$SURFU
 70
     6
  9
$SURFV
 70
     6
  9
$UCSBASE
  2

  9
$UCSNAME
  2

  9
$UCSORG
 10
0.0
 20
0.0
 30
0.0
  9
$UCSXDIR
 10
1.0
 20
0.0
 30
0.0
  9
$UCSYDIR
 10
0.0
 20
1.0
 30
0.0
  9
$UCSORTHOREF
  2

  9
$UCSORTHOVIEW
 70
     0
  9
$UCSORGTOP
 10
0.0
 20
0.0
 30
0.0
  9
$UCSORGBOTTOM
 10
0.0
 20
0.0
 30
0.0
  9
$UCSORGLEFT
 10
0.0
 20
0.0
 30
0.0
  9
$UCSORGRIGHT
 10
0.0
 20
0.0
 30
0.0
  9
$UCSORGFRONT
 10
0.0
 20
0.0
 30
0.0
  9
$UCSORGBACK
 10
0.0
 20
0.0
 30
0.0
  9
$PUCSBASE
  2

  9
$PUCSNAME
  2

  9
$PUCSORG
 10
0.0
 20
0.0
 30
0.0
  9
$PUCSXDIR
 10
1.0
 20
0.0
 30
0.0
  9
$PUCSYDIR
 10
0.0
 20
1.0
 30
0.0
  9
$PUCSORTHOREF
  2

  9
$PUCSORTHOVIEW
 70
     0
  9
$PUCSORGTOP
 10
0.0
 20
0.0
 30
0.0
  9
$PUCSORGBOTTOM
 10
0.0
 20
0.0
 30
0.0
  9
$PUCSORGLEFT
 10
0.0
 20
0.0
 30
0.0
  9
$PUCSORGRIGHT
 10
0.0
 20
0.0
 30
0.0
  9
$PUCSORGFRONT
 10
0.0
 20
0.0
 30
0.0
  9
$PUCSORGBACK
 10
0.0
 20
0.0
 30
0.0
  9
$USERI1
 70
     0
  9
$USERI2
 70
     0
  9
$USERI3
 70
     0
  9
$USERI4
 70
     0
  9
$USERI5
 70
     0
  9
$USERR1
 40
0.0
  9
$USERR2
 40
0.0
  9
$USERR3
 40
0.0
  9
$USERR4
 40
0.0
  9
$USERR5
 40
0.0
  9
$WORLDVIEW
 70
     1
  9
$SHADEDGE
 70
     3
  9
$SHADEDIF
 70
    70
  9
$TILEMODE
 70
     0
  9
$MAXACTVP
 70
    64
  9
$PINSBASE
 10
0.0
 20
0.0
 30
0.0
  9
$PLIMCHECK
 70
     0
  9
$PEXTMIN
 10
0.0
 20
0.0
 30
0.0
  9
$PEXTMAX
 10
44.0
 20
34.0
 30
0.0
  9
$PLIMMIN
 10
0.0
 20
0.0
  9
$PLIMMAX
 10
44.0
 20
34.0
  9
$UNITMODE
 70
     0
  9
$VISRETAIN
 70
     1
  9
$PLINEGEN
 70
     0
  9
$PSLTSCALE
 70
     1
  9
$TREEDEPTH
 70
  3020
  9
$CMLSTYLE
  2
Standard
  9
$CMLJUST
 70
     0
  9
$CMLSCALE
 40
1.0
  9
$PROXYGRAPHICS
 70
     1
  9
$MEASUREMENT
 70
     0
  9
$CELWEIGHT
370
    -1
  9
$ENDCAPS
280
     0
  9
$JOINSTYLE
280
     0
  9
$LWDISPLAY
290
     1
  9
$INSUNITS
 70
     1
  9
$HYPERLINKBASE
  1

  9
$STYLESHEET
  1

  9
$XEDIT
290
     1
  9
$CEPSNTYPE
380
     0
  9
$PSTYLEMODE
290
     1
  9
$FINGERPRINTGUID
  2
{a913fbdd-09bf-4e71-b413-604c321479fd}
  9
$VERSIONGUID
  2
{FAEB1C32-E019-11D5-929B-00C0DF256EC4}
  9
$EXTNAMES
290
     1
  9
$PSVPSCALE
 40
0.0
  9
$OLESTARTUP
290
     0
  0
ENDSEC
  0
SECTION
  2
CLASSES
  0
CLASS
  1
ACDBDICTIONARYWDFLT
  2
AcDbDictionaryWithDefault
  3
ObjectDBX Classes
 90
        0
280
     0
281
     0
  0
CLASS
  1
VISUALSTYLE
  2
AcDbVisualStyle
  3
ObjectDBX Classes
 90
     4095
280
     0
281
     0
  0
CLASS
  1
MATERIAL
  2
AcDbMaterial
  3
ObjectDBX Classes
 90
     1153
280
     0
281
     0
  0
CLASS
  1
SCALE
  2
AcDbScale
  3
ObjectDBX Classes
 90
     1153
280
     0
281
     0
  0
CLASS
  1
TABLESTYLE
  2
AcDbTableStyle
  3
ObjectDBX Classes
 90
     4095
280
     0
281
     0
  0
CLASS
  1
MLEADERSTYLE
  2
AcDbMLeaderStyle
  3
ACDB_MLEADERSTYLE_CLASS
 90
     4095
280
     0
281
     0
  0
CLASS
  1
SUN
  2
AcDbSun
  3
SCENEOE
 90
     1153
280
     0
281
     0
  0
CLASS
  1
ACDBPLACEHOLDER
  2
AcDbPlaceHolder
  3
ObjectDBX Classes
 90
        0
280
     0
281
     0
  0
CLASS
  1
LAYOUT
  2
AcDbLayout
  3
ObjectDBX Classes
 90
        0
280
     0
281
     0
  0
ENDSEC
  0
SECTION
  2
TABLES
  0
TABLE
  2
VPORT
  5
8
330
0
100
AcDbSymbolTable
 70
     1
  0
VPORT
  5
29
330
8
100
AcDbSymbolTableRecord
100
AcDbViewportTableRecord
  2
*Active
 70
     0
 10
0.0
 20
0.0
 11
1.0
 21
1.0
 12
22.0
 22
17.0
 13
0.0
 23
0.0
 14
0.5
 24
0.5
 15
0.5
 25
0.5
 16
0.0
 26
0.0
 36
1.0
 17
0.0
 27
0.0
 37
0.0
 40
34.0
 41
1.2941176471
 42
50.0
 43
0.0
 44
0.0
 50
0.0
 51
0.0
 71
     0
 72
  2000
 73
     1
 74
     3
 75
     0
 76
     0
 77
     0
 78
     0
281
     0
 65
     1
110
0.0
120
0.0
130
0.0
111
1.0
121
0.0
131
0.0
112
0.0
122
1.0
132
0.0
 79
     0
146
0.0
  0
ENDTAB
  0
TABLE
  2
LTYPE
  5
5
330
0
100
AcDbSymbolTable
 70
     6
  0
LTYPE
  5
14
330
5
100
AcDbSymbolTableRecord
100
AcDbLinetypeTableRecord
  2
ByBlock
 70
     0
  3

 72
    65
 73
     0
 40
0.0
  0
LTYPE
  5
15
330
5
100
AcDbSymbolTableRecord
100
AcDbLinetypeTableRecord
  2
ByLayer
 70
     0
  3

 72
    65
 73
     0
 40
0.0
  0
LTYPE
  5
16
330
5
100
AcDbSymbolTableRecord
100
AcDbLinetypeTableRecord
  2
Continuous
 70
     0
  3
Solid line
 72
    65
 73
     0
 40
0.0
  0
LTYPE
  5
6E
330
5
100
AcDbSymbolTableRecord
100
AcDbLinetypeTableRecord
  2
HIDDEN
 70
     0
  3
Hidden __ __ __ __ __ __ __ __ __ __ __ __ __ __
 72
    65
 73
     2
 40
0.075
 49
0.05
 74
     0
 49
-0.025
 74
     0
  0
LTYPE
  5
6F
330
5
100
AcDbSymbolTableRecord
100
AcDbLinetypeTableRecord
  2
PHANTOM
 70
     0
  3
Phantom ______  __  __  ______  __  __  ______
 72
    65
 73
     6
 40
0.5
 49
0.25
 74
     0
 49
-0.05
 74
     0
 49
0.05
 74
     0
 49
-0.05
 74
     0
 49
0.05
 74
     0
 49
-0.05
 74
     0
  0
LTYPE
  5
70
330
5
100
AcDbSymbolTableRecord
100
AcDbLinetypeTableRecord
  2
CENTER
 70
     0
  3
Center ____ _ ____ _ ____ _ ____ _ ____ _ ____
 72
    65
 73
     4
 40
0.4
 49
0.25
 74
     0
 49
-0.05
 74
     0
 49
0.05
 74
     0
 49
-0.05
 74
     0
  0
LTYPE
  5
71
330
5
100
AcDbSymbolTableRecord
100
AcDbLinetypeTableRecord
  2
CENTERX2
 70
     0
  3
Center (2x) ________  __  ________  __  _____
 72
    65
 73
     4
 40
0.8
 49
0.5
 74
     0
 49
-0.1
 74
     0
 49
0.1
 74
     0
 49
-0.1
 74
     0
  0
LTYPE
  5
72
330
5
100
AcDbSymbolTableRecord
100
AcDbLinetypeTableRecord
  2
DOT2
 70
     0
  3
Dot (.5x) ........................................
 72
    65
 73
     2
 40
0.025
 49
0.0
 74
     0
 49
-0.025
 74
     0
  0
ENDTAB
  0
TABLE
  2
LAYER
  5
2
330
0
100
AcDbSymbolTable
 70
     4
  0
LAYER
  5
10
330
2
100
AcDbSymbolTableRecord
100
AcDbLayerTableRecord
  2
0
 70
     0
 62
     7
  6
Continuous
370
    -3
390
F
  0
LAYER
  5
73
330
2
100
AcDbSymbolTableRecord
100
AcDbLayerTableRecord
  2
SLD-0
 70
     0
 62
     7
  6
Continuous
370
    -3
390
F
  0
LAYER
  5
74
330
2
100
AcDbSymbolTableRecord
100
AcDbLayerTableRecord
  2
1
 70
     0
 62
     7
  6
Continuous
370
    -3
390
F
  0
LAYER
  5
75
330
2
100
AcDbSymbolTableRecord
100
AcDbLayerTableRecord
  2
2
 70
     0
 62
     7
  6
Continuous
370
    -3
390
F
  0
ENDTAB
  0
TABLE
  2
STYLE
  5
3
330
0
100
AcDbSymbolTable
 70
     5
  0
STYLE
  5
11
330
3
100
AcDbSymbolTableRecord
100
AcDbTextStyleTableRecord
  2
Standard
 70
     0
 40
0.0
 41
1.0
 50
0.0
 71
     0
 42
0.1377952756
  3
txt
  4
bigfont
  0
STYLE
  5
80
330
3
100
AcDbSymbolTableRecord
100
AcDbTextStyleTableRecord
  2
SLDTEXTSTYLE0
 70
     0
 40
0.0
 41
0.864
 50
0.0
 71
     0
 42
0.1377952756
  3
TXT
  4
bigfont
  0
STYLE
  5
82
330
3
100
AcDbSymbolTableRecord
100
AcDbTextStyleTableRecord
  2
SLDTEXTSTYLE1
 70
     0
 40
0.0
 41
0.63
 50
0.0
 71
     0
 42
0.1377952756
  3
TXT
  4
bigfont
  0
STYLE
  5
52B
330
3
100
AcDbSymbolTableRecord
100
AcDbTextStyleTableRecord
  2
SLDTEXTSTYLE2
 70
     0
 40
0.0
 41
0.9
 50
0.0
 71
     0
 42
0.1377952756
  3
TXT
  4
bigfont
  0
STYLE
  5
53C
330
3
100
AcDbSymbolTableRecord
100
AcDbTextStyleTableRecord
  2
SLDTEXTSTYLE3
 70
     0
 40
0.0
 41
0.96
 50
0.0
 71
     0
 42
0.1377952756
  3
TXT
  4
bigfont
  0
ENDTAB
  0
TABLE
  2
VIEW
  5
6
330
0
100
AcDbSymbolTable
 70
     0
  0
ENDTAB
  0
TABLE
  2
UCS
  5
7
330
0
100
AcDbSymbolTable
 70
     0
  0
ENDTAB
  0
TABLE
  2
APPID
  5
9
330
0
100
AcDbSymbolTable
 70
     1
  0
APPID
  5
12
330
9
100
AcDbSymbolTableRecord
100
AcDbRegAppTableRecord
  2
ACAD
 70
     0
  0
ENDTAB
  0
TABLE
  2
DIMSTYLE
  5
A
330
0
100
AcDbSymbolTable
 70
     2
100
AcDbDimStyleTable
  0
DIMSTYLE
105
27
330
A
100
AcDbSymbolTableRecord
100
AcDbDimStyleTableRecord
  2
Standard
 70
     0
178
     0
340
11
  0
DIMSTYLE
105
52C
102
{ACAD_REACTORS
330
52A
330
53E
330
54A
330
556
330
562
330
56E
102
}
330
A
100
AcDbSymbolTableRecord
100
AcDbDimStyleTableRecord
  2
SLDDIMSTYLE0
 70
     0
 41
0.14
 44
0.0
 45
0.000000001
 73
     0
 74
     0
 77
     1
 78
    12
 79
     3
140
12.0
147
3.0
173
     1
178
     0
271
     0
276
     2
284
    12
340
52B
341
52D
343
52D
344
52D
  0
ENDTAB
  0
TABLE
  2
BLOCK_RECORD
  5
1
330
0
100
AcDbSymbolTable
 70
     9
  0
BLOCK_RECORD
  5
1F
330
1
100
AcDbSymbolTableRecord
100
AcDbBlockTableRecord
  2
*Model_Space
340
22
  0
BLOCK_RECORD
  5
1B
330
1
100
AcDbSymbolTableRecord
100
AcDbBlockTableRecord
  2
*Paper_Space
340
1E
  0
BLOCK_RECORD
  5
76
330
1
100
AcDbSymbolTableRecord
100
AcDbBlockTableRecord
  2
_D12
340
0
102
{BLKREFS
331
529
102
}
  0
BLOCK_RECORD
  5
7D
330
1
100
AcDbSymbolTableRecord
100
AcDbBlockTableRecord
  2
SW_NOTE_0
340
0
102
{BLKREFS
331
84
102
}
  0
BLOCK_RECORD
  5
52D
330
1
100
AcDbSymbolTableRecord
100
AcDbBlockTableRecord
  2
_None
340
0
  0
BLOCK_RECORD
  5
530
330
1
100
AcDbSymbolTableRecord
100
AcDbBlockTableRecord
  2
_D
340
0
  0
BLOCK_RECORD
  5
53F
330
1
100
AcDbSymbolTableRecord
100
AcDbBlockTableRecord
  2
_D_1
340
0
  0
BLOCK_RECORD
  5
54B
330
1
100
AcDbSymbolTableRecord
100
AcDbBlockTableRecord
  2
_D_2
340
0
  0
BLOCK_RECORD
  5
557
330
1
100
AcDbSymbolTableRecord
100
AcDbBlockTableRecord
  2
_D_3
340
0
  0
BLOCK_RECORD
  5
563
330
1
100
AcDbSymbolTableRecord
100
AcDbBlockTableRecord
  2
_D_4
340
0
  0
BLOCK_RECORD
  5
56F
330
1
100
AcDbSymbolTableRecord
100
AcDbBlockTableRecord
  2
_D_5
340
0
  0
ENDTAB
  0
ENDSEC
  0
SECTION
  2
BLOCKS
  0
BLOCK
  5
20
330
1F
100
AcDbEntity
  8
0
100
AcDbBlockBegin
  2
*Model_Space
 70
     0
 10
0.0
 20
0.0
 30
0.0
  3
*Model_Space
  1

  0
ENDBLK
  5
21
330
1F
100
AcDbEntity
  8
0
100
AcDbBlockEnd
  0
BLOCK
  5
1C
330
1B
100
AcDbEntity
 67
     1
  8
0
100
AcDbBlockBegin
  2
*Paper_Space
 70
     0
 10
0.0
 20
0.0
 30
0.0
  3
*Paper_Space
  1

  0
ENDBLK
  5
1D
330
1B
100
AcDbEntity
 67
     1
  8
0
100
AcDbBlockEnd
  0
BLOCK
  5
77
330
76
100
AcDbEntity
  8
0
100
AcDbBlockBegin
  2
_D12
 70
     0
 10
0.0
 20
0.0
 30
0.0
  3
_D12
  1

  0
LINE
  5
79
330
76
100
AcDbEntity
  8
1
  6
Continuous
 62
     2
100
AcDbLine
 10
-687.6063770131
 20
-6.883458163
 30
0.0
 11
-591.2820214055
 21
-6.883458163
 31
0.0
  0
LINE
  5
7A
330
76
100
AcDbEntity
  8
1
  6
Continuous
 62
     2
100
AcDbLine
 10
-687.6063770131
 20
-32.5613863553
 30
0.0
 11
-687.6063770131
 21
-2.883458163
 31
0.0
  0
LINE
  5
7B
330
76
100
AcDbEntity
  8
1
 62
     2
100
AcDbLine
 10
-687.6063770131
 20
-6.883458163
 30
0.0
 11
-679.6063770131
 21
-4.7398646235
 31
0.0
  0
LINE
  5
7C
330
76
100
AcDbEntity
  8
1
 62
     2
100
AcDbLine
 10
-687.6063770131
 20
-6.883458163
 30
0.0
 11
-679.6063770131
 21
-9.0270517024
 31
0.0
  0
INSERT
  5
84
330
76
100
AcDbEntity
  8
1
 62
     2
100
AcDbBlockReference
  2
SW_NOTE_0
 10
-640.6689512322
 20
-4.1328451715
 30
0.0
  0
ENDBLK
  5
78
330
76
100
AcDbEntity
  8
0
100
AcDbBlockEnd
  0
BLOCK
  5
7E
330
7D
100
AcDbEntity
  8
0
100
AcDbBlockBegin
  2
SW_NOTE_0
 70
     0
 10
0.0
 20
0.0
 30
0.0
  3
SW_NOTE_0
  1

  0
MTEXT
  5
81
330
7D
100
AcDbEntity
  8
1
 62
     0
100
AcDbMText
 10
-0.0000374975
 20
15.4688128772
 30
0.0
 40
12.0
 41
0.0
 71
     1
 72
     1
  1
1800
  7
SLDTEXTSTYLE0
 11
0.9999999999970619
 21
2.424068405557491E-6
 31
0.0
 73
     1
 44
1.0
  0
MTEXT
  5
83
330
7D
100
AcDbEntity
  8
1
 62
     0
100
AcDbMText
 10
35.9332902731
 20
17.8689000704
 30
0.0
 40
12.0
 41
0.0
 71
     1
 72
     1
  1
以上
  7
SLDTEXTSTYLE1
 11
0.9999999999970619
 21
2.424068405557491E-6
 31
0.0
 73
     1
 44
1.0
  0
ENDBLK
  5
7F
330
7D
100
AcDbEntity
  8
0
100
AcDbBlockEnd
  0
BLOCK
  5
52E
330
52D
100
AcDbEntity
  8
0
100
AcDbBlockBegin
  2
_None
 70
     0
 10
0.0
 20
0.0
 30
0.0
  3
_None
  1

  0
ENDBLK
  5
52F
330
52D
100
AcDbEntity
  8
0
100
AcDbBlockEnd
  0
BLOCK
  5
531
330
530
100
AcDbEntity
  8
0
100
AcDbBlockBegin
  2
_D
 70
     0
 10
0.0
 20
0.0
 30
0.0
  3
_D
  1

  0
LINE
  5
533
330
530
100
AcDbEntity
  8
1
100
AcDbLine
 10
-607.9065296258
 20
19.1507509778
 30
0.0
 11
-587.6848814727
 21
19.1507509778
 31
0.0
  0
LINE
  5
534
330
530
100
AcDbEntity
  8
1
100
AcDbLine
 10
-619.9065138483
 20
19.1507509778
 30
0.0
 11
-607.9065296258
 21
19.1507509778
 31
0.0
  0
LINE
  5
535
330
530
100
AcDbEntity
  8
1
100
AcDbLine
 10
-635.9065138483
 20
19.1507509778
 30
0.0
 11
-619.9065138483
 21
19.1507509778
 31
0.0
  0
LINE
  5
536
330
530
100
AcDbEntity
  8
1
100
AcDbLine
 10
-607.9065296258
 20
95.9618645817
 30
0.0
 11
-607.9065296258
 21
15.1507509778
 31
0.0
  0
LINE
  5
537
330
530
100
AcDbEntity
  8
1
100
AcDbLine
 10
-619.9065138483
 20
39.6506150747
 30
0.0
 11
-619.9065138483
 21
15.1507509778
 31
0.0
  0
LINE
  5
538
330
530
100
AcDbEntity
  8
1
100
AcDbLine
 10
-619.9065138483
 20
19.1507509778
 30
0.0
 11
-627.9065138483
 21
17.0071574384
 31
0.0
  0
LINE
  5
539
330
530
100
AcDbEntity
  8
1
100
AcDbLine
 10
-619.9065138483
 20
19.1507509778
 30
0.0
 11
-627.9065138483
 21
21.2943445173
 31
0.0
  0
LINE
  5
53A
330
530
100
AcDbEntity
  8
1
100
AcDbLine
 10
-607.9065296258
 20
19.1507509778
 30
0.0
 11
-599.9065296258
 21
21.2943445173
 31
0.0
  0
LINE
  5
53B
330
530
100
AcDbEntity
  8
1
100
AcDbLine
 10
-607.9065296258
 20
19.1507509778
 30
0.0
 11
-599.9065296258
 21
17.0071574384
 31
0.0
  0
MTEXT
  5
53D
330
530
100
AcDbEntity
  8
1
100
AcDbMText
 10
-599.9260875028
 20
38.6195638551
 30
0.0
 40
12.0
 41
0.0
 71
     1
 72
     1
  1
12
  7
SLDTEXTSTYLE3
 73
     1
 44
1.0
  0
ENDBLK
  5
532
330
530
100
AcDbEntity
  8
0
100
AcDbBlockEnd
  0
BLOCK
  5
540
330
53F
100
AcDbEntity
  8
0
100
AcDbBlockBegin
  2
_D_1
 70
     0
 10
0.0
 20
0.0
 30
0.0
  3
_D_1
  1

  0
LINE
  5
542
330
53F
100
AcDbEntity
  8
1
100
AcDbLine
 10
-919.9065138483
 20
19.1519513226
 30
0.0
 11
-619.9065138483
 21
19.1519513226
 31
0.0
  0
LINE
  5
543
330
53F
100
AcDbEntity
  8
1
100
AcDbLine
 10
-619.9065138483
 20
39.6506150747
 30
0.0
 11
-619.9065138483
 21
15.1519513226
 31
0.0
  0
LINE
  5
544
330
53F
100
AcDbEntity
  8
1
100
AcDbLine
 10
-919.9065138483
 20
39.6506150747
 30
0.0
 11
-919.9065138483
 21
15.1519513226
 31
0.0
  0
LINE
  5
545
330
53F
100
AcDbEntity
  8
1
100
AcDbLine
 10
-919.9065138483
 20
19.1519513226
 30
0.0
 11
-911.9065138483
 21
21.2955448621
 31
0.0
  0
LINE
  5
546
330
53F
100
AcDbEntity
  8
1
100
AcDbLine
 10
-919.9065138483
 20
19.1519513226
 30
0.0
 11
-911.9065138483
 21
17.0083577832
 31
0.0
  0
LINE
  5
547
330
53F
100
AcDbEntity
  8
1
100
AcDbLine
 10
-619.9065138483
 20
19.1519513226
 30
0.0
 11
-627.9065138483
 21
17.0083577832
 31
0.0
  0
LINE
  5
548
330
53F
100
AcDbEntity
  8
1
100
AcDbLine
 10
-619.9065138483
 20
19.1519513226
 30
0.0
 11
-627.9065138483
 21
21.2955448621
 31
0.0
  0
MTEXT
  5
549
330
53F
100
AcDbEntity
  8
1
100
AcDbMText
 10
-784.1738690818
 20
38.6207641999
 30
0.0
 40
12.0
 41
0.0
 71
     1
 72
     1
  1
300
  7
SLDTEXTSTYLE3
 73
     1
 44
1.0
  0
ENDBLK
  5
541
330
53F
100
AcDbEntity
  8
0
100
AcDbBlockEnd
  0
BLOCK
  5
54C
330
54B
100
AcDbEntity
  8
0
100
AcDbBlockBegin
  2
_D_2
 70
     0
 10
0.0
 20
0.0
 30
0.0
  3
_D_2
  1

  0
LINE
  5
54E
330
54B
100
AcDbEntity
  8
1
100
AcDbLine
 10
-521.9065138483
 20
11.1441229869
 30
0.0
 11
-371.9065138483
 21
11.1441229869
 31
0.0
  0
LINE
  5
54F
330
54B
100
AcDbEntity
  8
1
100
AcDbLine
 10
-371.9065138483
 20
39.6506150747
 30
0.0
 11
-371.9065138483
 21
7.1441229869
 31
0.0
  0
LINE
  5
550
330
54B
100
AcDbEntity
  8
1
100
AcDbLine
 10
-521.9065138483
 20
39.6506150747
 30
0.0
 11
-521.9065138483
 21
7.1441229869
 31
0.0
  0
LINE
  5
551
330
54B
100
AcDbEntity
  8
1
100
AcDbLine
 10
-521.9065138483
 20
11.1441229869
 30
0.0
 11
-513.9065138483
 21
13.2877165263
 31
0.0
  0
LINE
  5
552
330
54B
100
AcDbEntity
  8
1
100
AcDbLine
 10
-521.9065138483
 20
11.1441229869
 30
0.0
 11
-513.9065138483
 21
9.0005294474
 31
0.0
  0
LINE
  5
553
330
54B
100
AcDbEntity
  8
1
100
AcDbLine
 10
-371.9065138483
 20
11.1441229869
 30
0.0
 11
-379.9065138483
 21
9.0005294474
 31
0.0
  0
LINE
  5
554
330
54B
100
AcDbEntity
  8
1
100
AcDbLine
 10
-371.9065138483
 20
11.1441229869
 30
0.0
 11
-379.9065138483
 21
13.2877165263
 31
0.0
  0
MTEXT
  5
555
330
54B
100
AcDbEntity
  8
1
100
AcDbMText
 10
-456.4040012855
 20
30.6129358642
 30
0.0
 40
12.0
 41
0.0
 71
     1
 72
     1
  1
150
  7
SLDTEXTSTYLE3
 73
     1
 44
1.0
  0
ENDBLK
  5
54D
330
54B
100
AcDbEntity
  8
0
100
AcDbBlockEnd
  0
BLOCK
  5
558
330
557
100
AcDbEntity
  8
0
100
AcDbBlockBegin
  2
_D_3
 70
     0
 10
0.0
 20
0.0
 30
0.0
  3
_D_3
  1

  0
LINE
  5
55A
330
557
100
AcDbEntity
  8
1
100
AcDbLine
 10
-338.9405434208
 20
316.6506150747
 30
0.0
 11
-338.9405434208
 21
38.6506150747
 31
0.0
  0
LINE
  5
55B
330
557
100
AcDbEntity
  8
1
100
AcDbLine
 10
-506.9065138483
 20
38.6506150747
 30
0.0
 11
-334.9405434208
 21
38.6506150747
 31
0.0
  0
LINE
  5
55C
330
557
100
AcDbEntity
  8
1
100
AcDbLine
 10
-502.5672546051
 20
316.6506150747
 30
0.0
 11
-334.9405434208
 21
316.6506150747
 31
0.0
  0
LINE
  5
55D
330
557
100
AcDbEntity
  8
1
100
AcDbLine
 10
-338.9405434208
 20
316.6506150747
 30
0.0
 11
-336.7969498813
 21
308.6506150747
 31
0.0
  0
LINE
  5
55E
330
557
100
AcDbEntity
  8
1
100
AcDbLine
 10
-338.9405434208
 20
316.6506150747
 30
0.0
 11
-341.0841369602
 21
308.6506150747
 31
0.0
  0
LINE
  5
55F
330
557
100
AcDbEntity
  8
1
100
AcDbLine
 10
-338.9405434208
 20
38.6506150747
 30
0.0
 11
-341.0841369602
 21
46.6506150747
 31
0.0
  0
LINE
  5
560
330
557
100
AcDbEntity
  8
1
100
AcDbLine
 10
-338.9405434208
 20
38.6506150747
 30
0.0
 11
-336.7969498813
 21
46.6506150747
 31
0.0
  0
MTEXT
  5
561
330
557
100
AcDbEntity
  8
1
100
AcDbMText
 10
-358.409356298
 20
168.1229768838
 30
0.0
 40
12.0
 41
0.0
 71
     1
 72
     1
  1
278
  7
SLDTEXTSTYLE3
 11
6.123233995736766E-17
 21
1.0
 31
0.0
 73
     1
 44
1.0
  0
ENDBLK
  5
559
330
557
100
AcDbEntity
  8
0
100
AcDbBlockEnd
  0
BLOCK
  5
564
330
563
100
AcDbEntity
  8
0
100
AcDbBlockBegin
  2
_D_4
 70
     0
 10
0.0
 20
0.0
 30
0.0
  3
_D_4
  1

  0
LINE
  5
566
330
563
100
AcDbEntity
  8
1
100
AcDbLine
 10
-533.6299978606
 20
116.6506150747
 30
0.0
 11
-533.6299978606
 21
38.6506150747
 31
0.0
  0
LINE
  5
567
330
563
100
AcDbEntity
  8
1
100
AcDbLine
 10
-627.4065138483
 20
38.6506150747
 30
0.0
 11
-529.6299978606
 21
38.6506150747
 31
0.0
  0
LINE
  5
568
330
563
100
AcDbEntity
  8
1
100
AcDbLine
 10
-602.4083533182
 20
116.6506150747
 30
0.0
 11
-529.6299978606
 21
116.6506150747
 31
0.0
  0
LINE
  5
569
330
563
100
AcDbEntity
  8
1
100
AcDbLine
 10
-533.6299978606
 20
116.6506150747
 30
0.0
 11
-531.4864043212
 21
108.6506150747
 31
0.0
  0
LINE
  5
56A
330
563
100
AcDbEntity
  8
1
100
AcDbLine
 10
-533.6299978606
 20
116.6506150747
 30
0.0
 11
-535.7735914001
 21
108.6506150747
 31
0.0
  0
LINE
  5
56B
330
563
100
AcDbEntity
  8
1
100
AcDbLine
 10
-533.6299978606
 20
38.6506150747
 30
0.0
 11
-535.7735914001
 21
46.6506150747
 31
0.0
  0
LINE
  5
56C
330
563
100
AcDbEntity
  8
1
100
AcDbLine
 10
-533.6299978606
 20
38.6506150747
 30
0.0
 11
-531.4864043212
 21
46.6506150747
 31
0.0
  0
MTEXT
  5
56D
330
563
100
AcDbEntity
  8
1
100
AcDbMText
 10
-553.0988107379
 20
71.4094090446
 30
0.0
 40
12.0
 41
0.0
 71
     1
 72
     1
  1
78
  7
SLDTEXTSTYLE3
 11
6.123233995736766E-17
 21
1.0
 31
0.0
 73
     1
 44
1.0
  0
ENDBLK
  5
565
330
563
100
AcDbEntity
  8
0
100
AcDbBlockEnd
  0
BLOCK
  5
570
330
56F
100
AcDbEntity
  8
0
100
AcDbBlockBegin
  2
_D_5
 70
     0
 10
0.0
 20
0.0
 30
0.0
  3
_D_5
  1

  0
LINE
  5
572
330
56F
100
AcDbEntity
  8
1
100
AcDbLine
 10
-533.7134118848
 20
228.6506150747
 30
0.0
 11
-533.7134118848
 21
116.6506150747
 31
0.0
  0
LINE
  5
573
330
56F
100
AcDbEntity
  8
1
100
AcDbLine
 10
-602.4083533182
 20
116.6506150747
 30
0.0
 11
-529.7134118848
 21
116.6506150747
 31
0.0
  0
LINE
  5
574
330
56F
100
AcDbEntity
  8
1
100
AcDbLine
 10
-592.3283533182
 20
228.6506150747
 30
0.0
 11
-529.7134118848
 21
228.6506150747
 31
0.0
  0
LINE
  5
575
330
56F
100
AcDbEntity
  8
1
100
AcDbLine
 10
-533.7134118848
 20
228.6506150747
 30
0.0
 11
-531.5698183453
 21
220.6506150747
 31
0.0
  0
LINE
  5
576
330
56F
100
AcDbEntity
  8
1
100
AcDbLine
 10
-533.7134118848
 20
228.6506150747
 30
0.0
 11
-535.8570054242
 21
220.6506150747
 31
0.0
  0
LINE
  5
577
330
56F
100
AcDbEntity
  8
1
100
AcDbLine
 10
-533.7134118848
 20
116.6506150747
 30
0.0
 11
-535.8570054242
 21
124.6506150747
 31
0.0
  0
LINE
  5
578
330
56F
100
AcDbEntity
  8
1
100
AcDbLine
 10
-533.7134118848
 20
116.6506150747
 30
0.0
 11
-531.5698183453
 21
124.6506150747
 31
0.0
  0
MTEXT
  5
579
330
56F
100
AcDbEntity
  8
1
100
AcDbMText
 10
-553.182224762
 20
156.7435798989
 30
0.0
 40
12.0
 41
0.0
 71
     1
 72
     1
  1
112
  7
SLDTEXTSTYLE3
 11
6.123233995736766E-17
 21
1.0
 31
0.0
 73
     1
 44
1.0
  0
ENDBLK
  5
571
330
56F
100
AcDbEntity
  8
0
100
AcDbBlockEnd
  0
ENDSEC
  0
SECTION
  2
ENTITIES
  0
VIEWPORT
  5
85
330
1B
100
AcDbEntity
 67
     1
  8
0
100
AcDbViewport
 10
22.0
 20
17.0
 30
0.0
 40
46.552
 41
35.972
 68
     1
 69
     1
 12
22.0
 22
17.0
 13
0.0
 23
0.0
 14
0.5
 24
0.5
 15
0.5
 25
0.5
 16
0.0
 26
0.0
 36
1.0
 17
0.0
 27
0.0
 37
0.0
 42
50.0
 43
0.0
 44
0.0
 45
35.972
 50
0.0
 51
0.0
 72
   100
 90
   557152
  1

281
     0
 71
     1
 74
     0
110
0.0
120
0.0
130
0.0
111
1.0
121
0.0
131
0.0
112
0.0
122
1.0
132
0.0
 79
     0
146
0.0
  0
LINE
  5
87
330
1B
100
AcDbEntity
 67
     1
  8
1
  6
Continuous
 62
     4
100
AcDbLine
 10
-468.5065138483
 20
81.4506150747
 30
0.0
 11
-465.3065138483
 21
81.4506150747
 31
0.0
  0
LINE
  5
88
330
1B
100
AcDbEntity
 67
     1
  8
1
  6
Continuous
 62
     4
100
AcDbLine
 10
-470.1065138483
 20
83.0506150747
 30
0.0
 11
-463.7065138483
 21
83.0506150747
 31
0.0
  0
LINE
  5
89
330
1B
100
AcDbEntity
 67
     1
  8
1
  6
Continuous
 62
     4
100
AcDbLine
 10
-466.9065138483
 20
84.6506150747
 30
0.0
 11
-462.1065138483
 21
84.6506150747
 31
0.0
  0
LINE
  5
8A
330
1B
100
AcDbEntity
 67
     1
  8
1
  6
Continuous
 62
     4
100
AcDbLine
 10
-466.9065138483
 20
84.6506150747
 30
0.0
 11
-466.9065138483
 21
89.4270406671
 31
0.0
  0
LINE
  5
8B
330
1B
100
AcDbEntity
 67
     1
  8
1
  6
Continuous
 62
     4
100
AcDbLine
 10
-471.7065138483
 20
84.6506150747
 30
0.0
 11
-466.9065138483
 21
84.6506150747
 31
0.0
  0
LINE
  5
8C
330
1B
100
AcDbEntity
 67
     1
  8
1
  6
Continuous
 62
     4
100
AcDbLine
 10
-462.1383248497
 20
160.6506150747
 30
0.0
 11
-462.1383248497
 21
188.1506150747
 31
0.0
  0
LINE
  5
8D
330
1B
100
AcDbEntity
 67
     1
  8
1
  6
Continuous
 62
     4
100
AcDbLine
 10
-414.1383248497
 20
148.1506150747
 30
0.0
 11
-414.1383248497
 21
200.6506150747
 31
0.0
  0
LINE
  5
8E
330
1B
100
AcDbEntity
 67
     1
  8
1
  6
Continuous
 62
     4
100
AcDbLine
 10
-462.1383248497
 20
148.1506150747
 30
0.0
 11
-414.1383248497
 21
148.1506150747
 31
0.0
  0
LINE
  5
8F
330
1B
100
AcDbEntity
 67
     1
  8
1
  6
Continuous
 62
     4
100
AcDbLine
 10
-462.1383248497
 20
200.6506150747
 30
0.0
 11
-414.1383248497
 21
200.6506150747
 31
0.0
  0
LINE
  5
90
330
1B
100
AcDbEntity
 67
     1
  8
1
  6
Continuous
 62
     4
100
AcDbLine
 10
-482.6383248497
 20
160.6506150747
 30
0.0
 11
-482.6383248497
 21
188.1506150747
 31
0.0
  0
LINE
  5
91
330
1B
100
AcDbEntity
 67
     1
  8
1
  6
Continuous
 62
     7
100
AcDbLine
 10
-466.0257100071
 20
107.9640542916
 30
0.0
 11
-479.3182441075
 21
109.710244196
 31
0.0
  0
LINE
  5
92
330
1B
100
AcDbEntity
 67
     1
  8
1
  6
Continuous
 62
     7
100
AcDbLine
 10
-466.0257100071
 20
125.3371758579
 30
0.0
 11
-479.3182441075
 21
123.5909859535
 31
0.0
  0
LINE
  5
93
330
1B
100
AcDbEntity
 67
     1
  8
1
  6
Continuous
 62
     7
100
AcDbLine
 10
-414.494783589
 20
123.5909859535
 30
0.0
 11
-427.7873176894
 21
125.3371758579
 31
0.0
  0
LINE
  5
94
330
1B
100
AcDbEntity
 67
     1
  8
1
  6
Continuous
 62
     7
100
AcDbLine
 10
-414.494783589
 20
109.710244196
 30
0.0
 11
-427.7873176894
 21
107.9640542916
 31
0.0
  0
LINE
  5
95
330
1B
100
AcDbEntity
 67
     1
  8
1
  6
Continuous
 62
     7
100
AcDbLine
 10
-466.0257100071
 20
219.9640542916
 30
0.0
 11
-479.3182441075
 21
221.710244196
 31
0.0
  0
LINE
  5
96
330
1B
100
AcDbEntity
 67
     1
  8
1
  6
Continuous
 62
     7
100
AcDbLine
 10
-466.0257100071
 20
237.3371758579
 30
0.0
 11
-479.3182441075
 21
235.5909859535
 31
0.0
  0
LINE
  5
97
330
1B
100
AcDbEntity
 67
     1
  8
1
  6
Continuous
 62
     7
100
AcDbLine
 10
-414.494783589
 20
221.710244196
 30
0.0
 11
-427.7873176894
 21
219.9640542916
 31
0.0
  0
LINE
  5
98
330
1B
100
AcDbEntity
 67
     1
  8
1
  6
Continuous
 62
     7
100
AcDbLine
 10
-414.494783589
 20
235.5909859535
 30
0.0
 11
-427.7873176894
 21
237.3371758579
 31
0.0
  0
LINE
  5
99
330
1B
100
AcDbEntity
 67
     1
  8
1
  6
CENTERX2
 62
     6
100
AcDbLine
 10
-446.9065138483
 20
228.6506150747
 30
0.0
 11
-401.3548432807
 21
228.6506150747
 31
0.0
  0
LINE
  5
9A
330
1B
100
AcDbEntity
 67
     1
  8
1
  6
Continuous
 62
     7
100
AcDbLine
 10
-491.9065138483
 20
43.6506150747
 30
0.0
 11
-505.4463360746
 21
43.6506150747
 31
0.0
  0
LINE
  5
9B
330
1B
100
AcDbEntity
 67
     1
  8
1
  6
Continuous
 62
     7
100
AcDbLine
 10
-482.3019138483
 20
51.3506150747
 30
0.0
 11
-455.4850356742
 21
51.3506150747
 31
0.0
  0
LINE
  5
9C
330
1B
100
AcDbEntity
 67
     1
  8
1
  6
Continuous
 62
     7
100
AcDbLine
 10
-619.9065138483
 20
43.6506150747
 30
0.0
 11
-619.9065138483
 21
52.1506150747
 31
0.0
  0
LINE
  5
9D
330
1B
100
AcDbEntity
 67
     1
  8
1
  6
Continuous
 62
     7
100
AcDbLine
 10
-621.4065138483
 20
268.6506150747
 30
0.0
 11
-627.1324085702
 21
268.6506150747
 31
0.0
  0
LINE
  5
9E
330
1B
100
AcDbEntity
 67
     1
  8
1
  6
Continuous
 62
     7
100
AcDbLine
 10
-629.1321039605
 20
270.6157102619
 30
0.0
 11
-629.7469914606
 21
305.8425915456
 31
0.0
  0
LINE
  5
9F
330
1B
100
AcDbEntity
 67
     1
  8
1
  6
Continuous
 62
     7
100
AcDbLine
 10
-919.9065138483
 20
43.6506150747
 30
0.0
 11
-919.9065138483
 21
56.1506150747
 31
0.0
  0
LINE
  5
A0
330
1B
100
AcDbEntity
 67
     1
  8
1
  6
Continuous
 62
     7
100
AcDbLine
 10
-843.441119322
 20
57.1506150747
 30
0.0
 11
-827.3719083745
 21
57.1506150747
 31
0.0
  0
LINE
  5
A1
330
1B
100
AcDbEntity
 67
     1
  8
1
  6
Continuous
 62
     7
100
AcDbLine
 10
-619.9065138483
 20
43.6506150747
 30
0.0
 11
-919.9065138483
 21
43.6506150747
 31
0.0
  0
LINE
  5
A2
330
1B
100
AcDbEntity
 67
     1
  8
1
  6
Continuous
 62
     3
100
AcDbLine
 10
-845.4408147124
 20
59.1157102619
 30
0.0
 11
-849.7474484447
 21
305.8425915456
 31
0.0
  0
LINE
  5
A3
330
1B
100
AcDbEntity
 67
     1
  8
1
  6
Continuous
 62
     7
100
AcDbLine
 10
-683.441119322
 20
57.1506150747
 30
0.0
 11
-667.3719083745
 21
57.1506150747
 31
0.0
  0
LINE
  5
A4
330
1B
100
AcDbEntity
 67
     1
  8
1
  6
Continuous
 62
     7
100
AcDbLine
 10
-645.3290805791
 20
316.6506150747
 30
0.0
 11
-640.7453161073
 21
316.6506150747
 31
0.0
  0
LINE
  5
A5
330
1B
100
AcDbEntity
 67
     1
  8
1
  6
Continuous
 62
     7
100
AcDbLine
 10
-805.0672546051
 20
316.6506150747
 30
0.0
 11
-700.7457730914
 21
316.6506150747
 31
0.0
  0
LINE
  5
A6
330
1B
100
AcDbEntity
 67
     1
  8
1
  6
Continuous
 62
     3
100
AcDbLine
 10
-665.3722129842
 20
59.1157102619
 30
0.0
 11
-661.0655792519
 21
305.8425915456
 31
0.0
  0
LINE
  5
A7
330
1B
100
AcDbEntity
 67
     1
  8
1
  6
Continuous
 62
     7
100
AcDbLine
 10
-827.3719083745
 20
57.1506150747
 30
0.0
 11
-822.3719083745
 21
57.1506150747
 31
0.0
  0
LINE
  5
A8
330
1B
100
AcDbEntity
 67
     1
  8
1
  6
Continuous
 62
     7
100
AcDbLine
 10
-688.4390493377
 20
57.1506150747
 30
0.0
 11
-683.441119322
 21
57.1506150747
 31
0.0
  0
LINE
  5
A9
330
1B
100
AcDbEntity
 67
     1
  8
1
  6
Continuous
 62
     7
100
AcDbLine
 10
-667.3719083745
 20
57.1506150747
 30
0.0
 11
-662.3739783588
 21
57.1506150747
 31
0.0
  0
LINE
  5
AA
330
1B
100
AcDbEntity
 67
     1
  8
1
  6
Continuous
 62
     7
100
AcDbLine
 10
-619.9065138483
 20
52.1506150747
 30
0.0
 11
-621.4065138483
 21
268.6506150747
 31
0.0
  0
LINE
  5
AB
330
1B
100
AcDbEntity
 67
     1
  8
1
  6
Continuous
 62
     7
100
AcDbLine
 10
-902.0672546051
 20
316.6506150747
 30
0.0
 11
-865.4839471175
 21
316.6506150747
 31
0.0
  0
LINE
  5
AC
330
1B
100
AcDbEntity
 67
     1
  8
1
  6
Continuous
 62
     7
100
AcDbLine
 10
-860.7457730914
 20
316.6506150747
 30
0.0
 11
-854.6742772232
 21
316.6506150747
 31
0.0
  0
LINE
  5
AD
330
1B
100
AcDbEntity
 67
     1
  8
1
  6
Continuous
 62
     7
100
AcDbLine
 10
-650.0672546051
 20
316.6506150747
 30
0.0
 11
-656.1387504733
 21
316.6506150747
 31
0.0
  0
LINE
  5
AE
330
1B
100
AcDbEntity
 67
     1
  8
1
  6
Continuous
 62
     3
100
AcDbLine
 10
-825.3722129842
 20
59.1157102619
 30
0.0
 11
-821.0655792519
 21
305.8425915456
 31
0.0
  0
LINE
  5
AF
330
1B
100
AcDbEntity
 67
     1
  8
1
  6
Continuous
 62
     3
100
AcDbLine
 10
-685.4408147124
 20
59.1157102619
 30
0.0
 11
-689.7474484447
 21
305.8425915456
 31
0.0
  0
LINE
  5
B0
330
1B
100
AcDbEntity
 67
     1
  8
1
  6
Continuous
 62
     7
100
AcDbLine
 10
-656.1387504733
 20
316.6506150747
 30
0.0
 11
-700.7457730914
 21
316.6506150747
 31
0.0
  0
LINE
  5
B1
330
1B
100
AcDbEntity
 67
     1
  8
1
  6
Continuous
 62
     7
100
AcDbLine
 10
-656.1387504733
 20
316.6506150747
 30
0.0
 11
-645.3290805791
 21
316.6506150747
 31
0.0
  0
LINE
  5
B2
330
1B
100
AcDbEntity
 67
     1
  8
1
  6
Continuous
 62
     7
100
AcDbLine
 10
-918.4065138483
 20
57.1506150747
 30
0.0
 11
-917.4065138483
 21
57.1506150747
 31
0.0
  0
LINE
  5
B3
330
1B
100
AcDbEntity
 67
     1
  8
1
  6
Continuous
 62
     7
100
AcDbLine
 10
-854.6742772232
 20
316.6506150747
 30
0.0
 11
-812.0868422627
 21
316.6506150747
 31
0.0
  0
LINE
  5
B4
330
1B
100
AcDbEntity
 67
     1
  8
1
  6
Continuous
 62
     7
100
AcDbLine
 10
-848.4390493377
 20
57.1506150747
 30
0.0
 11
-843.441119322
 21
57.1506150747
 31
0.0
  0
LINE
  5
B5
330
1B
100
AcDbEntity
 67
     1
  8
1
  6
Continuous
 62
     7
100
AcDbLine
 10
-865.4839471175
 20
316.6506150747
 30
0.0
 11
-854.6742772232
 21
316.6506150747
 31
0.0
  0
LINE
  5
B6
330
1B
100
AcDbEntity
 67
     1
  8
1
  6
Continuous
 62
     7
100
AcDbLine
 10
-810.0672546051
 20
316.6506150747
 30
0.0
 11
-805.0672546051
 21
316.6506150747
 31
0.0
  0
LINE
  5
B7
330
1B
100
AcDbEntity
 67
     1
  8
1
  6
Continuous
 62
     7
100
AcDbLine
 10
-662.3739783588
 20
57.1506150747
 30
0.0
 11
-624.9065138483
 21
57.1506150747
 31
0.0
  0
LINE
  5
B8
330
1B
100
AcDbEntity
 67
     1
  8
1
  6
Continuous
 62
     7
100
AcDbLine
 10
-822.3719083745
 20
57.1506150747
 30
0.0
 11
-688.4390493377
 21
57.1506150747
 31
0.0
  0
LINE
  5
B9
330
1B
100
AcDbEntity
 67
     1
  8
1
  6
Continuous
 62
     7
100
AcDbLine
 10
-918.8719083745
 20
57.1506150747
 30
0.0
 11
-918.9065138483
 21
57.1506150747
 31
0.0
  0
LINE
  5
BA
330
1B
100
AcDbEntity
 67
     1
  8
1
  6
Continuous
 62
     7
100
AcDbLine
 10
-917.4065138483
 20
57.1506150747
 30
0.0
 11
-848.4390493377
 21
57.1506150747
 31
0.0
  0
LINE
  5
BB
330
1B
100
AcDbEntity
 67
     1
  8
1
  6
Continuous
 62
     7
100
AcDbLine
 10
-917.4065138483
 20
57.1506150747
 30
0.0
 11
-918.8719083745
 21
57.1506150747
 31
0.0
  0
LINE
  5
BC
330
1B
100
AcDbEntity
 67
     1
  8
1
  6
HIDDEN
 62
     7
100
AcDbLine
 10
-625.4065138483
 20
59.6506150747
 30
0.0
 11
-625.4065138483
 21
57.1767956782
 31
0.0
  0
LINE
  5
BD
330
1B
100
AcDbEntity
 67
     1
  8
1
  6
Continuous
 62
     7
100
AcDbLine
 10
-917.3722129842
 20
59.1157102619
 30
0.0
 11
-913.0655792519
 21
305.8425915456
 31
0.0
  0
LINE
  5
BE
330
1B
100
AcDbEntity
 67
     1
  8
1
  6
Continuous
 62
     3
100
AcDbLine
 10
-850.4387803581
 20
59.1178149814
 30
0.0
 11
-854.4856224708
 21
305.8425915456
 31
0.0
  0
LINE
  5
BF
330
1B
100
AcDbEntity
 67
     1
  8
1
  6
Continuous
 62
     3
100
AcDbLine
 10
-820.3722129842
 20
59.1157102619
 30
0.0
 11
-816.0655792519
 21
305.8425915456
 31
0.0
  0
LINE
  5
C0
330
1B
100
AcDbEntity
 67
     1
  8
1
  6
Continuous
 62
     3
100
AcDbLine
 10
-694.4856224708
 20
305.8425915456
 30
0.0
 11
-690.4387803581
 21
59.1178149814
 31
0.0
  0
LINE
  5
C1
330
1B
100
AcDbEntity
 67
     1
  8
1
  6
Continuous
 62
     3
100
AcDbLine
 10
-660.3742473385
 20
59.1178149814
 30
0.0
 11
-656.3274052258
 21
305.8425915456
 31
0.0
  0
LINE
  5
C2
330
1B
100
AcDbEntity
 67
     1
  8
1
  6
Continuous
 62
     7
100
AcDbLine
 10
-629.1321039605
 20
270.6157102619
 30
0.0
 11
-625.4065138483
 21
57.1767956782
 31
0.0
  0
LINE
  5
C3
330
1B
100
AcDbEntity
 67
     1
  8
1
  6
CENTERX2
 62
     6
100
AcDbLine
 10
-437.4065138483
 20
228.6506150747
 30
0.0
 11
-436.4065138483
 21
228.6506150747
 31
0.0
  0
LINE
  5
C4
330
1B
100
AcDbEntity
 67
     1
  8
1
  6
Continuous
 62
     3
100
AcDbLine
 10
-466.1057152783
 20
71.6536179347
 30
0.0
 11
-466.1057152783
 21
70.4524193647
 31
0.0
  0
LINE
  5
C5
330
1B
100
AcDbEntity
 67
     1
  8
1
  6
Continuous
 62
     3
100
AcDbLine
 10
-465.1047152783
 20
69.4514136447
 30
0.0
 11
-463.9035109883
 21
69.4514136447
 31
0.0
  0
LINE
  5
C6
330
1B
100
AcDbEntity
 67
     1
  8
1
  6
Continuous
 62
     3
100
AcDbLine
 10
-463.9035109883
 20
67.8498165047
 30
0.0
 11
-465.1047152783
 21
67.8498165047
 31
0.0
  0
LINE
  5
C7
330
1B
100
AcDbEntity
 67
     1
  8
1
  6
Continuous
 62
     3
100
AcDbLine
 10
-466.1057152783
 20
66.8488165047
 30
0.0
 11
-466.1057152783
 21
65.6476122147
 31
0.0
  0
LINE
  5
C8
330
1B
100
AcDbEntity
 67
     1
  8
1
  6
Continuous
 62
     3
100
AcDbLine
 10
-469.9095167083
 20
67.8498165047
 30
0.0
 11
-468.7083181383
 21
67.8498165047
 31
0.0
  0
LINE
  5
C9
330
1B
100
AcDbEntity
 67
     1
  8
1
  6
Continuous
 62
     3
100
AcDbLine
 10
-467.7073124183
 20
65.6476122147
 30
0.0
 11
-467.7073124183
 21
66.8488165047
 31
0.0
  0
LINE
  5
CA
330
1B
100
AcDbEntity
 67
     1
  8
1
  6
Continuous
 62
     3
100
AcDbLine
 10
-469.9095167083
 20
69.4514136447
 30
0.0
 11
-468.7083181383
 21
69.4514136447
 31
0.0
  0
LINE
  5
CB
330
1B
100
AcDbEntity
 67
     1
  8
1
  6
Continuous
 62
     3
100
AcDbLine
 10
-467.7073124183
 20
71.6536179347
 30
0.0
 11
-467.7073124183
 21
70.4524193647
 31
0.0
  0
LINE
  5
CC
330
1B
100
AcDbEntity
 67
     1
  8
1
  6
Continuous
 62
     3
100
AcDbLine
 10
-491.5111138483
 20
68.6506179347
 30
0.0
 11
-491.5111138483
 21
41.1231193647
 31
0.0
  0
LINE
  5
CD
330
1B
100
AcDbEntity
 67
     1
  8
1
  6
Continuous
 62
     3
100
AcDbLine
 10
-482.3019138483
 20
41.1231193647
 30
0.0
 11
-482.3019138483
 21
68.6506179347
 31
0.0
  0
LINE
  5
CE
330
1B
100
AcDbEntity
 67
     1
  8
1
  6
Continuous
 62
     3
100
AcDbLine
 10
-687.6063770131
 20
-14.5393849253
 30
0.0
 11
-687.6063770131
 21
-36.5613863553
 31
0.0
  0
LINE
  5
CF
330
1B
100
AcDbEntity
 67
     1
  8
1
  6
Continuous
 62
     3
100
AcDbLine
 10
-687.6063770131
 20
-36.5613863553
 30
0.0
 11
-662.0808770131
 21
-36.5613863553
 31
0.0
  0
LINE
  5
D0
330
1B
100
AcDbEntity
 67
     1
  8
1
  6
Continuous
 62
     3
100
AcDbLine
 10
-662.0808770131
 20
-36.5613863553
 30
0.0
 11
-657.0758784431
 21
-33.5583834953
 31
0.0
  0
LINE
  5
D1
330
1B
100
AcDbEntity
 67
     1
  8
1
  6
Continuous
 62
     3
100
AcDbLine
 10
-657.0758784431
 20
-17.5423820653
 30
0.0
 11
-662.0808770131
 21
-14.5393849253
 31
0.0
  0
LINE
  5
D2
330
1B
100
AcDbEntity
 67
     1
  8
1
  6
Continuous
 62
     3
100
AcDbLine
 10
-662.0808770131
 20
-14.5393849253
 30
0.0
 11
-687.6063770131
 21
-14.5393849253
 31
0.0
  0
LINE
  5
D3
330
1B
100
AcDbEntity
 67
     1
  8
1
  6
Continuous
 62
     3
100
AcDbLine
 10
-657.0758784431
 20
-19.0438849253
 30
0.0
 11
-648.5673770131
 21
-19.0438849253
 31
0.0
  0
LINE
  5
D4
330
1B
100
AcDbEntity
 67
     1
  8
1
  6
Continuous
 62
     3
100
AcDbLine
 10
-648.5673770131
 20
-19.0438849253
 30
0.0
 11
-648.5673770131
 21
-32.0568806353
 31
0.0
  0
LINE
  5
D5
330
1B
100
AcDbEntity
 67
     1
  8
1
  6
Continuous
 62
     3
100
AcDbLine
 10
-648.5673770131
 20
-32.0568806353
 30
0.0
 11
-657.0758784431
 21
-32.0568806353
 31
0.0
  0
LINE
  5
D6
330
1B
100
AcDbEntity
 67
     1
  8
1
  6
Continuous
 62
     3
100
AcDbLine
 10
-657.0758784431
 20
-17.5423820653
 30
0.0
 11
-657.0758784431
 21
-20.0448834953
 31
0.0
  0
LINE
  5
D7
330
1B
100
AcDbEntity
 67
     1
  8
1
  6
Continuous
 62
     3
100
AcDbLine
 10
-657.0758784431
 20
-31.0558806353
 30
0.0
 11
-657.0758784431
 21
-33.5583834953
 31
0.0
  0
LINE
  5
D8
330
1B
100
AcDbEntity
 67
     1
  8
1
  6
Continuous
 62
     4
100
AcDbLine
 10
-657.0758784431
 20
-31.0558806353
 30
0.0
 11
-659.5783813031
 21
-31.0558806353
 31
0.0
  0
LINE
  5
D9
330
1B
100
AcDbEntity
 67
     1
  8
1
  6
Continuous
 62
     4
100
AcDbLine
 10
-659.5783813031
 20
-20.0448834953
 30
0.0
 11
-657.0758784431
 21
-20.0448834953
 31
0.0
  0
LINE
  5
DA
330
1B
100
AcDbEntity
 67
     1
  8
1
  6
Continuous
 62
     4
100
AcDbLine
 10
-659.5783813031
 20
-19.2383320353
 30
0.0
 11
-659.5783813031
 21
-20.0448834953
 31
0.0
  0
LINE
  5
DB
330
1B
100
AcDbEntity
 67
     1
  8
1
  6
Continuous
 62
     4
100
AcDbLine
 10
-677.5963798731
 20
-14.5393849253
 30
0.0
 11
-661.2512482131
 21
-17.2635749653
 31
0.0
  0
LINE
  5
DC
330
1B
100
AcDbEntity
 67
     1
  8
1
  6
Continuous
 62
     4
100
AcDbLine
 10
-659.5783813031
 20
-31.0558806353
 30
0.0
 11
-659.5783813031
 21
-31.8624320953
 31
0.0
  0
LINE
  5
DD
330
1B
100
AcDbEntity
 67
     1
  8
1
  6
Continuous
 62
     4
100
AcDbLine
 10
-661.2512482131
 20
-33.8371934553
 30
0.0
 11
-677.5963798731
 21
-36.5613863553
 31
0.0
  0
LINE
  5
DE
330
1B
100
AcDbEntity
 67
     1
  8
1
  6
Continuous
 62
     4
100
AcDbLine
 10
-687.6063770131
 20
-16.5413820653
 30
0.0
 11
-662.0808326831
 21
-20.7956392153
 31
0.0
  0
LINE
  5
DF
330
1B
100
AcDbEntity
 67
     1
  8
1
  6
Continuous
 62
     4
100
AcDbLine
 10
-687.6063770131
 20
-34.5593863553
 30
0.0
 11
-662.0681728931
 21
-30.3030156653
 31
0.0
  0
LINE
  5
E0
330
1B
100
AcDbEntity
 67
     1
  8
1
  6
Continuous
 62
     4
100
AcDbLine
 10
-662.0808770131
 20
-20.7956349253
 30
0.0
 11
-662.0808770131
 21
-30.3051292053
 31
0.0
  0
LINE
  5
E1
330
1B
100
AcDbEntity
 67
     1
  8
1
  6
Continuous
 62
     4
100
AcDbLine
 10
-662.0808770131
 20
-20.7956349253
 30
0.0
 11
-673.5923741531
 21
-21.5463834953
 31
0.0
  0
LINE
  5
E2
330
1B
100
AcDbEntity
 67
     1
  8
1
  6
Continuous
 62
     4
100
AcDbLine
 10
-673.5923741531
 20
-21.5463834953
 30
0.0
 11
-673.5923741531
 21
-29.5543849253
 31
0.0
  0
LINE
  5
E3
330
1B
100
AcDbEntity
 67
     1
  8
1
  6
Continuous
 62
     4
100
AcDbLine
 10
-673.5923741531
 20
-29.5543849253
 30
0.0
 11
-662.0808770131
 21
-30.3051292053
 31
0.0
  0
LINE
  5
E4
330
1B
100
AcDbEntity
 67
     1
  8
1
  6
Continuous
 62
     4
100
AcDbLine
 10
-662.0808770131
 20
-30.3051292053
 30
0.0
 11
-673.5923741531
 21
-21.5463834953
 31
0.0
  0
LINE
  5
E5
330
1B
100
AcDbEntity
 67
     1
  8
1
  6
Continuous
 62
     4
100
AcDbLine
 10
-673.5923741531
 20
-29.5543849253
 30
0.0
 11
-662.0808770131
 21
-20.7956349253
 31
0.0
  0
LINE
  5
E6
330
1B
100
AcDbEntity
 67
     1
  8
1
  6
Continuous
 62
     3
100
AcDbLine
 10
-687.6063770131
 20
-18.3431863553
 30
0.0
 11
-704.6233798731
 21
-18.3431863553
 31
0.0
  0
LINE
  5
E7
330
1B
100
AcDbEntity
 67
     1
  8
1
  6
Continuous
 62
     3
100
AcDbLine
 10
-704.6233798731
 20
-18.3431863553
 30
0.0
 11
-704.6233798731
 21
-20.1449849253
 31
0.0
  0
LINE
  5
E8
330
1B
100
AcDbEntity
 67
     1
  8
1
  6
Continuous
 62
     3
100
AcDbLine
 10
-704.6233798731
 20
-20.1449849253
 30
0.0
 11
-687.6063770131
 21
-20.1449849253
 31
0.0
  0
LINE
  5
E9
330
1B
100
AcDbEntity
 67
     1
  8
1
  6
Continuous
 62
     3
100
AcDbLine
 10
-687.6063770131
 20
-30.9557863553
 30
0.0
 11
-704.6233798731
 21
-30.9557863553
 31
0.0
  0
LINE
  5
EA
330
1B
100
AcDbEntity
 67
     1
  8
1
  6
Continuous
 62
     3
100
AcDbLine
 10
-704.6233798731
 20
-30.9557863553
 30
0.0
 11
-704.6233798731
 21
-32.7575849253
 31
0.0
  0
LINE
  5
EB
330
1B
100
AcDbEntity
 67
     1
  8
1
  6
Continuous
 62
     3
100
AcDbLine
 10
-704.6233798731
 20
-32.7575849253
 30
0.0
 11
-687.6063770131
 21
-32.7575849253
 31
0.0
  0
LINE
  5
EC
330
1B
100
AcDbEntity
 67
     1
  8
1
  6
Continuous
 62
     3
100
AcDbLine
 10
-648.5673770131
 20
-30.1263763453
 30
0.0
 11
-596.6673787183
 21
-30.1263763453
 31
0.0
  0
LINE
  5
ED
330
1B
100
AcDbEntity
 67
     1
  8
1
  6
Continuous
 62
     3
100
AcDbLine
 10
-596.6673787183
 20
-20.9171777753
 30
0.0
 11
-648.5673770131
 21
-20.9171777753
 31
0.0
  0
LINE
  5
EE
330
1B
100
AcDbEntity
 67
     1
  8
2
  6
Continuous
 62
     3
100
AcDbLine
 10
-596.6673787183
 20
-30.1263763453
 30
0.0
 11
-596.7285927283
 21
-30.0738324253
 31
0.0
  0
LINE
  5
EF
330
1B
100
AcDbEntity
 67
     1
  8
2
  6
Continuous
 62
     3
100
AcDbLine
 10
-596.7285927283
 20
-30.0738324253
 30
0.0
 11
-596.7851549483
 21
-30.0160075153
 31
0.0
  0
LINE
  5
F0
330
1B
100
AcDbEntity
 67
     1
  8
2
  6
Continuous
 62
     3
100
AcDbLine
 10
-596.7851549483
 20
-30.0160075153
 30
0.0
 11
-596.8373156283
 21
-29.9529330753
 31
0.0
  0
LINE
  5
F1
330
1B
100
AcDbEntity
 67
     1
  8
2
  6
Continuous
 62
     3
100
AcDbLine
 10
-596.8373156283
 20
-29.9529330753
 30
0.0
 11
-596.8853450383
 21
-29.8846491453
 31
0.0
  0
LINE
  5
F2
330
1B
100
AcDbEntity
 67
     1
  8
2
  6
Continuous
 62
     3
100
AcDbLine
 10
-596.8853450383
 20
-29.8846491453
 30
0.0
 11
-596.9295091583
 21
-29.8111900453
 31
0.0
  0
LINE
  5
F3
330
1B
100
AcDbEntity
 67
     1
  8
2
  6
Continuous
 62
     3
100
AcDbLine
 10
-596.9295091583
 20
-29.8111900453
 30
0.0
 11
-596.9700725383
 21
-29.7325900953
 31
0.0
  0
LINE
  5
F4
330
1B
100
AcDbEntity
 67
     1
  8
2
  6
Continuous
 62
     3
100
AcDbLine
 10
-596.9700725383
 20
-29.7325900953
 30
0.0
 11
-597.0072954383
 21
-29.6488879053
 31
0.0
  0
LINE
  5
F5
330
1B
100
AcDbEntity
 67
     1
  8
2
  6
Continuous
 62
     3
100
AcDbLine
 10
-597.0072954383
 20
-29.6488879053
 30
0.0
 11
-597.0414409783
 21
-29.5601120753
 31
0.0
  0
LINE
  5
F6
330
1B
100
AcDbEntity
 67
     1
  8
2
  6
Continuous
 62
     3
100
AcDbLine
 10
-597.0414409783
 20
-29.5601120753
 30
0.0
 11
-597.0708446383
 21
-29.4660423853
 31
0.0
  0
LINE
  5
F7
330
1B
100
AcDbEntity
 67
     1
  8
2
  6
Continuous
 62
     3
100
AcDbLine
 10
-597.0708446383
 20
-29.4660423853
 30
0.0
 11
-597.0945297283
 21
-29.3665529953
 31
0.0
  0
LINE
  5
F8
330
1B
100
AcDbEntity
 67
     1
  8
2
  6
Continuous
 62
     3
100
AcDbLine
 10
-597.0945297283
 20
-29.3665529953
 30
0.0
 11
-597.1138261483
 21
-29.2618169353
 31
0.0
  0
LINE
  5
F9
330
1B
100
AcDbEntity
 67
     1
  8
2
  6
Continuous
 62
     3
100
AcDbLine
 10
-597.1138261483
 20
-29.2618169353
 30
0.0
 11
-597.1300452083
 21
-29.1520115253
 31
0.0
  0
LINE
  5
FA
330
1B
100
AcDbEntity
 67
     1
  8
2
  6
Continuous
 62
     3
100
AcDbLine
 10
-597.1300452083
 20
-29.1520115253
 30
0.0
 11
-597.1445067983
 21
-29.0373126553
 31
0.0
  0
LINE
  5
FB
330
1B
100
AcDbEntity
 67
     1
  8
2
  6
Continuous
 62
     3
100
AcDbLine
 10
-597.1445067983
 20
-29.0373126553
 30
0.0
 11
-597.1585250883
 21
-28.9178947853
 31
0.0
  0
LINE
  5
FC
330
1B
100
AcDbEntity
 67
     1
  8
2
  6
Continuous
 62
     3
100
AcDbLine
 10
-597.1585250883
 20
-28.9178947853
 30
0.0
 11
-597.1734256883
 21
-28.7939380953
 31
0.0
  0
LINE
  5
FD
330
1B
100
AcDbEntity
 67
     1
  8
2
  6
Continuous
 62
     3
100
AcDbLine
 10
-597.1734256883
 20
-28.7939380953
 30
0.0
 11
-597.1905227683
 21
-28.6656170453
 31
0.0
  0
LINE
  5
FE
330
1B
100
AcDbEntity
 67
     1
  8
2
  6
Continuous
 62
     3
100
AcDbLine
 10
-597.1905227683
 20
-28.6656170453
 30
0.0
 11
-597.2101766883
 21
-28.5297884953
 31
0.0
  0
LINE
  5
FF
330
1B
100
AcDbEntity
 67
     1
  8
2
  6
Continuous
 62
     3
100
AcDbLine
 10
-597.2101766883
 20
-28.5297884953
 30
0.0
 11
-597.2312820583
 21
-28.3849352153
 31
0.0
  0
LINE
  5
100
330
1B
100
AcDbEntity
 67
     1
  8
2
  6
Continuous
 62
     3
100
AcDbLine
 10
-597.2312820583
 20
-28.3849352153
 30
0.0
 11
-597.2529765883
 21
-28.2336769653
 31
0.0
  0
LINE
  5
101
330
1B
100
AcDbEntity
 67
     1
  8
2
  6
Continuous
 62
     3
100
AcDbLine
 10
-597.2529765883
 20
-28.2336769653
 30
0.0
 11
-597.2743736783
 21
-28.0786363653
 31
0.0
  0
LINE
  5
102
330
1B
100
AcDbEntity
 67
     1
  8
2
  6
Continuous
 62
     3
100
AcDbLine
 10
-597.2743736783
 20
-28.0786363653
 30
0.0
 11
-597.2946096083
 21
-27.9224317453
 31
0.0
  0
LINE
  5
103
330
1B
100
AcDbEntity
 67
     1
  8
2
  6
Continuous
 62
     3
100
AcDbLine
 10
-597.2946096083
 20
-27.9224317453
 30
0.0
 11
-597.3128020683
 21
-27.7676828653
 31
0.0
  0
LINE
  5
104
330
1B
100
AcDbEntity
 67
     1
  8
2
  6
Continuous
 62
     3
100
AcDbLine
 10
-597.3128020683
 20
-27.7676828653
 30
0.0
 11
-597.3280887683
 21
-27.6170080553
 31
0.0
  0
LINE
  5
105
330
1B
100
AcDbEntity
 67
     1
  8
2
  6
Continuous
 62
     3
100
AcDbLine
 10
-597.3280887683
 20
-27.6170080553
 30
0.0
 11
-597.3395916883
 21
-27.4730270753
 31
0.0
  0
LINE
  5
106
330
1B
100
AcDbEntity
 67
     1
  8
2
  6
Continuous
 62
     3
100
AcDbLine
 10
-597.3395916883
 20
-27.4730270753
 30
0.0
 11
-597.3477426883
 21
-27.3323908653
 31
0.0
  0
LINE
  5
107
330
1B
100
AcDbEntity
 67
     1
  8
2
  6
Continuous
 62
     3
100
AcDbLine
 10
-597.3477426883
 20
-27.3323908653
 30
0.0
 11
-597.3535656483
 21
-27.1911797953
 31
0.0
  0
LINE
  5
108
330
1B
100
AcDbEntity
 67
     1
  8
2
  6
Continuous
 62
     3
100
AcDbLine
 10
-597.3535656483
 20
-27.1911797953
 30
0.0
 11
-597.3570591383
 21
-27.0511227353
 31
0.0
  0
LINE
  5
109
330
1B
100
AcDbEntity
 67
     1
  8
2
  6
Continuous
 62
     3
100
AcDbLine
 10
-597.3570591383
 20
-27.0511227353
 30
0.0
 11
-597.3582231583
 21
-26.9139871653
 31
0.0
  0
LINE
  5
10A
330
1B
100
AcDbEntity
 67
     1
  8
2
  6
Continuous
 62
     3
100
AcDbLine
 10
-597.3582231583
 20
-26.9139871653
 30
0.0
 11
-597.3570591383
 21
-26.7815062453
 31
0.0
  0
LINE
  5
10B
330
1B
100
AcDbEntity
 67
     1
  8
2
  6
Continuous
 62
     3
100
AcDbLine
 10
-597.3570591383
 20
-26.7815062453
 30
0.0
 11
-597.3535656483
 21
-26.6554288653
 31
0.0
  0
LINE
  5
10C
330
1B
100
AcDbEntity
 67
     1
  8
2
  6
Continuous
 62
     3
100
AcDbLine
 10
-597.3535656483
 20
-26.6554288653
 30
0.0
 11
-597.3477426883
 21
-26.5375067753
 31
0.0
  0
LINE
  5
10D
330
1B
100
AcDbEntity
 67
     1
  8
2
  6
Continuous
 62
     3
100
AcDbLine
 10
-597.3477426883
 20
-26.5375067753
 30
0.0
 11
-597.3395916883
 21
-26.4294860053
 31
0.0
  0
LINE
  5
10E
330
1B
100
AcDbEntity
 67
     1
  8
2
  6
Continuous
 62
     3
100
AcDbLine
 10
-597.3395916883
 20
-26.4294860053
 30
0.0
 11
-597.3306484683
 21
-26.3345654653
 31
0.0
  0
LINE
  5
10F
330
1B
100
AcDbEntity
 67
     1
  8
2
  6
Continuous
 62
     3
100
AcDbLine
 10
-597.3306484683
 20
-26.3345654653
 30
0.0
 11
-597.3215765483
 21
-26.2524577253
 31
0.0
  0
LINE
  5
110
330
1B
100
AcDbEntity
 67
     1
  8
2
  6
Continuous
 62
     3
100
AcDbLine
 10
-597.3215765483
 20
-26.2524577253
 30
0.0
 11
-597.3110460283
 21
-26.1796678653
 31
0.0
  0
LINE
  5
111
330
1B
100
AcDbEntity
 67
     1
  8
2
  6
Continuous
 62
     3
100
AcDbLine
 10
-597.3110460283
 20
-26.1796678653
 30
0.0
 11
-597.2977498883
 21
-26.1126981053
 31
0.0
  0
LINE
  5
112
330
1B
100
AcDbEntity
 67
     1
  8
2
  6
Continuous
 62
     3
100
AcDbLine
 10
-597.2977498883
 20
-26.1126981053
 30
0.0
 11
-597.2803710983
 21
-26.0480635353
 31
0.0
  0
LINE
  5
113
330
1B
100
AcDbEntity
 67
     1
  8
2
  6
Continuous
 62
     3
100
AcDbLine
 10
-597.2803710983
 20
-26.0480635353
 30
0.0
 11
-597.2575840483
 21
-25.9822606553
 31
0.0
  0
LINE
  5
114
330
1B
100
AcDbEntity
 67
     1
  8
2
  6
Continuous
 62
     3
100
AcDbLine
 10
-597.2575840483
 20
-25.9822606553
 30
0.0
 11
-597.2280731383
 21
-25.9118002653
 31
0.0
  0
LINE
  5
115
330
1B
100
AcDbEntity
 67
     1
  8
2
  6
Continuous
 62
     3
100
AcDbLine
 10
-597.2280731383
 20
-25.9118002653
 30
0.0
 11
-597.1905227683
 21
-25.8331917353
 31
0.0
  0
LINE
  5
116
330
1B
100
AcDbEntity
 67
     1
  8
2
  6
Continuous
 62
     3
100
AcDbLine
 10
-597.1905227683
 20
-25.8331917353
 30
0.0
 11
-597.1450473383
 21
-25.7502102653
 31
0.0
  0
LINE
  5
117
330
1B
100
AcDbEntity
 67
     1
  8
2
  6
Continuous
 62
     3
100
AcDbLine
 10
-597.1450473383
 20
-25.7502102653
 30
0.0
 11
-597.0929624483
 21
-25.6678108053
 31
0.0
  0
LINE
  5
118
330
1B
100
AcDbEntity
 67
     1
  8
2
  6
Continuous
 62
     3
100
AcDbLine
 10
-597.0929624483
 20
-25.6678108053
 30
0.0
 11
-597.0347199783
 21
-25.5842573353
 31
0.0
  0
LINE
  5
119
330
1B
100
AcDbEntity
 67
     1
  8
2
  6
Continuous
 62
     3
100
AcDbLine
 10
-597.0347199783
 20
-25.5842573353
 30
0.0
 11
-596.9707875383
 21
-25.4977852353
 31
0.0
  0
LINE
  5
11A
330
1B
100
AcDbEntity
 67
     1
  8
2
  6
Continuous
 62
     3
100
AcDbLine
 10
-596.9707875383
 20
-25.4977852353
 30
0.0
 11
-596.9016284483
 21
-25.4066556253
 31
0.0
  0
LINE
  5
11B
330
1B
100
AcDbEntity
 67
     1
  8
2
  6
Continuous
 62
     3
100
AcDbLine
 10
-596.9016284483
 20
-25.4066556253
 30
0.0
 11
-596.8277031683
 21
-25.3091210453
 31
0.0
  0
LINE
  5
11C
330
1B
100
AcDbEntity
 67
     1
  8
2
  6
Continuous
 62
     3
100
AcDbLine
 10
-596.8277031683
 20
-25.3091210453
 30
0.0
 11
-596.7494650083
 21
-25.2034326053
 31
0.0
  0
LINE
  5
11D
330
1B
100
AcDbEntity
 67
     1
  8
2
  6
Continuous
 62
     3
100
AcDbLine
 10
-596.7494650083
 20
-25.2034326053
 30
0.0
 11
-596.6673787183
 21
-25.0878414153
 31
0.0
  0
LINE
  5
11E
330
1B
100
AcDbEntity
 67
     1
  8
2
  6
Continuous
 62
     3
100
AcDbLine
 10
-596.6673787183
 20
-25.0878414153
 30
0.0
 11
-596.5746231983
 21
-24.9591542853
 31
0.0
  0
LINE
  5
11F
330
1B
100
AcDbEntity
 67
     1
  8
2
  6
Continuous
 62
     3
100
AcDbLine
 10
-596.5746231983
 20
-24.9591542853
 30
0.0
 11
-596.4678265083
 21
-24.8176486353
 31
0.0
  0
LINE
  5
120
330
1B
100
AcDbEntity
 67
     1
  8
2
  6
Continuous
 62
     3
100
AcDbLine
 10
-596.4678265083
 20
-24.8176486353
 30
0.0
 11
-596.3526442983
 21
-24.6668308253
 31
0.0
  0
LINE
  5
121
330
1B
100
AcDbEntity
 67
     1
  8
2
  6
Continuous
 62
     3
100
AcDbLine
 10
-596.3526442983
 20
-24.6668308253
 30
0.0
 11
-596.2347379383
 21
-24.5101857653
 31
0.0
  0
LINE
  5
122
330
1B
100
AcDbEntity
 67
     1
  8
2
  6
Continuous
 62
     3
100
AcDbLine
 10
-596.2347379383
 20
-24.5101857653
 30
0.0
 11
-596.1197459183
 21
-24.3512126653
 31
0.0
  0
LINE
  5
123
330
1B
100
AcDbEntity
 67
     1
  8
2
  6
Continuous
 62
     3
100
AcDbLine
 10
-596.1197459183
 20
-24.3512126653
 30
0.0
 11
-596.0133353283
 21
-24.1934050153
 31
0.0
  0
LINE
  5
124
330
1B
100
AcDbEntity
 67
     1
  8
2
  6
Continuous
 62
     3
100
AcDbLine
 10
-596.0133353283
 20
-24.1934050153
 30
0.0
 11
-595.9211518083
 21
-24.0402505853
 31
0.0
  0
LINE
  5
125
330
1B
100
AcDbEntity
 67
     1
  8
2
  6
Continuous
 62
     3
100
AcDbLine
 10
-595.9211518083
 20
-24.0402505853
 30
0.0
 11
-595.8488467183
 21
-23.8952514453
 31
0.0
  0
LINE
  5
126
330
1B
100
AcDbEntity
 67
     1
  8
2
  6
Continuous
 62
     3
100
AcDbLine
 10
-595.8488467183
 20
-23.8952514453
 30
0.0
 11
-595.7971636583
 21
-23.7535970753
 31
0.0
  0
LINE
  5
127
330
1B
100
AcDbEntity
 67
     1
  8
2
  6
Continuous
 62
     3
100
AcDbLine
 10
-595.7971636583
 20
-23.7535970753
 30
0.0
 11
-595.7610218383
 21
-23.6099106753
 31
0.0
  0
LINE
  5
128
330
1B
100
AcDbEntity
 67
     1
  8
2
  6
Continuous
 62
     3
100
AcDbLine
 10
-595.7610218383
 20
-23.6099106753
 30
0.0
 11
-595.7373682083
 21
-23.4668005653
 31
0.0
  0
LINE
  5
129
330
1B
100
AcDbEntity
 67
     1
  8
2
  6
Continuous
 62
     3
100
AcDbLine
 10
-595.7373682083
 20
-23.4668005653
 30
0.0
 11
-595.7231568683
 21
-23.3268922253
 31
0.0
  0
LINE
  5
12A
330
1B
100
AcDbEntity
 67
     1
  8
2
  6
Continuous
 62
     3
100
AcDbLine
 10
-595.7231568683
 20
-23.3268922253
 30
0.0
 11
-595.7153433483
 21
-23.1928097053
 31
0.0
  0
LINE
  5
12B
330
1B
100
AcDbEntity
 67
     1
  8
2
  6
Continuous
 62
     3
100
AcDbLine
 10
-595.7153433483
 20
-23.1928097053
 30
0.0
 11
-595.7108788883
 21
-23.0671670453
 31
0.0
  0
LINE
  5
12C
330
1B
100
AcDbEntity
 67
     1
  8
2
  6
Continuous
 62
     3
100
AcDbLine
 10
-595.7108788883
 20
-23.0671670453
 30
0.0
 11
-595.7067090083
 21
-22.9525954453
 31
0.0
  0
LINE
  5
12D
330
1B
100
AcDbEntity
 67
     1
  8
2
  6
Continuous
 62
     3
100
AcDbLine
 10
-595.7067090083
 20
-22.9525954453
 30
0.0
 11
-595.6997820883
 21
-22.8517103753
 31
0.0
  0
LINE
  5
12E
330
1B
100
AcDbEntity
 67
     1
  8
2
  6
Continuous
 62
     3
100
AcDbLine
 10
-595.6997820883
 20
-22.8517103753
 30
0.0
 11
-595.6906143583
 21
-22.7703362253
 31
0.0
  0
LINE
  5
12F
330
1B
100
AcDbEntity
 67
     1
  8
2
  6
Continuous
 62
     3
100
AcDbLine
 10
-595.6906143583
 20
-22.7703362253
 30
0.0
 11
-595.6823117783
 21
-22.7084729953
 31
0.0
  0
LINE
  5
130
330
1B
100
AcDbEntity
 67
     1
  8
2
  6
Continuous
 62
     3
100
AcDbLine
 10
-595.6823117783
 20
-22.7084729953
 30
0.0
 11
-595.6757609483
 21
-22.6600088653
 31
0.0
  0
LINE
  5
131
330
1B
100
AcDbEntity
 67
     1
  8
2
  6
Continuous
 62
     3
100
AcDbLine
 10
-595.6757609483
 20
-22.6600088653
 30
0.0
 11
-595.6718284483
 21
-22.6188220053
 31
0.0
  0
LINE
  5
132
330
1B
100
AcDbEntity
 67
     1
  8
2
  6
Continuous
 62
     3
100
AcDbLine
 10
-595.6718284483
 20
-22.6188220053
 30
0.0
 11
-595.6713951583
 21
-22.5788020253
 31
0.0
  0
LINE
  5
133
330
1B
100
AcDbEntity
 67
     1
  8
2
  6
Continuous
 62
     3
100
AcDbLine
 10
-595.6713951583
 20
-22.5788020253
 30
0.0
 11
-595.6753247983
 21
-22.5338242353
 31
0.0
  0
LINE
  5
134
330
1B
100
AcDbEntity
 67
     1
  8
2
  6
Continuous
 62
     3
100
AcDbLine
 10
-595.6753247983
 20
-22.5338242353
 30
0.0
 11
-595.6844982483
 21
-22.4777868253
 31
0.0
  0
LINE
  5
135
330
1B
100
AcDbEntity
 67
     1
  8
2
  6
Continuous
 62
     3
100
AcDbLine
 10
-595.6844982483
 20
-22.4777868253
 30
0.0
 11
-595.6997820883
 21
-22.4045636753
 31
0.0
  0
LINE
  5
136
330
1B
100
AcDbEntity
 67
     1
  8
2
  6
Continuous
 62
     3
100
AcDbLine
 10
-595.6997820883
 20
-22.4045636753
 30
0.0
 11
-595.7202453883
 21
-22.3120955853
 31
0.0
  0
LINE
  5
137
330
1B
100
AcDbEntity
 67
     1
  8
2
  6
Continuous
 62
     3
100
AcDbLine
 10
-595.7202453883
 20
-22.3120955853
 30
0.0
 11
-595.7446554883
 21
-22.2053274953
 31
0.0
  0
LINE
  5
138
330
1B
100
AcDbEntity
 67
     1
  8
2
  6
Continuous
 62
     3
100
AcDbLine
 10
-595.7446554883
 20
-22.2053274953
 30
0.0
 11
-595.7734342383
 21
-22.0886394953
 31
0.0
  0
LINE
  5
139
330
1B
100
AcDbEntity
 67
     1
  8
2
  6
Continuous
 62
     3
100
AcDbLine
 10
-595.7734342383
 20
-22.0886394953
 30
0.0
 11
-595.8070120683
 21
-21.9664274053
 31
0.0
  0
LINE
  5
13A
330
1B
100
AcDbEntity
 67
     1
  8
2
  6
Continuous
 62
     3
100
AcDbLine
 10
-595.8070120683
 20
-21.9664274053
 30
0.0
 11
-595.8458279883
 21
-21.8430756053
 31
0.0
  0
LINE
  5
13B
330
1B
100
AcDbEntity
 67
     1
  8
2
  6
Continuous
 62
     3
100
AcDbLine
 10
-595.8458279883
 20
-21.8430756053
 30
0.0
 11
-595.8902995583
 21
-21.7229727653
 31
0.0
  0
LINE
  5
13C
330
1B
100
AcDbEntity
 67
     1
  8
2
  6
Continuous
 62
     3
100
AcDbLine
 10
-595.8902995583
 20
-21.7229727653
 30
0.0
 11
-595.9408572083
 21
-21.6105061253
 31
0.0
  0
LINE
  5
13D
330
1B
100
AcDbEntity
 67
     1
  8
2
  6
Continuous
 62
     3
100
AcDbLine
 10
-595.9408572083
 20
-21.6105061253
 30
0.0
 11
-595.9979285083
 21
-21.5100700753
 31
0.0
  0
LINE
  5
13E
330
1B
100
AcDbEntity
 67
     1
  8
2
  6
Continuous
 62
     3
100
AcDbLine
 10
-595.9979285083
 20
-21.5100700753
 30
0.0
 11
-596.0612088683
 21
-21.4184371053
 31
0.0
  0
LINE
  5
13F
330
1B
100
AcDbEntity
 67
     1
  8
2
  6
Continuous
 62
     3
100
AcDbLine
 10
-596.0612088683
 20
-21.4184371053
 30
0.0
 11
-596.1301377283
 21
-21.3300631053
 31
0.0
  0
LINE
  5
140
330
1B
100
AcDbEntity
 67
     1
  8
2
  6
Continuous
 62
     3
100
AcDbLine
 10
-596.1301377283
 20
-21.3300631053
 30
0.0
 11
-596.2048194783
 21
-21.2458103653
 31
0.0
  0
LINE
  5
141
330
1B
100
AcDbEntity
 67
     1
  8
2
  6
Continuous
 62
     3
100
AcDbLine
 10
-596.2048194783
 20
-21.2458103653
 30
0.0
 11
-596.2853256183
 21
-21.1665583353
 31
0.0
  0
LINE
  5
142
330
1B
100
AcDbEntity
 67
     1
  8
2
  6
Continuous
 62
     3
100
AcDbLine
 10
-596.2853256183
 20
-21.1665583353
 30
0.0
 11
-596.3717533883
 21
-21.0931964753
 31
0.0
  0
LINE
  5
143
330
1B
100
AcDbEntity
 67
     1
  8
2
  6
Continuous
 62
     3
100
AcDbLine
 10
-596.3717533883
 20
-21.0931964753
 30
0.0
 11
-596.4641771483
 21
-21.0265913653
 31
0.0
  0
LINE
  5
144
330
1B
100
AcDbEntity
 67
     1
  8
2
  6
Continuous
 62
     3
100
AcDbLine
 10
-596.4641771483
 20
-21.0265913653
 30
0.0
 11
-596.5626927083
 21
-20.9676296053
 31
0.0
  0
LINE
  5
145
330
1B
100
AcDbEntity
 67
     1
  8
2
  6
Continuous
 62
     3
100
AcDbLine
 10
-596.5626927083
 20
-20.9676296053
 30
0.0
 11
-596.6673787183
 21
-20.9171777753
 31
0.0
  0
LINE
  5
146
330
1B
100
AcDbEntity
 67
     1
  8
2
  6
Continuous
 62
     3
100
AcDbLine
 10
-596.6673787183
 20
-30.1263763453
 30
0.0
 11
-596.5516902883
 21
-30.0944172753
 31
0.0
  0
LINE
  5
147
330
1B
100
AcDbEntity
 67
     1
  8
2
  6
Continuous
 62
     3
100
AcDbLine
 10
-596.5516902883
 20
-30.0944172753
 30
0.0
 11
-596.4460118583
 21
-30.0502431453
 31
0.0
  0
LINE
  5
148
330
1B
100
AcDbEntity
 67
     1
  8
2
  6
Continuous
 62
     3
100
AcDbLine
 10
-596.4460118583
 20
-30.0502431453
 30
0.0
 11
-596.3499172883
 21
-29.9944145153
 31
0.0
  0
LINE
  5
149
330
1B
100
AcDbEntity
 67
     1
  8
2
  6
Continuous
 62
     3
100
AcDbLine
 10
-596.3499172883
 20
-29.9944145153
 30
0.0
 11
-596.2629675683
 21
-29.9274976653
 31
0.0
  0
LINE
  5
14A
330
1B
100
AcDbEntity
 67
     1
  8
2
  6
Continuous
 62
     3
100
AcDbLine
 10
-596.2629675683
 20
-29.9274976653
 30
0.0
 11
-596.1847294083
 21
-29.8500545853
 31
0.0
  0
LINE
  5
14B
330
1B
100
AcDbEntity
 67
     1
  8
2
  6
Continuous
 62
     3
100
AcDbLine
 10
-596.1847294083
 20
-29.8500545853
 30
0.0
 11
-596.1147680883
 21
-29.7626329653
 31
0.0
  0
LINE
  5
14C
330
1B
100
AcDbEntity
 67
     1
  8
2
  6
Continuous
 62
     3
100
AcDbLine
 10
-596.1147680883
 20
-29.7626329653
 30
0.0
 11
-596.0526460283
 21
-29.6658005153
 31
0.0
  0
LINE
  5
14D
330
1B
100
AcDbEntity
 67
     1
  8
2
  6
Continuous
 62
     3
100
AcDbLine
 10
-596.0526460283
 20
-29.6658005153
 30
0.0
 11
-595.9979285083
 21
-29.5601120753
 31
0.0
  0
LINE
  5
14E
330
1B
100
AcDbEntity
 67
     1
  8
2
  6
Continuous
 62
     3
100
AcDbLine
 10
-595.9979285083
 20
-29.5601120753
 30
0.0
 11
-595.9533754283
 21
-29.4420283953
 31
0.0
  0
LINE
  5
14F
330
1B
100
AcDbEntity
 67
     1
  8
2
  6
Continuous
 62
     3
100
AcDbLine
 10
-595.9533754283
 20
-29.4420283953
 30
0.0
 11
-595.9205769483
 21
-29.3095002853
 31
0.0
  0
LINE
  5
150
330
1B
100
AcDbEntity
 67
     1
  8
2
  6
Continuous
 62
     3
100
AcDbLine
 10
-595.9205769483
 20
-29.3095002853
 30
0.0
 11
-595.8973594683
 21
-29.1653176753
 31
0.0
  0
LINE
  5
151
330
1B
100
AcDbEntity
 67
     1
  8
2
  6
Continuous
 62
     3
100
AcDbLine
 10
-595.8973594683
 20
-29.1653176753
 30
0.0
 11
-595.8815508183
 21
-29.0122805053
 31
0.0
  0
LINE
  5
152
330
1B
100
AcDbEntity
 67
     1
  8
2
  6
Continuous
 62
     3
100
AcDbLine
 10
-595.8815508183
 20
-29.0122805053
 30
0.0
 11
-595.8709716783
 21
-28.8531901453
 31
0.0
  0
LINE
  5
153
330
1B
100
AcDbEntity
 67
     1
  8
2
  6
Continuous
 62
     3
100
AcDbLine
 10
-595.8709716783
 20
-28.8531901453
 30
0.0
 11
-595.8634441583
 21
-28.6908336653
 31
0.0
  0
LINE
  5
154
330
1B
100
AcDbEntity
 67
     1
  8
2
  6
Continuous
 62
     3
100
AcDbLine
 10
-595.8634441583
 20
-28.6908336653
 30
0.0
 11
-595.8567960883
 21
-28.5280138653
 31
0.0
  0
LINE
  5
155
330
1B
100
AcDbEntity
 67
     1
  8
2
  6
Continuous
 62
     3
100
AcDbLine
 10
-595.8567960883
 20
-28.5280138653
 30
0.0
 11
-595.8488467183
 21
-28.3675221053
 31
0.0
  0
LINE
  5
156
330
1B
100
AcDbEntity
 67
     1
  8
2
  6
Continuous
 62
     3
100
AcDbLine
 10
-595.8488467183
 20
-28.3675221053
 30
0.0
 11
-595.8396832783
 21
-28.2059220953
 31
0.0
  0
LINE
  5
157
330
1B
100
AcDbEntity
 67
     1
  8
2
  6
Continuous
 62
     3
100
AcDbLine
 10
-595.8396832783
 20
-28.2059220953
 30
0.0
 11
-595.8313806983
 21
-28.0390754153
 31
0.0
  0
LINE
  5
158
330
1B
100
AcDbEntity
 67
     1
  8
2
  6
Continuous
 62
     3
100
AcDbLine
 10
-595.8313806983
 20
-28.0390754153
 30
0.0
 11
-595.8248298683
 21
-27.8687366753
 31
0.0
  0
LINE
  5
159
330
1B
100
AcDbEntity
 67
     1
  8
2
  6
Continuous
 62
     3
100
AcDbLine
 10
-595.8248298683
 20
-27.8687366753
 30
0.0
 11
-595.8208973683
 21
-27.6966504753
 31
0.0
  0
LINE
  5
15A
330
1B
100
AcDbEntity
 67
     1
  8
2
  6
Continuous
 62
     3
100
AcDbLine
 10
-595.8208973683
 20
-27.6966504753
 30
0.0
 11
-595.8204626483
 21
-27.5245642753
 31
0.0
  0
LINE
  5
15B
330
1B
100
AcDbEntity
 67
     1
  8
2
  6
Continuous
 62
     3
100
AcDbLine
 10
-595.8204626483
 20
-27.5245642753
 30
0.0
 11
-595.8243965783
 21
-27.3542255353
 31
0.0
  0
LINE
  5
15C
330
1B
100
AcDbEntity
 67
     1
  8
2
  6
Continuous
 62
     3
100
AcDbLine
 10
-595.8243965783
 20
-27.3542255353
 30
0.0
 11
-595.8335671683
 21
-27.1873788553
 31
0.0
  0
LINE
  5
15D
330
1B
100
AcDbEntity
 67
     1
  8
2
  6
Continuous
 62
     3
100
AcDbLine
 10
-595.8335671683
 20
-27.1873788553
 30
0.0
 11
-595.8488467183
 21
-27.0257802753
 31
0.0
  0
LINE
  5
15E
330
1B
100
AcDbEntity
 67
     1
  8
2
  6
Continuous
 62
     3
100
AcDbLine
 10
-595.8488467183
 20
-27.0257802753
 30
0.0
 11
-595.8697704783
 21
-26.8657218053
 31
0.0
  0
LINE
  5
15F
330
1B
100
AcDbEntity
 67
     1
  8
2
  6
Continuous
 62
     3
100
AcDbLine
 10
-595.8697704783
 20
-26.8657218053
 30
0.0
 11
-595.8952931183
 21
-26.7039544853
 31
0.0
  0
LINE
  5
160
330
1B
100
AcDbEntity
 67
     1
  8
2
  6
Continuous
 62
     3
100
AcDbLine
 10
-595.8952931183
 20
-26.7039544853
 30
0.0
 11
-595.9254460983
 21
-26.5429021653
 31
0.0
  0
LINE
  5
161
330
1B
100
AcDbEntity
 67
     1
  8
2
  6
Continuous
 62
     3
100
AcDbLine
 10
-595.9254460983
 20
-26.5429021653
 30
0.0
 11
-595.9602694583
 21
-26.3849858353
 31
0.0
  0
LINE
  5
162
330
1B
100
AcDbEntity
 67
     1
  8
2
  6
Continuous
 62
     3
100
AcDbLine
 10
-595.9602694583
 20
-26.3849858353
 30
0.0
 11
-595.9998018083
 21
-26.2326322053
 31
0.0
  0
LINE
  5
163
330
1B
100
AcDbEntity
 67
     1
  8
2
  6
Continuous
 62
     3
100
AcDbLine
 10
-595.9998018083
 20
-26.2326322053
 30
0.0
 11
-596.0440746083
 21
-26.0882694153
 31
0.0
  0
LINE
  5
164
330
1B
100
AcDbEntity
 67
     1
  8
2
  6
Continuous
 62
     3
100
AcDbLine
 10
-596.0440746083
 20
-26.0882694153
 30
0.0
 11
-596.0931336183
 21
-25.9543070153
 31
0.0
  0
LINE
  5
165
330
1B
100
AcDbEntity
 67
     1
  8
2
  6
Continuous
 62
     3
100
AcDbLine
 10
-596.0931336183
 20
-25.9543070153
 30
0.0
 11
-596.1469974283
 21
-25.8331917353
 31
0.0
  0
LINE
  5
166
330
1B
100
AcDbEntity
 67
     1
  8
2
  6
Continuous
 62
     3
100
AcDbLine
 10
-596.1469974283
 20
-25.8331917353
 30
0.0
 11
-596.2056574583
 21
-25.7231232053
 31
0.0
  0
LINE
  5
167
330
1B
100
AcDbEntity
 67
     1
  8
2
  6
Continuous
 62
     3
100
AcDbLine
 10
-596.2056574583
 20
-25.7231232053
 30
0.0
 11
-596.2690550783
 21
-25.6210426553
 31
0.0
  0
LINE
  5
168
330
1B
100
AcDbEntity
 67
     1
  8
2
  6
Continuous
 62
     3
100
AcDbLine
 10
-596.2690550783
 20
-25.6210426553
 30
0.0
 11
-596.3372060183
 21
-25.5274348553
 31
0.0
  0
LINE
  5
169
330
1B
100
AcDbEntity
 67
     1
  8
2
  6
Continuous
 62
     3
100
AcDbLine
 10
-596.3372060183
 20
-25.5274348553
 30
0.0
 11
-596.4101188583
 21
-25.4427888653
 31
0.0
  0
LINE
  5
16A
330
1B
100
AcDbEntity
 67
     1
  8
2
  6
Continuous
 62
     3
100
AcDbLine
 10
-596.4101188583
 20
-25.4427888653
 30
0.0
 11
-596.4877907383
 21
-25.3675751553
 31
0.0
  0
LINE
  5
16B
330
1B
100
AcDbEntity
 67
     1
  8
2
  6
Continuous
 62
     3
100
AcDbLine
 10
-596.4877907383
 20
-25.3675751553
 30
0.0
 11
-596.5702330983
 21
-25.3022885053
 31
0.0
  0
LINE
  5
16C
330
1B
100
AcDbEntity
 67
     1
  8
2
  6
Continuous
 62
     3
100
AcDbLine
 10
-596.5702330983
 20
-25.3022885053
 30
0.0
 11
-596.6574516583
 21
-25.2474136853
 31
0.0
  0
LINE
  5
16D
330
1B
100
AcDbEntity
 67
     1
  8
2
  6
Continuous
 62
     3
100
AcDbLine
 10
-596.6574516583
 20
-25.2474136853
 30
0.0
 11
-596.7494650083
 21
-25.2034326053
 31
0.0
  0
LINE
  5
16E
330
1B
100
AcDbEntity
 67
     1
  8
2
  6
CENTERX2
 62
     6
100
AcDbLine
 10
-572.9306550425
 20
56.6506150747
 30
0.0
 11
-572.9306550425
 21
-14.1103834953
 31
0.0
  0
LINE
  5
16F
330
1B
100
AcDbEntity
 67
     1
  8
2
  6
CENTERX2
 62
     6
100
AcDbLine
 10
-584.3706536125
 20
-25.5503820653
 30
0.0
 11
-709.0571525931
 21
-25.5503820653
 31
0.0
  0
LINE
  5
170
330
1B
100
AcDbEntity
 67
     1
  8
1
  6
Continuous
 62
     7
100
AcDbLine
 10
-446.9065138483
 20
51.3506150747
 30
0.0
 11
-438.3279920224
 21
51.3506150747
 31
0.0
  0
LINE
  5
171
330
1B
100
AcDbEntity
 67
     1
  8
1
  6
Continuous
 62
     7
100
AcDbLine
 10
-455.4850356742
 20
51.3506150747
 30
0.0
 11
-446.9065138483
 21
51.3506150747
 31
0.0
  0
LINE
  5
172
330
1B
100
AcDbEntity
 67
     1
  8
1
  6
Continuous
 62
     7
100
AcDbLine
 10
-438.3279920224
 20
51.3506150747
 30
0.0
 11
-388.9140849869
 21
51.3506150747
 31
0.0
  0
LINE
  5
173
330
1B
100
AcDbEntity
 67
     1
  8
1
  6
Continuous
 62
     7
100
AcDbLine
 10
-446.9065138483
 20
68.5076587265
 30
0.0
 11
-446.9065138483
 21
53.6506150747
 31
0.0
  0
LINE
  5
174
330
1B
100
AcDbEntity
 67
     1
  8
1
  6
CENTERX2
 62
     6
100
AcDbLine
 10
-446.9065138483
 20
51.3506150747
 30
0.0
 11
-446.9065138483
 21
53.6506150747
 31
0.0
  0
LINE
  5
175
330
1B
100
AcDbEntity
 67
     1
  8
1
  6
Continuous
 62
     7
100
AcDbLine
 10
-446.9065138483
 20
68.5076587265
 30
0.0
 11
-438.3279920224
 21
51.3506150747
 31
0.0
  0
LINE
  5
176
330
1B
100
AcDbEntity
 67
     1
  8
1
  6
Continuous
 62
     7
100
AcDbLine
 10
-455.4850356742
 20
51.3506150747
 30
0.0
 11
-446.9065138483
 21
68.5076587265
 31
0.0
  0
LINE
  5
177
330
1B
100
AcDbEntity
 67
     1
  8
1
  6
Continuous
 62
     7
100
AcDbLine
 10
-446.9065138483
 20
53.6506150747
 30
0.0
 11
-446.9065138483
 21
51.3506150747
 31
0.0
  0
LINE
  5
178
330
1B
100
AcDbEntity
 67
     1
  8
1
  6
Continuous
 62
     7
100
AcDbLine
 10
-388.3666916219
 20
43.6506150747
 30
0.0
 11
-482.3019138483
 21
43.6506150747
 31
0.0
  0
LINE
  5
179
330
1B
100
AcDbEntity
 67
     1
  8
1
  6
Continuous
 62
     7
100
AcDbLine
 10
-504.8989427097
 20
51.3506150747
 30
0.0
 11
-491.5111138483
 21
51.3506150747
 31
0.0
  0
LINE
  5
17A
330
1B
100
AcDbEntity
 67
     1
  8
1
  6
Continuous
 62
     7
100
AcDbLine
 10
-391.9452413298
 20
255.6433703091
 30
0.0
 11
-377.8343819529
 21
57.1506150747
 31
0.0
  0
LINE
  5
17B
330
1B
100
AcDbEntity
 67
     1
  8
1
  6
Continuous
 62
     7
100
AcDbLine
 10
-515.9786457436
 20
57.1506150747
 30
0.0
 11
-501.8677863668
 21
255.6433703091
 31
0.0
  0
LINE
  5
17C
330
1B
100
AcDbEntity
 67
     1
  8
1
  6
Continuous
 62
     3
100
AcDbLine
 10
-518.8722129842
 20
59.1157102619
 30
0.0
 11
-516.8729987841
 21
173.6506150747
 31
0.0
  0
LINE
  5
17D
330
1B
100
AcDbEntity
 67
     1
  8
1
  6
Continuous
 62
     7
100
AcDbLine
 10
-521.9065138483
 20
43.6506150747
 30
0.0
 11
-521.9065138483
 21
55.681694791
 31
0.0
  0
LINE
  5
17E
330
1B
100
AcDbEntity
 67
     1
  8
1
  6
Continuous
 62
     7
100
AcDbLine
 10
-517.5655792519
 20
305.8425915456
 30
0.0
 11
-519.6984481349
 21
183.6506150747
 31
0.0
  0
LINE
  5
17F
330
1B
100
AcDbEntity
 67
     1
  8
1
  6
Continuous
 62
     7
100
AcDbLine
 10
-503.5672546051
 20
316.6506150747
 30
0.0
 11
-446.9065138483
 21
316.6506150747
 31
0.0
  0
LINE
  5
180
330
1B
100
AcDbEntity
 67
     1
  8
1
  6
Continuous
 62
     7
100
AcDbLine
 10
-520.7102788891
 20
57.1506150747
 30
0.0
 11
-518.9065138483
 21
57.1506150747
 31
0.0
  0
LINE
  5
181
330
1B
100
AcDbEntity
 67
     1
  8
1
  6
Continuous
 62
     7
100
AcDbLine
 10
-521.9065138483
 20
55.681694791
 30
0.0
 11
-521.9065138483
 21
57.4390101222
 31
0.0
  0
LINE
  5
182
330
1B
100
AcDbEntity
 67
     1
  8
1
  6
Continuous
 62
     7
100
AcDbLine
 10
-506.5672546051
 20
316.6506150747
 30
0.0
 11
-503.5672546051
 21
316.6506150747
 31
0.0
  0
LINE
  5
183
330
1B
100
AcDbEntity
 67
     1
  8
1
  6
Continuous
 62
     7
100
AcDbLine
 10
-521.9065138483
 20
43.6506150747
 30
0.0
 11
-505.6098431836
 21
43.6506150747
 31
0.0
  0
LINE
  5
184
330
1B
100
AcDbEntity
 67
     1
  8
1
  6
Continuous
 62
     3
100
AcDbLine
 10
-516.8729987841
 20
173.6506150747
 30
0.0
 11
-516.6984481349
 21
183.6506150747
 31
0.0
  0
LINE
  5
185
330
1B
100
AcDbEntity
 67
     1
  8
1
  6
Continuous
 62
     3
100
AcDbLine
 10
-516.6984481349
 20
183.6506150747
 30
0.0
 11
-514.5655792519
 21
305.8425915456
 31
0.0
  0
LINE
  5
186
330
1B
100
AcDbEntity
 67
     1
  8
1
  6
Continuous
 62
     7
100
AcDbLine
 10
-519.8729987841
 20
173.6506150747
 30
0.0
 11
-521.9065138483
 21
57.1506150747
 31
0.0
  0
LINE
  5
187
330
1B
100
AcDbEntity
 67
     1
  8
1
  6
Continuous
 62
     7
100
AcDbLine
 10
-519.6984481349
 20
183.6506150747
 30
0.0
 11
-519.8729987841
 21
173.6506150747
 31
0.0
  0
LINE
  5
188
330
1B
100
AcDbEntity
 67
     1
  8
1
  6
Continuous
 62
     3
100
AcDbLine
 10
-376.9400289124
 20
173.6506150747
 30
0.0
 11
-374.9408147124
 21
59.1157102619
 31
0.0
  0
LINE
  5
189
330
1B
100
AcDbEntity
 67
     1
  8
1
  6
Continuous
 62
     7
100
AcDbLine
 10
-371.9065138483
 20
55.681694791
 30
0.0
 11
-371.9065138483
 21
43.6506150747
 31
0.0
  0
LINE
  5
18A
330
1B
100
AcDbEntity
 67
     1
  8
1
  6
Continuous
 62
     7
100
AcDbLine
 10
-374.1145795617
 20
183.6506150747
 30
0.0
 11
-376.2474484447
 21
305.8425915456
 31
0.0
  0
LINE
  5
18B
330
1B
100
AcDbEntity
 67
     1
  8
1
  6
Continuous
 62
     7
100
AcDbLine
 10
-446.9065138483
 20
316.6506150747
 30
0.0
 11
-390.2457730914
 21
316.6506150747
 31
0.0
  0
LINE
  5
18C
330
1B
100
AcDbEntity
 67
     1
  8
1
  6
Continuous
 62
     4
100
AcDbLine
 10
-374.9065138483
 20
57.1506150747
 30
0.0
 11
-373.1027488075
 21
57.1506150747
 31
0.0
  0
LINE
  5
18D
330
1B
100
AcDbEntity
 67
     1
  8
1
  6
Continuous
 62
     7
100
AcDbLine
 10
-371.9065138483
 20
57.4390101222
 30
0.0
 11
-371.9065138483
 21
55.681694791
 31
0.0
  0
LINE
  5
18E
330
1B
100
AcDbEntity
 67
     1
  8
1
  6
Continuous
 62
     7
100
AcDbLine
 10
-390.2457730914
 20
316.6506150747
 30
0.0
 11
-387.2457730914
 21
316.6506150747
 31
0.0
  0
LINE
  5
18F
330
1B
100
AcDbEntity
 67
     1
  8
1
  6
Continuous
 62
     7
100
AcDbLine
 10
-388.2031845129
 20
43.6506150747
 30
0.0
 11
-371.9065138483
 21
43.6506150747
 31
0.0
  0
LINE
  5
190
330
1B
100
AcDbEntity
 67
     1
  8
1
  6
Continuous
 62
     3
100
AcDbLine
 10
-377.1145795617
 20
183.6506150747
 30
0.0
 11
-376.9400289124
 21
173.6506150747
 31
0.0
  0
LINE
  5
191
330
1B
100
AcDbEntity
 67
     1
  8
1
  6
Continuous
 62
     3
100
AcDbLine
 10
-379.2474484447
 20
305.8425915456
 30
0.0
 11
-377.1145795617
 21
183.6506150747
 31
0.0
  0
LINE
  5
192
330
1B
100
AcDbEntity
 67
     1
  8
1
  6
Continuous
 62
     7
100
AcDbLine
 10
-371.9065138483
 20
57.1506150747
 30
0.0
 11
-373.9400289124
 21
173.6506150747
 31
0.0
  0
LINE
  5
193
330
1B
100
AcDbEntity
 67
     1
  8
1
  6
Continuous
 62
     7
100
AcDbLine
 10
-373.9400289124
 20
173.6506150747
 30
0.0
 11
-374.1145795617
 21
183.6506150747
 31
0.0
  0
LINE
  5
194
330
1B
100
AcDbEntity
 67
     1
  8
1
  6
Continuous
 62
     7
100
AcDbLine
 10
-504.4724024254
 20
59.6506150747
 30
0.0
 11
-491.3207436576
 21
244.6506150747
 31
0.0
  0
LINE
  5
195
330
1B
100
AcDbEntity
 67
     1
  8
1
  6
Continuous
 62
     7
100
AcDbLine
 10
-373.1027488075
 20
57.1506150747
 30
0.0
 11
-377.8343819529
 21
57.1506150747
 31
0.0
  0
LINE
  5
196
330
1B
100
AcDbEntity
 67
     1
  8
1
  6
Continuous
 62
     7
100
AcDbLine
 10
-518.9065138483
 20
57.1506150747
 30
0.0
 11
-515.9786457436
 21
57.1506150747
 31
0.0
  0
LINE
  5
197
330
1B
100
AcDbEntity
 67
     1
  8
1
  6
Continuous
 62
     7
100
AcDbLine
 10
-505.6098431836
 20
43.6506150747
 30
0.0
 11
-504.4724024254
 21
59.6506150747
 31
0.0
  0
LINE
  5
198
330
1B
100
AcDbEntity
 67
     1
  8
1
  6
Continuous
 62
     7
100
AcDbLine
 10
-487.9030294035
 20
268.6506150747
 30
0.0
 11
-413.4065138483
 21
268.6506150747
 31
0.0
  0
LINE
  5
199
330
1B
100
AcDbEntity
 67
     1
  8
1
  6
Continuous
 62
     7
100
AcDbLine
 10
-483.5921771937
 20
261.6506150747
 30
0.0
 11
-446.9065138483
 21
261.6506150747
 31
0.0
  0
LINE
  5
19A
330
1B
100
AcDbEntity
 67
     1
  8
1
  6
Continuous
 62
     7
100
AcDbLine
 10
-446.9065138483
 20
261.6506150747
 30
0.0
 11
-410.2208505029
 21
261.6506150747
 31
0.0
  0
LINE
  5
19B
330
1B
100
AcDbEntity
 67
     1
  8
1
  6
Continuous
 62
     7
100
AcDbLine
 10
-410.4065138483
 20
268.6506150747
 30
0.0
 11
-405.9099982931
 21
268.6506150747
 31
0.0
  0
LINE
  5
19C
330
1B
100
AcDbEntity
 67
     1
  8
1
  6
Continuous
 62
     7
100
AcDbLine
 10
-402.492284039
 20
244.6506150747
 30
0.0
 11
-388.2031845129
 21
43.6506150747
 31
0.0
  0
LINE
  5
19D
330
1B
100
AcDbEntity
 67
     1
  8
1
  6
Continuous
 62
     7
100
AcDbLine
 10
-410.4065138483
 20
268.6506150747
 30
0.0
 11
-413.4065138483
 21
268.6506150747
 31
0.0
  0
LINE
  5
19E
330
1B
100
AcDbEntity
 67
     1
  8
1
  6
Continuous
 62
     7
100
AcDbLine
 10
-491.3207436576
 20
244.6506150747
 30
0.0
 11
-490.5745556753
 21
255.1469926919
 31
0.0
  0
LINE
  5
19F
330
1B
100
AcDbEntity
 67
     1
  8
1
  6
Continuous
 62
     7
100
AcDbLine
 10
-403.2384720212
 20
255.1469926919
 30
0.0
 11
-402.492284039
 21
244.6506150747
 31
0.0
  0
LINE
  5
1A0
330
1B
100
AcDbEntity
 67
     1
  8
1
  6
CENTERX2
 62
     6
100
AcDbLine
 10
-628.3283533182
 20
116.6506150747
 30
0.0
 11
-606.4083533182
 21
116.6506150747
 31
0.0
  0
LINE
  5
1A1
330
1B
100
AcDbEntity
 67
     1
  8
1
  6
Continuous
 62
     3
100
AcDbLine
 10
-616.9065198483
 20
122.1312190747
 30
0.0
 11
-614.4065258483
 21
122.1312190747
 31
0.0
  0
LINE
  5
1A2
330
1B
100
AcDbEntity
 67
     1
  8
1
  6
Continuous
 62
     3
100
AcDbLine
 10
-614.4065258483
 20
119.6312170747
 30
0.0
 11
-616.9065198483
 21
119.6312170747
 31
0.0
  0
LINE
  5
1A3
330
1B
100
AcDbEntity
 67
     1
  8
1
  6
Continuous
 62
     3
100
AcDbLine
 10
-613.4065258483
 20
121.1312190747
 30
0.0
 11
-613.4065258483
 21
116.6506150747
 31
0.0
  0
LINE
  5
1A4
330
1B
100
AcDbEntity
 67
     1
  8
1
  6
Continuous
 62
     3
100
AcDbLine
 10
-613.4065258483
 20
121.1312190747
 30
0.0
 11
-613.4065258483
 21
116.6506150747
 31
0.0
  0
LINE
  5
1A5
330
1B
100
AcDbEntity
 67
     1
  8
1
  6
Continuous
 62
     3
100
AcDbLine
 10
-613.4065258483
 20
116.6506150747
 30
0.0
 11
-613.4065258483
 21
112.1700110747
 31
0.0
  0
LINE
  5
1A6
330
1B
100
AcDbEntity
 67
     1
  8
1
  6
Continuous
 62
     3
100
AcDbLine
 10
-613.4065258483
 20
116.6506150747
 30
0.0
 11
-613.4065258483
 21
112.1700110747
 31
0.0
  0
LINE
  5
1A7
330
1B
100
AcDbEntity
 67
     1
  8
1
  6
Continuous
 62
     3
100
AcDbLine
 10
-616.9065198483
 20
113.6700130747
 30
0.0
 11
-614.4065258483
 21
113.6700130747
 31
0.0
  0
LINE
  5
1A8
330
1B
100
AcDbEntity
 67
     1
  8
1
  6
Continuous
 62
     3
100
AcDbLine
 10
-614.4065258483
 20
111.1700110747
 30
0.0
 11
-616.9065198483
 21
111.1700110747
 31
0.0
  0
LINE
  5
1A9
330
1B
100
AcDbEntity
 67
     1
  8
1
  6
Continuous
 62
     7
100
AcDbLine
 10
-607.9065296258
 20
133.3393655678
 30
0.0
 11
-607.9065296258
 21
99.9618645817
 31
0.0
  0
LINE
  5
1AA
330
1B
100
AcDbEntity
 67
     1
  8
1
  6
Continuous
 62
     7
100
AcDbLine
 10
-609.8028475268
 20
134.6506150747
 30
0.0
 11
-607.9065296258
 21
133.3393655678
 31
0.0
  0
LINE
  5
1AB
330
1B
100
AcDbEntity
 67
     1
  8
1
  6
Continuous
 62
     7
100
AcDbLine
 10
-620.4988926012
 20
137.6506150747
 30
0.0
 11
-617.9065138483
 21
137.6506150747
 31
0.0
  0
LINE
  5
1AC
330
1B
100
AcDbEntity
 67
     1
  8
1
  6
Continuous
 62
     7
100
AcDbLine
 10
-613.9065138483
 20
134.6506150747
 30
0.0
 11
-609.8028475268
 21
134.6506150747
 31
0.0
  0
LINE
  5
1AD
330
1B
100
AcDbEntity
 67
     1
  8
1
  6
Continuous
 62
     7
100
AcDbLine
 10
-616.9065138483
 20
136.6506150747
 30
0.0
 11
-616.9065138483
 21
137.6506150747
 31
0.0
  0
LINE
  5
1AE
330
1B
100
AcDbEntity
 67
     1
  8
1
  6
Continuous
 62
     7
100
AcDbLine
 10
-607.9065296258
 20
99.9618645817
 30
0.0
 11
-609.8028475268
 21
98.6506150747
 31
0.0
  0
LINE
  5
1AF
330
1B
100
AcDbEntity
 67
     1
  8
1
  6
Continuous
 62
     7
100
AcDbLine
 10
-607.9865138483
 20
99.9618645817
 30
0.0
 11
-607.9065296258
 21
99.9618645817
 31
0.0
  0
LINE
  5
1B0
330
1B
100
AcDbEntity
 67
     1
  8
1
  6
Continuous
 62
     7
100
AcDbLine
 10
-617.9065138483
 20
95.6506150747
 30
0.0
 11
-620.2078995296
 21
95.6506150747
 31
0.0
  0
LINE
  5
1B1
330
1B
100
AcDbEntity
 67
     1
  8
1
  6
Continuous
 62
     7
100
AcDbLine
 10
-609.8028475268
 20
98.6506150747
 30
0.0
 11
-613.9065138483
 21
98.6506150747
 31
0.0
  0
LINE
  5
1B2
330
1B
100
AcDbEntity
 67
     1
  8
1
  6
Continuous
 62
     7
100
AcDbLine
 10
-616.9065138483
 20
95.6506150747
 30
0.0
 11
-616.9065138483
 21
96.6506150747
 31
0.0
  0
LINE
  5
1B3
330
1B
100
AcDbEntity
 67
     1
  8
1
  6
Continuous
 62
     7
100
AcDbLine
 10
-616.9065138483
 20
137.6506150747
 30
0.0
 11
-616.9065138483
 21
95.6506150747
 31
0.0
  0
LINE
  5
1B4
330
1B
100
AcDbEntity
 67
     1
  8
1
  6
Continuous
 62
     7
100
AcDbLine
 10
-618.1065138483
 20
207.6506150747
 30
0.0
 11
-621.2748741254
 21
207.6506150747
 31
0.0
  0
LINE
  5
1B5
330
1B
100
AcDbEntity
 67
     1
  8
1
  6
CENTERX2
 62
     6
100
AcDbLine
 10
-628.3283533182
 20
228.6506150747
 30
0.0
 11
-596.3283533182
 21
228.6506150747
 31
0.0
  0
LINE
  5
1B6
330
1B
100
AcDbEntity
 67
     1
  8
1
  6
Continuous
 62
     3
100
AcDbLine
 10
-617.1065198483
 20
234.1312190747
 30
0.0
 11
-614.6065258483
 21
234.1312190747
 31
0.0
  0
LINE
  5
1B7
330
1B
100
AcDbEntity
 67
     1
  8
1
  6
Continuous
 62
     3
100
AcDbLine
 10
-614.6065258483
 20
231.6312170747
 30
0.0
 11
-617.1065198483
 21
231.6312170747
 31
0.0
  0
LINE
  5
1B8
330
1B
100
AcDbEntity
 67
     1
  8
1
  6
Continuous
 62
     3
100
AcDbLine
 10
-613.6065258483
 20
233.1312190747
 30
0.0
 11
-613.6065258483
 21
224.1700110747
 31
0.0
  0
LINE
  5
1B9
330
1B
100
AcDbEntity
 67
     1
  8
1
  6
Continuous
 62
     3
100
AcDbLine
 10
-613.6065258483
 20
233.1312190747
 30
0.0
 11
-613.6065258483
 21
224.1700110747
 31
0.0
  0
LINE
  5
1BA
330
1B
100
AcDbEntity
 67
     1
  8
1
  6
Continuous
 62
     3
100
AcDbLine
 10
-617.1065198483
 20
225.6700130747
 30
0.0
 11
-614.6065258483
 21
225.6700130747
 31
0.0
  0
LINE
  5
1BB
330
1B
100
AcDbEntity
 67
     1
  8
1
  6
Continuous
 62
     3
100
AcDbLine
 10
-614.6065258483
 20
223.1700110747
 30
0.0
 11
-617.1065198483
 21
223.1700110747
 31
0.0
  0
LINE
  5
1BC
330
1B
100
AcDbEntity
 67
     1
  8
1
  6
Continuous
 62
     7
100
AcDbLine
 10
-608.1065296258
 20
245.3393655678
 30
0.0
 11
-608.1065296258
 21
211.9618645817
 31
0.0
  0
LINE
  5
1BD
330
1B
100
AcDbEntity
 67
     1
  8
1
  6
Continuous
 62
     7
100
AcDbLine
 10
-610.0028475268
 20
246.6506150747
 30
0.0
 11
-608.1065296258
 21
245.3393655678
 31
0.0
  0
LINE
  5
1BE
330
1B
100
AcDbEntity
 67
     1
  8
1
  6
Continuous
 62
     7
100
AcDbLine
 10
-608.1065296258
 20
245.3393655678
 30
0.0
 11
-608.1865138483
 21
245.3393655678
 31
0.0
  0
LINE
  5
1BF
330
1B
100
AcDbEntity
 67
     1
  8
1
  6
Continuous
 62
     7
100
AcDbLine
 10
-621.2748741254
 20
249.6506150747
 30
0.0
 11
-618.1065138483
 21
249.6506150747
 31
0.0
  0
LINE
  5
1C0
330
1B
100
AcDbEntity
 67
     1
  8
1
  6
Continuous
 62
     7
100
AcDbLine
 10
-614.1065138483
 20
246.6506150747
 30
0.0
 11
-610.0028475268
 21
246.6506150747
 31
0.0
  0
LINE
  5
1C1
330
1B
100
AcDbEntity
 67
     1
  8
1
  6
Continuous
 62
     7
100
AcDbLine
 10
-617.1065138483
 20
248.6506150747
 30
0.0
 11
-617.1065138483
 21
208.6506150747
 31
0.0
  0
LINE
  5
1C2
330
1B
100
AcDbEntity
 67
     1
  8
1
  6
Continuous
 62
     7
100
AcDbLine
 10
-608.1065296258
 20
211.9618645817
 30
0.0
 11
-610.0028475268
 21
210.6506150747
 31
0.0
  0
LINE
  5
1C3
330
1B
100
AcDbEntity
 67
     1
  8
1
  6
Continuous
 62
     7
100
AcDbLine
 10
-608.1865138483
 20
211.9618645817
 30
0.0
 11
-608.1065296258
 21
211.9618645817
 31
0.0
  0
LINE
  5
1C4
330
1B
100
AcDbEntity
 67
     1
  8
1
  6
Continuous
 62
     7
100
AcDbLine
 10
-610.0028475268
 20
210.6506150747
 30
0.0
 11
-614.1065138483
 21
210.6506150747
 31
0.0
  0
LINE
  5
1C5
330
1B
100
AcDbEntity
 67
     1
  8
1
  6
Continuous
 62
     4
100
AcDbLine
 10
-464.3883248497
 20
159.4006150747
 30
0.0
 11
-463.3883248497
 21
158.4006150747
 31
0.0
  0
LINE
  5
1C6
330
1B
100
AcDbEntity
 67
     1
  8
1
  6
Continuous
 62
     4
100
AcDbLine
 10
-463.3883248497
 20
150.4006150747
 30
0.0
 11
-464.3883248497
 21
149.4006150747
 31
0.0
  0
LINE
  5
1C7
330
1B
100
AcDbEntity
 67
     1
  8
1
  6
Continuous
 62
     4
100
AcDbLine
 10
-481.3883248497
 20
150.4006150747
 30
0.0
 11
-480.3883248497
 21
149.4006150747
 31
0.0
  0
LINE
  5
1C8
330
1B
100
AcDbEntity
 67
     1
  8
1
  6
Continuous
 62
     4
100
AcDbLine
 10
-481.3883248497
 20
158.4006150747
 30
0.0
 11
-480.3883248497
 21
159.4006150747
 31
0.0
  0
LINE
  5
1C9
330
1B
100
AcDbEntity
 67
     1
  8
1
  6
Continuous
 62
     4
100
AcDbLine
 10
-481.3883248497
 20
158.4006150747
 30
0.0
 11
-481.3883248497
 21
150.4006150747
 31
0.0
  0
LINE
  5
1CA
330
1B
100
AcDbEntity
 67
     1
  8
1
  6
Continuous
 62
     4
100
AcDbLine
 10
-464.3883248497
 20
159.4006150747
 30
0.0
 11
-480.3883248497
 21
159.4006150747
 31
0.0
  0
LINE
  5
1CB
330
1B
100
AcDbEntity
 67
     1
  8
1
  6
Continuous
 62
     4
100
AcDbLine
 10
-463.3883248497
 20
150.4006150747
 30
0.0
 11
-463.3883248497
 21
158.4006150747
 31
0.0
  0
LINE
  5
1CC
330
1B
100
AcDbEntity
 67
     1
  8
1
  6
Continuous
 62
     4
100
AcDbLine
 10
-480.3883248497
 20
149.4006150747
 30
0.0
 11
-464.3883248497
 21
149.4006150747
 31
0.0
  0
LINE
  5
1CD
330
1B
100
AcDbEntity
 67
     1
  8
1
  6
Continuous
 62
     4
100
AcDbLine
 10
-482.6383248497
 20
160.6506150747
 30
0.0
 11
-482.6383248497
 21
148.1506150747
 31
0.0
  0
LINE
  5
1CE
330
1B
100
AcDbEntity
 67
     1
  8
1
  6
Continuous
 62
     4
100
AcDbLine
 10
-462.1383248497
 20
160.6506150747
 30
0.0
 11
-482.6383248497
 21
160.6506150747
 31
0.0
  0
LINE
  5
1CF
330
1B
100
AcDbEntity
 67
     1
  8
1
  6
Continuous
 62
     4
100
AcDbLine
 10
-462.1383248497
 20
148.1506150747
 30
0.0
 11
-462.1383248497
 21
160.6506150747
 31
0.0
  0
LINE
  5
1D0
330
1B
100
AcDbEntity
 67
     1
  8
1
  6
Continuous
 62
     4
100
AcDbLine
 10
-482.6383248497
 20
148.1506150747
 30
0.0
 11
-462.1383248497
 21
148.1506150747
 31
0.0
  0
LINE
  5
1D1
330
1B
100
AcDbEntity
 67
     1
  8
1
  6
Continuous
 62
     4
100
AcDbLine
 10
-464.3883248497
 20
199.4006150747
 30
0.0
 11
-463.3883248497
 21
198.4006150747
 31
0.0
  0
LINE
  5
1D2
330
1B
100
AcDbEntity
 67
     1
  8
1
  6
Continuous
 62
     4
100
AcDbLine
 10
-463.3883248497
 20
190.4006150747
 30
0.0
 11
-464.3883248497
 21
189.4006150747
 31
0.0
  0
LINE
  5
1D3
330
1B
100
AcDbEntity
 67
     1
  8
1
  6
Continuous
 62
     4
100
AcDbLine
 10
-481.3883248497
 20
190.4006150747
 30
0.0
 11
-480.3883248497
 21
189.4006150747
 31
0.0
  0
LINE
  5
1D4
330
1B
100
AcDbEntity
 67
     1
  8
1
  6
Continuous
 62
     4
100
AcDbLine
 10
-481.3883248497
 20
198.4006150747
 30
0.0
 11
-480.3883248497
 21
199.4006150747
 31
0.0
  0
LINE
  5
1D5
330
1B
100
AcDbEntity
 67
     1
  8
1
  6
Continuous
 62
     4
100
AcDbLine
 10
-481.3883248497
 20
198.4006150747
 30
0.0
 11
-481.3883248497
 21
190.4006150747
 31
0.0
  0
LINE
  5
1D6
330
1B
100
AcDbEntity
 67
     1
  8
1
  6
Continuous
 62
     4
100
AcDbLine
 10
-464.3883248497
 20
199.4006150747
 30
0.0
 11
-480.3883248497
 21
199.4006150747
 31
0.0
  0
LINE
  5
1D7
330
1B
100
AcDbEntity
 67
     1
  8
1
  6
Continuous
 62
     4
100
AcDbLine
 10
-463.3883248497
 20
190.4006150747
 30
0.0
 11
-463.3883248497
 21
198.4006150747
 31
0.0
  0
LINE
  5
1D8
330
1B
100
AcDbEntity
 67
     1
  8
1
  6
Continuous
 62
     4
100
AcDbLine
 10
-480.3883248497
 20
189.4006150747
 30
0.0
 11
-464.3883248497
 21
189.4006150747
 31
0.0
  0
LINE
  5
1D9
330
1B
100
AcDbEntity
 67
     1
  8
1
  6
Continuous
 62
     4
100
AcDbLine
 10
-482.6383248497
 20
200.6506150747
 30
0.0
 11
-482.6383248497
 21
188.1506150747
 31
0.0
  0
LINE
  5
1DA
330
1B
100
AcDbEntity
 67
     1
  8
1
  6
Continuous
 62
     4
100
AcDbLine
 10
-462.1383248497
 20
200.6506150747
 30
0.0
 11
-482.6383248497
 21
200.6506150747
 31
0.0
  0
LINE
  5
1DB
330
1B
100
AcDbEntity
 67
     1
  8
1
  6
Continuous
 62
     4
100
AcDbLine
 10
-462.1383248497
 20
188.1506150747
 30
0.0
 11
-462.1383248497
 21
200.6506150747
 31
0.0
  0
LINE
  5
1DC
330
1B
100
AcDbEntity
 67
     1
  8
1
  6
Continuous
 62
     4
100
AcDbLine
 10
-482.6383248497
 20
188.1506150747
 30
0.0
 11
-462.1383248497
 21
188.1506150747
 31
0.0
  0
LINE
  5
1DD
330
1B
100
AcDbEntity
 67
     1
  8
1
  6
Continuous
 62
     2
100
AcDbLine
 10
-390.9065138483
 20
46.024746437
 30
0.0
 11
-390.9065138483
 21
35.7837975875
 31
0.0
  0
LINE
  5
1DE
330
1B
100
AcDbEntity
 67
     1
  8
1
  6
Continuous
 62
     3
100
AcDbLine
 10
-379.9065138483
 20
43.6506150747
 30
0.0
 11
-401.9065138483
 21
43.6506150747
 31
0.0
  0
LINE
  5
1DF
330
1B
100
AcDbEntity
 67
     1
  8
1
  6
Continuous
 62
     3
100
AcDbLine
 10
-382.9065138483
 20
38.6506150747
 30
0.0
 11
-379.9065138483
 21
43.6506150747
 31
0.0
  0
LINE
  5
1E0
330
1B
100
AcDbEntity
 67
     1
  8
1
  6
Continuous
 62
     3
100
AcDbLine
 10
-398.9065138483
 20
38.6506150747
 30
0.0
 11
-382.9065138483
 21
38.6506150747
 31
0.0
  0
LINE
  5
1E1
330
1B
100
AcDbEntity
 67
     1
  8
1
  6
Continuous
 62
     3
100
AcDbLine
 10
-401.9065138483
 20
43.6506150747
 30
0.0
 11
-398.9065138483
 21
38.6506150747
 31
0.0
  0
LINE
  5
1E2
330
1B
100
AcDbEntity
 67
     1
  8
1
  6
Continuous
 62
     2
100
AcDbLine
 10
-502.9065138483
 20
46.024746437
 30
0.0
 11
-502.9065138483
 21
35.7837975875
 31
0.0
  0
LINE
  5
1E3
330
1B
100
AcDbEntity
 67
     1
  8
1
  6
Continuous
 62
     3
100
AcDbLine
 10
-491.9065138483
 20
43.6506150747
 30
0.0
 11
-513.9065138483
 21
43.6506150747
 31
0.0
  0
LINE
  5
1E4
330
1B
100
AcDbEntity
 67
     1
  8
1
  6
Continuous
 62
     3
100
AcDbLine
 10
-494.9065138483
 20
38.6506150747
 30
0.0
 11
-491.9065138483
 21
43.6506150747
 31
0.0
  0
LINE
  5
1E5
330
1B
100
AcDbEntity
 67
     1
  8
1
  6
Continuous
 62
     3
100
AcDbLine
 10
-510.9065138483
 20
38.6506150747
 30
0.0
 11
-494.9065138483
 21
38.6506150747
 31
0.0
  0
LINE
  5
1E6
330
1B
100
AcDbEntity
 67
     1
  8
1
  6
Continuous
 62
     3
100
AcDbLine
 10
-513.9065138483
 20
43.6506150747
 30
0.0
 11
-510.9065138483
 21
38.6506150747
 31
0.0
  0
LINE
  5
1E7
330
1B
100
AcDbEntity
 67
     1
  8
1
  6
CENTERX2
 62
     6
100
AcDbLine
 10
-492.4581844159
 20
228.6506150747
 30
0.0
 11
-446.9065138483
 21
228.6506150747
 31
0.0
  0
LINE
  5
1E8
330
1B
100
AcDbEntity
 67
     1
  8
1
  6
CENTERX2
 62
     6
100
AcDbLine
 10
-496.4581844159
 20
116.6506150747
 30
0.0
 11
-446.9065138483
 21
116.6506150747
 31
0.0
  0
LINE
  5
1E9
330
1B
100
AcDbEntity
 67
     1
  8
1
  6
CENTERX2
 62
     6
100
AcDbLine
 10
-478.4065138483
 20
127.6506150747
 30
0.0
 11
-478.4065138483
 21
105.6506150747
 31
0.0
  0
LINE
  5
1EA
330
1B
100
AcDbEntity
 67
     1
  8
1
  6
CENTERX2
 62
     6
100
AcDbLine
 10
-478.4065138483
 20
239.6506150747
 30
0.0
 11
-478.4065138483
 21
217.6506150747
 31
0.0
  0
LINE
  5
1EB
330
1B
100
AcDbEntity
 67
     1
  8
1
  6
CENTERX2
 62
     6
100
AcDbLine
 10
-415.4065138483
 20
105.6506150747
 30
0.0
 11
-415.4065138483
 21
127.6506150747
 31
0.0
  0
LINE
  5
1EC
330
1B
100
AcDbEntity
 67
     1
  8
1
  6
CENTERX2
 62
     6
100
AcDbLine
 10
-415.4065138483
 20
217.6506150747
 30
0.0
 11
-415.4065138483
 21
239.6506150747
 31
0.0
  0
LINE
  5
1ED
330
1B
100
AcDbEntity
 67
     1
  8
1
  6
CENTERX2
 62
     6
100
AcDbLine
 10
-446.9065138483
 20
35.4562561004
 30
0.0
 11
-446.9065138483
 21
336.4562561004
 31
0.0
  0
LINE
  5
1EE
330
1B
100
AcDbEntity
 67
     1
  8
1
  6
CENTERX2
 62
     6
100
AcDbLine
 10
-446.9065138483
 20
116.6506150747
 30
0.0
 11
-397.3548432807
 21
116.6506150747
 31
0.0
  0
LINE
  5
1EF
330
1B
100
AcDbEntity
 67
     1
  8
1
  6
CENTERX2
 62
     6
100
AcDbLine
 10
-584.9306550425
 20
68.6506150747
 30
0.0
 11
-632.3296593325
 21
68.6506150747
 31
0.0
  0
LINE
  5
1F0
330
1B
100
AcDbEntity
 67
     1
  8
1
  6
Continuous
 62
     3
100
AcDbLine
 10
-603.8849814183
 20
62.0429003349
 30
0.0
 11
-620.0723121938
 21
61.1393119349
 31
0.0
  0
LINE
  5
1F1
330
1B
100
AcDbEntity
 67
     1
  8
1
  6
Continuous
 62
     3
100
AcDbLine
 10
-601.9855124183
 20
73.2513490149
 30
0.0
 11
-601.9855124183
 21
64.0422734249
 31
0.0
  0
LINE
  5
1F2
330
1B
100
AcDbEntity
 67
     1
  8
1
  6
Continuous
 62
     3
100
AcDbLine
 10
-620.0723121938
 20
76.1543147949
 30
0.0
 11
-603.8849814183
 21
75.2507221049
 31
0.0
  0
LINE
  5
1F3
330
1B
100
AcDbEntity
 67
     1
  8
1
  6
Continuous
 62
     3
100
AcDbLine
 10
-596.4656228783
 20
73.2023629349
 30
0.0
 11
-601.9931228783
 21
73.2023629349
 31
0.0
  0
LINE
  5
1F4
330
1B
100
AcDbEntity
 67
     1
  8
1
  6
Continuous
 62
     3
100
AcDbLine
 10
-601.9931228783
 20
63.9931600749
 30
0.0
 11
-596.4656228783
 21
63.9931600749
 31
0.0
  0
LINE
  5
1F5
330
1B
100
AcDbEntity
 67
     1
  8
1
  6
Continuous
 62
     2
100
AcDbLine
 10
-900.4065138483
 20
46.024746437
 30
0.0
 11
-900.4065138483
 21
35.7837975875
 31
0.0
  0
LINE
  5
1F6
330
1B
100
AcDbEntity
 67
     1
  8
1
  6
Continuous
 62
     3
100
AcDbLine
 10
-892.4065138483
 20
38.6506150747
 30
0.0
 11
-889.4065138483
 21
43.6506150747
 31
0.0
  0
LINE
  5
1F7
330
1B
100
AcDbEntity
 67
     1
  8
1
  6
Continuous
 62
     3
100
AcDbLine
 10
-908.4065138483
 20
38.6506150747
 30
0.0
 11
-892.4065138483
 21
38.6506150747
 31
0.0
  0
LINE
  5
1F8
330
1B
100
AcDbEntity
 67
     1
  8
1
  6
Continuous
 62
     3
100
AcDbLine
 10
-911.4065138483
 20
43.6506150747
 30
0.0
 11
-908.4065138483
 21
38.6506150747
 31
0.0
  0
LINE
  5
1F9
330
1B
100
AcDbEntity
 67
     1
  8
1
  6
Continuous
 62
     2
100
AcDbLine
 10
-639.4065138483
 20
46.024746437
 30
0.0
 11
-639.4065138483
 21
35.7837975875
 31
0.0
  0
LINE
  5
1FA
330
1B
100
AcDbEntity
 67
     1
  8
1
  6
Continuous
 62
     3
100
AcDbLine
 10
-631.4065138483
 20
38.6506150747
 30
0.0
 11
-628.4065138483
 21
43.6506150747
 31
0.0
  0
LINE
  5
1FB
330
1B
100
AcDbEntity
 67
     1
  8
1
  6
Continuous
 62
     3
100
AcDbLine
 10
-647.4065138483
 20
38.6506150747
 30
0.0
 11
-631.4065138483
 21
38.6506150747
 31
0.0
  0
LINE
  5
1FC
330
1B
100
AcDbEntity
 67
     1
  8
1
  6
Continuous
 62
     3
100
AcDbLine
 10
-650.4065138483
 20
43.6506150747
 30
0.0
 11
-647.4065138483
 21
38.6506150747
 31
0.0
  0
LINE
  5
1FD
330
1B
100
AcDbEntity
 67
     1
  8
1
  6
Continuous
 62
     7
100
AcDbLine
 10
-617.1065296258
 20
459.3679927889
 30
0.0
 11
-617.1065296258
 21
439.1179927889
 31
0.0
  0
LINE
  5
1FE
330
1B
100
AcDbEntity
 67
     1
  8
1
  6
Continuous
 62
     7
100
AcDbLine
 10
-608.2017921162
 20
441.3679927889
 30
0.0
 11
-614.2017921162
 21
441.3679927889
 31
0.0
  0
LINE
  5
1FF
330
1B
100
AcDbEntity
 67
     1
  8
1
  6
Continuous
 62
     7
100
AcDbLine
 10
-607.2017921162
 20
459.3679927889
 30
0.0
 11
-607.2017921162
 21
442.3679927889
 31
0.0
  0
LINE
  5
200
330
1B
100
AcDbEntity
 67
     1
  8
1
  6
Continuous
 62
     7
100
AcDbLine
 10
-617.1065296258
 20
479.6179927889
 30
0.0
 11
-617.1065296258
 21
459.3679927889
 31
0.0
  0
LINE
  5
201
330
1B
100
AcDbEntity
 67
     1
  8
1
  6
Continuous
 62
     7
100
AcDbLine
 10
-614.2017921162
 20
477.3679927889
 30
0.0
 11
-608.2017921162
 21
477.3679927889
 31
0.0
  0
LINE
  5
202
330
1B
100
AcDbEntity
 67
     1
  8
1
  6
Continuous
 62
     7
100
AcDbLine
 10
-607.2017921162
 20
476.3679927889
 30
0.0
 11
-607.2017921162
 21
459.3679927889
 31
0.0
  0
LINE
  5
203
330
1B
100
AcDbEntity
 67
     1
  8
1
  6
Continuous
 62
     3
100
AcDbLine
 10
-625.4065138483
 20
526.3679927889
 30
0.0
 11
-625.4065138483
 21
525.0889881142
 31
0.0
  0
LINE
  5
204
330
1B
100
AcDbEntity
 67
     1
  8
1
  6
Continuous
 62
     7
100
AcDbLine
 10
-619.9065138483
 20
505.3679927889
 30
0.0
 11
-619.9065138483
 21
525.0889881142
 31
0.0
  0
LINE
  5
205
330
1B
100
AcDbEntity
 67
     1
  8
1
  6
Continuous
 62
     3
100
AcDbLine
 10
-625.4065138483
 20
525.0889881142
 30
0.0
 11
-619.9065138483
 21
525.0889881142
 31
0.0
  0
LINE
  5
206
330
1B
100
AcDbEntity
 67
     1
  8
1
  6
Continuous
 62
     3
100
AcDbLine
 10
-619.9065138483
 20
525.0889881142
 30
0.0
 11
-619.9065138483
 21
527.3679927889
 31
0.0
  0
LINE
  5
207
330
1B
100
AcDbEntity
 67
     1
  8
1
  6
Continuous
 62
     3
100
AcDbLine
 10
-625.4065138483
 20
525.0889881142
 30
0.0
 11
-629.7469914606
 21
505.3679927889
 31
0.0
  0
LINE
  5
208
330
1B
100
AcDbEntity
 67
     1
  8
1
  6
Continuous
 62
     3
100
AcDbLine
 10
-629.7469914606
 20
505.3679927889
 30
0.0
 11
-619.9065138483
 21
505.3679927889
 31
0.0
  0
LINE
  5
209
330
1B
100
AcDbEntity
 67
     1
  8
1
  6
Continuous
 62
     3
100
AcDbLine
 10
-629.7469914606
 20
522.0270581924
 30
0.0
 11
-629.7469914606
 21
505.3679927889
 31
0.0
  0
LINE
  5
20A
330
1B
100
AcDbEntity
 67
     1
  8
1
  6
Continuous
 62
     7
100
AcDbLine
 10
-912.9065138483
 20
534.3679927889
 30
0.0
 11
-816.3417339689
 21
534.3679927889
 31
0.0
  0
LINE
  5
20B
330
1B
100
AcDbEntity
 67
     1
  8
1
  6
Continuous
 62
     7
100
AcDbLine
 10
-693.4712937277
 20
534.3679927889
 30
0.0
 11
-626.4065138483
 21
534.3679927889
 31
0.0
  0
LINE
  5
20C
330
1B
100
AcDbEntity
 67
     1
  8
1
  6
Continuous
 62
     3
100
AcDbLine
 10
-912.5655792519
 20
459.3679927889
 30
0.0
 11
-912.5655792519
 21
522.0270581924
 31
0.0
  0
LINE
  5
20D
330
1B
100
AcDbEntity
 67
     1
  8
1
  6
Continuous
 62
     3
100
AcDbLine
 10
-907.5655792519
 20
527.0270581924
 30
0.0
 11
-857.6298044047
 21
527.0270581924
 31
0.0
  0
LINE
  5
20E
330
1B
100
AcDbEntity
 67
     1
  8
1
  6
Continuous
 62
     3
100
AcDbLine
 10
-852.8692394434
 20
523.5557901014
 30
0.0
 11
-850.3621561188
 21
515.7485788038
 31
0.0
  0
LINE
  5
20F
330
1B
100
AcDbEntity
 67
     1
  8
1
  6
Continuous
 62
     3
100
AcDbLine
 10
-845.6015911575
 20
512.2773107127
 30
0.0
 11
-824.3504372648
 21
512.2773107127
 31
0.0
  0
LINE
  5
210
330
1B
100
AcDbEntity
 67
     1
  8
1
  6
Continuous
 62
     3
100
AcDbLine
 10
-819.5381759056
 20
515.9200559058
 30
0.0
 11
-816.5929825981
 21
526.3624871108
 31
0.0
  0
LINE
  5
211
330
1B
100
AcDbEntity
 67
     1
  8
1
  6
Continuous
 62
     3
100
AcDbLine
 10
-811.780721239
 20
530.0052323039
 30
0.0
 11
-697.8247686894
 21
530.0052323039
 31
0.0
  0
LINE
  5
212
330
1B
100
AcDbEntity
 67
     1
  8
1
  6
Continuous
 62
     3
100
AcDbLine
 10
-692.9943225307
 20
526.2962744831
 30
0.0
 11
-690.2387483848
 21
515.9862685336
 31
0.0
  0
LINE
  5
213
330
1B
100
AcDbEntity
 67
     1
  8
1
  6
Continuous
 62
     3
100
AcDbLine
 10
-685.4083022261
 20
512.2773107127
 30
0.0
 11
-664.2110422822
 21
512.2773107127
 31
0.0
  0
LINE
  5
214
330
1B
100
AcDbEntity
 67
     1
  8
1
  6
Continuous
 62
     3
100
AcDbLine
 10
-659.4506347501
 20
515.7480886462
 30
0.0
 11
-656.9423497275
 21
523.556280259
 31
0.0
  0
LINE
  5
215
330
1B
100
AcDbEntity
 67
     1
  8
1
  6
Continuous
 62
     3
100
AcDbLine
 10
-652.1819421955
 20
527.0270581924
 30
0.0
 11
-634.2469914606
 21
527.0270581924
 31
0.0
  0
LINE
  5
216
330
1B
100
AcDbEntity
 67
     1
  8
1
  6
Continuous
 62
     7
100
AcDbLine
 10
-816.3417339689
 20
534.3679927889
 30
0.0
 11
-693.4712937277
 21
534.3679927889
 31
0.0
  0
LINE
  5
217
330
1B
100
AcDbEntity
 67
     1
  8
1
  6
Continuous
 62
     3
100
AcDbLine
 10
-688.7444288195
 20
530.9979462054
 30
0.0
 11
-686.068598877
 21
523.2380393723
 31
0.0
  0
LINE
  5
218
330
1B
100
AcDbEntity
 67
     1
  8
1
  6
Continuous
 62
     3
100
AcDbLine
 10
-661.2136309974
 20
528.3616233459
 30
0.0
 11
-663.5993966992
 21
522.8743622318
 31
0.0
  0
LINE
  5
219
330
1B
100
AcDbEntity
 67
     1
  8
1
  6
Continuous
 62
     3
100
AcDbLine
 10
-668.1847469804
 20
519.8679927889
 30
0.0
 11
-681.3417339689
 21
519.8679927889
 31
0.0
  0
LINE
  5
21A
330
1B
100
AcDbEntity
 67
     1
  8
1
  6
Continuous
 62
     3
100
AcDbLine
 10
-821.068598877
 20
530.9979462054
 30
0.0
 11
-823.7444288195
 21
523.2380393723
 31
0.0
  0
LINE
  5
21B
330
1B
100
AcDbEntity
 67
     1
  8
1
  6
Continuous
 62
     3
100
AcDbLine
 10
-828.4712937277
 20
519.8679927889
 30
0.0
 11
-841.6282807161
 21
519.8679927889
 31
0.0
  0
LINE
  5
21C
330
1B
100
AcDbEntity
 67
     1
  8
1
  6
Continuous
 62
     3
100
AcDbLine
 10
-846.2136309974
 20
522.8743622318
 30
0.0
 11
-848.5993966992
 21
528.3616233459
 31
0.0
  0
LINE
  5
21D
330
1B
100
AcDbEntity
 67
     1
  8
1
  6
Continuous
 62
     3
100
AcDbLine
 10
-656.6282807161
 20
531.3679927889
 30
0.0
 11
-629.9065138483
 21
531.3679927889
 31
0.0
  0
LINE
  5
21E
330
1B
100
AcDbEntity
 67
     1
  8
1
  6
Continuous
 62
     3
100
AcDbLine
 10
-629.7469914606
 20
459.3679927889
 30
0.0
 11
-629.7469914606
 21
505.3679927889
 31
0.0
  0
LINE
  5
21F
330
1B
100
AcDbEntity
 67
     1
  8
1
  6
Continuous
 62
     3
100
AcDbLine
 10
-853.1847469804
 20
531.3679927889
 30
0.0
 11
-911.9065138483
 21
531.3679927889
 31
0.0
  0
LINE
  5
220
330
1B
100
AcDbEntity
 67
     1
  8
1
  6
Continuous
 62
     7
100
AcDbLine
 10
-919.9065138483
 20
459.3679927889
 30
0.0
 11
-919.9065138483
 21
527.3679927889
 31
0.0
  0
LINE
  5
221
330
1B
100
AcDbEntity
 67
     1
  8
1
  6
Continuous
 62
     7
100
AcDbLine
 10
-816.3417339689
 20
384.3679927889
 30
0.0
 11
-912.9065138483
 21
384.3679927889
 31
0.0
  0
LINE
  5
222
330
1B
100
AcDbEntity
 67
     1
  8
1
  6
Continuous
 62
     7
100
AcDbLine
 10
-626.4065138483
 20
384.3679927889
 30
0.0
 11
-693.4712937277
 21
384.3679927889
 31
0.0
  0
LINE
  5
223
330
1B
100
AcDbEntity
 67
     1
  8
1
  6
CENTERX2
 62
     6
100
AcDbLine
 10
-934.1940491775
 20
459.3679927889
 30
0.0
 11
-569.1225151867
 21
459.3679927889
 31
0.0
  0
LINE
  5
224
330
1B
100
AcDbEntity
 67
     1
  8
1
  6
Continuous
 62
     3
100
AcDbLine
 10
-912.5655792519
 20
396.7089273853
 30
0.0
 11
-912.5655792519
 21
459.3679927889
 31
0.0
  0
LINE
  5
225
330
1B
100
AcDbEntity
 67
     1
  8
1
  6
Continuous
 62
     3
100
AcDbLine
 10
-857.6298044047
 20
391.7089273853
 30
0.0
 11
-907.5655792519
 21
391.7089273853
 31
0.0
  0
LINE
  5
226
330
1B
100
AcDbEntity
 67
     1
  8
1
  6
Continuous
 62
     3
100
AcDbLine
 10
-850.3621561188
 20
402.9874067739
 30
0.0
 11
-852.8692394434
 21
395.1801954763
 31
0.0
  0
LINE
  5
227
330
1B
100
AcDbEntity
 67
     1
  8
1
  6
Continuous
 62
     3
100
AcDbLine
 10
-824.3504372648
 20
406.458674865
 30
0.0
 11
-845.6015911575
 21
406.458674865
 31
0.0
  0
LINE
  5
228
330
1B
100
AcDbEntity
 67
     1
  8
1
  6
Continuous
 62
     3
100
AcDbLine
 10
-816.5929825981
 20
392.3734984669
 30
0.0
 11
-819.5381759056
 21
402.8159296719
 31
0.0
  0
LINE
  5
229
330
1B
100
AcDbEntity
 67
     1
  8
1
  6
Continuous
 62
     3
100
AcDbLine
 10
-697.8247686894
 20
388.7307532738
 30
0.0
 11
-811.780721239
 21
388.7307532738
 31
0.0
  0
LINE
  5
22A
330
1B
100
AcDbEntity
 67
     1
  8
1
  6
Continuous
 62
     3
100
AcDbLine
 10
-690.2387483848
 20
402.7497170441
 30
0.0
 11
-692.9943225307
 21
392.4397110946
 31
0.0
  0
LINE
  5
22B
330
1B
100
AcDbEntity
 67
     1
  8
1
  6
Continuous
 62
     3
100
AcDbLine
 10
-664.2110422822
 20
406.458674865
 30
0.0
 11
-685.4083022261
 21
406.458674865
 31
0.0
  0
LINE
  5
22C
330
1B
100
AcDbEntity
 67
     1
  8
1
  6
Continuous
 62
     3
100
AcDbLine
 10
-656.9423497275
 20
395.1797053187
 30
0.0
 11
-659.4506347501
 21
402.9878969315
 31
0.0
  0
LINE
  5
22D
330
1B
100
AcDbEntity
 67
     1
  8
1
  6
Continuous
 62
     3
100
AcDbLine
 10
-634.2469914606
 20
391.7089273853
 30
0.0
 11
-652.1819421955
 21
391.7089273853
 31
0.0
  0
LINE
  5
22E
330
1B
100
AcDbEntity
 67
     1
  8
1
  6
Continuous
 62
     3
100
AcDbLine
 10
-629.7469914606
 20
413.3679927889
 30
0.0
 11
-629.7469914606
 21
396.7089273853
 31
0.0
  0
LINE
  5
22F
330
1B
100
AcDbEntity
 67
     1
  8
1
  6
Continuous
 62
     7
100
AcDbLine
 10
-693.4712937277
 20
384.3679927889
 30
0.0
 11
-816.3417339689
 21
384.3679927889
 31
0.0
  0
LINE
  5
230
330
1B
100
AcDbEntity
 67
     1
  8
1
  6
Continuous
 62
     3
100
AcDbLine
 10
-686.068598877
 20
395.4979462054
 30
0.0
 11
-688.7444288195
 21
387.7380393723
 31
0.0
  0
LINE
  5
231
330
1B
100
AcDbEntity
 67
     1
  8
1
  6
Continuous
 62
     3
100
AcDbLine
 10
-663.5993966992
 20
395.8616233459
 30
0.0
 11
-661.2136309974
 21
390.3743622318
 31
0.0
  0
LINE
  5
232
330
1B
100
AcDbEntity
 67
     1
  8
1
  6
Continuous
 62
     3
100
AcDbLine
 10
-681.3417339689
 20
398.8679927889
 30
0.0
 11
-668.1847469804
 21
398.8679927889
 31
0.0
  0
LINE
  5
233
330
1B
100
AcDbEntity
 67
     1
  8
1
  6
Continuous
 62
     3
100
AcDbLine
 10
-823.7444288195
 20
395.4979462054
 30
0.0
 11
-821.068598877
 21
387.7380393723
 31
0.0
  0
LINE
  5
234
330
1B
100
AcDbEntity
 67
     1
  8
1
  6
Continuous
 62
     3
100
AcDbLine
 10
-841.6282807161
 20
398.8679927889
 30
0.0
 11
-828.4712937277
 21
398.8679927889
 31
0.0
  0
LINE
  5
235
330
1B
100
AcDbEntity
 67
     1
  8
1
  6
Continuous
 62
     3
100
AcDbLine
 10
-848.5993966992
 20
390.3743622318
 30
0.0
 11
-846.2136309974
 21
395.8616233459
 31
0.0
  0
LINE
  5
236
330
1B
100
AcDbEntity
 67
     1
  8
1
  6
Continuous
 62
     3
100
AcDbLine
 10
-629.9065138483
 20
387.3679927889
 30
0.0
 11
-656.6282807161
 21
387.3679927889
 31
0.0
  0
LINE
  5
237
330
1B
100
AcDbEntity
 67
     1
  8
1
  6
Continuous
 62
     3
100
AcDbLine
 10
-625.4065138483
 20
393.6469974635
 30
0.0
 11
-625.4065138483
 21
392.3679927889
 31
0.0
  0
LINE
  5
238
330
1B
100
AcDbEntity
 67
     1
  8
1
  6
Continuous
 62
     3
100
AcDbLine
 10
-629.7469914606
 20
413.3679927889
 30
0.0
 11
-625.4065138483
 21
393.6469974635
 31
0.0
  0
LINE
  5
239
330
1B
100
AcDbEntity
 67
     1
  8
1
  6
Continuous
 62
     7
100
AcDbLine
 10
-619.9065138483
 20
393.6469974635
 30
0.0
 11
-619.9065138483
 21
413.3679927889
 31
0.0
  0
LINE
  5
23A
330
1B
100
AcDbEntity
 67
     1
  8
1
  6
Continuous
 62
     7
100
AcDbLine
 10
-619.9065138483
 20
393.6469974635
 30
0.0
 11
-625.4065138483
 21
393.6469974635
 31
0.0
  0
LINE
  5
23B
330
1B
100
AcDbEntity
 67
     1
  8
1
  6
Continuous
 62
     3
100
AcDbLine
 10
-629.7469914606
 20
413.3679927889
 30
0.0
 11
-629.7469914606
 21
459.3679927889
 31
0.0
  0
LINE
  5
23C
330
1B
100
AcDbEntity
 67
     1
  8
1
  6
Continuous
 62
     3
100
AcDbLine
 10
-619.9065138483
 20
413.3679927889
 30
0.0
 11
-629.7469914606
 21
413.3679927889
 31
0.0
  0
LINE
  5
23D
330
1B
100
AcDbEntity
 67
     1
  8
1
  6
Continuous
 62
     3
100
AcDbLine
 10
-911.9065138483
 20
387.3679927889
 30
0.0
 11
-853.1847469804
 21
387.3679927889
 31
0.0
  0
LINE
  5
23E
330
1B
100
AcDbEntity
 67
     1
  8
1
  6
Continuous
 62
     3
100
AcDbLine
 10
-916.9065138483
 20
526.3679927889
 30
0.0
 11
-916.9065138483
 21
392.3679927889
 31
0.0
  0
LINE
  5
23F
330
1B
100
AcDbEntity
 67
     1
  8
1
  6
Continuous
 62
     7
100
AcDbLine
 10
-619.9065138483
 20
391.3679927889
 30
0.0
 11
-619.9065138483
 21
393.6469974635
 31
0.0
  0
LINE
  5
240
330
1B
100
AcDbEntity
 67
     1
  8
1
  6
Continuous
 62
     7
100
AcDbLine
 10
-919.9065138483
 20
391.3679927889
 30
0.0
 11
-919.9065138483
 21
459.3679927889
 31
0.0
  0
LINE
  5
241
330
1B
100
AcDbEntity
 67
     1
  8
1
  6
Continuous
 62
     7
100
AcDbLine
 10
-619.9065138483
 20
413.3679927889
 30
0.0
 11
-619.9065138483
 21
505.3679927889
 31
0.0
  0
LINE
  5
242
330
1B
100
AcDbEntity
 67
     1
  8
1
  6
Continuous
 62
     3
100
AcDbLine
 10
-622.4065138483
 20
413.2859927889
 30
0.0
 11
-622.4065138483
 21
413.2909927889
 31
0.0
  0
LINE
  5
243
330
1B
100
AcDbEntity
 67
     1
  8
1
  6
Continuous
 62
     7
100
AcDbLine
 10
-603.4855281958
 20
423.9725327289
 30
0.0
 11
-603.4855281958
 21
414.7634571389
 31
0.0
  0
LINE
  5
244
330
1B
100
AcDbEntity
 67
     1
  8
1
  6
Continuous
 62
     7
100
AcDbLine
 10
-605.3849971958
 20
412.7640840489
 30
0.0
 11
-619.4065138483
 21
411.8604913589
 31
0.0
  0
LINE
  5
245
330
1B
100
AcDbEntity
 67
     1
  8
1
  6
Continuous
 62
     7
100
AcDbLine
 10
-603.4931386558
 20
414.8124432189
 30
0.0
 11
-597.9656386558
 21
414.8124432189
 31
0.0
  0
LINE
  5
246
330
1B
100
AcDbEntity
 67
     1
  8
1
  6
Continuous
 62
     7
100
AcDbLine
 10
-597.9656386558
 20
424.0216460789
 30
0.0
 11
-603.4931386558
 21
424.0216460789
 31
0.0
  0
LINE
  5
247
330
1B
100
AcDbEntity
 67
     1
  8
1
  6
Continuous
 62
     7
100
AcDbLine
 10
-617.1065296258
 20
442.5115863283
 30
0.0
 11
-617.1065296258
 21
421.8679927889
 31
0.0
  0
LINE
  5
248
330
1B
100
AcDbEntity
 67
     1
  8
1
  6
Continuous
 62
     7
100
AcDbLine
 10
-617.1065296258
 20
496.8679927889
 30
0.0
 11
-617.1065296258
 21
442.5115863283
 31
0.0
  0
LINE
  5
249
330
1B
100
AcDbEntity
 67
     1
  8
1
  6
Continuous
 62
     7
100
AcDbLine
 10
-618.1065296258
 20
497.8679927889
 30
0.0
 11
-619.4065138483
 21
497.8679927889
 31
0.0
  0
LINE
  5
24A
330
1B
100
AcDbEntity
 67
     1
  8
1
  6
Continuous
 62
     7
100
AcDbLine
 10
-618.1065296258
 20
420.8679927889
 30
0.0
 11
-619.4065138483
 21
420.8679927889
 31
0.0
  0
LINE
  5
24B
330
1B
100
AcDbEntity
 67
     1
  8
1
  6
Continuous
 62
     3
100
AcDbLine
 10
-616.3065356258
 20
433.3485967889
 30
0.0
 11
-613.8065416258
 21
433.3485967889
 31
0.0
  0
LINE
  5
24C
330
1B
100
AcDbEntity
 67
     1
  8
1
  6
Continuous
 62
     3
100
AcDbLine
 10
-613.8065416258
 20
430.8485947889
 30
0.0
 11
-616.3065356258
 21
430.8485947889
 31
0.0
  0
LINE
  5
24D
330
1B
100
AcDbEntity
 67
     1
  8
1
  6
Continuous
 62
     3
100
AcDbLine
 10
-612.8065416258
 20
432.3485967889
 30
0.0
 11
-612.8065416258
 21
427.8679927889
 31
0.0
  0
LINE
  5
24E
330
1B
100
AcDbEntity
 67
     1
  8
1
  6
Continuous
 62
     3
100
AcDbLine
 10
-612.8065416258
 20
432.3485967889
 30
0.0
 11
-612.8065416258
 21
427.8679927889
 31
0.0
  0
LINE
  5
24F
330
1B
100
AcDbEntity
 67
     1
  8
1
  6
Continuous
 62
     3
100
AcDbLine
 10
-612.8065416258
 20
427.8679927889
 30
0.0
 11
-612.8065416258
 21
423.3873887889
 31
0.0
  0
LINE
  5
250
330
1B
100
AcDbEntity
 67
     1
  8
1
  6
Continuous
 62
     3
100
AcDbLine
 10
-612.8065416258
 20
427.8679927889
 30
0.0
 11
-612.8065416258
 21
423.3873887889
 31
0.0
  0
LINE
  5
251
330
1B
100
AcDbEntity
 67
     1
  8
1
  6
Continuous
 62
     3
100
AcDbLine
 10
-616.3065356258
 20
424.8873907889
 30
0.0
 11
-613.8065416258
 21
424.8873907889
 31
0.0
  0
LINE
  5
252
330
1B
100
AcDbEntity
 67
     1
  8
1
  6
Continuous
 62
     3
100
AcDbLine
 10
-613.8065416258
 20
422.3873887889
 30
0.0
 11
-616.3065356258
 21
422.3873887889
 31
0.0
  0
LINE
  5
253
330
1B
100
AcDbEntity
 67
     1
  8
1
  6
Continuous
 62
     3
100
AcDbLine
 10
-616.3065356258
 20
422.3873887889
 30
0.0
 11
-616.3065356258
 21
433.3485967889
 31
0.0
  0
LINE
  5
254
330
1B
100
AcDbEntity
 67
     1
  8
1
  6
Continuous
 62
     3
100
AcDbLine
 10
-616.3065356258
 20
433.0485967889
 30
0.0
 11
-617.1065296258
 21
433.0485967889
 31
0.0
  0
LINE
  5
255
330
1B
100
AcDbEntity
 67
     1
  8
1
  6
Continuous
 62
     3
100
AcDbLine
 10
-616.3065356258
 20
422.6873887889
 30
0.0
 11
-617.1065296258
 21
422.6873887889
 31
0.0
  0
LINE
  5
256
330
1B
100
AcDbEntity
 67
     1
  8
1
  6
Continuous
 62
     3
100
AcDbLine
 10
-616.3065356258
 20
496.3485967889
 30
0.0
 11
-613.8065416258
 21
496.3485967889
 31
0.0
  0
LINE
  5
257
330
1B
100
AcDbEntity
 67
     1
  8
1
  6
Continuous
 62
     3
100
AcDbLine
 10
-613.8065416258
 20
493.8485947889
 30
0.0
 11
-616.3065356258
 21
493.8485947889
 31
0.0
  0
LINE
  5
258
330
1B
100
AcDbEntity
 67
     1
  8
1
  6
Continuous
 62
     3
100
AcDbLine
 10
-612.8065416258
 20
495.3485967889
 30
0.0
 11
-612.8065416258
 21
490.8679927889
 31
0.0
  0
LINE
  5
259
330
1B
100
AcDbEntity
 67
     1
  8
1
  6
Continuous
 62
     3
100
AcDbLine
 10
-612.8065416258
 20
495.3485967889
 30
0.0
 11
-612.8065416258
 21
490.8679927889
 31
0.0
  0
LINE
  5
25A
330
1B
100
AcDbEntity
 67
     1
  8
1
  6
Continuous
 62
     3
100
AcDbLine
 10
-612.8065416258
 20
490.8679927889
 30
0.0
 11
-612.8065416258
 21
486.3873887889
 31
0.0
  0
LINE
  5
25B
330
1B
100
AcDbEntity
 67
     1
  8
1
  6
Continuous
 62
     3
100
AcDbLine
 10
-612.8065416258
 20
490.8679927889
 30
0.0
 11
-612.8065416258
 21
486.3873887889
 31
0.0
  0
LINE
  5
25C
330
1B
100
AcDbEntity
 67
     1
  8
1
  6
Continuous
 62
     3
100
AcDbLine
 10
-616.3065356258
 20
487.8873907889
 30
0.0
 11
-613.8065416258
 21
487.8873907889
 31
0.0
  0
LINE
  5
25D
330
1B
100
AcDbEntity
 67
     1
  8
1
  6
Continuous
 62
     3
100
AcDbLine
 10
-613.8065416258
 20
485.3873887889
 30
0.0
 11
-616.3065356258
 21
485.3873887889
 31
0.0
  0
LINE
  5
25E
330
1B
100
AcDbEntity
 67
     1
  8
1
  6
Continuous
 62
     3
100
AcDbLine
 10
-616.3065356258
 20
485.3873887889
 30
0.0
 11
-616.3065356258
 21
496.3485967889
 31
0.0
  0
LINE
  5
25F
330
1B
100
AcDbEntity
 67
     1
  8
1
  6
Continuous
 62
     3
100
AcDbLine
 10
-616.3065356258
 20
496.0485967889
 30
0.0
 11
-617.1065296258
 21
496.0485967889
 31
0.0
  0
LINE
  5
260
330
1B
100
AcDbEntity
 67
     1
  8
1
  6
Continuous
 62
     3
100
AcDbLine
 10
-616.3065356258
 20
485.6873887889
 30
0.0
 11
-617.1065296258
 21
485.6873887889
 31
0.0
  0
LINE
  5
261
330
1B
100
AcDbEntity
 67
     1
  8
1
  6
Continuous
 62
     7
100
AcDbLine
 10
-612.8065416258
 20
426.3207865068
 30
0.0
 11
-605.3849971958
 21
425.9719058189
 31
0.0
  0
LINE
  5
262
330
1B
100
AcDbEntity
 67
     1
  8
1
  6
Continuous
 62
     3
100
AcDbLine
 10
-834.3915138483
 20
391.0856885002
 30
0.0
 11
-834.3915138483
 21
389.7291204224
 31
0.0
  0
LINE
  5
263
330
1B
100
AcDbEntity
 67
     1
  8
1
  6
Continuous
 62
     3
100
AcDbLine
 10
-834.1242095597
 20
391.3529927889
 30
0.0
 11
-832.7676414818
 21
391.3529927889
 31
0.0
  0
LINE
  5
264
330
1B
100
AcDbEntity
 67
     1
  8
1
  6
Continuous
 62
     3
100
AcDbLine
 10
-834.3915138483
 20
389.7291204224
 30
0.0
 11
-834.3915138483
 21
390.738157272
 31
0.0
  0
LINE
  5
265
330
1B
100
AcDbEntity
 67
     1
  8
1
  6
Continuous
 62
     3
100
AcDbLine
 10
-832.7676414818
 20
391.3529927889
 30
0.0
 11
-833.7766783315
 21
391.3529927889
 31
0.0
  0
LINE
  5
266
330
1B
100
AcDbEntity
 67
     1
  8
1
  6
Continuous
 62
     3
100
AcDbLine
 10
-835.6888181369
 20
391.3529927889
 30
0.0
 11
-837.0453862147
 21
391.3529927889
 31
0.0
  0
LINE
  5
267
330
1B
100
AcDbEntity
 67
     1
  8
1
  6
Continuous
 62
     3
100
AcDbLine
 10
-835.4215138483
 20
391.0856885002
 30
0.0
 11
-835.4215138483
 21
389.7291204224
 31
0.0
  0
LINE
  5
268
330
1B
100
AcDbEntity
 67
     1
  8
1
  6
Continuous
 62
     3
100
AcDbLine
 10
-837.0453862147
 20
391.3529927889
 30
0.0
 11
-836.0363493651
 21
391.3529927889
 31
0.0
  0
LINE
  5
269
330
1B
100
AcDbEntity
 67
     1
  8
1
  6
Continuous
 62
     3
100
AcDbLine
 10
-835.4215138483
 20
389.7291204224
 30
0.0
 11
-835.4215138483
 21
390.738157272
 31
0.0
  0
LINE
  5
26A
330
1B
100
AcDbEntity
 67
     1
  8
1
  6
Continuous
 62
     3
100
AcDbLine
 10
-835.4215138483
 20
392.6502970775
 30
0.0
 11
-835.4215138483
 21
394.0068651553
 31
0.0
  0
LINE
  5
26B
330
1B
100
AcDbEntity
 67
     1
  8
1
  6
Continuous
 62
     3
100
AcDbLine
 10
-835.6888181369
 20
392.3829927889
 30
0.0
 11
-837.0453862147
 21
392.3829927889
 31
0.0
  0
LINE
  5
26C
330
1B
100
AcDbEntity
 67
     1
  8
1
  6
Continuous
 62
     3
100
AcDbLine
 10
-835.4215138483
 20
394.0068651553
 30
0.0
 11
-835.4215138483
 21
392.9978283057
 31
0.0
  0
LINE
  5
26D
330
1B
100
AcDbEntity
 67
     1
  8
1
  6
Continuous
 62
     3
100
AcDbLine
 10
-837.0453862147
 20
392.3829927889
 30
0.0
 11
-836.0363493651
 21
392.3829927889
 31
0.0
  0
LINE
  5
26E
330
1B
100
AcDbEntity
 67
     1
  8
1
  6
Continuous
 62
     3
100
AcDbLine
 10
-834.1242095597
 20
392.3829927889
 30
0.0
 11
-832.7676414818
 21
392.3829927889
 31
0.0
  0
LINE
  5
26F
330
1B
100
AcDbEntity
 67
     1
  8
1
  6
Continuous
 62
     3
100
AcDbLine
 10
-834.3915138483
 20
392.6502970775
 30
0.0
 11
-834.3915138483
 21
394.0068651553
 31
0.0
  0
LINE
  5
270
330
1B
100
AcDbEntity
 67
     1
  8
1
  6
Continuous
 62
     3
100
AcDbLine
 10
-832.7676414818
 20
392.3829927889
 30
0.0
 11
-833.7766783315
 21
392.3829927889
 31
0.0
  0
LINE
  5
271
330
1B
100
AcDbEntity
 67
     1
  8
1
  6
Continuous
 62
     3
100
AcDbLine
 10
-834.3915138483
 20
394.0068651553
 30
0.0
 11
-834.3915138483
 21
392.9978283057
 31
0.0
  0
LINE
  5
272
330
1B
100
AcDbEntity
 67
     1
  8
1
  6
Continuous
 62
     3
100
AcDbLine
 10
-834.3915138483
 20
526.0856885002
 30
0.0
 11
-834.3915138483
 21
524.7291204224
 31
0.0
  0
LINE
  5
273
330
1B
100
AcDbEntity
 67
     1
  8
1
  6
Continuous
 62
     3
100
AcDbLine
 10
-834.1242095597
 20
526.3529927889
 30
0.0
 11
-832.7676414818
 21
526.3529927889
 31
0.0
  0
LINE
  5
274
330
1B
100
AcDbEntity
 67
     1
  8
1
  6
Continuous
 62
     3
100
AcDbLine
 10
-834.3915138483
 20
524.7291204224
 30
0.0
 11
-834.3915138483
 21
525.738157272
 31
0.0
  0
LINE
  5
275
330
1B
100
AcDbEntity
 67
     1
  8
1
  6
Continuous
 62
     3
100
AcDbLine
 10
-832.7676414818
 20
526.3529927889
 30
0.0
 11
-833.7766783315
 21
526.3529927889
 31
0.0
  0
LINE
  5
276
330
1B
100
AcDbEntity
 67
     1
  8
1
  6
Continuous
 62
     3
100
AcDbLine
 10
-835.6888181369
 20
526.3529927889
 30
0.0
 11
-837.0453862147
 21
526.3529927889
 31
0.0
  0
LINE
  5
277
330
1B
100
AcDbEntity
 67
     1
  8
1
  6
Continuous
 62
     3
100
AcDbLine
 10
-835.4215138483
 20
526.0856885002
 30
0.0
 11
-835.4215138483
 21
524.7291204224
 31
0.0
  0
LINE
  5
278
330
1B
100
AcDbEntity
 67
     1
  8
1
  6
Continuous
 62
     3
100
AcDbLine
 10
-837.0453862147
 20
526.3529927889
 30
0.0
 11
-836.0363493651
 21
526.3529927889
 31
0.0
  0
LINE
  5
279
330
1B
100
AcDbEntity
 67
     1
  8
1
  6
Continuous
 62
     3
100
AcDbLine
 10
-835.4215138483
 20
524.7291204224
 30
0.0
 11
-835.4215138483
 21
525.738157272
 31
0.0
  0
LINE
  5
27A
330
1B
100
AcDbEntity
 67
     1
  8
1
  6
Continuous
 62
     3
100
AcDbLine
 10
-835.4215138483
 20
527.6502970775
 30
0.0
 11
-835.4215138483
 21
529.0068651553
 31
0.0
  0
LINE
  5
27B
330
1B
100
AcDbEntity
 67
     1
  8
1
  6
Continuous
 62
     3
100
AcDbLine
 10
-835.6888181369
 20
527.3829927889
 30
0.0
 11
-837.0453862147
 21
527.3829927889
 31
0.0
  0
LINE
  5
27C
330
1B
100
AcDbEntity
 67
     1
  8
1
  6
Continuous
 62
     3
100
AcDbLine
 10
-835.4215138483
 20
529.0068651553
 30
0.0
 11
-835.4215138483
 21
527.9978283057
 31
0.0
  0
LINE
  5
27D
330
1B
100
AcDbEntity
 67
     1
  8
1
  6
Continuous
 62
     3
100
AcDbLine
 10
-837.0453862147
 20
527.3829927889
 30
0.0
 11
-836.0363493651
 21
527.3829927889
 31
0.0
  0
LINE
  5
27E
330
1B
100
AcDbEntity
 67
     1
  8
1
  6
Continuous
 62
     3
100
AcDbLine
 10
-834.1242095597
 20
527.3829927889
 30
0.0
 11
-832.7676414818
 21
527.3829927889
 31
0.0
  0
LINE
  5
27F
330
1B
100
AcDbEntity
 67
     1
  8
1
  6
Continuous
 62
     3
100
AcDbLine
 10
-834.3915138483
 20
527.6502970775
 30
0.0
 11
-834.3915138483
 21
529.0068651553
 31
0.0
  0
LINE
  5
280
330
1B
100
AcDbEntity
 67
     1
  8
1
  6
Continuous
 62
     3
100
AcDbLine
 10
-832.7676414818
 20
527.3829927889
 30
0.0
 11
-833.7766783315
 21
527.3829927889
 31
0.0
  0
LINE
  5
281
330
1B
100
AcDbEntity
 67
     1
  8
1
  6
Continuous
 62
     3
100
AcDbLine
 10
-834.3915138483
 20
529.0068651553
 30
0.0
 11
-834.3915138483
 21
527.9978283057
 31
0.0
  0
LINE
  5
282
330
1B
100
AcDbEntity
 67
     1
  8
1
  6
Continuous
 62
     3
100
AcDbLine
 10
-674.3915138483
 20
391.0856885002
 30
0.0
 11
-674.3915138483
 21
389.7291204224
 31
0.0
  0
LINE
  5
283
330
1B
100
AcDbEntity
 67
     1
  8
1
  6
Continuous
 62
     3
100
AcDbLine
 10
-674.1242095597
 20
391.3529927889
 30
0.0
 11
-672.7676414818
 21
391.3529927889
 31
0.0
  0
LINE
  5
284
330
1B
100
AcDbEntity
 67
     1
  8
1
  6
Continuous
 62
     3
100
AcDbLine
 10
-674.3915138483
 20
389.7291204224
 30
0.0
 11
-674.3915138483
 21
390.738157272
 31
0.0
  0
LINE
  5
285
330
1B
100
AcDbEntity
 67
     1
  8
1
  6
Continuous
 62
     3
100
AcDbLine
 10
-672.7676414818
 20
391.3529927889
 30
0.0
 11
-673.7766783315
 21
391.3529927889
 31
0.0
  0
LINE
  5
286
330
1B
100
AcDbEntity
 67
     1
  8
1
  6
Continuous
 62
     3
100
AcDbLine
 10
-675.6888181369
 20
391.3529927889
 30
0.0
 11
-677.0453862147
 21
391.3529927889
 31
0.0
  0
LINE
  5
287
330
1B
100
AcDbEntity
 67
     1
  8
1
  6
Continuous
 62
     3
100
AcDbLine
 10
-675.4215138483
 20
391.0856885002
 30
0.0
 11
-675.4215138483
 21
389.7291204224
 31
0.0
  0
LINE
  5
288
330
1B
100
AcDbEntity
 67
     1
  8
1
  6
Continuous
 62
     3
100
AcDbLine
 10
-677.0453862147
 20
391.3529927889
 30
0.0
 11
-676.0363493651
 21
391.3529927889
 31
0.0
  0
LINE
  5
289
330
1B
100
AcDbEntity
 67
     1
  8
1
  6
Continuous
 62
     3
100
AcDbLine
 10
-675.4215138483
 20
389.7291204224
 30
0.0
 11
-675.4215138483
 21
390.738157272
 31
0.0
  0
LINE
  5
28A
330
1B
100
AcDbEntity
 67
     1
  8
1
  6
Continuous
 62
     3
100
AcDbLine
 10
-675.4215138483
 20
392.6502970775
 30
0.0
 11
-675.4215138483
 21
394.0068651553
 31
0.0
  0
LINE
  5
28B
330
1B
100
AcDbEntity
 67
     1
  8
1
  6
Continuous
 62
     3
100
AcDbLine
 10
-675.6888181369
 20
392.3829927889
 30
0.0
 11
-677.0453862147
 21
392.3829927889
 31
0.0
  0
LINE
  5
28C
330
1B
100
AcDbEntity
 67
     1
  8
1
  6
Continuous
 62
     3
100
AcDbLine
 10
-675.4215138483
 20
394.0068651553
 30
0.0
 11
-675.4215138483
 21
392.9978283057
 31
0.0
  0
LINE
  5
28D
330
1B
100
AcDbEntity
 67
     1
  8
1
  6
Continuous
 62
     3
100
AcDbLine
 10
-677.0453862147
 20
392.3829927889
 30
0.0
 11
-676.0363493651
 21
392.3829927889
 31
0.0
  0
LINE
  5
28E
330
1B
100
AcDbEntity
 67
     1
  8
1
  6
Continuous
 62
     3
100
AcDbLine
 10
-674.1242095597
 20
392.3829927889
 30
0.0
 11
-672.7676414818
 21
392.3829927889
 31
0.0
  0
LINE
  5
28F
330
1B
100
AcDbEntity
 67
     1
  8
1
  6
Continuous
 62
     3
100
AcDbLine
 10
-674.3915138483
 20
392.6502970775
 30
0.0
 11
-674.3915138483
 21
394.0068651553
 31
0.0
  0
LINE
  5
290
330
1B
100
AcDbEntity
 67
     1
  8
1
  6
Continuous
 62
     3
100
AcDbLine
 10
-672.7676414818
 20
392.3829927889
 30
0.0
 11
-673.7766783315
 21
392.3829927889
 31
0.0
  0
LINE
  5
291
330
1B
100
AcDbEntity
 67
     1
  8
1
  6
Continuous
 62
     3
100
AcDbLine
 10
-674.3915138483
 20
394.0068651553
 30
0.0
 11
-674.3915138483
 21
392.9978283057
 31
0.0
  0
LINE
  5
292
330
1B
100
AcDbEntity
 67
     1
  8
1
  6
Continuous
 62
     3
100
AcDbLine
 10
-674.3915138483
 20
526.0856885002
 30
0.0
 11
-674.3915138483
 21
524.7291204224
 31
0.0
  0
LINE
  5
293
330
1B
100
AcDbEntity
 67
     1
  8
1
  6
Continuous
 62
     3
100
AcDbLine
 10
-674.1242095597
 20
526.3529927889
 30
0.0
 11
-672.7676414818
 21
526.3529927889
 31
0.0
  0
LINE
  5
294
330
1B
100
AcDbEntity
 67
     1
  8
1
  6
Continuous
 62
     3
100
AcDbLine
 10
-674.3915138483
 20
524.7291204224
 30
0.0
 11
-674.3915138483
 21
525.738157272
 31
0.0
  0
LINE
  5
295
330
1B
100
AcDbEntity
 67
     1
  8
1
  6
Continuous
 62
     3
100
AcDbLine
 10
-672.7676414818
 20
526.3529927889
 30
0.0
 11
-673.7766783315
 21
526.3529927889
 31
0.0
  0
LINE
  5
296
330
1B
100
AcDbEntity
 67
     1
  8
1
  6
Continuous
 62
     3
100
AcDbLine
 10
-675.6888181369
 20
526.3529927889
 30
0.0
 11
-677.0453862147
 21
526.3529927889
 31
0.0
  0
LINE
  5
297
330
1B
100
AcDbEntity
 67
     1
  8
1
  6
Continuous
 62
     3
100
AcDbLine
 10
-675.4215138483
 20
526.0856885002
 30
0.0
 11
-675.4215138483
 21
524.7291204224
 31
0.0
  0
LINE
  5
298
330
1B
100
AcDbEntity
 67
     1
  8
1
  6
Continuous
 62
     3
100
AcDbLine
 10
-677.0453862147
 20
526.3529927889
 30
0.0
 11
-676.0363493651
 21
526.3529927889
 31
0.0
  0
LINE
  5
299
330
1B
100
AcDbEntity
 67
     1
  8
1
  6
Continuous
 62
     3
100
AcDbLine
 10
-675.4215138483
 20
524.7291204224
 30
0.0
 11
-675.4215138483
 21
525.738157272
 31
0.0
  0
LINE
  5
29A
330
1B
100
AcDbEntity
 67
     1
  8
1
  6
Continuous
 62
     3
100
AcDbLine
 10
-675.4215138483
 20
527.6502970775
 30
0.0
 11
-675.4215138483
 21
529.0068651553
 31
0.0
  0
LINE
  5
29B
330
1B
100
AcDbEntity
 67
     1
  8
1
  6
Continuous
 62
     3
100
AcDbLine
 10
-675.6888181369
 20
527.3829927889
 30
0.0
 11
-677.0453862147
 21
527.3829927889
 31
0.0
  0
LINE
  5
29C
330
1B
100
AcDbEntity
 67
     1
  8
1
  6
Continuous
 62
     3
100
AcDbLine
 10
-675.4215138483
 20
529.0068651553
 30
0.0
 11
-675.4215138483
 21
527.9978283057
 31
0.0
  0
LINE
  5
29D
330
1B
100
AcDbEntity
 67
     1
  8
1
  6
Continuous
 62
     3
100
AcDbLine
 10
-677.0453862147
 20
527.3829927889
 30
0.0
 11
-676.0363493651
 21
527.3829927889
 31
0.0
  0
LINE
  5
29E
330
1B
100
AcDbEntity
 67
     1
  8
1
  6
Continuous
 62
     3
100
AcDbLine
 10
-674.1242095597
 20
527.3829927889
 30
0.0
 11
-672.7676414818
 21
527.3829927889
 31
0.0
  0
LINE
  5
29F
330
1B
100
AcDbEntity
 67
     1
  8
1
  6
Continuous
 62
     3
100
AcDbLine
 10
-674.3915138483
 20
527.6502970775
 30
0.0
 11
-674.3915138483
 21
529.0068651553
 31
0.0
  0
LINE
  5
2A0
330
1B
100
AcDbEntity
 67
     1
  8
1
  6
Continuous
 62
     3
100
AcDbLine
 10
-672.7676414818
 20
527.3829927889
 30
0.0
 11
-673.7766783315
 21
527.3829927889
 31
0.0
  0
LINE
  5
2A1
330
1B
100
AcDbEntity
 67
     1
  8
1
  6
Continuous
 62
     3
100
AcDbLine
 10
-674.3915138483
 20
529.0068651553
 30
0.0
 11
-674.3915138483
 21
527.9978283057
 31
0.0
  0
LINE
  5
2A2
330
1B
100
AcDbEntity
 67
     1
  8
1
  6
Continuous
 62
     3
100
AcDbLine
 10
-410.4018342047
 20
113.7611625191
 30
0.0
 11
-410.4018315144
 21
119.540441284
 31
0.0
  0
LINE
  5
2A3
330
1B
100
AcDbEntity
 67
     1
  8
1
  6
Continuous
 62
     3
100
AcDbLine
 10
-410.4018315144
 20
119.540441284
 30
0.0
 11
-415.4068334785
 21
122.4300758449
 31
0.0
  0
LINE
  5
2A4
330
1B
100
AcDbEntity
 67
     1
  8
1
  6
Continuous
 62
     3
100
AcDbLine
 10
-415.4068334785
 20
122.4300758449
 30
0.0
 11
-420.411828464
 21
119.5404342317
 31
0.0
  0
LINE
  5
2A5
330
1B
100
AcDbEntity
 67
     1
  8
1
  6
Continuous
 62
     3
100
AcDbLine
 10
-420.411828464
 20
119.5404342317
 30
0.0
 11
-420.4118351264
 21
113.7611647656
 31
0.0
  0
LINE
  5
2A6
330
1B
100
AcDbEntity
 67
     1
  8
1
  6
Continuous
 62
     3
100
AcDbLine
 10
-420.4118351264
 20
113.7611647656
 30
0.0
 11
-417.9086954938
 21
112.315975257
 31
0.0
  0
LINE
  5
2A7
330
1B
100
AcDbEntity
 67
     1
  8
1
  6
Continuous
 62
     3
100
AcDbLine
 10
-417.9086954938
 20
112.315975257
 30
0.0
 11
-415.4068326931
 21
110.8715229282
 31
0.0
  0
LINE
  5
2A8
330
1B
100
AcDbEntity
 67
     1
  8
1
  6
Continuous
 62
     3
100
AcDbLine
 10
-415.4068326931
 20
110.8715229282
 30
0.0
 11
-410.4018342047
 21
113.7611625191
 31
0.0
  0
LINE
  5
2A9
330
1B
100
AcDbEntity
 67
     1
  8
1
  6
Continuous
 62
     3
100
AcDbLine
 10
-473.4018342047
 20
113.7611625191
 30
0.0
 11
-473.4018315144
 21
119.540441284
 31
0.0
  0
LINE
  5
2AA
330
1B
100
AcDbEntity
 67
     1
  8
1
  6
Continuous
 62
     3
100
AcDbLine
 10
-473.4018315144
 20
119.540441284
 30
0.0
 11
-478.4068334785
 21
122.4300758449
 31
0.0
  0
LINE
  5
2AB
330
1B
100
AcDbEntity
 67
     1
  8
1
  6
Continuous
 62
     3
100
AcDbLine
 10
-478.4068334785
 20
122.4300758449
 30
0.0
 11
-483.411828464
 21
119.5404342317
 31
0.0
  0
LINE
  5
2AC
330
1B
100
AcDbEntity
 67
     1
  8
1
  6
Continuous
 62
     3
100
AcDbLine
 10
-483.411828464
 20
119.5404342317
 30
0.0
 11
-483.4118351264
 21
113.7611647656
 31
0.0
  0
LINE
  5
2AD
330
1B
100
AcDbEntity
 67
     1
  8
1
  6
Continuous
 62
     3
100
AcDbLine
 10
-483.4118351264
 20
113.7611647656
 30
0.0
 11
-480.9086954938
 21
112.315975257
 31
0.0
  0
LINE
  5
2AE
330
1B
100
AcDbEntity
 67
     1
  8
1
  6
Continuous
 62
     3
100
AcDbLine
 10
-480.9086954938
 20
112.315975257
 30
0.0
 11
-478.4068326931
 21
110.8715229282
 31
0.0
  0
LINE
  5
2AF
330
1B
100
AcDbEntity
 67
     1
  8
1
  6
Continuous
 62
     3
100
AcDbLine
 10
-478.4068326931
 20
110.8715229282
 30
0.0
 11
-473.4018342047
 21
113.7611625191
 31
0.0
  0
LINE
  5
2B0
330
1B
100
AcDbEntity
 67
     1
  8
1
  6
Continuous
 62
     3
100
AcDbLine
 10
-410.4018342047
 20
225.7611625191
 30
0.0
 11
-410.4018315144
 21
231.540441284
 31
0.0
  0
LINE
  5
2B1
330
1B
100
AcDbEntity
 67
     1
  8
1
  6
Continuous
 62
     3
100
AcDbLine
 10
-410.4018315144
 20
231.540441284
 30
0.0
 11
-415.4068334785
 21
234.4300758449
 31
0.0
  0
LINE
  5
2B2
330
1B
100
AcDbEntity
 67
     1
  8
1
  6
Continuous
 62
     3
100
AcDbLine
 10
-415.4068334785
 20
234.4300758449
 30
0.0
 11
-420.411828464
 21
231.5404342317
 31
0.0
  0
LINE
  5
2B3
330
1B
100
AcDbEntity
 67
     1
  8
1
  6
Continuous
 62
     3
100
AcDbLine
 10
-420.411828464
 20
231.5404342317
 30
0.0
 11
-420.4118351264
 21
225.7611647656
 31
0.0
  0
LINE
  5
2B4
330
1B
100
AcDbEntity
 67
     1
  8
1
  6
Continuous
 62
     3
100
AcDbLine
 10
-420.4118351264
 20
225.7611647656
 30
0.0
 11
-417.9086954938
 21
224.315975257
 31
0.0
  0
LINE
  5
2B5
330
1B
100
AcDbEntity
 67
     1
  8
1
  6
Continuous
 62
     3
100
AcDbLine
 10
-417.9086954938
 20
224.315975257
 30
0.0
 11
-415.4068326931
 21
222.8715229282
 31
0.0
  0
LINE
  5
2B6
330
1B
100
AcDbEntity
 67
     1
  8
1
  6
Continuous
 62
     3
100
AcDbLine
 10
-415.4068326931
 20
222.8715229282
 30
0.0
 11
-410.4018342047
 21
225.7611625191
 31
0.0
  0
LINE
  5
2B7
330
1B
100
AcDbEntity
 67
     1
  8
1
  6
Continuous
 62
     3
100
AcDbLine
 10
-473.4018342047
 20
225.7611625191
 30
0.0
 11
-473.4018315144
 21
231.540441284
 31
0.0
  0
LINE
  5
2B8
330
1B
100
AcDbEntity
 67
     1
  8
1
  6
Continuous
 62
     3
100
AcDbLine
 10
-473.4018315144
 20
231.540441284
 30
0.0
 11
-478.4068334785
 21
234.4300758449
 31
0.0
  0
LINE
  5
2B9
330
1B
100
AcDbEntity
 67
     1
  8
1
  6
Continuous
 62
     3
100
AcDbLine
 10
-478.4068334785
 20
234.4300758449
 30
0.0
 11
-483.411828464
 21
231.5404342317
 31
0.0
  0
LINE
  5
2BA
330
1B
100
AcDbEntity
 67
     1
  8
1
  6
Continuous
 62
     3
100
AcDbLine
 10
-483.411828464
 20
231.5404342317
 30
0.0
 11
-483.4118351264
 21
225.7611647656
 31
0.0
  0
LINE
  5
2BB
330
1B
100
AcDbEntity
 67
     1
  8
1
  6
Continuous
 62
     3
100
AcDbLine
 10
-483.4118351264
 20
225.7611647656
 30
0.0
 11
-480.9086954938
 21
224.315975257
 31
0.0
  0
LINE
  5
2BC
330
1B
100
AcDbEntity
 67
     1
  8
1
  6
Continuous
 62
     3
100
AcDbLine
 10
-480.9086954938
 20
224.315975257
 30
0.0
 11
-478.4068326931
 21
222.8715229282
 31
0.0
  0
LINE
  5
2BD
330
1B
100
AcDbEntity
 67
     1
  8
1
  6
Continuous
 62
     3
100
AcDbLine
 10
-478.4068326931
 20
222.8715229282
 30
0.0
 11
-473.4018342047
 21
225.7611625191
 31
0.0
  0
LINE
  5
2BE
330
1B
100
AcDbEntity
 67
     1
  8
1
  6
Continuous
 62
     3
100
AcDbLine
 10
-491.5111138483
 20
41.1231193647
 30
0.0
 11
-491.4791533483
 21
41.0074280747
 31
0.0
  0
LINE
  5
2BF
330
1B
100
AcDbEntity
 67
     1
  8
1
  6
Continuous
 62
     3
100
AcDbLine
 10
-491.4791533483
 20
41.0074280747
 30
0.0
 11
-491.4349792183
 21
40.9017510747
 31
0.0
  0
LINE
  5
2C0
330
1B
100
AcDbEntity
 67
     1
  8
1
  6
Continuous
 62
     3
100
AcDbLine
 10
-491.4349792183
 20
40.9017510747
 30
0.0
 11
-491.3791505883
 21
40.8056565047
 31
0.0
  0
LINE
  5
2C1
330
1B
100
AcDbEntity
 67
     1
  8
1
  6
Continuous
 62
     3
100
AcDbLine
 10
-491.3791505883
 20
40.8056565047
 30
0.0
 11
-491.3122351683
 21
40.7187067847
 31
0.0
  0
LINE
  5
2C2
330
1B
100
AcDbEntity
 67
     1
  8
1
  6
Continuous
 62
     3
100
AcDbLine
 10
-491.3122351683
 20
40.7187067847
 30
0.0
 11
-491.2347935183
 21
40.6404686247
 31
0.0
  0
LINE
  5
2C3
330
1B
100
AcDbEntity
 67
     1
  8
1
  6
Continuous
 62
     3
100
AcDbLine
 10
-491.2347935183
 20
40.6404686247
 30
0.0
 11
-491.1473733283
 21
40.5705087347
 31
0.0
  0
LINE
  5
2C4
330
1B
100
AcDbEntity
 67
     1
  8
1
  6
Continuous
 62
     3
100
AcDbLine
 10
-491.1473733283
 20
40.5705087347
 30
0.0
 11
-491.0505380183
 21
40.5083866747
 31
0.0
  0
LINE
  5
2C5
330
1B
100
AcDbEntity
 67
     1
  8
1
  6
Continuous
 62
     3
100
AcDbLine
 10
-491.0505380183
 20
40.5083866747
 30
0.0
 11
-490.9448524383
 21
40.4536691547
 31
0.0
  0
LINE
  5
2C6
330
1B
100
AcDbEntity
 67
     1
  8
1
  6
Continuous
 62
     3
100
AcDbLine
 10
-490.9448524383
 20
40.4536691547
 30
0.0
 11
-490.8267687583
 21
40.4091146447
 31
0.0
  0
LINE
  5
2C7
330
1B
100
AcDbEntity
 67
     1
  8
1
  6
Continuous
 62
     3
100
AcDbLine
 10
-490.8267687583
 20
40.4091146447
 30
0.0
 11
-490.6942363583
 21
40.3763161647
 31
0.0
  0
LINE
  5
2C8
330
1B
100
AcDbEntity
 67
     1
  8
1
  6
Continuous
 62
     3
100
AcDbLine
 10
-490.6942363583
 20
40.3763161647
 30
0.0
 11
-490.5500566083
 21
40.3531001147
 31
0.0
  0
LINE
  5
2C9
330
1B
100
AcDbEntity
 67
     1
  8
1
  6
Continuous
 62
     3
100
AcDbLine
 10
-490.5500566083
 20
40.3531001147
 30
0.0
 11
-490.3970208683
 21
40.3372871747
 31
0.0
  0
LINE
  5
2CA
330
1B
100
AcDbEntity
 67
     1
  8
1
  6
Continuous
 62
     3
100
AcDbLine
 10
-490.3970208683
 20
40.3372871747
 30
0.0
 11
-490.2379305083
 21
40.3267123247
 31
0.0
  0
LINE
  5
2CB
330
1B
100
AcDbEntity
 67
     1
  8
1
  6
Continuous
 62
     3
100
AcDbLine
 10
-490.2379305083
 20
40.3267123247
 30
0.0
 11
-490.0755740283
 21
40.3191848047
 31
0.0
  0
LINE
  5
2CC
330
1B
100
AcDbEntity
 67
     1
  8
1
  6
Continuous
 62
     3
100
AcDbLine
 10
-490.0755740283
 20
40.3191848047
 30
0.0
 11
-489.9127499383
 21
40.3125367347
 31
0.0
  0
LINE
  5
2CD
330
1B
100
AcDbEntity
 67
     1
  8
1
  6
Continuous
 62
     3
100
AcDbLine
 10
-489.9127499383
 20
40.3125367347
 30
0.0
 11
-489.7522581783
 21
40.3045873647
 31
0.0
  0
LINE
  5
2CE
330
1B
100
AcDbEntity
 67
     1
  8
1
  6
Continuous
 62
     3
100
AcDbLine
 10
-489.7522581783
 20
40.3045873647
 30
0.0
 11
-489.5906581683
 21
40.2954196347
 31
0.0
  0
LINE
  5
2CF
330
1B
100
AcDbEntity
 67
     1
  8
1
  6
Continuous
 62
     3
100
AcDbLine
 10
-489.5906581683
 20
40.2954196347
 30
0.0
 11
-489.4238157783
 21
40.2871199147
 31
0.0
  0
LINE
  5
2D0
330
1B
100
AcDbEntity
 67
     1
  8
1
  6
Continuous
 62
     3
100
AcDbLine
 10
-489.4238157783
 20
40.2871199147
 30
0.0
 11
-489.2534741783
 21
40.2805705147
 31
0.0
  0
LINE
  5
2D1
330
1B
100
AcDbEntity
 67
     1
  8
1
  6
Continuous
 62
     3
100
AcDbLine
 10
-489.2534741783
 20
40.2805705147
 30
0.0
 11
-489.0813879783
 21
40.2766365847
 31
0.0
  0
LINE
  5
2D2
330
1B
100
AcDbEntity
 67
     1
  8
1
  6
Continuous
 62
     3
100
AcDbLine
 10
-489.0813879783
 20
40.2766365847
 30
0.0
 11
-488.9093017783
 21
40.2762032947
 31
0.0
  0
LINE
  5
2D3
330
1B
100
AcDbEntity
 67
     1
  8
1
  6
Continuous
 62
     3
100
AcDbLine
 10
-488.9093017783
 20
40.2762032947
 30
0.0
 11
-488.7389616083
 21
40.2801357947
 31
0.0
  0
LINE
  5
2D4
330
1B
100
AcDbEntity
 67
     1
  8
1
  6
Continuous
 62
     3
100
AcDbLine
 10
-488.7389616083
 20
40.2801357947
 30
0.0
 11
-488.5721163583
 21
40.2893063847
 31
0.0
  0
LINE
  5
2D5
330
1B
100
AcDbEntity
 67
     1
  8
1
  6
Continuous
 62
     3
100
AcDbLine
 10
-488.5721163583
 20
40.2893063847
 30
0.0
 11
-488.4105163483
 21
40.3045873647
 31
0.0
  0
LINE
  5
2D6
330
1B
100
AcDbEntity
 67
     1
  8
1
  6
Continuous
 62
     3
100
AcDbLine
 10
-488.4105163483
 20
40.3045873647
 30
0.0
 11
-488.2504607383
 21
40.3255096947
 31
0.0
  0
LINE
  5
2D7
330
1B
100
AcDbEntity
 67
     1
  8
1
  6
Continuous
 62
     3
100
AcDbLine
 10
-488.2504607383
 20
40.3255096947
 30
0.0
 11
-488.0886905583
 21
40.3510337647
 31
0.0
  0
LINE
  5
2D8
330
1B
100
AcDbEntity
 67
     1
  8
1
  6
Continuous
 62
     3
100
AcDbLine
 10
-488.0886905583
 20
40.3510337647
 30
0.0
 11
-487.9276382383
 21
40.3811867447
 31
0.0
  0
LINE
  5
2D9
330
1B
100
AcDbEntity
 67
     1
  8
1
  6
Continuous
 62
     3
100
AcDbLine
 10
-487.9276382383
 20
40.3811867447
 30
0.0
 11
-487.7697233383
 21
40.4160101047
 31
0.0
  0
LINE
  5
2DA
330
1B
100
AcDbEntity
 67
     1
  8
1
  6
Continuous
 62
     3
100
AcDbLine
 10
-487.7697233383
 20
40.4160101047
 30
0.0
 11
-487.6173697083
 21
40.4555424547
 31
0.0
  0
LINE
  5
2DB
330
1B
100
AcDbEntity
 67
     1
  8
1
  6
Continuous
 62
     3
100
AcDbLine
 10
-487.6173697083
 20
40.4555424547
 30
0.0
 11
-487.4730054883
 21
40.4998138247
 31
0.0
  0
LINE
  5
2DC
330
1B
100
AcDbEntity
 67
     1
  8
1
  6
Continuous
 62
     3
100
AcDbLine
 10
-487.4730054883
 20
40.4998138247
 30
0.0
 11
-487.3390473783
 21
40.5488742647
 31
0.0
  0
LINE
  5
2DD
330
1B
100
AcDbEntity
 67
     1
  8
1
  6
Continuous
 62
     3
100
AcDbLine
 10
-487.3390473783
 20
40.5488742647
 30
0.0
 11
-487.2179292383
 21
40.6027366447
 31
0.0
  0
LINE
  5
2DE
330
1B
100
AcDbEntity
 67
     1
  8
1
  6
Continuous
 62
     3
100
AcDbLine
 10
-487.2179292383
 20
40.6027366447
 30
0.0
 11
-487.1078607083
 21
40.6613952447
 31
0.0
  0
LINE
  5
2DF
330
1B
100
AcDbEntity
 67
     1
  8
1
  6
Continuous
 62
     3
100
AcDbLine
 10
-487.1078607083
 20
40.6613952447
 30
0.0
 11
-487.0057815883
 21
40.7247957247
 31
0.0
  0
LINE
  5
2E0
330
1B
100
AcDbEntity
 67
     1
  8
1
  6
Continuous
 62
     3
100
AcDbLine
 10
-487.0057815883
 20
40.7247957247
 30
0.0
 11
-486.9121723583
 21
40.7929452347
 31
0.0
  0
LINE
  5
2E1
330
1B
100
AcDbEntity
 67
     1
  8
1
  6
Continuous
 62
     3
100
AcDbLine
 10
-486.9121723583
 20
40.7929452347
 30
0.0
 11
-486.8275263683
 21
40.8658552147
 31
0.0
  0
LINE
  5
2E2
330
1B
100
AcDbEntity
 67
     1
  8
1
  6
Continuous
 62
     3
100
AcDbLine
 10
-486.8275263683
 20
40.8658552147
 30
0.0
 11
-486.7523126583
 21
40.9435299547
 31
0.0
  0
LINE
  5
2E3
330
1B
100
AcDbEntity
 67
     1
  8
1
  6
Continuous
 62
     3
100
AcDbLine
 10
-486.7523126583
 20
40.9435299547
 30
0.0
 11
-486.6870288683
 21
41.0259737447
 31
0.0
  0
LINE
  5
2E4
330
1B
100
AcDbEntity
 67
     1
  8
1
  6
Continuous
 62
     3
100
AcDbLine
 10
-486.6870288683
 20
41.0259737447
 30
0.0
 11
-486.6321497583
 21
41.1131923047
 31
0.0
  0
LINE
  5
2E5
330
1B
100
AcDbEntity
 67
     1
  8
1
  6
Continuous
 62
     3
100
AcDbLine
 10
-486.6321497583
 20
41.1131923047
 30
0.0
 11
-486.5881686783
 21
41.2052042247
 31
0.0
  0
LINE
  5
2E6
330
1B
100
AcDbEntity
 67
     1
  8
1
  6
Continuous
 62
     3
100
AcDbLine
 10
-491.5111138483
 20
41.1231193647
 30
0.0
 11
-491.4585727883
 21
41.1843333747
 31
0.0
  0
LINE
  5
2E7
330
1B
100
AcDbEntity
 67
     1
  8
1
  6
Continuous
 62
     3
100
AcDbLine
 10
-491.4585727883
 20
41.1843333747
 30
0.0
 11
-491.4007478783
 21
41.2408927347
 31
0.0
  0
LINE
  5
2E8
330
1B
100
AcDbEntity
 67
     1
  8
1
  6
Continuous
 62
     3
100
AcDbLine
 10
-491.4007478783
 20
41.2408927347
 30
0.0
 11
-491.3376691483
 21
41.2930562747
 31
0.0
  0
LINE
  5
2E9
330
1B
100
AcDbEntity
 67
     1
  8
1
  6
Continuous
 62
     3
100
AcDbLine
 10
-491.3376691483
 20
41.2930562747
 30
0.0
 11
-491.2693895083
 21
41.3410842547
 31
0.0
  0
LINE
  5
2EA
330
1B
100
AcDbEntity
 67
     1
  8
1
  6
Continuous
 62
     3
100
AcDbLine
 10
-491.2693895083
 20
41.3410842547
 30
0.0
 11
-491.1959261183
 21
41.3852498047
 31
0.0
  0
LINE
  5
2EB
330
1B
100
AcDbEntity
 67
     1
  8
1
  6
Continuous
 62
     3
100
AcDbLine
 10
-491.1959261183
 20
41.3852498047
 30
0.0
 11
-491.1173275983
 21
41.4258131847
 31
0.0
  0
LINE
  5
2EC
330
1B
100
AcDbEntity
 67
     1
  8
1
  6
Continuous
 62
     3
100
AcDbLine
 10
-491.1173275983
 20
41.4258131847
 30
0.0
 11
-491.0336239783
 21
41.4630317947
 31
0.0
  0
LINE
  5
2ED
330
1B
100
AcDbEntity
 67
     1
  8
1
  6
Continuous
 62
     3
100
AcDbLine
 10
-491.0336239783
 20
41.4630317947
 30
0.0
 11
-490.9448524383
 21
41.4971816247
 31
0.0
  0
LINE
  5
2EE
330
1B
100
AcDbEntity
 67
     1
  8
1
  6
Continuous
 62
     3
100
AcDbLine
 10
-490.9448524383
 20
41.4971816247
 30
0.0
 11
-490.8507827483
 21
41.5265838547
 31
0.0
  0
LINE
  5
2EF
330
1B
100
AcDbEntity
 67
     1
  8
1
  6
Continuous
 62
     3
100
AcDbLine
 10
-490.8507827483
 20
41.5265838547
 30
0.0
 11
-490.7512904983
 21
41.5502689447
 31
0.0
  0
LINE
  5
2F0
330
1B
100
AcDbEntity
 67
     1
  8
1
  6
Continuous
 62
     3
100
AcDbLine
 10
-490.7512904983
 20
41.5502689447
 30
0.0
 11
-490.6465530083
 21
41.5695653647
 31
0.0
  0
LINE
  5
2F1
330
1B
100
AcDbEntity
 67
     1
  8
1
  6
Continuous
 62
     3
100
AcDbLine
 10
-490.6465530083
 20
41.5695653647
 30
0.0
 11
-490.5367504583
 21
41.5857858547
 31
0.0
  0
LINE
  5
2F2
330
1B
100
AcDbEntity
 67
     1
  8
1
  6
Continuous
 62
     3
100
AcDbLine
 10
-490.5367504583
 20
41.5857858547
 30
0.0
 11
-490.4220501583
 21
41.6002474447
 31
0.0
  0
LINE
  5
2F3
330
1B
100
AcDbEntity
 67
     1
  8
1
  6
Continuous
 62
     3
100
AcDbLine
 10
-490.4220501583
 20
41.6002474447
 30
0.0
 11
-490.3026308583
 21
41.6142643047
 31
0.0
  0
LINE
  5
2F4
330
1B
100
AcDbEntity
 67
     1
  8
1
  6
Continuous
 62
     3
100
AcDbLine
 10
-490.3026308583
 20
41.6142643047
 30
0.0
 11
-490.1786741683
 21
41.6291663347
 31
0.0
  0
LINE
  5
2F5
330
1B
100
AcDbEntity
 67
     1
  8
1
  6
Continuous
 62
     3
100
AcDbLine
 10
-490.1786741683
 20
41.6291663347
 30
0.0
 11
-490.0503545483
 21
41.6462619847
 31
0.0
  0
LINE
  5
2F6
330
1B
100
AcDbEntity
 67
     1
  8
1
  6
Continuous
 62
     3
100
AcDbLine
 10
-490.0503545483
 20
41.6462619847
 30
0.0
 11
-489.9145259983
 21
41.6659159047
 31
0.0
  0
LINE
  5
2F7
330
1B
100
AcDbEntity
 67
     1
  8
1
  6
Continuous
 62
     3
100
AcDbLine
 10
-489.9145259983
 20
41.6659159047
 30
0.0
 11
-489.7696712883
 21
41.6870227047
 31
0.0
  0
LINE
  5
2F8
330
1B
100
AcDbEntity
 67
     1
  8
1
  6
Continuous
 62
     3
100
AcDbLine
 10
-489.7696712883
 20
41.6870227047
 30
0.0
 11
-489.6184130383
 21
41.7087143747
 31
0.0
  0
LINE
  5
2F9
330
1B
100
AcDbEntity
 67
     1
  8
1
  6
Continuous
 62
     3
100
AcDbLine
 10
-489.6184130383
 20
41.7087143747
 30
0.0
 11
-489.4633738683
 21
41.7301114647
 31
0.0
  0
LINE
  5
2FA
330
1B
100
AcDbEntity
 67
     1
  8
1
  6
Continuous
 62
     3
100
AcDbLine
 10
-489.4633738683
 20
41.7301114647
 30
0.0
 11
-489.3071692483
 21
41.7503502547
 31
0.0
  0
LINE
  5
2FB
330
1B
100
AcDbEntity
 67
     1
  8
1
  6
Continuous
 62
     3
100
AcDbLine
 10
-489.3071692483
 20
41.7503502547
 30
0.0
 11
-489.1524203683
 21
41.7685427147
 31
0.0
  0
LINE
  5
2FC
330
1B
100
AcDbEntity
 67
     1
  8
1
  6
Continuous
 62
     3
100
AcDbLine
 10
-489.1524203683
 20
41.7685427147
 30
0.0
 11
-489.0017441283
 21
41.7838294147
 31
0.0
  0
LINE
  5
2FD
330
1B
100
AcDbEntity
 67
     1
  8
1
  6
Continuous
 62
     3
100
AcDbLine
 10
-489.0017441283
 20
41.7838294147
 30
0.0
 11
-488.8577674383
 21
41.7953280447
 31
0.0
  0
LINE
  5
2FE
330
1B
100
AcDbEntity
 67
     1
  8
1
  6
Continuous
 62
     3
100
AcDbLine
 10
-488.8577674383
 20
41.7953280447
 30
0.0
 11
-488.7171312283
 21
41.8034833347
 31
0.0
  0
LINE
  5
2FF
330
1B
100
AcDbEntity
 67
     1
  8
1
  6
Continuous
 62
     3
100
AcDbLine
 10
-488.7171312283
 20
41.8034833347
 30
0.0
 11
-488.5759158683
 21
41.8093020047
 31
0.0
  0
LINE
  5
300
330
1B
100
AcDbEntity
 67
     1
  8
1
  6
Continuous
 62
     3
100
AcDbLine
 10
-488.5759158683
 20
41.8093020047
 30
0.0
 11
-488.4358630983
 21
41.8127983547
 31
0.0
  0
LINE
  5
301
330
1B
100
AcDbEntity
 67
     1
  8
1
  6
Continuous
 62
     3
100
AcDbLine
 10
-488.4358630983
 20
41.8127983547
 30
0.0
 11
-488.2987232383
 21
41.8139623747
 31
0.0
  0
LINE
  5
302
330
1B
100
AcDbEntity
 67
     1
  8
1
  6
Continuous
 62
     3
100
AcDbLine
 10
-488.2987232383
 20
41.8139623747
 30
0.0
 11
-488.1662423183
 21
41.8127983547
 31
0.0
  0
LINE
  5
303
330
1B
100
AcDbEntity
 67
     1
  8
1
  6
Continuous
 62
     3
100
AcDbLine
 10
-488.1662423183
 20
41.8127983547
 30
0.0
 11
-488.0401663683
 21
41.8093020047
 31
0.0
  0
LINE
  5
304
330
1B
100
AcDbEntity
 67
     1
  8
1
  6
Continuous
 62
     3
100
AcDbLine
 10
-488.0401663683
 20
41.8093020047
 30
0.0
 11
-487.9222442783
 21
41.8034833347
 31
0.0
  0
LINE
  5
305
330
1B
100
AcDbEntity
 67
     1
  8
1
  6
Continuous
 62
     3
100
AcDbLine
 10
-487.9222442783
 20
41.8034833347
 30
0.0
 11
-487.8142220783
 21
41.7953280447
 31
0.0
  0
LINE
  5
306
330
1B
100
AcDbEntity
 67
     1
  8
1
  6
Continuous
 62
     3
100
AcDbLine
 10
-487.8142220783
 20
41.7953280447
 30
0.0
 11
-487.7193015383
 21
41.7863862547
 31
0.0
  0
LINE
  5
307
330
1B
100
AcDbEntity
 67
     1
  8
1
  6
Continuous
 62
     3
100
AcDbLine
 10
-487.7193015383
 20
41.7863862547
 30
0.0
 11
-487.6371937983
 21
41.7773129047
 31
0.0
  0
LINE
  5
308
330
1B
100
AcDbEntity
 67
     1
  8
1
  6
Continuous
 62
     3
100
AcDbLine
 10
-487.6371937983
 20
41.7773129047
 30
0.0
 11
-487.5644053683
 21
41.7667852447
 31
0.0
  0
LINE
  5
309
330
1B
100
AcDbEntity
 67
     1
  8
1
  6
Continuous
 62
     3
100
AcDbLine
 10
-487.5644053683
 20
41.7667852447
 30
0.0
 11
-487.4974384683
 21
41.7534891047
 31
0.0
  0
LINE
  5
30A
330
1B
100
AcDbEntity
 67
     1
  8
1
  6
Continuous
 62
     3
100
AcDbLine
 10
-487.4974384683
 20
41.7534891047
 30
0.0
 11
-487.4328024683
 21
41.7361103147
 31
0.0
  0
LINE
  5
30B
330
1B
100
AcDbEntity
 67
     1
  8
1
  6
Continuous
 62
     3
100
AcDbLine
 10
-487.4328024683
 20
41.7361103147
 30
0.0
 11
-487.3669981583
 21
41.7133246947
 31
0.0
  0
LINE
  5
30C
330
1B
100
AcDbEntity
 67
     1
  8
1
  6
Continuous
 62
     3
100
AcDbLine
 10
-487.3669981583
 20
41.7133246947
 30
0.0
 11
-487.2965377683
 21
41.6838137847
 31
0.0
  0
LINE
  5
30D
330
1B
100
AcDbEntity
 67
     1
  8
1
  6
Continuous
 62
     3
100
AcDbLine
 10
-487.2965377683
 20
41.6838137847
 30
0.0
 11
-487.2179292383
 21
41.6462619847
 31
0.0
  0
LINE
  5
30E
330
1B
100
AcDbEntity
 67
     1
  8
1
  6
Continuous
 62
     3
100
AcDbLine
 10
-487.2179292383
 20
41.6462619847
 30
0.0
 11
-487.1349477683
 21
41.6007879847
 31
0.0
  0
LINE
  5
30F
330
1B
100
AcDbEntity
 67
     1
  8
1
  6
Continuous
 62
     3
100
AcDbLine
 10
-487.1349477683
 20
41.6007879847
 30
0.0
 11
-487.0525483083
 21
41.5487030947
 31
0.0
  0
LINE
  5
310
330
1B
100
AcDbEntity
 67
     1
  8
1
  6
Continuous
 62
     3
100
AcDbLine
 10
-487.0525483083
 20
41.5487030947
 30
0.0
 11
-486.9689934083
 21
41.4904606247
 31
0.0
  0
LINE
  5
311
330
1B
100
AcDbEntity
 67
     1
  8
1
  6
Continuous
 62
     3
100
AcDbLine
 10
-486.9689934083
 20
41.4904606247
 30
0.0
 11
-486.8825255983
 21
41.4265281847
 31
0.0
  0
LINE
  5
312
330
1B
100
AcDbEntity
 67
     1
  8
1
  6
Continuous
 62
     3
100
AcDbLine
 10
-486.8825255983
 20
41.4265281847
 30
0.0
 11
-486.7913916983
 21
41.3573676647
 31
0.0
  0
LINE
  5
313
330
1B
100
AcDbEntity
 67
     1
  8
1
  6
Continuous
 62
     3
100
AcDbLine
 10
-486.7913916983
 20
41.3573676647
 30
0.0
 11
-486.6938614083
 21
41.2834423847
 31
0.0
  0
LINE
  5
314
330
1B
100
AcDbEntity
 67
     1
  8
1
  6
Continuous
 62
     3
100
AcDbLine
 10
-486.6938614083
 20
41.2834423847
 30
0.0
 11
-486.5881686783
 21
41.2052042247
 31
0.0
  0
LINE
  5
315
330
1B
100
AcDbEntity
 67
     1
  8
1
  6
Continuous
 62
     3
100
AcDbLine
 10
-486.5881686783
 20
41.2052042247
 30
0.0
 11
-486.4725817783
 21
41.1231193647
 31
0.0
  0
LINE
  5
316
330
1B
100
AcDbEntity
 67
     1
  8
1
  6
Continuous
 62
     3
100
AcDbLine
 10
-486.4725817783
 20
41.1231193647
 30
0.0
 11
-486.3438946483
 21
41.0303624147
 31
0.0
  0
LINE
  5
317
330
1B
100
AcDbEntity
 67
     1
  8
1
  6
Continuous
 62
     3
100
AcDbLine
 10
-486.3438946483
 20
41.0303624147
 30
0.0
 11
-486.2023889983
 21
40.9235657247
 31
0.0
  0
LINE
  5
318
330
1B
100
AcDbEntity
 67
     1
  8
1
  6
Continuous
 62
     3
100
AcDbLine
 10
-486.2023889983
 20
40.9235657247
 30
0.0
 11
-486.0515668983
 21
40.8083849447
 31
0.0
  0
LINE
  5
319
330
1B
100
AcDbEntity
 67
     1
  8
1
  6
Continuous
 62
     3
100
AcDbLine
 10
-486.0515668983
 20
40.8083849447
 30
0.0
 11
-485.8949232683
 21
40.6904742947
 31
0.0
  0
LINE
  5
31A
330
1B
100
AcDbEntity
 67
     1
  8
1
  6
Continuous
 62
     3
100
AcDbLine
 10
-485.8949232683
 20
40.6904742947
 30
0.0
 11
-485.7359501683
 21
40.5754865647
 31
0.0
  0
LINE
  5
31B
330
1B
100
AcDbEntity
 67
     1
  8
1
  6
Continuous
 62
     3
100
AcDbLine
 10
-485.7359501683
 20
40.5754865647
 30
0.0
 11
-485.5781410883
 21
40.4690759747
 31
0.0
  0
LINE
  5
31C
330
1B
100
AcDbEntity
 67
     1
  8
1
  6
Continuous
 62
     3
100
AcDbLine
 10
-485.5781410883
 20
40.4690759747
 30
0.0
 11
-485.4249880883
 21
40.3768924547
 31
0.0
  0
LINE
  5
31D
330
1B
100
AcDbEntity
 67
     1
  8
1
  6
Continuous
 62
     3
100
AcDbLine
 10
-485.4249880883
 20
40.3768924547
 30
0.0
 11
-485.2799875183
 21
40.3045873647
 31
0.0
  0
LINE
  5
31E
330
1B
100
AcDbEntity
 67
     1
  8
1
  6
Continuous
 62
     3
100
AcDbLine
 10
-485.2799875183
 20
40.3045873647
 30
0.0
 11
-485.1383360083
 21
40.2529043047
 31
0.0
  0
LINE
  5
31F
330
1B
100
AcDbEntity
 67
     1
  8
1
  6
Continuous
 62
     3
100
AcDbLine
 10
-485.1383360083
 20
40.2529043047
 30
0.0
 11
-484.9946467483
 21
40.2167581947
 31
0.0
  0
LINE
  5
320
330
1B
100
AcDbEntity
 67
     1
  8
1
  6
Continuous
 62
     3
100
AcDbLine
 10
-484.9946467483
 20
40.2167581947
 30
0.0
 11
-484.8515409283
 21
40.1931074247
 31
0.0
  0
LINE
  5
321
330
1B
100
AcDbEntity
 67
     1
  8
1
  6
Continuous
 62
     3
100
AcDbLine
 10
-484.8515409283
 20
40.1931074247
 30
0.0
 11
-484.7116297283
 21
40.1788960847
 31
0.0
  0
LINE
  5
322
330
1B
100
AcDbEntity
 67
     1
  8
1
  6
Continuous
 62
     3
100
AcDbLine
 10
-484.7116297283
 20
40.1788960847
 30
0.0
 11
-484.5775472083
 21
40.1710839947
 31
0.0
  0
LINE
  5
323
330
1B
100
AcDbEntity
 67
     1
  8
1
  6
Continuous
 62
     3
100
AcDbLine
 10
-484.5775472083
 20
40.1710839947
 30
0.0
 11
-484.4519074083
 21
40.1666152447
 31
0.0
  0
LINE
  5
324
330
1B
100
AcDbEntity
 67
     1
  8
1
  6
Continuous
 62
     3
100
AcDbLine
 10
-484.4519074083
 20
40.1666152447
 30
0.0
 11
-484.3373358083
 21
40.1624453647
 31
0.0
  0
LINE
  5
325
330
1B
100
AcDbEntity
 67
     1
  8
1
  6
Continuous
 62
     3
100
AcDbLine
 10
-484.3373358083
 20
40.1624453647
 30
0.0
 11
-484.2364464483
 21
40.1555184447
 31
0.0
  0
LINE
  5
326
330
1B
100
AcDbEntity
 67
     1
  8
1
  6
Continuous
 62
     3
100
AcDbLine
 10
-484.2364464483
 20
40.1555184447
 30
0.0
 11
-484.1550737283
 21
40.1463550047
 31
0.0
  0
LINE
  5
327
330
1B
100
AcDbEntity
 67
     1
  8
1
  6
Continuous
 62
     3
100
AcDbLine
 10
-484.1550737283
 20
40.1463550047
 30
0.0
 11
-484.0932104983
 21
40.1380509947
 31
0.0
  0
LINE
  5
328
330
1B
100
AcDbEntity
 67
     1
  8
1
  6
Continuous
 62
     3
100
AcDbLine
 10
-484.0932104983
 20
40.1380509947
 30
0.0
 11
-484.0447449383
 21
40.1315015947
 31
0.0
  0
LINE
  5
329
330
1B
100
AcDbEntity
 67
     1
  8
1
  6
Continuous
 62
     3
100
AcDbLine
 10
-484.0447449383
 20
40.1315015947
 30
0.0
 11
-484.0035580783
 21
40.1275676647
 31
0.0
  0
LINE
  5
32A
330
1B
100
AcDbEntity
 67
     1
  8
1
  6
Continuous
 62
     3
100
AcDbLine
 10
-484.0035580783
 20
40.1275676647
 30
0.0
 11
-483.9635395283
 21
40.1271343747
 31
0.0
  0
LINE
  5
32B
330
1B
100
AcDbEntity
 67
     1
  8
1
  6
Continuous
 62
     3
100
AcDbLine
 10
-483.9635395283
 20
40.1271343747
 30
0.0
 11
-483.9185617383
 21
40.1310640147
 31
0.0
  0
LINE
  5
32C
330
1B
100
AcDbEntity
 67
     1
  8
1
  6
Continuous
 62
     3
100
AcDbLine
 10
-483.9185617383
 20
40.1310640147
 30
0.0
 11
-483.8625243283
 21
40.1402374647
 31
0.0
  0
LINE
  5
32D
330
1B
100
AcDbEntity
 67
     1
  8
1
  6
Continuous
 62
     3
100
AcDbLine
 10
-483.8625243283
 20
40.1402374647
 30
0.0
 11
-483.7893011783
 21
40.1555184447
 31
0.0
  0
LINE
  5
32E
330
1B
100
AcDbEntity
 67
     1
  8
1
  6
Continuous
 62
     3
100
AcDbLine
 10
-483.7893011783
 20
40.1555184447
 30
0.0
 11
-483.6968359483
 21
40.1759860347
 31
0.0
  0
LINE
  5
32F
330
1B
100
AcDbEntity
 67
     1
  8
1
  6
Continuous
 62
     3
100
AcDbLine
 10
-483.6968359483
 20
40.1759860347
 30
0.0
 11
-483.5900649983
 21
40.2003918447
 31
0.0
  0
LINE
  5
330
330
1B
100
AcDbEntity
 67
     1
  8
1
  6
Continuous
 62
     3
100
AcDbLine
 10
-483.5900649983
 20
40.2003918447
 30
0.0
 11
-483.4733798583
 21
40.2291748847
 31
0.0
  0
LINE
  5
331
330
1B
100
AcDbEntity
 67
     1
  8
1
  6
Continuous
 62
     3
100
AcDbLine
 10
-483.4733798583
 20
40.2291748847
 30
0.0
 11
-483.3511634783
 21
40.2627512847
 31
0.0
  0
LINE
  5
332
330
1B
100
AcDbEntity
 67
     1
  8
1
  6
Continuous
 62
     3
100
AcDbLine
 10
-483.3511634783
 20
40.2627512847
 30
0.0
 11
-483.2278116783
 21
40.3015686347
 31
0.0
  0
LINE
  5
333
330
1B
100
AcDbEntity
 67
     1
  8
1
  6
Continuous
 62
     3
100
AcDbLine
 10
-483.2278116783
 20
40.3015686347
 30
0.0
 11
-483.1077088383
 21
40.3460373447
 31
0.0
  0
LINE
  5
334
330
1B
100
AcDbEntity
 67
     1
  8
1
  6
Continuous
 62
     3
100
AcDbLine
 10
-483.1077088383
 20
40.3460373447
 30
0.0
 11
-482.9952450583
 21
40.3965964247
 31
0.0
  0
LINE
  5
335
330
1B
100
AcDbEntity
 67
     1
  8
1
  6
Continuous
 62
     3
100
AcDbLine
 10
-482.9952450583
 20
40.3965964247
 30
0.0
 11
-482.8948104383
 21
40.4536691547
 31
0.0
  0
LINE
  5
336
330
1B
100
AcDbEntity
 67
     1
  8
1
  6
Continuous
 62
     3
100
AcDbLine
 10
-482.8948104383
 20
40.4536691547
 30
0.0
 11
-482.8031774683
 21
40.5169452247
 31
0.0
  0
LINE
  5
337
330
1B
100
AcDbEntity
 67
     1
  8
1
  6
Continuous
 62
     3
100
AcDbLine
 10
-482.8031774683
 20
40.5169452247
 30
0.0
 11
-482.7148006083
 21
40.5858783747
 31
0.0
  0
LINE
  5
338
330
1B
100
AcDbEntity
 67
     1
  8
1
  6
Continuous
 62
     3
100
AcDbLine
 10
-482.7148006083
 20
40.5858783747
 30
0.0
 11
-482.6305464383
 21
40.6605586947
 31
0.0
  0
LINE
  5
339
330
1B
100
AcDbEntity
 67
     1
  8
1
  6
Continuous
 62
     3
100
AcDbLine
 10
-482.6305464383
 20
40.6605586947
 30
0.0
 11
-482.5512986983
 21
40.7410662647
 31
0.0
  0
LINE
  5
33A
330
1B
100
AcDbEntity
 67
     1
  8
1
  6
Continuous
 62
     3
100
AcDbLine
 10
-482.5512986983
 20
40.7410662647
 30
0.0
 11
-482.4779368383
 21
40.8274940347
 31
0.0
  0
LINE
  5
33B
330
1B
100
AcDbEntity
 67
     1
  8
1
  6
Continuous
 62
     3
100
AcDbLine
 10
-482.4779368383
 20
40.8274940347
 30
0.0
 11
-482.4113274383
 21
40.9199177947
 31
0.0
  0
LINE
  5
33C
330
1B
100
AcDbEntity
 67
     1
  8
1
  6
Continuous
 62
     3
100
AcDbLine
 10
-482.4113274383
 20
40.9199177947
 30
0.0
 11
-482.3523671083
 21
41.0184333547
 31
0.0
  0
LINE
  5
33D
330
1B
100
AcDbEntity
 67
     1
  8
1
  6
Continuous
 62
     3
100
AcDbLine
 10
-482.3523671083
 20
41.0184333547
 30
0.0
 11
-482.3019138483
 21
41.1231193647
 31
0.0
  0
LINE
  5
33E
330
1B
100
AcDbEntity
 67
     1
  8
1
  6
Continuous
 62
     3
100
AcDbLine
 10
-596.4656228783
 20
63.9931600749
 30
0.0
 11
-596.3499315883
 21
64.0251262949
 31
0.0
  0
LINE
  5
33F
330
1B
100
AcDbEntity
 67
     1
  8
1
  6
Continuous
 62
     3
100
AcDbLine
 10
-596.3499315883
 20
64.0251262949
 30
0.0
 11
-596.2442560183
 21
64.0693004249
 31
0.0
  0
LINE
  5
340
330
1B
100
AcDbEntity
 67
     1
  8
1
  6
Continuous
 62
     3
100
AcDbLine
 10
-596.2442560183
 20
64.0693004249
 30
0.0
 11
-596.1481614483
 21
64.1251261949
 31
0.0
  0
LINE
  5
341
330
1B
100
AcDbEntity
 67
     1
  8
1
  6
Continuous
 62
     3
100
AcDbLine
 10
-596.1481614483
 20
64.1251261949
 30
0.0
 11
-596.0612088683
 21
64.1920416149
 31
0.0
  0
LINE
  5
342
330
1B
100
AcDbEntity
 67
     1
  8
1
  6
Continuous
 62
     3
100
AcDbLine
 10
-596.0612088683
 20
64.1920416149
 30
0.0
 11
-595.9829735683
 21
64.2694861249
 31
0.0
  0
LINE
  5
343
330
1B
100
AcDbEntity
 67
     1
  8
1
  6
Continuous
 62
     3
100
AcDbLine
 10
-595.9829735683
 20
64.2694861249
 30
0.0
 11
-595.9130093883
 21
64.3569077449
 31
0.0
  0
LINE
  5
344
330
1B
100
AcDbEntity
 67
     1
  8
1
  6
Continuous
 62
     3
100
AcDbLine
 10
-595.9130093883
 20
64.3569077449
 30
0.0
 11
-595.8508916183
 21
64.4537416249
 31
0.0
  0
LINE
  5
345
330
1B
100
AcDbEntity
 67
     1
  8
1
  6
Continuous
 62
     3
100
AcDbLine
 10
-595.8508916183
 20
64.4537416249
 30
0.0
 11
-595.7961726683
 21
64.5594272049
 31
0.0
  0
LINE
  5
346
330
1B
100
AcDbEntity
 67
     1
  8
1
  6
Continuous
 62
     3
100
AcDbLine
 10
-595.7961726683
 20
64.5594272049
 30
0.0
 11
-595.7516195883
 21
64.6775108849
 31
0.0
  0
LINE
  5
347
330
1B
100
AcDbEntity
 67
     1
  8
1
  6
Continuous
 62
     3
100
AcDbLine
 10
-595.7516195883
 20
64.6775108849
 30
0.0
 11
-595.7188182483
 21
64.8100432849
 31
0.0
  0
LINE
  5
348
330
1B
100
AcDbEntity
 67
     1
  8
1
  6
Continuous
 62
     3
100
AcDbLine
 10
-595.7188182483
 20
64.8100432849
 30
0.0
 11
-595.6956050583
 21
64.9542230349
 31
0.0
  0
LINE
  5
349
330
1B
100
AcDbEntity
 67
     1
  8
1
  6
Continuous
 62
     3
100
AcDbLine
 10
-595.6956050583
 20
64.9542230349
 30
0.0
 11
-595.6797921183
 21
65.1072602049
 31
0.0
  0
LINE
  5
34A
330
1B
100
AcDbEntity
 67
     1
  8
1
  6
Continuous
 62
     3
100
AcDbLine
 10
-595.6797921183
 20
65.1072602049
 30
0.0
 11
-595.6692144083
 21
65.2663505649
 31
0.0
  0
LINE
  5
34B
330
1B
100
AcDbEntity
 67
     1
  8
1
  6
Continuous
 62
     3
100
AcDbLine
 10
-595.6692144083
 20
65.2663505649
 30
0.0
 11
-595.6616897483
 21
65.4287056149
 31
0.0
  0
LINE
  5
34C
330
1B
100
AcDbEntity
 67
     1
  8
1
  6
Continuous
 62
     3
100
AcDbLine
 10
-595.6616897483
 20
65.4287056149
 30
0.0
 11
-595.6550402483
 21
65.5915268449
 31
0.0
  0
LINE
  5
34D
330
1B
100
AcDbEntity
 67
     1
  8
1
  6
Continuous
 62
     3
100
AcDbLine
 10
-595.6550402483
 20
65.5915268449
 30
0.0
 11
-595.6470923083
 21
65.7520186049
 31
0.0
  0
LINE
  5
34E
330
1B
100
AcDbEntity
 67
     1
  8
1
  6
Continuous
 62
     3
100
AcDbLine
 10
-595.6470923083
 20
65.7520186049
 30
0.0
 11
-595.6379245783
 21
65.9136186149
 31
0.0
  0
LINE
  5
34F
330
1B
100
AcDbEntity
 67
     1
  8
1
  6
Continuous
 62
     3
100
AcDbLine
 10
-595.6379245783
 20
65.9136186149
 30
0.0
 11
-595.6296248583
 21
66.0804638649
 31
0.0
  0
LINE
  5
350
330
1B
100
AcDbEntity
 67
     1
  8
1
  6
Continuous
 62
     3
100
AcDbLine
 10
-595.6296248583
 20
66.0804638649
 30
0.0
 11
-595.6230740283
 21
66.2508040349
 31
0.0
  0
LINE
  5
351
330
1B
100
AcDbEntity
 67
     1
  8
1
  6
Continuous
 62
     3
100
AcDbLine
 10
-595.6230740283
 20
66.2508040349
 30
0.0
 11
-595.6191415283
 21
66.4228888049
 31
0.0
  0
LINE
  5
352
330
1B
100
AcDbEntity
 67
     1
  8
1
  6
Continuous
 62
     3
100
AcDbLine
 10
-595.6191415283
 20
66.4228888049
 30
0.0
 11
-595.6187053783
 21
66.5949750049
 31
0.0
  0
LINE
  5
353
330
1B
100
AcDbEntity
 67
     1
  8
1
  6
Continuous
 62
     3
100
AcDbLine
 10
-595.6187053783
 20
66.5949750049
 30
0.0
 11
-595.6226407383
 21
66.7653180349
 31
0.0
  0
LINE
  5
354
330
1B
100
AcDbEntity
 67
     1
  8
1
  6
Continuous
 62
     3
100
AcDbLine
 10
-595.6226407383
 20
66.7653180349
 30
0.0
 11
-595.6318113283
 21
66.9321575649
 31
0.0
  0
LINE
  5
355
330
1B
100
AcDbEntity
 67
     1
  8
1
  6
Continuous
 62
     3
100
AcDbLine
 10
-595.6318113283
 20
66.9321575649
 30
0.0
 11
-595.6470923083
 21
67.0937604349
 31
0.0
  0
LINE
  5
356
330
1B
100
AcDbEntity
 67
     1
  8
1
  6
Continuous
 62
     3
100
AcDbLine
 10
-595.6470923083
 20
67.0937604349
 30
0.0
 11
-595.6680146383
 21
67.2538189049
 31
0.0
  0
LINE
  5
357
330
1B
100
AcDbEntity
 67
     1
  8
1
  6
Continuous
 62
     3
100
AcDbLine
 10
-595.6680146383
 20
67.2538189049
 30
0.0
 11
-595.6935387083
 21
67.4155862249
 31
0.0
  0
LINE
  5
358
330
1B
100
AcDbEntity
 67
     1
  8
1
  6
Continuous
 62
     3
100
AcDbLine
 10
-595.6935387083
 20
67.4155862249
 30
0.0
 11
-595.7236873983
 21
67.5766414049
 31
0.0
  0
LINE
  5
359
330
1B
100
AcDbEntity
 67
     1
  8
1
  6
Continuous
 62
     3
100
AcDbLine
 10
-595.7236873983
 20
67.5766414049
 30
0.0
 11
-595.7585150483
 21
67.7345577349
 31
0.0
  0
LINE
  5
35A
330
1B
100
AcDbEntity
 67
     1
  8
1
  6
Continuous
 62
     3
100
AcDbLine
 10
-595.7585150483
 20
67.7345577349
 30
0.0
 11
-595.7980459683
 21
67.8869070749
 31
0.0
  0
LINE
  5
35B
330
1B
100
AcDbEntity
 67
     1
  8
1
  6
Continuous
 62
     3
100
AcDbLine
 10
-595.7980459683
 20
67.8869070749
 30
0.0
 11
-595.8423187683
 21
68.0312712949
 31
0.0
  0
LINE
  5
35C
330
1B
100
AcDbEntity
 67
     1
  8
1
  6
Continuous
 62
     3
100
AcDbLine
 10
-595.8423187683
 20
68.0312712949
 30
0.0
 11
-595.8913749183
 21
68.1652336949
 31
0.0
  0
LINE
  5
35D
330
1B
100
AcDbEntity
 67
     1
  8
1
  6
Continuous
 62
     3
100
AcDbLine
 10
-595.8913749183
 20
68.1652336949
 30
0.0
 11
-595.9452415883
 21
68.2863475449
 31
0.0
  0
LINE
  5
35E
330
1B
100
AcDbEntity
 67
     1
  8
1
  6
Continuous
 62
     3
100
AcDbLine
 10
-595.9452415883
 20
68.2863475449
 30
0.0
 11
-596.0038987583
 21
68.3964160749
 31
0.0
  0
LINE
  5
35F
330
1B
100
AcDbEntity
 67
     1
  8
1
  6
Continuous
 62
     3
100
AcDbLine
 10
-596.0038987583
 20
68.3964160749
 30
0.0
 11
-596.0673006683
 21
68.4984980549
 31
0.0
  0
LINE
  5
360
330
1B
100
AcDbEntity
 67
     1
  8
1
  6
Continuous
 62
     3
100
AcDbLine
 10
-596.0673006683
 20
68.4984980549
 30
0.0
 11
-596.1354501783
 21
68.5921044249
 31
0.0
  0
LINE
  5
361
330
1B
100
AcDbEntity
 67
     1
  8
1
  6
Continuous
 62
     3
100
AcDbLine
 10
-596.1354501783
 20
68.5921044249
 30
0.0
 11
-596.2083601583
 21
68.6767547049
 31
0.0
  0
LINE
  5
362
330
1B
100
AcDbEntity
 67
     1
  8
1
  6
Continuous
 62
     3
100
AcDbLine
 10
-596.2083601583
 20
68.6767547049
 30
0.0
 11
-596.2860320383
 21
68.7519641249
 31
0.0
  0
LINE
  5
363
330
1B
100
AcDbEntity
 67
     1
  8
1
  6
Continuous
 62
     3
100
AcDbLine
 10
-596.2860320383
 20
68.7519641249
 30
0.0
 11
-596.3684758283
 21
68.8172507749
 31
0.0
  0
LINE
  5
364
330
1B
100
AcDbEntity
 67
     1
  8
1
  6
Continuous
 62
     3
100
AcDbLine
 10
-596.3684758283
 20
68.8172507749
 30
0.0
 11
-596.4556972483
 21
68.8721270249
 31
0.0
  0
LINE
  5
365
330
1B
100
AcDbEntity
 67
     1
  8
1
  6
Continuous
 62
     3
100
AcDbLine
 10
-596.4556972483
 20
68.8721270249
 30
0.0
 11
-596.5477091683
 21
68.9161081049
 31
0.0
  0
LINE
  5
366
330
1B
100
AcDbEntity
 67
     1
  8
1
  6
Continuous
 62
     3
100
AcDbLine
 10
-596.4656228783
 20
63.9931600749
 30
0.0
 11
-596.5268368883
 21
64.0457068549
 31
0.0
  0
LINE
  5
367
330
1B
100
AcDbEntity
 67
     1
  8
1
  6
Continuous
 62
     3
100
AcDbLine
 10
-596.5268368883
 20
64.0457068549
 30
0.0
 11
-596.5833962483
 21
64.1035317649
 31
0.0
  0
LINE
  5
368
330
1B
100
AcDbEntity
 67
     1
  8
1
  6
Continuous
 62
     3
100
AcDbLine
 10
-596.5833962483
 20
64.1035317649
 30
0.0
 11
-596.6355612183
 21
64.1666076349
 31
0.0
  0
LINE
  5
369
330
1B
100
AcDbEntity
 67
     1
  8
1
  6
Continuous
 62
     3
100
AcDbLine
 10
-596.6355612183
 20
64.1666076349
 30
0.0
 11
-596.6835863383
 21
64.2348901349
 31
0.0
  0
LINE
  5
36A
330
1B
100
AcDbEntity
 67
     1
  8
1
  6
Continuous
 62
     3
100
AcDbLine
 10
-596.6835863383
 20
64.2348901349
 30
0.0
 11
-596.7277533183
 21
64.3083478049
 31
0.0
  0
LINE
  5
36B
330
1B
100
AcDbEntity
 67
     1
  8
1
  6
Continuous
 62
     3
100
AcDbLine
 10
-596.7277533183
 20
64.3083478049
 30
0.0
 11
-596.7683181283
 21
64.3869491849
 31
0.0
  0
LINE
  5
36C
330
1B
100
AcDbEntity
 67
     1
  8
1
  6
Continuous
 62
     3
100
AcDbLine
 10
-596.7683181283
 20
64.3869491849
 30
0.0
 11
-596.8055367383
 21
64.4706528049
 31
0.0
  0
LINE
  5
36D
330
1B
100
AcDbEntity
 67
     1
  8
1
  6
Continuous
 62
     3
100
AcDbLine
 10
-596.8055367383
 20
64.4706528049
 30
0.0
 11
-596.8396865683
 21
64.5594272049
 31
0.0
  0
LINE
  5
36E
330
1B
100
AcDbEntity
 67
     1
  8
1
  6
Continuous
 62
     3
100
AcDbLine
 10
-596.8396865683
 20
64.5594272049
 30
0.0
 11
-596.8690887983
 21
64.6534968949
 31
0.0
  0
LINE
  5
36F
330
1B
100
AcDbEntity
 67
     1
  8
1
  6
Continuous
 62
     3
100
AcDbLine
 10
-596.8690887983
 20
64.6534968949
 30
0.0
 11
-596.8927738883
 21
64.7529834249
 31
0.0
  0
LINE
  5
370
330
1B
100
AcDbEntity
 67
     1
  8
1
  6
Continuous
 62
     3
100
AcDbLine
 10
-596.8927738883
 20
64.7529834249
 30
0.0
 11
-596.9120703083
 21
64.8577194849
 31
0.0
  0
LINE
  5
371
330
1B
100
AcDbEntity
 67
     1
  8
1
  6
Continuous
 62
     3
100
AcDbLine
 10
-596.9120703083
 20
64.8577194849
 30
0.0
 11
-596.9282879383
 21
64.9675291849
 31
0.0
  0
LINE
  5
372
330
1B
100
AcDbEntity
 67
     1
  8
1
  6
Continuous
 62
     3
100
AcDbLine
 10
-596.9282879383
 20
64.9675291849
 30
0.0
 11
-596.9427509583
 21
65.0822294849
 31
0.0
  0
LINE
  5
373
330
1B
100
AcDbEntity
 67
     1
  8
1
  6
Continuous
 62
     3
100
AcDbLine
 10
-596.9427509583
 20
65.0822294849
 30
0.0
 11
-596.9567692483
 21
65.2016487849
 31
0.0
  0
LINE
  5
374
330
1B
100
AcDbEntity
 67
     1
  8
1
  6
Continuous
 62
     3
100
AcDbLine
 10
-596.9567692483
 20
65.2016487849
 30
0.0
 11
-596.9716698483
 21
65.3256054749
 31
0.0
  0
LINE
  5
375
330
1B
100
AcDbEntity
 67
     1
  8
1
  6
Continuous
 62
     3
100
AcDbLine
 10
-596.9716698483
 20
65.3256054749
 30
0.0
 11
-596.9887669283
 21
65.4539250949
 31
0.0
  0
LINE
  5
376
330
1B
100
AcDbEntity
 67
     1
  8
1
  6
Continuous
 62
     3
100
AcDbLine
 10
-596.9887669283
 20
65.4539250949
 30
0.0
 11
-597.0084208483
 21
65.5897479249
 31
0.0
  0
LINE
  5
377
330
1B
100
AcDbEntity
 67
     1
  8
1
  6
Continuous
 62
     3
100
AcDbLine
 10
-597.0084208483
 20
65.5897479249
 30
0.0
 11
-597.0295276483
 21
65.7346054949
 31
0.0
  0
LINE
  5
378
330
1B
100
AcDbEntity
 67
     1
  8
1
  6
Continuous
 62
     3
100
AcDbLine
 10
-597.0295276483
 20
65.7346054949
 30
0.0
 11
-597.0512193183
 21
65.8858608849
 31
0.0
  0
LINE
  5
379
330
1B
100
AcDbEntity
 67
     1
  8
1
  6
Continuous
 62
     3
100
AcDbLine
 10
-597.0512193183
 20
65.8858608849
 30
0.0
 11
-597.0726164083
 21
66.0409000549
 31
0.0
  0
LINE
  5
37A
330
1B
100
AcDbEntity
 67
     1
  8
1
  6
Continuous
 62
     3
100
AcDbLine
 10
-597.0726164083
 20
66.0409000549
 30
0.0
 11
-597.0928523383
 21
66.1971075349
 31
0.0
  0
LINE
  5
37B
330
1B
100
AcDbEntity
 67
     1
  8
1
  6
Continuous
 62
     3
100
AcDbLine
 10
-597.0928523383
 20
66.1971075349
 30
0.0
 11
-597.1110462283
 21
66.3518564149
 31
0.0
  0
LINE
  5
37C
330
1B
100
AcDbEntity
 67
     1
  8
1
  6
Continuous
 62
     3
100
AcDbLine
 10
-597.1110462283
 20
66.3518564149
 30
0.0
 11
-597.1263329283
 21
66.5025326549
 31
0.0
  0
LINE
  5
37D
330
1B
100
AcDbEntity
 67
     1
  8
1
  6
Continuous
 62
     3
100
AcDbLine
 10
-597.1263329283
 20
66.5025326549
 30
0.0
 11
-597.1378329883
 21
66.6465136349
 31
0.0
  0
LINE
  5
37E
330
1B
100
AcDbEntity
 67
     1
  8
1
  6
Continuous
 62
     3
100
AcDbLine
 10
-597.1378329883
 20
66.6465136349
 30
0.0
 11
-597.1459868483
 21
66.7871426949
 31
0.0
  0
LINE
  5
37F
330
1B
100
AcDbEntity
 67
     1
  8
1
  6
Continuous
 62
     3
100
AcDbLine
 10
-597.1459868483
 20
66.7871426949
 30
0.0
 11
-597.1518069483
 21
66.9283637749
 31
0.0
  0
LINE
  5
380
330
1B
100
AcDbEntity
 67
     1
  8
1
  6
Continuous
 62
     3
100
AcDbLine
 10
-597.1518069483
 20
66.9283637749
 30
0.0
 11
-597.1553032983
 21
67.0684108249
 31
0.0
  0
LINE
  5
381
330
1B
100
AcDbEntity
 67
     1
  8
1
  6
Continuous
 62
     3
100
AcDbLine
 10
-597.1553032983
 20
67.0684108249
 30
0.0
 11
-597.1564673183
 21
67.2055535449
 31
0.0
  0
LINE
  5
382
330
1B
100
AcDbEntity
 67
     1
  8
1
  6
Continuous
 62
     3
100
AcDbLine
 10
-597.1564673183
 20
67.2055535449
 30
0.0
 11
-597.1553032983
 21
67.3380316049
 31
0.0
  0
LINE
  5
383
330
1B
100
AcDbEntity
 67
     1
  8
1
  6
Continuous
 62
     3
100
AcDbLine
 10
-597.1553032983
 20
67.3380316049
 30
0.0
 11
-597.1518069483
 21
67.4641104149
 31
0.0
  0
LINE
  5
384
330
1B
100
AcDbEntity
 67
     1
  8
1
  6
Continuous
 62
     3
100
AcDbLine
 10
-597.1518069483
 20
67.4641104149
 30
0.0
 11
-597.1459868483
 21
67.5820296449
 31
0.0
  0
LINE
  5
385
330
1B
100
AcDbEntity
 67
     1
  8
1
  6
Continuous
 62
     3
100
AcDbLine
 10
-597.1459868483
 20
67.5820296449
 30
0.0
 11
-597.1378329883
 21
67.6900547049
 31
0.0
  0
LINE
  5
386
330
1B
100
AcDbEntity
 67
     1
  8
1
  6
Continuous
 62
     3
100
AcDbLine
 10
-597.1378329883
 20
67.6900547049
 30
0.0
 11
-597.1288897683
 21
67.7849752449
 31
0.0
  0
LINE
  5
387
330
1B
100
AcDbEntity
 67
     1
  8
1
  6
Continuous
 62
     3
100
AcDbLine
 10
-597.1288897683
 20
67.7849752449
 30
0.0
 11
-597.1198178483
 21
67.8670829849
 31
0.0
  0
LINE
  5
388
330
1B
100
AcDbEntity
 67
     1
  8
1
  6
Continuous
 62
     3
100
AcDbLine
 10
-597.1198178483
 20
67.8670829849
 30
0.0
 11
-597.1092901883
 21
67.9398728449
 31
0.0
  0
LINE
  5
389
330
1B
100
AcDbEntity
 67
     1
  8
1
  6
Continuous
 62
     3
100
AcDbLine
 10
-597.1092901883
 20
67.9398728449
 30
0.0
 11
-597.0959940483
 21
68.0068426049
 31
0.0
  0
LINE
  5
38A
330
1B
100
AcDbEntity
 67
     1
  8
1
  6
Continuous
 62
     3
100
AcDbLine
 10
-597.0959940483
 20
68.0068426049
 30
0.0
 11
-597.0786152583
 21
68.0714771749
 31
0.0
  0
LINE
  5
38B
330
1B
100
AcDbEntity
 67
     1
  8
1
  6
Continuous
 62
     3
100
AcDbLine
 10
-597.0786152583
 20
68.0714771749
 30
0.0
 11
-597.0558296383
 21
68.1372757649
 31
0.0
  0
LINE
  5
38C
330
1B
100
AcDbEntity
 67
     1
  8
1
  6
Continuous
 62
     3
100
AcDbLine
 10
-597.0558296383
 20
68.1372757649
 30
0.0
 11
-597.0263187283
 21
68.2077390149
 31
0.0
  0
LINE
  5
38D
330
1B
100
AcDbEntity
 67
     1
  8
1
  6
Continuous
 62
     3
100
AcDbLine
 10
-597.0263187283
 20
68.2077390149
 30
0.0
 11
-596.9887669283
 21
68.2863475449
 31
0.0
  0
LINE
  5
38E
330
1B
100
AcDbEntity
 67
     1
  8
1
  6
Continuous
 62
     3
100
AcDbLine
 10
-596.9887669283
 20
68.2863475449
 30
0.0
 11
-596.9432929283
 21
68.3693290149
 31
0.0
  0
LINE
  5
38F
330
1B
100
AcDbEntity
 67
     1
  8
1
  6
Continuous
 62
     3
100
AcDbLine
 10
-596.9432929283
 20
68.3693290149
 30
0.0
 11
-596.8912080383
 21
68.4517256149
 31
0.0
  0
LINE
  5
390
330
1B
100
AcDbEntity
 67
     1
  8
1
  6
Continuous
 62
     3
100
AcDbLine
 10
-596.8912080383
 20
68.4517256149
 30
0.0
 11
-596.8329655683
 21
68.5352833749
 31
0.0
  0
LINE
  5
391
330
1B
100
AcDbEntity
 67
     1
  8
1
  6
Continuous
 62
     3
100
AcDbLine
 10
-596.8329655683
 20
68.5352833749
 30
0.0
 11
-596.7690331283
 21
68.6217554749
 31
0.0
  0
LINE
  5
392
330
1B
100
AcDbEntity
 67
     1
  8
1
  6
Continuous
 62
     3
100
AcDbLine
 10
-596.7690331283
 20
68.6217554749
 30
0.0
 11
-596.6998726083
 21
68.7128850849
 31
0.0
  0
LINE
  5
393
330
1B
100
AcDbEntity
 67
     1
  8
1
  6
Continuous
 62
     3
100
AcDbLine
 10
-596.6998726083
 20
68.7128850849
 30
0.0
 11
-596.6259444683
 21
68.8104196649
 31
0.0
  0
LINE
  5
394
330
1B
100
AcDbEntity
 67
     1
  8
1
  6
Continuous
 62
     3
100
AcDbLine
 10
-596.6259444683
 20
68.8104196649
 30
0.0
 11
-596.5477091683
 21
68.9161081049
 31
0.0
  0
LINE
  5
395
330
1B
100
AcDbEntity
 67
     1
  8
1
  6
Continuous
 62
     3
100
AcDbLine
 10
-596.5477091683
 20
68.9161081049
 30
0.0
 11
-596.4656228783
 21
69.0316978649
 31
0.0
  0
LINE
  5
396
330
1B
100
AcDbEntity
 67
     1
  8
1
  6
Continuous
 62
     3
100
AcDbLine
 10
-596.4656228783
 20
69.0316978649
 30
0.0
 11
-596.3728673583
 21
69.1603849949
 31
0.0
  0
LINE
  5
397
330
1B
100
AcDbEntity
 67
     1
  8
1
  6
Continuous
 62
     3
100
AcDbLine
 10
-596.3728673583
 20
69.1603849949
 30
0.0
 11
-596.2660678083
 21
69.3018906449
 31
0.0
  0
LINE
  5
398
330
1B
100
AcDbEntity
 67
     1
  8
1
  6
Continuous
 62
     3
100
AcDbLine
 10
-596.2660678083
 20
69.3018906449
 30
0.0
 11
-596.1508884583
 21
69.4527098849
 31
0.0
  0
LINE
  5
399
330
1B
100
AcDbEntity
 67
     1
  8
1
  6
Continuous
 62
     3
100
AcDbLine
 10
-596.1508884583
 20
69.4527098849
 30
0.0
 11
-596.0329792383
 21
69.6093535149
 31
0.0
  0
LINE
  5
39A
330
1B
100
AcDbEntity
 67
     1
  8
1
  6
Continuous
 62
     3
100
AcDbLine
 10
-596.0329792383
 20
69.6093535149
 30
0.0
 11
-595.9179872183
 21
69.7683266149
 31
0.0
  0
LINE
  5
39B
330
1B
100
AcDbEntity
 67
     1
  8
1
  6
Continuous
 62
     3
100
AcDbLine
 10
-595.9179872183
 20
69.7683266149
 30
0.0
 11
-595.8115809183
 21
69.9261356949
 31
0.0
  0
LINE
  5
39C
330
1B
100
AcDbEntity
 67
     1
  8
1
  6
Continuous
 62
     3
100
AcDbLine
 10
-595.8115809183
 20
69.9261356949
 30
0.0
 11
-595.7193973983
 21
70.0792886949
 31
0.0
  0
LINE
  5
39D
330
1B
100
AcDbEntity
 67
     1
  8
1
  6
Continuous
 62
     3
100
AcDbLine
 10
-595.7193973983
 20
70.0792886949
 30
0.0
 11
-595.6470923083
 21
70.2242892649
 31
0.0
  0
LINE
  5
39E
330
1B
100
AcDbEntity
 67
     1
  8
1
  6
Continuous
 62
     3
100
AcDbLine
 10
-595.6470923083
 20
70.2242892649
 30
0.0
 11
-595.5954092483
 21
70.3659364849
 31
0.0
  0
LINE
  5
39F
330
1B
100
AcDbEntity
 67
     1
  8
1
  6
Continuous
 62
     3
100
AcDbLine
 10
-595.5954092483
 20
70.3659364849
 30
0.0
 11
-595.5592631383
 21
70.5096300349
 31
0.0
  0
LINE
  5
3A0
330
1B
100
AcDbEntity
 67
     1
  8
1
  6
Continuous
 62
     3
100
AcDbLine
 10
-595.5592631383
 20
70.5096300349
 30
0.0
 11
-595.5356123683
 21
70.6527401449
 31
0.0
  0
LINE
  5
3A1
330
1B
100
AcDbEntity
 67
     1
  8
1
  6
Continuous
 62
     3
100
AcDbLine
 10
-595.5356123683
 20
70.6527401449
 30
0.0
 11
-595.5214010283
 21
70.7926441949
 31
0.0
  0
LINE
  5
3A2
330
1B
100
AcDbEntity
 67
     1
  8
1
  6
Continuous
 62
     3
100
AcDbLine
 10
-595.5214010283
 20
70.7926441949
 30
0.0
 11
-595.5135889383
 21
70.9267295749
 31
0.0
  0
LINE
  5
3A3
330
1B
100
AcDbEntity
 67
     1
  8
1
  6
Continuous
 62
     3
100
AcDbLine
 10
-595.5135889383
 20
70.9267295749
 30
0.0
 11
-595.5091201883
 21
71.0523665149
 31
0.0
  0
LINE
  5
3A4
330
1B
100
AcDbEntity
 67
     1
  8
1
  6
Continuous
 62
     3
100
AcDbLine
 10
-595.5091201883
 20
71.0523665149
 30
0.0
 11
-595.5049503083
 21
71.1669438349
 31
0.0
  0
LINE
  5
3A5
330
1B
100
AcDbEntity
 67
     1
  8
1
  6
Continuous
 62
     3
100
AcDbLine
 10
-595.5049503083
 20
71.1669438349
 30
0.0
 11
-595.4980233883
 21
71.2678260449
 31
0.0
  0
LINE
  5
3A6
330
1B
100
AcDbEntity
 67
     1
  8
1
  6
Continuous
 62
     3
100
AcDbLine
 10
-595.4980233883
 20
71.2678260449
 30
0.0
 11
-595.4888599483
 21
71.3492001949
 31
0.0
  0
LINE
  5
3A7
330
1B
100
AcDbEntity
 67
     1
  8
1
  6
Continuous
 62
     3
100
AcDbLine
 10
-595.4888599483
 20
71.3492001949
 30
0.0
 11
-595.4805559383
 21
71.4110662849
 31
0.0
  0
LINE
  5
3A8
330
1B
100
AcDbEntity
 67
     1
  8
1
  6
Continuous
 62
     3
100
AcDbLine
 10
-595.4805559383
 20
71.4110662849
 30
0.0
 11
-595.4740065383
 21
71.4595318449
 31
0.0
  0
LINE
  5
3A9
330
1B
100
AcDbEntity
 67
     1
  8
1
  6
Continuous
 62
     3
100
AcDbLine
 10
-595.4740065383
 20
71.4595318449
 30
0.0
 11
-595.4700726083
 21
71.5007187049
 31
0.0
  0
LINE
  5
3AA
330
1B
100
AcDbEntity
 67
     1
  8
1
  6
Continuous
 62
     3
100
AcDbLine
 10
-595.4700726083
 20
71.5007187049
 30
0.0
 11
-595.4696393183
 21
71.5407415449
 31
0.0
  0
LINE
  5
3AB
330
1B
100
AcDbEntity
 67
     1
  8
1
  6
Continuous
 62
     3
100
AcDbLine
 10
-595.4696393183
 20
71.5407415449
 30
0.0
 11
-595.4735660983
 21
71.5857164749
 31
0.0
  0
LINE
  5
3AC
330
1B
100
AcDbEntity
 67
     1
  8
1
  6
Continuous
 62
     3
100
AcDbLine
 10
-595.4735660983
 20
71.5857164749
 30
0.0
 11
-595.4827424083
 21
71.6417524549
 31
0.0
  0
LINE
  5
3AD
330
1B
100
AcDbEntity
 67
     1
  8
1
  6
Continuous
 62
     3
100
AcDbLine
 10
-595.4827424083
 20
71.6417524549
 30
0.0
 11
-595.4980233883
 21
71.7149727449
 31
0.0
  0
LINE
  5
3AE
330
1B
100
AcDbEntity
 67
     1
  8
1
  6
Continuous
 62
     3
100
AcDbLine
 10
-595.4980233883
 20
71.7149727449
 30
0.0
 11
-595.5184895483
 21
71.8074436949
 31
0.0
  0
LINE
  5
3AF
330
1B
100
AcDbEntity
 67
     1
  8
1
  6
Continuous
 62
     3
100
AcDbLine
 10
-595.5184895483
 20
71.8074436949
 30
0.0
 11
-595.5428967883
 21
71.9142146449
 31
0.0
  0
LINE
  5
3B0
330
1B
100
AcDbEntity
 67
     1
  8
1
  6
Continuous
 62
     3
100
AcDbLine
 10
-595.5428967883
 20
71.9142146449
 30
0.0
 11
-595.5716798283
 21
72.0308997849
 31
0.0
  0
LINE
  5
3B1
330
1B
100
AcDbEntity
 67
     1
  8
1
  6
Continuous
 62
     3
100
AcDbLine
 10
-595.5716798283
 20
72.0308997849
 30
0.0
 11
-595.6052562283
 21
72.1531133049
 31
0.0
  0
LINE
  5
3B2
330
1B
100
AcDbEntity
 67
     1
  8
1
  6
Continuous
 62
     3
100
AcDbLine
 10
-595.6052562283
 20
72.1531133049
 30
0.0
 11
-595.6440735783
 21
72.2764651049
 31
0.0
  0
LINE
  5
3B3
330
1B
100
AcDbEntity
 67
     1
  8
1
  6
Continuous
 62
     3
100
AcDbLine
 10
-595.6440735783
 20
72.2764651049
 30
0.0
 11
-595.6885422883
 21
72.3965679449
 31
0.0
  0
LINE
  5
3B4
330
1B
100
AcDbEntity
 67
     1
  8
1
  6
Continuous
 62
     3
100
AcDbLine
 10
-595.6885422883
 20
72.3965679449
 30
0.0
 11
-595.7391013683
 21
72.5090345849
 31
0.0
  0
LINE
  5
3B5
330
1B
100
AcDbEntity
 67
     1
  8
1
  6
Continuous
 62
     3
100
AcDbLine
 10
-595.7391013683
 20
72.5090345849
 30
0.0
 11
-595.7961726683
 21
72.6094706349
 31
0.0
  0
LINE
  5
3B6
330
1B
100
AcDbEntity
 67
     1
  8
1
  6
Continuous
 62
     3
100
AcDbLine
 10
-595.7961726683
 20
72.6094706349
 30
0.0
 11
-595.8594501683
 21
72.7011036049
 31
0.0
  0
LINE
  5
3B7
330
1B
100
AcDbEntity
 67
     1
  8
1
  6
Continuous
 62
     3
100
AcDbLine
 10
-595.8594501683
 20
72.7011036049
 30
0.0
 11
-595.9283818883
 21
72.7894761749
 31
0.0
  0
LINE
  5
3B8
330
1B
100
AcDbEntity
 67
     1
  8
1
  6
Continuous
 62
     3
100
AcDbLine
 10
-595.9283818883
 20
72.7894761749
 30
0.0
 11
-596.0030607783
 21
72.8737303449
 31
0.0
  0
LINE
  5
3B9
330
1B
100
AcDbEntity
 67
     1
  8
1
  6
Continuous
 62
     3
100
AcDbLine
 10
-596.0030607783
 20
72.8737303449
 30
0.0
 11
-596.0835712083
 21
72.9529809449
 31
0.0
  0
LINE
  5
3BA
330
1B
100
AcDbEntity
 67
     1
  8
1
  6
Continuous
 62
     3
100
AcDbLine
 10
-596.0835712083
 20
72.9529809449
 30
0.0
 11
-596.1699989783
 21
73.0263428049
 31
0.0
  0
LINE
  5
3BB
330
1B
100
AcDbEntity
 67
     1
  8
1
  6
Continuous
 62
     3
100
AcDbLine
 10
-596.1699989783
 20
73.0263428049
 30
0.0
 11
-596.2624227383
 21
73.0929493449
 31
0.0
  0
LINE
  5
3BC
330
1B
100
AcDbEntity
 67
     1
  8
1
  6
Continuous
 62
     3
100
AcDbLine
 10
-596.2624227383
 20
73.0929493449
 30
0.0
 11
-596.3609382983
 21
73.1519139649
 31
0.0
  0
LINE
  5
3BD
330
1B
100
AcDbEntity
 67
     1
  8
1
  6
Continuous
 62
     3
100
AcDbLine
 10
-596.3609382983
 20
73.1519139649
 30
0.0
 11
-596.4656228783
 21
73.2023629349
 31
0.0
  0
LINE
  5
3BE
330
1B
100
AcDbEntity
 67
     1
  8
1
  6
Continuous
 62
     4
100
AcDbLine
 10
-597.9656386558
 20
414.8124432189
 30
0.0
 11
-597.8609540758
 21
414.8628921889
 31
0.0
  0
LINE
  5
3BF
330
1B
100
AcDbEntity
 67
     1
  8
1
  6
Continuous
 62
     4
100
AcDbLine
 10
-597.8609540758
 20
414.8628921889
 30
0.0
 11
-597.7624385158
 21
414.9218568089
 31
0.0
  0
LINE
  5
3C0
330
1B
100
AcDbEntity
 67
     1
  8
1
  6
Continuous
 62
     4
100
AcDbLine
 10
-597.7624385158
 20
414.9218568089
 30
0.0
 11
-597.6700147558
 21
414.9884633489
 31
0.0
  0
LINE
  5
3C1
330
1B
100
AcDbEntity
 67
     1
  8
1
  6
Continuous
 62
     4
100
AcDbLine
 10
-597.6700147558
 20
414.9884633489
 30
0.0
 11
-597.5835869858
 21
415.0618252089
 31
0.0
  0
LINE
  5
3C2
330
1B
100
AcDbEntity
 67
     1
  8
1
  6
Continuous
 62
     4
100
AcDbLine
 10
-597.5835869858
 20
415.0618252089
 30
0.0
 11
-597.5030765558
 21
415.1410758089
 31
0.0
  0
LINE
  5
3C3
330
1B
100
AcDbEntity
 67
     1
  8
1
  6
Continuous
 62
     4
100
AcDbLine
 10
-597.5030765558
 20
415.1410758089
 30
0.0
 11
-597.4283976658
 21
415.2253299789
 31
0.0
  0
LINE
  5
3C4
330
1B
100
AcDbEntity
 67
     1
  8
1
  6
Continuous
 62
     4
100
AcDbLine
 10
-597.4283976658
 20
415.2253299789
 30
0.0
 11
-597.3594659458
 21
415.3137025489
 31
0.0
  0
LINE
  5
3C5
330
1B
100
AcDbEntity
 67
     1
  8
1
  6
Continuous
 62
     4
100
AcDbLine
 10
-597.3594659458
 20
415.3137025489
 30
0.0
 11
-597.2961884458
 21
415.4053355189
 31
0.0
  0
LINE
  5
3C6
330
1B
100
AcDbEntity
 67
     1
  8
1
  6
Continuous
 62
     4
100
AcDbLine
 10
-597.2961884458
 20
415.4053355189
 30
0.0
 11
-597.2391171458
 21
415.5057715689
 31
0.0
  0
LINE
  5
3C7
330
1B
100
AcDbEntity
 67
     1
  8
1
  6
Continuous
 62
     4
100
AcDbLine
 10
-597.2391171458
 20
415.5057715689
 30
0.0
 11
-597.1885580658
 21
415.6182382089
 31
0.0
  0
LINE
  5
3C8
330
1B
100
AcDbEntity
 67
     1
  8
1
  6
Continuous
 62
     4
100
AcDbLine
 10
-597.1885580658
 20
415.6182382089
 30
0.0
 11
-597.1440893558
 21
415.7383410489
 31
0.0
  0
LINE
  5
3C9
330
1B
100
AcDbEntity
 67
     1
  8
1
  6
Continuous
 62
     4
100
AcDbLine
 10
-597.1440893558
 20
415.7383410489
 30
0.0
 11
-597.1052720058
 21
415.8616928489
 31
0.0
  0
LINE
  5
3CA
330
1B
100
AcDbEntity
 67
     1
  8
1
  6
Continuous
 62
     4
100
AcDbLine
 10
-597.1052720058
 20
415.8616928489
 30
0.0
 11
-597.0716956058
 21
415.9839063689
 31
0.0
  0
LINE
  5
3CB
330
1B
100
AcDbEntity
 67
     1
  8
1
  6
Continuous
 62
     4
100
AcDbLine
 10
-597.0716956058
 20
415.9839063689
 30
0.0
 11
-597.0429125658
 21
416.1005915089
 31
0.0
  0
LINE
  5
3CC
330
1B
100
AcDbEntity
 67
     1
  8
1
  6
Continuous
 62
     4
100
AcDbLine
 10
-597.0429125658
 20
416.1005915089
 30
0.0
 11
-597.0185053258
 21
416.2073624589
 31
0.0
  0
LINE
  5
3CD
330
1B
100
AcDbEntity
 67
     1
  8
1
  6
Continuous
 62
     4
100
AcDbLine
 10
-597.0185053258
 20
416.2073624589
 30
0.0
 11
-596.9980391658
 21
416.2998334089
 31
0.0
  0
LINE
  5
3CE
330
1B
100
AcDbEntity
 67
     1
  8
1
  6
Continuous
 62
     4
100
AcDbLine
 10
-596.9980391658
 20
416.2998334089
 30
0.0
 11
-596.9827581858
 21
416.3730536989
 31
0.0
  0
LINE
  5
3CF
330
1B
100
AcDbEntity
 67
     1
  8
1
  6
Continuous
 62
     4
100
AcDbLine
 10
-596.9827581858
 20
416.3730536989
 30
0.0
 11
-596.9735818758
 21
416.4290896789
 31
0.0
  0
LINE
  5
3D0
330
1B
100
AcDbEntity
 67
     1
  8
1
  6
Continuous
 62
     4
100
AcDbLine
 10
-596.9735818758
 20
416.4290896789
 30
0.0
 11
-596.9696550958
 21
416.4740646089
 31
0.0
  0
LINE
  5
3D1
330
1B
100
AcDbEntity
 67
     1
  8
1
  6
Continuous
 62
     4
100
AcDbLine
 10
-596.9696550958
 20
416.4740646089
 30
0.0
 11
-596.9700883858
 21
416.5140874489
 31
0.0
  0
LINE
  5
3D2
330
1B
100
AcDbEntity
 67
     1
  8
1
  6
Continuous
 62
     4
100
AcDbLine
 10
-596.9700883858
 20
416.5140874489
 30
0.0
 11
-596.9740223158
 21
416.5552743089
 31
0.0
  0
LINE
  5
3D3
330
1B
100
AcDbEntity
 67
     1
  8
1
  6
Continuous
 62
     4
100
AcDbLine
 10
-596.9740223158
 20
416.5552743089
 30
0.0
 11
-596.9805717158
 21
416.6037398689
 31
0.0
  0
LINE
  5
3D4
330
1B
100
AcDbEntity
 67
     1
  8
1
  6
Continuous
 62
     4
100
AcDbLine
 10
-596.9805717158
 20
416.6037398689
 30
0.0
 11
-596.9888757258
 21
416.6656059589
 31
0.0
  0
LINE
  5
3D5
330
1B
100
AcDbEntity
 67
     1
  8
1
  6
Continuous
 62
     4
100
AcDbLine
 10
-596.9888757258
 20
416.6656059589
 30
0.0
 11
-596.9980391658
 21
416.7469801089
 31
0.0
  0
LINE
  5
3D6
330
1B
100
AcDbEntity
 67
     1
  8
1
  6
Continuous
 62
     4
100
AcDbLine
 10
-596.9980391658
 20
416.7469801089
 30
0.0
 11
-597.0049660858
 21
416.8478623189
 31
0.0
  0
LINE
  5
3D7
330
1B
100
AcDbEntity
 67
     1
  8
1
  6
Continuous
 62
     4
100
AcDbLine
 10
-597.0049660858
 20
416.8478623189
 30
0.0
 11
-597.0091359658
 21
416.9624396389
 31
0.0
  0
LINE
  5
3D8
330
1B
100
AcDbEntity
 67
     1
  8
1
  6
Continuous
 62
     4
100
AcDbLine
 10
-597.0091359658
 20
416.9624396389
 30
0.0
 11
-597.0136047158
 21
417.0880765789
 31
0.0
  0
LINE
  5
3D9
330
1B
100
AcDbEntity
 67
     1
  8
1
  6
Continuous
 62
     4
100
AcDbLine
 10
-597.0136047158
 20
417.0880765789
 30
0.0
 11
-597.0214168058
 21
417.2221619589
 31
0.0
  0
LINE
  5
3DA
330
1B
100
AcDbEntity
 67
     1
  8
1
  6
Continuous
 62
     4
100
AcDbLine
 10
-597.0214168058
 20
417.2221619589
 30
0.0
 11
-597.0356281458
 21
417.3620660089
 31
0.0
  0
LINE
  5
3DB
330
1B
100
AcDbEntity
 67
     1
  8
1
  6
Continuous
 62
     4
100
AcDbLine
 10
-597.0356281458
 20
417.3620660089
 30
0.0
 11
-597.0592789158
 21
417.5051761189
 31
0.0
  0
LINE
  5
3DC
330
1B
100
AcDbEntity
 67
     1
  8
1
  6
Continuous
 62
     4
100
AcDbLine
 10
-597.0592789158
 20
417.5051761189
 30
0.0
 11
-597.0954250258
 21
417.6488696689
 31
0.0
  0
LINE
  5
3DD
330
1B
100
AcDbEntity
 67
     1
  8
1
  6
Continuous
 62
     4
100
AcDbLine
 10
-597.0954250258
 20
417.6488696689
 30
0.0
 11
-597.1471080858
 21
417.7905168889
 31
0.0
  0
LINE
  5
3DE
330
1B
100
AcDbEntity
 67
     1
  8
1
  6
Continuous
 62
     4
100
AcDbLine
 10
-597.1471080858
 20
417.7905168889
 30
0.0
 11
-597.2194131758
 21
417.9355174589
 31
0.0
  0
LINE
  5
3DF
330
1B
100
AcDbEntity
 67
     1
  8
1
  6
Continuous
 62
     4
100
AcDbLine
 10
-597.2194131758
 20
417.9355174589
 30
0.0
 11
-597.3115966958
 21
418.0886704589
 31
0.0
  0
LINE
  5
3E0
330
1B
100
AcDbEntity
 67
     1
  8
1
  6
Continuous
 62
     4
100
AcDbLine
 10
-597.3115966958
 20
418.0886704589
 30
0.0
 11
-597.4180029958
 21
418.2464795389
 31
0.0
  0
LINE
  5
3E1
330
1B
100
AcDbEntity
 67
     1
  8
1
  6
Continuous
 62
     4
100
AcDbLine
 10
-597.4180029958
 20
418.2464795389
 30
0.0
 11
-597.5329950158
 21
418.4054526389
 31
0.0
  0
LINE
  5
3E2
330
1B
100
AcDbEntity
 67
     1
  8
1
  6
Continuous
 62
     4
100
AcDbLine
 10
-597.5329950158
 20
418.4054526389
 30
0.0
 11
-597.6509042358
 21
418.5620962689
 31
0.0
  0
LINE
  5
3E3
330
1B
100
AcDbEntity
 67
     1
  8
1
  6
Continuous
 62
     4
100
AcDbLine
 10
-597.6509042358
 20
418.5620962689
 30
0.0
 11
-597.7660835858
 21
418.7129155089
 31
0.0
  0
LINE
  5
3E4
330
1B
100
AcDbEntity
 67
     1
  8
1
  6
Continuous
 62
     4
100
AcDbLine
 10
-597.7660835858
 20
418.7129155089
 30
0.0
 11
-597.8728831358
 21
418.8544211589
 31
0.0
  0
LINE
  5
3E5
330
1B
100
AcDbEntity
 67
     1
  8
1
  6
Continuous
 62
     4
100
AcDbLine
 10
-597.8728831358
 20
418.8544211589
 30
0.0
 11
-597.9656386558
 21
418.9831082889
 31
0.0
  0
LINE
  5
3E6
330
1B
100
AcDbEntity
 67
     1
  8
1
  6
Continuous
 62
     4
100
AcDbLine
 10
-597.9656386558
 20
418.9831082889
 30
0.0
 11
-598.0477249458
 21
419.0986980489
 31
0.0
  0
LINE
  5
3E7
330
1B
100
AcDbEntity
 67
     1
  8
1
  6
Continuous
 62
     4
100
AcDbLine
 10
-598.0477249458
 20
419.0986980489
 30
0.0
 11
-598.1259602458
 21
419.2043864889
 31
0.0
  0
LINE
  5
3E8
330
1B
100
AcDbEntity
 67
     1
  8
1
  6
Continuous
 62
     4
100
AcDbLine
 10
-598.1259602458
 20
419.2043864889
 30
0.0
 11
-598.1998883858
 21
419.3019210689
 31
0.0
  0
LINE
  5
3E9
330
1B
100
AcDbEntity
 67
     1
  8
1
  6
Continuous
 62
     4
100
AcDbLine
 10
-598.1998883858
 20
419.3019210689
 30
0.0
 11
-598.2690489058
 21
419.3930506789
 31
0.0
  0
LINE
  5
3EA
330
1B
100
AcDbEntity
 67
     1
  8
1
  6
Continuous
 62
     4
100
AcDbLine
 10
-598.2690489058
 20
419.3930506789
 30
0.0
 11
-598.3329813458
 21
419.4795227789
 31
0.0
  0
LINE
  5
3EB
330
1B
100
AcDbEntity
 67
     1
  8
1
  6
Continuous
 62
     4
100
AcDbLine
 10
-598.3329813458
 20
419.4795227789
 30
0.0
 11
-598.3912238158
 21
419.5630805389
 31
0.0
  0
LINE
  5
3EC
330
1B
100
AcDbEntity
 67
     1
  8
1
  6
Continuous
 62
     4
100
AcDbLine
 10
-598.3912238158
 20
419.5630805389
 30
0.0
 11
-598.4433087058
 21
419.6454771389
 31
0.0
  0
LINE
  5
3ED
330
1B
100
AcDbEntity
 67
     1
  8
1
  6
Continuous
 62
     4
100
AcDbLine
 10
-598.4433087058
 20
419.6454771389
 30
0.0
 11
-598.4887827058
 21
419.7284586089
 31
0.0
  0
LINE
  5
3EE
330
1B
100
AcDbEntity
 67
     1
  8
1
  6
Continuous
 62
     4
100
AcDbLine
 10
-598.4887827058
 20
419.7284586089
 30
0.0
 11
-598.5263345058
 21
419.8070671389
 31
0.0
  0
LINE
  5
3EF
330
1B
100
AcDbEntity
 67
     1
  8
1
  6
Continuous
 62
     4
100
AcDbLine
 10
-598.5263345058
 20
419.8070671389
 30
0.0
 11
-598.5558454158
 21
419.8775303889
 31
0.0
  0
LINE
  5
3F0
330
1B
100
AcDbEntity
 67
     1
  8
1
  6
Continuous
 62
     4
100
AcDbLine
 10
-598.5558454158
 20
419.8775303889
 30
0.0
 11
-598.5786310358
 21
419.9433289789
 31
0.0
  0
LINE
  5
3F1
330
1B
100
AcDbEntity
 67
     1
  8
1
  6
Continuous
 62
     4
100
AcDbLine
 10
-598.5786310358
 20
419.9433289789
 30
0.0
 11
-598.5960098258
 21
420.0079635489
 31
0.0
  0
LINE
  5
3F2
330
1B
100
AcDbEntity
 67
     1
  8
1
  6
Continuous
 62
     4
100
AcDbLine
 10
-598.5960098258
 20
420.0079635489
 30
0.0
 11
-598.6093059658
 21
420.0749333089
 31
0.0
  0
LINE
  5
3F3
330
1B
100
AcDbEntity
 67
     1
  8
1
  6
Continuous
 62
     4
100
AcDbLine
 10
-598.6093059658
 20
420.0749333089
 30
0.0
 11
-598.6198336258
 21
420.1477231689
 31
0.0
  0
LINE
  5
3F4
330
1B
100
AcDbEntity
 67
     1
  8
1
  6
Continuous
 62
     4
100
AcDbLine
 10
-598.6198336258
 20
420.1477231689
 30
0.0
 11
-598.6289055458
 21
420.2298309089
 31
0.0
  0
LINE
  5
3F5
330
1B
100
AcDbEntity
 67
     1
  8
1
  6
Continuous
 62
     4
100
AcDbLine
 10
-598.6289055458
 20
420.2298309089
 30
0.0
 11
-598.6378487658
 21
420.3247514489
 31
0.0
  0
LINE
  5
3F6
330
1B
100
AcDbEntity
 67
     1
  8
1
  6
Continuous
 62
     4
100
AcDbLine
 10
-598.6378487658
 20
420.3247514489
 30
0.0
 11
-598.6460026258
 21
420.4327765089
 31
0.0
  0
LINE
  5
3F7
330
1B
100
AcDbEntity
 67
     1
  8
1
  6
Continuous
 62
     4
100
AcDbLine
 10
-598.6460026258
 20
420.4327765089
 30
0.0
 11
-598.6518227258
 21
420.5506957389
 31
0.0
  0
LINE
  5
3F8
330
1B
100
AcDbEntity
 67
     1
  8
1
  6
Continuous
 62
     4
100
AcDbLine
 10
-598.6518227258
 20
420.5506957389
 30
0.0
 11
-598.6553190758
 21
420.6767745489
 31
0.0
  0
LINE
  5
3F9
330
1B
100
AcDbEntity
 67
     1
  8
1
  6
Continuous
 62
     4
100
AcDbLine
 10
-598.6553190758
 20
420.6767745489
 30
0.0
 11
-598.6564830958
 21
420.8092526089
 31
0.0
  0
LINE
  5
3FA
330
1B
100
AcDbEntity
 67
     1
  8
1
  6
Continuous
 62
     4
100
AcDbLine
 10
-598.6564830958
 20
420.8092526089
 30
0.0
 11
-598.6553190758
 21
420.9463953289
 31
0.0
  0
LINE
  5
3FB
330
1B
100
AcDbEntity
 67
     1
  8
1
  6
Continuous
 62
     4
100
AcDbLine
 10
-598.6553190758
 20
420.9463953289
 30
0.0
 11
-598.6518227258
 21
421.0864423789
 31
0.0
  0
LINE
  5
3FC
330
1B
100
AcDbEntity
 67
     1
  8
1
  6
Continuous
 62
     4
100
AcDbLine
 10
-598.6518227258
 20
421.0864423789
 30
0.0
 11
-598.6460026258
 21
421.2276634589
 31
0.0
  0
LINE
  5
3FD
330
1B
100
AcDbEntity
 67
     1
  8
1
  6
Continuous
 62
     4
100
AcDbLine
 10
-598.6460026258
 20
421.2276634589
 30
0.0
 11
-598.6378487658
 21
421.3682925189
 31
0.0
  0
LINE
  5
3FE
330
1B
100
AcDbEntity
 67
     1
  8
1
  6
Continuous
 62
     4
100
AcDbLine
 10
-598.6378487658
 20
421.3682925189
 30
0.0
 11
-598.6263487058
 21
421.5122734989
 31
0.0
  0
LINE
  5
3FF
330
1B
100
AcDbEntity
 67
     1
  8
1
  6
Continuous
 62
     4
100
AcDbLine
 10
-598.6263487058
 20
421.5122734989
 30
0.0
 11
-598.6110620058
 21
421.6629497389
 31
0.0
  0
LINE
  5
400
330
1B
100
AcDbEntity
 67
     1
  8
1
  6
Continuous
 62
     4
100
AcDbLine
 10
-598.6110620058
 20
421.6629497389
 30
0.0
 11
-598.5928681158
 21
421.8176986189
 31
0.0
  0
LINE
  5
401
330
1B
100
AcDbEntity
 67
     1
  8
1
  6
Continuous
 62
     4
100
AcDbLine
 10
-598.5928681158
 20
421.8176986189
 30
0.0
 11
-598.5726321858
 21
421.9739060989
 31
0.0
  0
LINE
  5
402
330
1B
100
AcDbEntity
 67
     1
  8
1
  6
Continuous
 62
     4
100
AcDbLine
 10
-598.5726321858
 20
421.9739060989
 30
0.0
 11
-598.5512350958
 21
422.1289452689
 31
0.0
  0
LINE
  5
403
330
1B
100
AcDbEntity
 67
     1
  8
1
  6
Continuous
 62
     4
100
AcDbLine
 10
-598.5512350958
 20
422.1289452689
 30
0.0
 11
-598.5295434258
 21
422.2802006589
 31
0.0
  0
LINE
  5
404
330
1B
100
AcDbEntity
 67
     1
  8
1
  6
Continuous
 62
     4
100
AcDbLine
 10
-598.5295434258
 20
422.2802006589
 30
0.0
 11
-598.5084366258
 21
422.4250582289
 31
0.0
  0
LINE
  5
405
330
1B
100
AcDbEntity
 67
     1
  8
1
  6
Continuous
 62
     4
100
AcDbLine
 10
-598.5084366258
 20
422.4250582289
 30
0.0
 11
-598.4887827058
 21
422.5608810589
 31
0.0
  0
LINE
  5
406
330
1B
100
AcDbEntity
 67
     1
  8
1
  6
Continuous
 62
     4
100
AcDbLine
 10
-598.4887827058
 20
422.5608810589
 30
0.0
 11
-598.4716856258
 21
422.6892006789
 31
0.0
  0
LINE
  5
407
330
1B
100
AcDbEntity
 67
     1
  8
1
  6
Continuous
 62
     4
100
AcDbLine
 10
-598.4716856258
 20
422.6892006789
 30
0.0
 11
-598.4567850258
 21
422.8131573689
 31
0.0
  0
LINE
  5
408
330
1B
100
AcDbEntity
 67
     1
  8
1
  6
Continuous
 62
     4
100
AcDbLine
 10
-598.4567850258
 20
422.8131573689
 30
0.0
 11
-598.4427667358
 21
422.9325766689
 31
0.0
  0
LINE
  5
409
330
1B
100
AcDbEntity
 67
     1
  8
1
  6
Continuous
 62
     4
100
AcDbLine
 10
-598.4427667358
 20
422.9325766689
 30
0.0
 11
-598.4283037158
 21
423.0472769689
 31
0.0
  0
LINE
  5
40A
330
1B
100
AcDbEntity
 67
     1
  8
1
  6
Continuous
 62
     4
100
AcDbLine
 10
-598.4283037158
 20
423.0472769689
 30
0.0
 11
-598.4120860858
 21
423.1570866689
 31
0.0
  0
LINE
  5
40B
330
1B
100
AcDbEntity
 67
     1
  8
1
  6
Continuous
 62
     4
100
AcDbLine
 10
-598.4120860858
 20
423.1570866689
 30
0.0
 11
-598.3927896658
 21
423.2618227289
 31
0.0
  0
LINE
  5
40C
330
1B
100
AcDbEntity
 67
     1
  8
1
  6
Continuous
 62
     4
100
AcDbLine
 10
-598.3927896658
 20
423.2618227289
 30
0.0
 11
-598.3691045758
 21
423.3613092589
 31
0.0
  0
LINE
  5
40D
330
1B
100
AcDbEntity
 67
     1
  8
1
  6
Continuous
 62
     4
100
AcDbLine
 10
-598.3691045758
 20
423.3613092589
 30
0.0
 11
-598.3397023458
 21
423.4553789489
 31
0.0
  0
LINE
  5
40E
330
1B
100
AcDbEntity
 67
     1
  8
1
  6
Continuous
 62
     4
100
AcDbLine
 10
-598.3397023458
 20
423.4553789489
 30
0.0
 11
-598.3055525158
 21
423.5441533489
 31
0.0
  0
LINE
  5
40F
330
1B
100
AcDbEntity
 67
     1
  8
1
  6
Continuous
 62
     4
100
AcDbLine
 10
-598.3055525158
 20
423.5441533489
 30
0.0
 11
-598.2683339058
 21
423.6278569689
 31
0.0
  0
LINE
  5
410
330
1B
100
AcDbEntity
 67
     1
  8
1
  6
Continuous
 62
     4
100
AcDbLine
 10
-598.2683339058
 20
423.6278569689
 30
0.0
 11
-598.2277690958
 21
423.7064583489
 31
0.0
  0
LINE
  5
411
330
1B
100
AcDbEntity
 67
     1
  8
1
  6
Continuous
 62
     4
100
AcDbLine
 10
-598.2277690958
 20
423.7064583489
 30
0.0
 11
-598.1836021158
 21
423.7799160189
 31
0.0
  0
LINE
  5
412
330
1B
100
AcDbEntity
 67
     1
  8
1
  6
Continuous
 62
     4
100
AcDbLine
 10
-598.1836021158
 20
423.7799160189
 30
0.0
 11
-598.1355769958
 21
423.8481985189
 31
0.0
  0
LINE
  5
413
330
1B
100
AcDbEntity
 67
     1
  8
1
  6
Continuous
 62
     4
100
AcDbLine
 10
-598.1355769958
 20
423.8481985189
 30
0.0
 11
-598.0834120258
 21
423.9112743889
 31
0.0
  0
LINE
  5
414
330
1B
100
AcDbEntity
 67
     1
  8
1
  6
Continuous
 62
     4
100
AcDbLine
 10
-598.0834120258
 20
423.9112743889
 30
0.0
 11
-598.0268526658
 21
423.9690992989
 31
0.0
  0
LINE
  5
415
330
1B
100
AcDbEntity
 67
     1
  8
1
  6
Continuous
 62
     4
100
AcDbLine
 10
-598.0268526658
 20
423.9690992989
 30
0.0
 11
-597.9656386558
 21
424.0216460789
 31
0.0
  0
LINE
  5
416
330
1B
100
AcDbEntity
 67
     1
  8
1
  6
Continuous
 62
     4
100
AcDbLine
 10
-598.0477249458
 20
419.0986980489
 30
0.0
 11
-597.9557130258
 21
419.1426791289
 31
0.0
  0
LINE
  5
417
330
1B
100
AcDbEntity
 67
     1
  8
1
  6
Continuous
 62
     4
100
AcDbLine
 10
-597.9557130258
 20
419.1426791289
 30
0.0
 11
-597.8684916058
 21
419.1975553789
 31
0.0
  0
LINE
  5
418
330
1B
100
AcDbEntity
 67
     1
  8
1
  6
Continuous
 62
     4
100
AcDbLine
 10
-597.8684916058
 20
419.1975553789
 30
0.0
 11
-597.7860478158
 21
419.2628420289
 31
0.0
  0
LINE
  5
419
330
1B
100
AcDbEntity
 67
     1
  8
1
  6
Continuous
 62
     4
100
AcDbLine
 10
-597.7860478158
 20
419.2628420289
 30
0.0
 11
-597.7083759358
 21
419.3380514489
 31
0.0
  0
LINE
  5
41A
330
1B
100
AcDbEntity
 67
     1
  8
1
  6
Continuous
 62
     4
100
AcDbLine
 10
-597.7083759358
 20
419.3380514489
 30
0.0
 11
-597.6354659558
 21
419.4227017289
 31
0.0
  0
LINE
  5
41B
330
1B
100
AcDbEntity
 67
     1
  8
1
  6
Continuous
 62
     4
100
AcDbLine
 10
-597.6354659558
 20
419.4227017289
 30
0.0
 11
-597.5673164458
 21
419.5163080989
 31
0.0
  0
LINE
  5
41C
330
1B
100
AcDbEntity
 67
     1
  8
1
  6
Continuous
 62
     4
100
AcDbLine
 10
-597.5673164458
 20
419.5163080989
 30
0.0
 11
-597.5039145358
 21
419.6183900789
 31
0.0
  0
LINE
  5
41D
330
1B
100
AcDbEntity
 67
     1
  8
1
  6
Continuous
 62
     4
100
AcDbLine
 10
-597.5039145358
 20
419.6183900789
 30
0.0
 11
-597.4452573658
 21
419.7284586089
 31
0.0
  0
LINE
  5
41E
330
1B
100
AcDbEntity
 67
     1
  8
1
  6
Continuous
 62
     4
100
AcDbLine
 10
-597.4452573658
 20
419.7284586089
 30
0.0
 11
-597.3913906958
 21
419.8495724589
 31
0.0
  0
LINE
  5
41F
330
1B
100
AcDbEntity
 67
     1
  8
1
  6
Continuous
 62
     4
100
AcDbLine
 10
-597.3913906958
 20
419.8495724589
 30
0.0
 11
-597.3423345458
 21
419.9835348589
 31
0.0
  0
LINE
  5
420
330
1B
100
AcDbEntity
 67
     1
  8
1
  6
Continuous
 62
     4
100
AcDbLine
 10
-597.3423345458
 20
419.9835348589
 30
0.0
 11
-597.2980617458
 21
420.1278990789
 31
0.0
  0
LINE
  5
421
330
1B
100
AcDbEntity
 67
     1
  8
1
  6
Continuous
 62
     4
100
AcDbLine
 10
-597.2980617458
 20
420.1278990789
 30
0.0
 11
-597.2585308258
 21
420.2802484189
 31
0.0
  0
LINE
  5
422
330
1B
100
AcDbEntity
 67
     1
  8
1
  6
Continuous
 62
     4
100
AcDbLine
 10
-597.2585308258
 20
420.2802484189
 30
0.0
 11
-597.2237031758
 21
420.4381647489
 31
0.0
  0
LINE
  5
423
330
1B
100
AcDbEntity
 67
     1
  8
1
  6
Continuous
 62
     4
100
AcDbLine
 10
-597.2237031758
 20
420.4381647489
 30
0.0
 11
-597.1935544858
 21
420.5992199289
 31
0.0
  0
LINE
  5
424
330
1B
100
AcDbEntity
 67
     1
  8
1
  6
Continuous
 62
     4
100
AcDbLine
 10
-597.1935544858
 20
420.5992199289
 30
0.0
 11
-597.1680304158
 21
420.7609872489
 31
0.0
  0
LINE
  5
425
330
1B
100
AcDbEntity
 67
     1
  8
1
  6
Continuous
 62
     4
100
AcDbLine
 10
-597.1680304158
 20
420.7609872489
 30
0.0
 11
-597.1471080858
 21
420.9210457189
 31
0.0
  0
LINE
  5
426
330
1B
100
AcDbEntity
 67
     1
  8
1
  6
Continuous
 62
     4
100
AcDbLine
 10
-597.1471080858
 20
420.9210457189
 30
0.0
 11
-597.1318271058
 21
421.0826485889
 31
0.0
  0
LINE
  5
427
330
1B
100
AcDbEntity
 67
     1
  8
1
  6
Continuous
 62
     4
100
AcDbLine
 10
-597.1318271058
 20
421.0826485889
 30
0.0
 11
-597.1226565158
 21
421.2494881189
 31
0.0
  0
LINE
  5
428
330
1B
100
AcDbEntity
 67
     1
  8
1
  6
Continuous
 62
     4
100
AcDbLine
 10
-597.1226565158
 20
421.2494881189
 30
0.0
 11
-597.1187211558
 21
421.4198311489
 31
0.0
  0
LINE
  5
429
330
1B
100
AcDbEntity
 67
     1
  8
1
  6
Continuous
 62
     4
100
AcDbLine
 10
-597.1187211558
 20
421.4198311489
 30
0.0
 11
-597.1191573058
 21
421.5919173489
 31
0.0
  0
LINE
  5
42A
330
1B
100
AcDbEntity
 67
     1
  8
1
  6
Continuous
 62
     4
100
AcDbLine
 10
-597.1191573058
 20
421.5919173489
 30
0.0
 11
-597.1230898058
 21
421.7640021189
 31
0.0
  0
LINE
  5
42B
330
1B
100
AcDbEntity
 67
     1
  8
1
  6
Continuous
 62
     4
100
AcDbLine
 10
-597.1230898058
 20
421.7640021189
 30
0.0
 11
-597.1296406358
 21
421.9343422889
 31
0.0
  0
LINE
  5
42C
330
1B
100
AcDbEntity
 67
     1
  8
1
  6
Continuous
 62
     4
100
AcDbLine
 10
-597.1296406358
 20
421.9343422889
 30
0.0
 11
-597.1379403558
 21
422.1011875389
 31
0.0
  0
LINE
  5
42D
330
1B
100
AcDbEntity
 67
     1
  8
1
  6
Continuous
 62
     4
100
AcDbLine
 10
-597.1379403558
 20
422.1011875389
 30
0.0
 11
-597.1471080858
 21
422.2627875489
 31
0.0
  0
LINE
  5
42E
330
1B
100
AcDbEntity
 67
     1
  8
1
  6
Continuous
 62
     4
100
AcDbLine
 10
-597.1471080858
 20
422.2627875489
 30
0.0
 11
-597.1550560258
 21
422.4232793089
 31
0.0
  0
LINE
  5
42F
330
1B
100
AcDbEntity
 67
     1
  8
1
  6
Continuous
 62
     4
100
AcDbLine
 10
-597.1550560258
 20
422.4232793089
 30
0.0
 11
-597.1617055258
 21
422.5861005389
 31
0.0
  0
LINE
  5
430
330
1B
100
AcDbEntity
 67
     1
  8
1
  6
Continuous
 62
     4
100
AcDbLine
 10
-597.1617055258
 20
422.5861005389
 30
0.0
 11
-597.1692301858
 21
422.7484555889
 31
0.0
  0
LINE
  5
431
330
1B
100
AcDbEntity
 67
     1
  8
1
  6
Continuous
 62
     4
100
AcDbLine
 10
-597.1692301858
 20
422.7484555889
 30
0.0
 11
-597.1798078958
 21
422.9075459489
 31
0.0
  0
LINE
  5
432
330
1B
100
AcDbEntity
 67
     1
  8
1
  6
Continuous
 62
     4
100
AcDbLine
 10
-597.1798078958
 20
422.9075459489
 30
0.0
 11
-597.1956208358
 21
423.0605831189
 31
0.0
  0
LINE
  5
433
330
1B
100
AcDbEntity
 67
     1
  8
1
  6
Continuous
 62
     4
100
AcDbLine
 10
-597.1956208358
 20
423.0605831189
 30
0.0
 11
-597.2188340258
 21
423.2047628689
 31
0.0
  0
LINE
  5
434
330
1B
100
AcDbEntity
 67
     1
  8
1
  6
Continuous
 62
     4
100
AcDbLine
 10
-597.2188340258
 20
423.2047628689
 30
0.0
 11
-597.2516353658
 21
423.3372952689
 31
0.0
  0
LINE
  5
435
330
1B
100
AcDbEntity
 67
     1
  8
1
  6
Continuous
 62
     4
100
AcDbLine
 10
-597.2516353658
 20
423.3372952689
 30
0.0
 11
-597.2961884458
 21
423.4553789489
 31
0.0
  0
LINE
  5
436
330
1B
100
AcDbEntity
 67
     1
  8
1
  6
Continuous
 62
     4
100
AcDbLine
 10
-597.2961884458
 20
423.4553789489
 30
0.0
 11
-597.3509073958
 21
423.5610645289
 31
0.0
  0
LINE
  5
437
330
1B
100
AcDbEntity
 67
     1
  8
1
  6
Continuous
 62
     4
100
AcDbLine
 10
-597.3509073958
 20
423.5610645289
 30
0.0
 11
-597.4130251658
 21
423.6578984089
 31
0.0
  0
LINE
  5
438
330
1B
100
AcDbEntity
 67
     1
  8
1
  6
Continuous
 62
     4
100
AcDbLine
 10
-597.4130251658
 20
423.6578984089
 30
0.0
 11
-597.4829893458
 21
423.7453200289
 31
0.0
  0
LINE
  5
439
330
1B
100
AcDbEntity
 67
     1
  8
1
  6
Continuous
 62
     4
100
AcDbLine
 10
-597.4829893458
 20
423.7453200289
 30
0.0
 11
-597.5612246458
 21
423.8227645389
 31
0.0
  0
LINE
  5
43A
330
1B
100
AcDbEntity
 67
     1
  8
1
  6
Continuous
 62
     4
100
AcDbLine
 10
-597.5612246458
 20
423.8227645389
 30
0.0
 11
-597.6481772258
 21
423.8896799589
 31
0.0
  0
LINE
  5
43B
330
1B
100
AcDbEntity
 67
     1
  8
1
  6
Continuous
 62
     4
100
AcDbLine
 10
-597.6481772258
 20
423.8896799589
 30
0.0
 11
-597.7442717958
 21
423.9455057289
 31
0.0
  0
LINE
  5
43C
330
1B
100
AcDbEntity
 67
     1
  8
1
  6
Continuous
 62
     4
100
AcDbLine
 10
-597.7442717958
 20
423.9455057289
 30
0.0
 11
-597.8499473658
 21
423.9896798589
 31
0.0
  0
LINE
  5
43D
330
1B
100
AcDbEntity
 67
     1
  8
1
  6
Continuous
 62
     4
100
AcDbLine
 10
-597.8499473658
 20
423.9896798589
 30
0.0
 11
-597.9656386558
 21
424.0216460789
 31
0.0
  0
LINE
  5
43E
330
1B
100
AcDbEntity
 67
     1
  8
1
 62
     4
100
AcDbLine
 10
-607.9065296258
 20
116.6506150747
 30
0.0
 11
-607.3695735394
 21
124.9154000946
 31
0.0
  0
LINE
  5
43F
330
1B
100
AcDbEntity
 67
     1
  8
1
 62
     4
100
AcDbLine
 10
-607.9065296258
 20
116.6506150747
 30
0.0
 11
-603.3091195044
 21
123.5396508155
 31
0.0
  0
LINE
  5
440
330
1B
100
AcDbEntity
 67
     1
  8
1
  6
Continuous
 62
     4
100
AcDbLine
 10
-607.9065296258
 20
116.6506150747
 30
0.0
 11
-598.6312871441
 21
144.0260215788
 31
0.0
  0
LINE
  5
441
330
1B
100
AcDbEntity
 67
     1
  8
1
  6
Continuous
 62
     4
100
AcDbLine
 10
-598.6312871441
 20
144.0260215788
 30
0.0
 11
-566.2580226038
 21
144.0260215788
 31
0.0
  0
LINE
  5
442
330
1B
100
AcDbEntity
 67
     1
  8
1
 62
     4
100
AcDbLine
 10
-608.1065296258
 20
228.6506150747
 30
0.0
 11
-607.5695735394
 21
236.9154000946
 31
0.0
  0
LINE
  5
443
330
1B
100
AcDbEntity
 67
     1
  8
1
 62
     4
100
AcDbLine
 10
-608.1065296258
 20
228.6506150747
 30
0.0
 11
-603.5091195044
 21
235.5396508155
 31
0.0
  0
LINE
  5
444
330
1B
100
AcDbEntity
 67
     1
  8
1
  6
Continuous
 62
     4
100
AcDbLine
 10
-608.1065296258
 20
228.6506150747
 30
0.0
 11
-598.8312871441
 21
256.0260215788
 31
0.0
  0
LINE
  5
445
330
1B
100
AcDbEntity
 67
     1
  8
1
  6
Continuous
 62
     4
100
AcDbLine
 10
-598.8312871441
 20
256.0260215788
 30
0.0
 11
-566.4580226038
 21
256.0260215788
 31
0.0
  0
ARC
  5
446
330
1B
100
AcDbEntity
 67
     1
  8
1
  6
Continuous
 62
     7
100
AcDbCircle
 10
-415.4065138483
 20
116.6506150747
 30
0.0
 40
7.000000000000033
100
AcDbArc
 50
277.4838761252
 51
82.5161238748
  0
ARC
  5
447
330
1B
100
AcDbEntity
 67
     1
  8
1
  6
Continuous
 62
     7
100
AcDbCircle
 10
-478.4065138483
 20
116.6506150747
 30
0.0
 40
7.000000000000011
100
AcDbArc
 50
97.4838761252
 51
262.5161238748
  0
ARC
  5
448
330
1B
100
AcDbEntity
 67
     1
  8
1
  6
Continuous
 62
     7
100
AcDbCircle
 10
-446.9065138483
 20
116.6506150747
 30
0.0
 40
21.00000000000036
100
AcDbArc
 50
204.4340619226
 51
335.5659380774
  0
ARC
  5
449
330
1B
100
AcDbEntity
 67
     1
  8
1
  6
Continuous
 62
     7
100
AcDbCircle
 10
-446.9065138483
 20
116.6506150747
 30
0.0
 40
21.00000000000031
100
AcDbArc
 50
24.4340619226
 51
155.5659380774
  0
ARC
  5
44A
330
1B
100
AcDbEntity
 67
     1
  8
1
  6
Continuous
 62
     7
100
AcDbCircle
 10
-446.9065138483
 20
228.6506150747
 30
0.0
 40
21.00000000000032
100
AcDbArc
 50
204.4340619226
 51
335.5659380774
  0
ARC
  5
44B
330
1B
100
AcDbEntity
 67
     1
  8
1
  6
Continuous
 62
     7
100
AcDbCircle
 10
-478.4065138483
 20
228.6506150747
 30
0.0
 40
7.000000000000123
100
AcDbArc
 50
97.4838761252
 51
262.5161238748
  0
ARC
  5
44C
330
1B
100
AcDbEntity
 67
     1
  8
1
  6
Continuous
 62
     7
100
AcDbCircle
 10
-446.9065138483
 20
228.6506150747
 30
0.0
 40
21.00000000000037
100
AcDbArc
 50
24.4340619226
 51
155.5659380774
  0
ARC
  5
44D
330
1B
100
AcDbEntity
 67
     1
  8
1
  6
Continuous
 62
     7
100
AcDbCircle
 10
-415.4065138483
 20
228.6506150747
 30
0.0
 40
7.000000000000146
100
AcDbArc
 50
277.4838761252
 51
82.5161238748
  0
ARC
  5
44E
330
1B
100
AcDbEntity
 67
     1
  8
1
  6
Continuous
 62
     3
100
AcDbCircle
 10
-465.1047152783
 20
70.4524193647
 30
0.0
 40
1.000999999999294
100
AcDbArc
 50
180.0
 51
270.0
  0
ARC
  5
44F
330
1B
100
AcDbEntity
 67
     1
  8
1
  6
Continuous
 62
     3
100
AcDbCircle
 10
-465.1047152783
 20
66.8488165047
 30
0.0
 40
1.000999999999976
100
AcDbArc
 50
90.0
 51
180.0
  0
ARC
  5
450
330
1B
100
AcDbEntity
 67
     1
  8
1
  6
Continuous
 62
     3
100
AcDbCircle
 10
-468.7083181383
 20
66.8488165047
 30
0.0
 40
1.001000000000602
100
AcDbArc
 50
0.0
 51
90.0
  0
ARC
  5
451
330
1B
100
AcDbEntity
 67
     1
  8
1
  6
Continuous
 62
     3
100
AcDbCircle
 10
-468.7083181383
 20
70.4524193647
 30
0.0
 40
1.000999999999863
100
AcDbArc
 50
270.0
 51
0.0
  0
ARC
  5
452
330
1B
100
AcDbEntity
 67
     1
  8
1
  6
Continuous
 62
     3
100
AcDbCircle
 10
-486.9065138483
 20
68.6506179347
 30
0.0
 40
4.604600000000062
100
AcDbArc
 50
0.0
 51
180.0
  0
ARC
  5
453
330
1B
100
AcDbEntity
 67
     1
  8
1
  6
Continuous
 62
     3
100
AcDbCircle
 10
-486.9065138483
 20
68.6506179347
 30
0.0
 40
6.506498569999209
100
AcDbArc
 50
315.047472
 51
224.952528
  0
ARC
  5
454
330
1B
100
AcDbEntity
 67
     1
  8
1
  6
Continuous
 62
     4
100
AcDbCircle
 10
-661.5803770131
 20
-19.2383320353
 30
0.0
 40
2.001999999999043
100
AcDbArc
 50
0.0
 51
80.537679
  0
ARC
  5
455
330
1B
100
AcDbEntity
 67
     1
  8
1
  6
Continuous
 62
     4
100
AcDbCircle
 10
-661.5803770131
 20
-31.8624320953
 30
0.0
 40
2.001999999999538
100
AcDbArc
 50
279.46233
 51
0.0
  0
ARC
  5
456
330
1B
100
AcDbEntity
 67
     1
  8
2
  6
CENTERX2
 62
     6
100
AcDbCircle
 10
-584.3706536125
 20
-14.1103834953
 30
0.0
 40
11.43999857000085
100
AcDbArc
 50
270.0
 51
0.0
  0
ARC
  5
457
330
1B
100
AcDbEntity
 67
     1
  8
1
  6
Continuous
 62
     3
100
AcDbCircle
 10
-614.4065258483
 20
121.1312190747
 30
0.0
 40
1.000002000000222
100
AcDbArc
 50
0.0
 51
90.0
  0
ARC
  5
458
330
1B
100
AcDbEntity
 67
     1
  8
1
  6
Continuous
 62
     3
100
AcDbCircle
 10
-615.4065218483
 20
117.6312150747
 30
0.0
 40
1.999998000000247
100
AcDbArc
 50
0.0
 51
90.0
  0
ARC
  5
459
330
1B
100
AcDbEntity
 67
     1
  8
1
  6
Continuous
 62
     3
100
AcDbCircle
 10
-614.4065258483
 20
120.6312170747
 30
0.0
 40
1.000002000000904
100
AcDbArc
 50
270.0
 51
0.0
  0
ARC
  5
45A
330
1B
100
AcDbEntity
 67
     1
  8
1
  6
Continuous
 62
     3
100
AcDbCircle
 10
-614.4065258483
 20
112.1700110747
 30
0.0
 40
1.000002000001246
100
AcDbArc
 50
270.0
 51
0.0
  0
ARC
  5
45B
330
1B
100
AcDbEntity
 67
     1
  8
1
  6
Continuous
 62
     3
100
AcDbCircle
 10
-615.4065218483
 20
115.6700150747
 30
0.0
 40
1.999998000001028
100
AcDbArc
 50
270.0
 51
0.0
  0
ARC
  5
45C
330
1B
100
AcDbEntity
 67
     1
  8
1
  6
Continuous
 62
     3
100
AcDbCircle
 10
-614.4065258483
 20
112.6700130747
 30
0.0
 40
1.000002000000222
100
AcDbArc
 50
0.0
 51
90.0
  0
ARC
  5
45D
330
1B
100
AcDbEntity
 67
     1
  8
1
  6
Continuous
 62
     7
100
AcDbCircle
 10
-478.4065138483
 20
228.6506150747
 30
0.0
 40
6.999999999999767
100
AcDbArc
 50
116.3877999612
 51
243.6122000388
  0
ARC
  5
45E
330
1B
100
AcDbEntity
 67
     1
  8
1
  6
Continuous
 62
     3
100
AcDbCircle
 10
-614.6065258483
 20
233.1312190747
 30
0.0
 40
1.000001999999796
100
AcDbArc
 50
0.0
 51
90.0
  0
ARC
  5
45F
330
1B
100
AcDbEntity
 67
     1
  8
1
  6
Continuous
 62
     3
100
AcDbCircle
 10
-615.6065218483
 20
229.6312150747
 30
0.0
 40
1.999997999999778
100
AcDbArc
 50
0.0
 51
90.0
  0
ARC
  5
460
330
1B
100
AcDbEntity
 67
     1
  8
1
  6
Continuous
 62
     3
100
AcDbCircle
 10
-614.6065258483
 20
232.6312170747
 30
0.0
 40
1.000002000001018
100
AcDbArc
 50
270.0
 51
0.0
  0
ARC
  5
461
330
1B
100
AcDbEntity
 67
     1
  8
1
  6
Continuous
 62
     3
100
AcDbCircle
 10
-614.6065258483
 20
224.1700110747
 30
0.0
 40
1.000002000000933
100
AcDbArc
 50
270.0
 51
0.0
  0
ARC
  5
462
330
1B
100
AcDbEntity
 67
     1
  8
1
  6
Continuous
 62
     3
100
AcDbCircle
 10
-615.6065218483
 20
227.6700150747
 30
0.0
 40
1.999998000000829
100
AcDbArc
 50
270.0
 51
0.0
  0
ARC
  5
463
330
1B
100
AcDbEntity
 67
     1
  8
1
  6
Continuous
 62
     3
100
AcDbCircle
 10
-614.6065258483
 20
224.6700130747
 30
0.0
 40
1.000001999999768
100
AcDbArc
 50
0.0
 51
90.0
  0
ARC
  5
464
330
1B
100
AcDbEntity
 67
     1
  8
1
  6
Continuous
 62
     3
100
AcDbCircle
 10
-603.9875152783
 20
64.0422734249
 30
0.0
 40
2.002000000000862
100
AcDbArc
 50
272.935673
 51
0.0
  0
ARC
  5
465
330
1B
100
AcDbEntity
 67
     1
  8
1
  6
Continuous
 62
     3
100
AcDbCircle
 10
-603.9875152783
 20
73.2513490149
 30
0.0
 40
2.001999999999953
100
AcDbArc
 50
0.0
 51
87.064327
  0
ARC
  5
466
330
1B
100
AcDbEntity
 67
     1
  8
1
  6
Continuous
 62
     7
100
AcDbCircle
 10
-605.4875310558
 20
423.9725327289
 30
0.0
 40
2.001999999999953
100
AcDbArc
 50
0.0
 51
87.064327
  0
ARC
  5
467
330
1B
100
AcDbEntity
 67
     1
  8
1
  6
Continuous
 62
     7
100
AcDbCircle
 10
-605.4875310558
 20
414.7634571389
 30
0.0
 40
2.002000000000066
100
AcDbArc
 50
272.935673
 51
0.0
  0
ARC
  5
468
330
1B
100
AcDbEntity
 67
     1
  8
1
  6
Continuous
 62
     3
100
AcDbCircle
 10
-613.8065416258
 20
432.3485967889
 30
0.0
 40
1.000002000000279
100
AcDbArc
 50
0.0
 51
90.0
  0
ARC
  5
469
330
1B
100
AcDbEntity
 67
     1
  8
1
  6
Continuous
 62
     3
100
AcDbCircle
 10
-614.8065376258
 20
428.8485927889
 30
0.0
 40
1.999998000000232
100
AcDbArc
 50
0.0
 51
90.0
  0
ARC
  5
46A
330
1B
100
AcDbEntity
 67
     1
  8
1
  6
Continuous
 62
     3
100
AcDbCircle
 10
-613.8065416258
 20
431.8485947889
 30
0.0
 40
1.000002000001643
100
AcDbArc
 50
270.0
 51
0.0
  0
ARC
  5
46B
330
1B
100
AcDbEntity
 67
     1
  8
1
  6
Continuous
 62
     3
100
AcDbCircle
 10
-613.8065416258
 20
423.3873887889
 30
0.0
 40
1.000002000001473
100
AcDbArc
 50
270.0
 51
0.0
  0
ARC
  5
46C
330
1B
100
AcDbEntity
 67
     1
  8
1
  6
Continuous
 62
     3
100
AcDbCircle
 10
-614.8065376258
 20
426.8873927889
 30
0.0
 40
1.99999800000063
100
AcDbArc
 50
270.0
 51
0.0
  0
ARC
  5
46D
330
1B
100
AcDbEntity
 67
     1
  8
1
  6
Continuous
 62
     3
100
AcDbCircle
 10
-613.8065416258
 20
423.8873907889
 30
0.0
 40
1.000002000000222
100
AcDbArc
 50
0.0
 51
90.0
  0
ARC
  5
46E
330
1B
100
AcDbEntity
 67
     1
  8
1
  6
Continuous
 62
     3
100
AcDbCircle
 10
-613.8065416258
 20
495.3485967889
 30
0.0
 40
1.000002000000222
100
AcDbArc
 50
0.0
 51
90.0
  0
ARC
  5
46F
330
1B
100
AcDbEntity
 67
     1
  8
1
  6
Continuous
 62
     3
100
AcDbCircle
 10
-614.8065376258
 20
491.8485927889
 30
0.0
 40
1.999998000000289
100
AcDbArc
 50
0.0
 51
90.0
  0
ARC
  5
470
330
1B
100
AcDbEntity
 67
     1
  8
1
  6
Continuous
 62
     3
100
AcDbCircle
 10
-613.8065416258
 20
494.8485947889
 30
0.0
 40
1.000002000001587
100
AcDbArc
 50
270.0
 51
0.0
  0
ARC
  5
471
330
1B
100
AcDbEntity
 67
     1
  8
1
  6
Continuous
 62
     3
100
AcDbCircle
 10
-613.8065416258
 20
486.3873887889
 30
0.0
 40
1.000002000001473
100
AcDbArc
 50
270.0
 51
0.0
  0
ARC
  5
472
330
1B
100
AcDbEntity
 67
     1
  8
1
  6
Continuous
 62
     3
100
AcDbCircle
 10
-614.8065376258
 20
489.8873927889
 30
0.0
 40
1.999998000000687
100
AcDbArc
 50
270.0
 51
0.0
  0
ARC
  5
473
330
1B
100
AcDbEntity
 67
     1
  8
1
  6
Continuous
 62
     3
100
AcDbCircle
 10
-613.8065416258
 20
486.8873907889
 30
0.0
 40
1.000002000000222
100
AcDbArc
 50
0.0
 51
90.0
  0
ARC
  5
474
330
1B
100
AcDbEntity
 67
     1
  8
1
  6
Continuous
 62
     3
100
AcDbCircle
 10
-834.9065138483
 20
391.8679927889
 30
0.0
 40
0.9150000000003106
100
AcDbArc
 50
305.837771276
 51
324.162228724
  0
ARC
  5
475
330
1B
100
AcDbEntity
 67
     1
  8
1
  6
Continuous
 62
     3
100
AcDbCircle
 10
-834.9065138483
 20
391.8679927889
 30
0.0
 40
2.20000000000018
100
AcDbArc
 50
256.4619589546
 51
283.5380410453
  0
ARC
  5
476
330
1B
100
AcDbEntity
 67
     1
  8
1
  6
Continuous
 62
     3
100
AcDbCircle
 10
-834.9065138483
 20
391.8679927889
 30
0.0
 40
0.9150000000003976
100
AcDbArc
 50
215.8377712759
 51
234.162228724
  0
ARC
  5
477
330
1B
100
AcDbEntity
 67
     1
  8
1
  6
Continuous
 62
     3
100
AcDbCircle
 10
-834.9065138483
 20
391.8679927889
 30
0.0
 40
2.200000000001451
100
AcDbArc
 50
166.4619589547
 51
193.5380410453
  0
ARC
  5
478
330
1B
100
AcDbEntity
 67
     1
  8
1
  6
Continuous
 62
     3
100
AcDbCircle
 10
-834.9065138483
 20
391.8679927889
 30
0.0
 40
0.9150000000007944
100
AcDbArc
 50
125.837771276
 51
144.162228724
  0
ARC
  5
479
330
1B
100
AcDbEntity
 67
     1
  8
1
  6
Continuous
 62
     3
100
AcDbCircle
 10
-834.9065138483
 20
391.8679927889
 30
0.0
 40
2.200000000000069
100
AcDbArc
 50
76.4619589547
 51
103.5380410454
  0
ARC
  5
47A
330
1B
100
AcDbEntity
 67
     1
  8
1
  6
Continuous
 62
     3
100
AcDbCircle
 10
-834.9065138483
 20
391.8679927889
 30
0.0
 40
0.9149999999988846
100
AcDbArc
 50
35.837771276
 51
54.162228724
  0
ARC
  5
47B
330
1B
100
AcDbEntity
 67
     1
  8
1
  6
Continuous
 62
     3
100
AcDbCircle
 10
-834.9065138483
 20
391.8679927889
 30
0.0
 40
2.19999999999924
100
AcDbArc
 50
346.4619589547
 51
13.5380410454
  0
ARC
  5
47C
330
1B
100
AcDbEntity
 67
     1
  8
1
  6
Continuous
 62
     3
100
AcDbCircle
 10
-834.9065138483
 20
526.8679927889
 30
0.0
 40
0.91500000000029
100
AcDbArc
 50
305.837771276
 51
324.162228724
  0
ARC
  5
47D
330
1B
100
AcDbEntity
 67
     1
  8
1
  6
Continuous
 62
     3
100
AcDbCircle
 10
-834.9065138483
 20
526.8679927889
 30
0.0
 40
2.200000000000125
100
AcDbArc
 50
256.4619589546
 51
283.5380410453
  0
ARC
  5
47E
330
1B
100
AcDbEntity
 67
     1
  8
1
  6
Continuous
 62
     3
100
AcDbCircle
 10
-834.9065138483
 20
526.8679927889
 30
0.0
 40
0.9150000000003976
100
AcDbArc
 50
215.8377712759
 51
234.162228724
  0
ARC
  5
47F
330
1B
100
AcDbEntity
 67
     1
  8
1
  6
Continuous
 62
     3
100
AcDbCircle
 10
-834.9065138483
 20
526.8679927889
 30
0.0
 40
2.200000000001451
100
AcDbArc
 50
166.4619589547
 51
193.5380410453
  0
ARC
  5
480
330
1B
100
AcDbEntity
 67
     1
  8
1
  6
Continuous
 62
     3
100
AcDbCircle
 10
-834.9065138483
 20
526.8679927889
 30
0.0
 40
0.9150000000008277
100
AcDbArc
 50
125.837771276
 51
144.162228724
  0
ARC
  5
481
330
1B
100
AcDbEntity
 67
     1
  8
1
  6
Continuous
 62
     3
100
AcDbCircle
 10
-834.9065138483
 20
526.8679927889
 30
0.0
 40
2.200000000000125
100
AcDbArc
 50
76.4619589547
 51
103.5380410454
  0
ARC
  5
482
330
1B
100
AcDbEntity
 67
     1
  8
1
  6
Continuous
 62
     3
100
AcDbCircle
 10
-834.9065138483
 20
526.8679927889
 30
0.0
 40
0.9149999999989281
100
AcDbArc
 50
35.837771276
 51
54.162228724
  0
ARC
  5
483
330
1B
100
AcDbEntity
 67
     1
  8
1
  6
Continuous
 62
     3
100
AcDbCircle
 10
-834.9065138483
 20
526.8679927889
 30
0.0
 40
2.19999999999924
100
AcDbArc
 50
346.4619589547
 51
13.5380410454
  0
ARC
  5
484
330
1B
100
AcDbEntity
 67
     1
  8
1
  6
Continuous
 62
     3
100
AcDbCircle
 10
-674.9065138483
 20
391.8679927889
 30
0.0
 40
0.915000000000244
100
AcDbArc
 50
305.837771276
 51
324.162228724
  0
ARC
  5
485
330
1B
100
AcDbEntity
 67
     1
  8
1
  6
Continuous
 62
     3
100
AcDbCircle
 10
-674.9065138483
 20
391.8679927889
 30
0.0
 40
2.200000000000206
100
AcDbArc
 50
256.4619589546
 51
283.5380410453
  0
ARC
  5
486
330
1B
100
AcDbEntity
 67
     1
  8
1
  6
Continuous
 62
     3
100
AcDbCircle
 10
-674.9065138483
 20
391.8679927889
 30
0.0
 40
0.9150000000005307
100
AcDbArc
 50
215.8377712759
 51
234.162228724
  0
ARC
  5
487
330
1B
100
AcDbEntity
 67
     1
  8
1
  6
Continuous
 62
     3
100
AcDbCircle
 10
-674.9065138483
 20
391.8679927889
 30
0.0
 40
2.200000000001561
100
AcDbArc
 50
166.4619589547
 51
193.5380410453
  0
ARC
  5
488
330
1B
100
AcDbEntity
 67
     1
  8
1
  6
Continuous
 62
     3
100
AcDbCircle
 10
-674.9065138483
 20
391.8679927889
 30
0.0
 40
0.9150000000008532
100
AcDbArc
 50
125.837771276
 51
144.162228724
  0
ARC
  5
489
330
1B
100
AcDbEntity
 67
     1
  8
1
  6
Continuous
 62
     3
100
AcDbCircle
 10
-674.9065138483
 20
391.8679927889
 30
0.0
 40
2.200000000000096
100
AcDbArc
 50
76.4619589547
 51
103.5380410454
  0
ARC
  5
48A
330
1B
100
AcDbEntity
 67
     1
  8
1
  6
Continuous
 62
     3
100
AcDbCircle
 10
-674.9065138483
 20
391.8679927889
 30
0.0
 40
0.9149999999987029
100
AcDbArc
 50
35.837771276
 51
54.162228724
  0
ARC
  5
48B
330
1B
100
AcDbEntity
 67
     1
  8
1
  6
Continuous
 62
     3
100
AcDbCircle
 10
-674.9065138483
 20
391.8679927889
 30
0.0
 40
2.19999999999924
100
AcDbArc
 50
346.4619589547
 51
13.5380410454
  0
ARC
  5
48C
330
1B
100
AcDbEntity
 67
     1
  8
1
  6
Continuous
 62
     3
100
AcDbCircle
 10
-674.9065138483
 20
526.8679927889
 30
0.0
 40
0.9150000000001979
100
AcDbArc
 50
305.837771276
 51
324.162228724
  0
ARC
  5
48D
330
1B
100
AcDbEntity
 67
     1
  8
1
  6
Continuous
 62
     3
100
AcDbCircle
 10
-674.9065138483
 20
526.8679927889
 30
0.0
 40
2.200000000000151
100
AcDbArc
 50
256.4619589546
 51
283.5380410453
  0
ARC
  5
48E
330
1B
100
AcDbEntity
 67
     1
  8
1
  6
Continuous
 62
     3
100
AcDbCircle
 10
-674.9065138483
 20
526.8679927889
 30
0.0
 40
0.9150000000005307
100
AcDbArc
 50
215.8377712759
 51
234.162228724
  0
ARC
  5
48F
330
1B
100
AcDbEntity
 67
     1
  8
1
  6
Continuous
 62
     3
100
AcDbCircle
 10
-674.9065138483
 20
526.8679927889
 30
0.0
 40
2.200000000001561
100
AcDbArc
 50
166.4619589547
 51
193.5380410453
  0
ARC
  5
490
330
1B
100
AcDbEntity
 67
     1
  8
1
  6
Continuous
 62
     3
100
AcDbCircle
 10
-674.9065138483
 20
526.8679927889
 30
0.0
 40
0.9150000000008993
100
AcDbArc
 50
125.837771276
 51
144.162228724
  0
ARC
  5
491
330
1B
100
AcDbEntity
 67
     1
  8
1
  6
Continuous
 62
     3
100
AcDbCircle
 10
-674.9065138483
 20
526.8679927889
 30
0.0
 40
2.200000000000151
100
AcDbArc
 50
76.4619589547
 51
103.5380410454
  0
ARC
  5
492
330
1B
100
AcDbEntity
 67
     1
  8
1
  6
Continuous
 62
     3
100
AcDbCircle
 10
-674.9065138483
 20
526.8679927889
 30
0.0
 40
0.914999999998795
100
AcDbArc
 50
35.8377712761
 51
54.162228724
  0
ARC
  5
493
330
1B
100
AcDbEntity
 67
     1
  8
1
  6
Continuous
 62
     3
100
AcDbCircle
 10
-674.9065138483
 20
526.8679927889
 30
0.0
 40
2.19999999999924
100
AcDbArc
 50
346.4619589547
 51
13.5380410454
  0
CIRCLE
  5
494
330
1B
100
AcDbEntity
 67
     1
  8
1
  6
Continuous
 62
     4
100
AcDbCircle
 10
-466.9065138483
 20
84.6506150747
 30
0.0
 40
6.005998569999974
  0
CIRCLE
  5
495
330
1B
100
AcDbEntity
 67
     1
  8
1
  6
Continuous
 62
     7
100
AcDbCircle
 10
-446.9065138483
 20
228.6506150747
 30
0.0
 40
14.00000000000006
  0
CIRCLE
  5
496
330
1B
100
AcDbEntity
 67
     1
  8
1
  6
Continuous
 62
     3
100
AcDbCircle
 10
-446.9065138483
 20
228.6506150747
 30
0.0
 40
12.0
  0
CIRCLE
  5
497
330
1B
100
AcDbEntity
 67
     1
  8
1
  6
Continuous
 62
     3
100
AcDbCircle
 10
-466.9065138483
 20
68.6506150747
 30
0.0
 40
6.005998569999974
  0
CIRCLE
  5
498
330
1B
100
AcDbEntity
 67
     1
  8
1
  6
Continuous
 62
     3
100
AcDbCircle
 10
-466.9065138483
 20
68.6506150747
 30
0.0
 40
4.504498569999839
  0
CIRCLE
  5
499
330
1B
100
AcDbEntity
 67
     1
  8
1
  6
Continuous
 62
     3
100
AcDbCircle
 10
-478.4068355278
 20
228.6508002127
 30
0.0
 40
5.004998569999429
  0
CIRCLE
  5
49A
330
1B
100
AcDbEntity
 67
     1
  8
1
  6
Continuous
 62
     3
100
AcDbCircle
 10
-478.4068355278
 20
116.6508002127
 30
0.0
 40
5.004998569999316
  0
CIRCLE
  5
49B
330
1B
100
AcDbEntity
 67
     1
  8
1
  6
Continuous
 62
     3
100
AcDbCircle
 10
-415.4068355278
 20
116.6508002127
 30
0.0
 40
5.004998570000112
  0
CIRCLE
  5
49C
330
1B
100
AcDbEntity
 67
     1
  8
1
  6
Continuous
 62
     3
100
AcDbCircle
 10
-415.4068355278
 20
228.6508002127
 30
0.0
 40
5.004998570000225
  0
CIRCLE
  5
49D
330
1B
100
AcDbEntity
 67
     1
  8
1
  6
Continuous
 62
     7
100
AcDbCircle
 10
-446.9065138483
 20
228.6506150747
 30
0.0
 40
18.0
  0
CIRCLE
  5
49E
330
1B
100
AcDbEntity
 67
     1
  8
1
  6
Continuous
 62
     3
100
AcDbCircle
 10
-446.9065138483
 20
116.6506150747
 30
0.0
 40
12.0
  0
CIRCLE
  5
49F
330
1B
100
AcDbEntity
 67
     1
  8
1
  6
Continuous
 62
     7
100
AcDbCircle
 10
-446.9065138483
 20
116.6506150747
 30
0.0
 40
14.00000000000006
  0
CIRCLE
  5
4A0
330
1B
100
AcDbEntity
 67
     1
  8
1
  6
Continuous
 62
     7
100
AcDbCircle
 10
-446.9065138483
 20
116.6506150747
 30
0.0
 40
18.0
  0
CIRCLE
  5
4A1
330
1B
100
AcDbEntity
 67
     1
  8
1
  6
Continuous
 62
     3
100
AcDbCircle
 10
-834.9065138483
 20
391.8679927889
 30
0.0
 40
4.5
  0
CIRCLE
  5
4A2
330
1B
100
AcDbEntity
 67
     1
  8
1
  6
Continuous
 62
     3
100
AcDbCircle
 10
-834.9065138483
 20
391.8679927889
 30
0.0
 40
3.5
  0
CIRCLE
  5
4A3
330
1B
100
AcDbEntity
 67
     1
  8
1
  6
Continuous
 62
     3
100
AcDbCircle
 10
-834.9065138483
 20
526.8679927889
 30
0.0
 40
4.5
  0
CIRCLE
  5
4A4
330
1B
100
AcDbEntity
 67
     1
  8
1
  6
Continuous
 62
     3
100
AcDbCircle
 10
-834.9065138483
 20
526.8679927889
 30
0.0
 40
3.5
  0
CIRCLE
  5
4A5
330
1B
100
AcDbEntity
 67
     1
  8
1
  6
Continuous
 62
     3
100
AcDbCircle
 10
-674.9065138483
 20
391.8679927889
 30
0.0
 40
4.5
  0
CIRCLE
  5
4A6
330
1B
100
AcDbEntity
 67
     1
  8
1
  6
Continuous
 62
     3
100
AcDbCircle
 10
-674.9065138483
 20
391.8679927889
 30
0.0
 40
3.499999999999886
  0
CIRCLE
  5
4A7
330
1B
100
AcDbEntity
 67
     1
  8
1
  6
Continuous
 62
     3
100
AcDbCircle
 10
-674.9065138483
 20
526.8679927889
 30
0.0
 40
4.5
  0
CIRCLE
  5
4A8
330
1B
100
AcDbEntity
 67
     1
  8
1
  6
Continuous
 62
     3
100
AcDbCircle
 10
-674.9065138483
 20
526.8679927889
 30
0.0
 40
3.499999999999886
  0
ARC
  5
4A9
330
1B
100
AcDbEntity
 67
     1
  8
1
  6
CENTERX2
 62
     6
100
AcDbCircle
 10
-584.9306550425
 20
56.6506150747
 30
0.0
 40
12.0
100
AcDbArc
 50
0.0
 51
90.0
  0
ARC
  5
4AA
330
1B
100
AcDbEntity
 67
     1
  8
1
  6
Continuous
 62
     3
100
AcDbCircle
 10
-843.441119322
 20
59.1506150747
 30
0.0
 40
1.999999999999993
100
AcDbArc
 50
181.0
 51
270.0
  0
ARC
  5
4AB
330
1B
100
AcDbEntity
 67
     1
  8
1
  6
Continuous
 62
     3
100
AcDbCircle
 10
-827.3719083745
 20
59.1506150747
 30
0.0
 40
1.999999999999993
100
AcDbArc
 50
270.0
 51
359.0
  0
ARC
  5
4AC
330
1B
100
AcDbEntity
 67
     1
  8
1
  6
Continuous
 62
     7
100
AcDbCircle
 10
-683.441119322
 20
59.1506150747
 30
0.0
 40
1.999999999999993
100
AcDbArc
 50
181.0
 51
270.0
  0
ARC
  5
4AD
330
1B
100
AcDbEntity
 67
     1
  8
1
  6
Continuous
 62
     3
100
AcDbCircle
 10
-667.3719083745
 20
59.1506150747
 30
0.0
 40
1.999999999999993
100
AcDbArc
 50
270.0
 51
359.0
  0
ARC
  5
4AE
330
1B
100
AcDbEntity
 67
     1
  8
1
  6
Continuous
 62
     7
100
AcDbCircle
 10
-627.1324085702
 20
270.6506150747
 30
0.0
 40
2.0
100
AcDbArc
 50
181.0
 51
270.0
  0
ARC
  5
4AF
330
1B
100
AcDbEntity
 67
     1
  8
1
  6
Continuous
 62
     7
100
AcDbCircle
 10
-624.9065138483
 20
52.1506150747
 30
0.0
 40
5.0
100
AcDbArc
 50
0.0
 51
90.0
  0
ARC
  5
4B0
330
1B
100
AcDbEntity
 67
     1
  8
1
  6
Continuous
 62
     7
100
AcDbCircle
 10
-640.7453161073
 20
305.6506150747
 30
0.0
 40
11.0
100
AcDbArc
 50
1.0
 51
90.0
  0
ARC
  5
4B1
330
1B
100
AcDbEntity
 67
     1
  8
1
  6
Continuous
 62
     3
100
AcDbCircle
 10
-650.0672546051
 20
305.6506150747
 30
0.0
 40
11.0
100
AcDbArc
 50
90.0
 51
179.0
  0
ARC
  5
4B2
330
1B
100
AcDbEntity
 67
     1
  8
1
  6
Continuous
 62
     3
100
AcDbCircle
 10
-700.7457730914
 20
305.6506150747
 30
0.0
 40
11.00000000000071
100
AcDbArc
 50
1.0
 51
90.0
  0
ARC
  5
4B3
330
1B
100
AcDbEntity
 67
     1
  8
1
  6
Continuous
 62
     3
100
AcDbCircle
 10
-810.0672546051
 20
305.6506150747
 30
0.0
 40
11.0
100
AcDbArc
 50
90.0
 51
179.0
  0
ARC
  5
4B4
330
1B
100
AcDbEntity
 67
     1
  8
1
  6
Continuous
 62
     3
100
AcDbCircle
 10
-860.7457730914
 20
305.6506150747
 30
0.0
 40
11.00000000000082
100
AcDbArc
 50
1.0
 51
90.0
  0
ARC
  5
4B5
330
1B
100
AcDbEntity
 67
     1
  8
1
  6
Continuous
 62
     7
100
AcDbCircle
 10
-902.0672546051
 20
305.6506150747
 30
0.0
 40
11.0
100
AcDbArc
 50
90.0
 51
179.0
  0
ARC
  5
4B6
330
1B
100
AcDbEntity
 67
     1
  8
1
  6
Continuous
 62
     3
100
AcDbCircle
 10
-645.3290805791
 20
305.6506150747
 30
0.0
 40
11.0
100
AcDbArc
 50
90.0
 51
179.0
  0
ARC
  5
4B7
330
1B
100
AcDbEntity
 67
     1
  8
1
  6
Continuous
 62
     3
100
AcDbCircle
 10
-805.0672546051
 20
305.6506150747
 30
0.0
 40
11.0
100
AcDbArc
 50
90.0
 51
179.0
  0
ARC
  5
4B8
330
1B
100
AcDbEntity
 67
     1
  8
1
  6
Continuous
 62
     3
100
AcDbCircle
 10
-865.4839471175
 20
305.6506150747
 30
0.0
 40
11.0
100
AcDbArc
 50
1.0
 51
90.0
  0
ARC
  5
4B9
330
1B
100
AcDbEntity
 67
     1
  8
1
  6
Continuous
 62
     3
100
AcDbCircle
 10
-705.4839471175
 20
305.6506150747
 30
0.0
 40
10.99999999999972
100
AcDbArc
 50
1.0
 51
90.0
  0
ARC
  5
4BA
330
1B
100
AcDbEntity
 67
     1
  8
1
  6
Continuous
 62
     3
100
AcDbCircle
 10
-688.4390493377
 20
59.1506150747
 30
0.0
 40
1.999999999999993
100
AcDbArc
 50
180.9396955857
 51
270.0
  0
ARC
  5
4BB
330
1B
100
AcDbEntity
 67
     1
  8
1
  6
Continuous
 62
     3
100
AcDbCircle
 10
-662.3739783588
 20
59.1506150747
 30
0.0
 40
1.999999999999993
100
AcDbArc
 50
270.0
 51
359.0603044144
  0
ARC
  5
4BC
330
1B
100
AcDbEntity
 67
     1
  8
1
  6
Continuous
 62
     3
100
AcDbCircle
 10
-848.4390493377
 20
59.1506150747
 30
0.0
 40
1.999999999999993
100
AcDbArc
 50
180.9396955857
 51
270.0
  0
ARC
  5
4BD
330
1B
100
AcDbEntity
 67
     1
  8
1
  6
Continuous
 62
     3
100
AcDbCircle
 10
-822.3719083745
 20
59.1506150747
 30
0.0
 40
1.999999999999993
100
AcDbArc
 50
270.0
 51
359.0
  0
ARC
  5
4BE
330
1B
100
AcDbEntity
 67
     1
  8
1
  6
Continuous
 62
     7
100
AcDbCircle
 10
-919.1219083745
 20
58.8962132265
 30
0.0
 40
1.763409455406655
100
AcDbArc
 50
278.1503287983
 51
7.1503287983
  0
ARC
  5
4BF
330
1B
100
AcDbEntity
 67
     1
  8
1
  6
Continuous
 62
     7
100
AcDbCircle
 10
-918.9065138483
 20
56.1506150747
 30
0.0
 40
1.0
100
AcDbArc
 50
90.0
 51
180.0
  0
ARC
  5
4C0
330
1B
100
AcDbEntity
 67
     1
  8
1
  6
Continuous
 62
     7
100
AcDbCircle
 10
-487.9030294035
 20
254.6506150747
 30
0.0
 40
13.99999999999997
100
AcDbArc
 50
90.0
 51
175.9336812252
  0
ARC
  5
4C1
330
1B
100
AcDbEntity
 67
     1
  8
1
  6
Continuous
 62
     7
100
AcDbCircle
 10
-405.9099982931
 20
254.6506150747
 30
0.0
 40
13.99999999999997
100
AcDbArc
 50
4.0663187748
 51
90.0
  0
ARC
  5
4C2
330
1B
100
AcDbEntity
 67
     1
  8
1
  6
Continuous
 62
     7
100
AcDbCircle
 10
-487.9030294035
 20
254.6506150747
 30
0.0
 40
13.99999999999997
100
AcDbArc
 50
90.0
 51
175.9336812252
  0
ARC
  5
4C3
330
1B
100
AcDbEntity
 67
     1
  8
1
  6
Continuous
 62
     3
100
AcDbCircle
 10
-520.8719083745
 20
59.1506150747
 30
0.0
 40
2.000000000000031
100
AcDbArc
 50
277.641243338
 51
359.0
  0
ARC
  5
4C4
330
1B
100
AcDbEntity
 67
     1
  8
1
  6
Continuous
 62
     7
100
AcDbCircle
 10
-520.4065138483
 20
55.681694791
 30
0.0
 40
1.500000000000593
100
AcDbArc
 50
97.641243338
 51
180.0
  0
ARC
  5
4C5
330
1B
100
AcDbEntity
 67
     1
  8
1
  6
Continuous
 62
     3
100
AcDbCircle
 10
-503.5672546051
 20
305.6506150747
 30
0.0
 40
11.0000000000006
100
AcDbArc
 50
90.0
 51
179.0
  0
ARC
  5
4C6
330
1B
100
AcDbEntity
 67
     1
  8
1
  6
Continuous
 62
     7
100
AcDbCircle
 10
-506.5672546051
 20
305.6506150747
 30
0.0
 40
11.0
100
AcDbArc
 50
90.0
 51
179.0
  0
ARC
  5
4C7
330
1B
100
AcDbEntity
 67
     1
  8
1
  6
Continuous
 62
     7
100
AcDbCircle
 10
-483.5921771937
 20
254.6506150747
 30
0.0
 40
6.999999999999972
100
AcDbArc
 50
90.0
 51
175.9336812252
  0
ARC
  5
4C8
330
1B
100
AcDbEntity
 67
     1
  8
1
  6
Continuous
 62
     3
100
AcDbCircle
 10
-372.9411193221
 20
59.1506150747
 30
0.0
 40
2.000000000000773
100
AcDbArc
 50
181.0
 51
262.358756662
  0
ARC
  5
4C9
330
1B
100
AcDbEntity
 67
     1
  8
1
  6
Continuous
 62
     7
100
AcDbCircle
 10
-373.4065138483
 20
55.681694791
 30
0.0
 40
1.50000000000041
100
AcDbArc
 50
78.3162228958
 51
82.358756662
  0
ARC
  5
4CA
330
1B
100
AcDbEntity
 67
     1
  8
1
  6
Continuous
 62
     3
100
AcDbCircle
 10
-390.2457730914
 20
305.6506150747
 30
0.0
 40
11.0
100
AcDbArc
 50
1.0
 51
90.0
  0
ARC
  5
4CB
330
1B
100
AcDbEntity
 67
     1
  8
1
  6
Continuous
 62
     7
100
AcDbCircle
 10
-387.2457730914
 20
305.6506150747
 30
0.0
 40
11.0
100
AcDbArc
 50
1.0
 51
90.0
  0
ARC
  5
4CC
330
1B
100
AcDbEntity
 67
     1
  8
1
  6
Continuous
 62
     7
100
AcDbCircle
 10
-410.2208505029
 20
254.6506150747
 30
0.0
 40
6.999999999999972
100
AcDbArc
 50
4.0663187748
 51
90.0
  0
ARC
  5
4CD
330
1B
100
AcDbEntity
 67
     1
  8
1
  6
Continuous
 62
     7
100
AcDbCircle
 10
-373.4065138483
 20
55.681694791
 30
0.0
 40
1.50000000000041
100
AcDbArc
 50
0.0
 51
78.3162228958
  0
ARC
  5
4CE
330
1B
100
AcDbEntity
 67
     1
  8
1
  6
Continuous
 62
     7
100
AcDbCircle
 10
-617.9065138483
 20
136.6506150747
 30
0.0
 40
1.0
100
AcDbArc
 50
0.0
 51
90.0
  0
ARC
  5
4CF
330
1B
100
AcDbEntity
 67
     1
  8
1
  6
Continuous
 62
     7
100
AcDbCircle
 10
-613.9065138483
 20
137.6506150747
 30
0.0
 40
3.0
100
AcDbArc
 50
180.0
 51
270.0
  0
ARC
  5
4D0
330
1B
100
AcDbEntity
 67
     1
  8
1
  6
Continuous
 62
     7
100
AcDbCircle
 10
-617.9065138483
 20
96.6506150747
 30
0.0
 40
1.0
100
AcDbArc
 50
270.0
 51
0.0
  0
ARC
  5
4D1
330
1B
100
AcDbEntity
 67
     1
  8
1
  6
Continuous
 62
     7
100
AcDbCircle
 10
-613.9065138483
 20
95.6506150747
 30
0.0
 40
3.0
100
AcDbArc
 50
90.0
 51
180.0
  0
ARC
  5
4D2
330
1B
100
AcDbEntity
 67
     1
  8
1
  6
Continuous
 62
     7
100
AcDbCircle
 10
-618.1065138483
 20
208.6506150747
 30
0.0
 40
1.0
100
AcDbArc
 50
270.0
 51
0.0
  0
ARC
  5
4D3
330
1B
100
AcDbEntity
 67
     1
  8
1
  6
Continuous
 62
     7
100
AcDbCircle
 10
-618.1065138483
 20
208.6506150747
 30
0.0
 40
1.0
100
AcDbArc
 50
270.0
 51
0.0
  0
ARC
  5
4D4
330
1B
100
AcDbEntity
 67
     1
  8
1
  6
Continuous
 62
     7
100
AcDbCircle
 10
-614.1065138483
 20
207.6506150747
 30
0.0
 40
3.0
100
AcDbArc
 50
90.0
 51
180.0
  0
ARC
  5
4D5
330
1B
100
AcDbEntity
 67
     1
  8
1
  6
Continuous
 62
     7
100
AcDbCircle
 10
-618.1065138483
 20
248.6506150747
 30
0.0
 40
1.000000000000028
100
AcDbArc
 50
0.0
 51
90.0
  0
ARC
  5
4D6
330
1B
100
AcDbEntity
 67
     1
  8
1
  6
Continuous
 62
     7
100
AcDbCircle
 10
-614.1065138483
 20
249.6506150747
 30
0.0
 40
3.0
100
AcDbArc
 50
180.0
 51
270.0
  0
ARC
  5
4D7
330
1B
100
AcDbEntity
 67
     1
  8
1
  6
Continuous
 62
     7
100
AcDbCircle
 10
-614.2017921162
 20
438.3679927889
 30
0.0
 40
3.0
100
AcDbArc
 50
90.0
 51
165.5224878141
  0
ARC
  5
4D8
330
1B
100
AcDbEntity
 67
     1
  8
1
  6
Continuous
 62
     7
100
AcDbCircle
 10
-608.2017921162
 20
442.3679927889
 30
0.0
 40
1.0
100
AcDbArc
 50
270.0
 51
0.0
  0
ARC
  5
4D9
330
1B
100
AcDbEntity
 67
     1
  8
1
  6
Continuous
 62
     7
100
AcDbCircle
 10
-614.2017921162
 20
480.3679927889
 30
0.0
 40
3.0
100
AcDbArc
 50
194.4775121859
 51
270.0
  0
ARC
  5
4DA
330
1B
100
AcDbEntity
 67
     1
  8
1
  6
Continuous
 62
     7
100
AcDbCircle
 10
-608.2017921162
 20
476.3679927889
 30
0.0
 40
1.000000000000057
100
AcDbArc
 50
0.0
 51
90.0
  0
ARC
  5
4DB
330
1B
100
AcDbEntity
 67
     1
  8
1
  6
Continuous
 62
     3
100
AcDbCircle
 10
-630.4065138483
 20
526.3679927889
 30
0.0
 40
5.0
100
AcDbArc
 50
0.0
 51
90.0
  0
ARC
  5
4DC
330
1B
100
AcDbEntity
 67
     1
  8
1
  6
Continuous
 62
     7
100
AcDbCircle
 10
-626.9065138483
 20
527.3679927889
 30
0.0
 40
7.0
100
AcDbArc
 50
0.0
 51
90.0
  0
ARC
  5
4DD
330
1B
100
AcDbEntity
 67
     1
  8
1
  6
Continuous
 62
     7
100
AcDbCircle
 10
-912.9065138483
 20
527.3679927889
 30
0.0
 40
7.0
100
AcDbArc
 50
90.0
 51
180.0
  0
ARC
  5
4DE
330
1B
100
AcDbEntity
 67
     1
  8
1
  6
Continuous
 62
     3
100
AcDbCircle
 10
-853.1847469804
 20
526.3679927889
 30
0.0
 40
5.0
100
AcDbArc
 50
23.498565676
 51
90.0
  0
ARC
  5
4DF
330
1B
100
AcDbEntity
 67
     1
  8
1
  6
Continuous
 62
     3
100
AcDbCircle
 10
-841.6282807161
 20
524.8679927889
 30
0.0
 40
5.0
100
AcDbArc
 50
203.4985656759
 51
270.0
  0
ARC
  5
4E0
330
1B
100
AcDbEntity
 67
     1
  8
1
  6
Continuous
 62
     3
100
AcDbCircle
 10
-828.4712937277
 20
524.8679927889
 30
0.0
 40
5.0
100
AcDbArc
 50
270.0
 51
340.9743939624
  0
ARC
  5
4E1
330
1B
100
AcDbEntity
 67
     1
  8
1
  6
Continuous
 62
     3
100
AcDbCircle
 10
-816.3417339689
 20
529.3679927889
 30
0.0
 40
5.0
100
AcDbArc
 50
90.0
 51
160.9743939624
  0
ARC
  5
4E2
330
1B
100
AcDbEntity
 67
     1
  8
1
  6
Continuous
 62
     3
100
AcDbCircle
 10
-693.4712937277
 20
529.3679927889
 30
0.0
 40
5.0
100
AcDbArc
 50
19.0256060376
 51
90.0
  0
ARC
  5
4E3
330
1B
100
AcDbEntity
 67
     1
  8
1
  6
Continuous
 62
     3
100
AcDbCircle
 10
-656.6282807161
 20
526.3679927889
 30
0.0
 40
5.0
100
AcDbArc
 50
90.0
 51
156.501434324
  0
ARC
  5
4E4
330
1B
100
AcDbEntity
 67
     1
  8
1
  6
Continuous
 62
     3
100
AcDbCircle
 10
-668.1847469804
 20
524.8679927889
 30
0.0
 40
5.0
100
AcDbArc
 50
270.0
 51
336.5014343241
  0
ARC
  5
4E5
330
1B
100
AcDbEntity
 67
     1
  8
1
  6
Continuous
 62
     3
100
AcDbCircle
 10
-681.3417339689
 20
524.8679927889
 30
0.0
 40
5.000000000000549
100
AcDbArc
 50
199.0256060376
 51
270.0
  0
ARC
  5
4E6
330
1B
100
AcDbEntity
 67
     1
  8
1
  6
Continuous
 62
     3
100
AcDbCircle
 10
-634.7469914606
 20
522.0270581924
 30
0.0
 40
5.0
100
AcDbArc
 50
0.0
 51
90.0
  0
ARC
  5
4E7
330
1B
100
AcDbEntity
 67
     1
  8
1
  6
Continuous
 62
     3
100
AcDbCircle
 10
-652.1819421955
 20
522.0270581924
 30
0.0
 40
5.000000000000227
100
AcDbArc
 50
90.0
 51
162.1910269615
  0
ARC
  5
4E8
330
1B
100
AcDbEntity
 67
     1
  8
1
  6
Continuous
 62
     3
100
AcDbCircle
 10
-664.2110422822
 20
517.2773107127
 30
0.0
 40
5.00000000000264
100
AcDbArc
 50
270.0
 51
342.1910269615
  0
ARC
  5
4E9
330
1B
100
AcDbEntity
 67
     1
  8
1
  6
Continuous
 62
     3
100
AcDbCircle
 10
-685.4083022261
 20
517.2773107127
 30
0.0
 40
5.0
100
AcDbArc
 50
194.9637835816
 51
270.0
  0
ARC
  5
4EA
330
1B
100
AcDbEntity
 67
     1
  8
1
  6
Continuous
 62
     3
100
AcDbCircle
 10
-857.6298044047
 20
522.0270581924
 30
0.0
 40
5.000000000000597
100
AcDbArc
 50
17.8030736491
 51
90.0
  0
ARC
  5
4EB
330
1B
100
AcDbEntity
 67
     1
  8
1
  6
Continuous
 62
     3
100
AcDbCircle
 10
-845.6015911575
 20
517.2773107127
 30
0.0
 40
5.0
100
AcDbArc
 50
197.8030736491
 51
270.0
  0
ARC
  5
4EC
330
1B
100
AcDbEntity
 67
     1
  8
1
  6
Continuous
 62
     3
100
AcDbCircle
 10
-824.3504372648
 20
517.2773107127
 30
0.0
 40
5.0
100
AcDbArc
 50
270.0
 51
344.2493742396
  0
ARC
  5
4ED
330
1B
100
AcDbEntity
 67
     1
  8
1
  6
Continuous
 62
     3
100
AcDbCircle
 10
-811.780721239
 20
525.0052323039
 30
0.0
 40
5.000000000000807
100
AcDbArc
 50
90.0
 51
164.2493742396
  0
ARC
  5
4EE
330
1B
100
AcDbEntity
 67
     1
  8
1
  6
Continuous
 62
     3
100
AcDbCircle
 10
-697.8247686894
 20
525.0052323039
 30
0.0
 40
5.0
100
AcDbArc
 50
14.9637835816
 51
90.0
  0
ARC
  5
4EF
330
1B
100
AcDbEntity
 67
     1
  8
1
  6
Continuous
 62
     3
100
AcDbCircle
 10
-911.9065138483
 20
526.3679927889
 30
0.0
 40
5.0
100
AcDbArc
 50
90.0
 51
180.0
  0
ARC
  5
4F0
330
1B
100
AcDbEntity
 67
     1
  8
1
  6
Continuous
 62
     3
100
AcDbCircle
 10
-907.5655792519
 20
522.0270581924
 30
0.0
 40
5.0
100
AcDbArc
 50
90.0
 51
180.0
  0
ARC
  5
4F1
330
1B
100
AcDbEntity
 67
     1
  8
1
  6
Continuous
 62
     7
100
AcDbCircle
 10
-912.9065138483
 20
391.3679927889
 30
0.0
 40
7.0
100
AcDbArc
 50
180.0
 51
270.0
  0
ARC
  5
4F2
330
1B
100
AcDbEntity
 67
     1
  8
1
  6
Continuous
 62
     7
100
AcDbCircle
 10
-626.9065138483
 20
391.3679927889
 30
0.0
 40
7.0
100
AcDbArc
 50
270.0
 51
0.0
  0
ARC
  5
4F3
330
1B
100
AcDbEntity
 67
     1
  8
1
  6
Continuous
 62
     3
100
AcDbCircle
 10
-853.1847469804
 20
392.3679927889
 30
0.0
 40
5.0
100
AcDbArc
 50
270.0
 51
336.5014343241
  0
ARC
  5
4F4
330
1B
100
AcDbEntity
 67
     1
  8
1
  6
Continuous
 62
     3
100
AcDbCircle
 10
-841.6282807161
 20
393.8679927889
 30
0.0
 40
5.0
100
AcDbArc
 50
90.0
 51
156.501434324
  0
ARC
  5
4F5
330
1B
100
AcDbEntity
 67
     1
  8
1
  6
Continuous
 62
     3
100
AcDbCircle
 10
-828.4712937277
 20
393.8679927889
 30
0.0
 40
5.0
100
AcDbArc
 50
19.0256060376
 51
90.0
  0
ARC
  5
4F6
330
1B
100
AcDbEntity
 67
     1
  8
1
  6
Continuous
 62
     3
100
AcDbCircle
 10
-816.3417339689
 20
389.3679927889
 30
0.0
 40
5.0
100
AcDbArc
 50
199.0256060376
 51
270.0
  0
ARC
  5
4F7
330
1B
100
AcDbEntity
 67
     1
  8
1
  6
Continuous
 62
     3
100
AcDbCircle
 10
-693.4712937277
 20
389.3679927889
 30
0.0
 40
5.0
100
AcDbArc
 50
270.0
 51
340.9743939624
  0
ARC
  5
4F8
330
1B
100
AcDbEntity
 67
     1
  8
1
  6
Continuous
 62
     3
100
AcDbCircle
 10
-656.6282807161
 20
392.3679927889
 30
0.0
 40
5.0
100
AcDbArc
 50
203.4985656759
 51
270.0
  0
ARC
  5
4F9
330
1B
100
AcDbEntity
 67
     1
  8
1
  6
Continuous
 62
     3
100
AcDbCircle
 10
-668.1847469804
 20
393.8679927889
 30
0.0
 40
5.0
100
AcDbArc
 50
23.498565676
 51
90.0
  0
ARC
  5
4FA
330
1B
100
AcDbEntity
 67
     1
  8
1
  6
Continuous
 62
     3
100
AcDbCircle
 10
-681.3417339689
 20
393.8679927889
 30
0.0
 40
5.000000000000863
100
AcDbArc
 50
90.0
 51
160.9743939624
  0
ARC
  5
4FB
330
1B
100
AcDbEntity
 67
     1
  8
1
  6
Continuous
 62
     3
100
AcDbCircle
 10
-630.4065138483
 20
392.3679927889
 30
0.0
 40
5.0
100
AcDbArc
 50
270.0
 51
0.0
  0
ARC
  5
4FC
330
1B
100
AcDbEntity
 67
     1
  8
1
  6
Continuous
 62
     3
100
AcDbCircle
 10
-634.7469914606
 20
396.7089273853
 30
0.0
 40
5.000000000000455
100
AcDbArc
 50
270.0
 51
0.0
  0
ARC
  5
4FD
330
1B
100
AcDbEntity
 67
     1
  8
1
  6
Continuous
 62
     3
100
AcDbCircle
 10
-652.1819421955
 20
396.7089273853
 30
0.0
 40
5.000000000000244
100
AcDbArc
 50
197.8089730385
 51
270.0
  0
ARC
  5
4FE
330
1B
100
AcDbEntity
 67
     1
  8
1
  6
Continuous
 62
     3
100
AcDbCircle
 10
-664.2110422822
 20
401.458674865
 30
0.0
 40
5.000000000002482
100
AcDbArc
 50
17.8089730385
 51
90.0
  0
ARC
  5
4FF
330
1B
100
AcDbEntity
 67
     1
  8
1
  6
Continuous
 62
     3
100
AcDbCircle
 10
-685.4083022261
 20
401.458674865
 30
0.0
 40
5.0
100
AcDbArc
 50
90.0
 51
165.0362164184
  0
ARC
  5
500
330
1B
100
AcDbEntity
 67
     1
  8
1
  6
Continuous
 62
     3
100
AcDbCircle
 10
-857.6298044047
 20
396.7089273853
 30
0.0
 40
5.000000000000457
100
AcDbArc
 50
270.0
 51
342.196926351
  0
ARC
  5
501
330
1B
100
AcDbEntity
 67
     1
  8
1
  6
Continuous
 62
     3
100
AcDbCircle
 10
-845.6015911575
 20
401.458674865
 30
0.0
 40
5.0
100
AcDbArc
 50
90.0
 51
162.1969263509
  0
ARC
  5
502
330
1B
100
AcDbEntity
 67
     1
  8
1
  6
Continuous
 62
     3
100
AcDbCircle
 10
-824.3504372648
 20
401.458674865
 30
0.0
 40
5.0
100
AcDbArc
 50
15.7506257604
 51
90.0
  0
ARC
  5
503
330
1B
100
AcDbEntity
 67
     1
  8
1
  6
Continuous
 62
     3
100
AcDbCircle
 10
-811.780721239
 20
393.7307532738
 30
0.0
 40
5.000000000000684
100
AcDbArc
 50
195.7506257604
 51
270.0
  0
ARC
  5
504
330
1B
100
AcDbEntity
 67
     1
  8
1
  6
Continuous
 62
     3
100
AcDbCircle
 10
-697.8247686894
 20
393.7307532738
 30
0.0
 40
5.0
100
AcDbArc
 50
270.0
 51
345.0362164184
  0
ARC
  5
505
330
1B
100
AcDbEntity
 67
     1
  8
1
  6
Continuous
 62
     3
100
AcDbCircle
 10
-911.9065138483
 20
392.3679927889
 30
0.0
 40
5.0
100
AcDbArc
 50
180.0
 51
270.0
  0
ARC
  5
506
330
1B
100
AcDbEntity
 67
     1
  8
1
  6
Continuous
 62
     3
100
AcDbCircle
 10
-907.5655792519
 20
396.7089273853
 30
0.0
 40
5.0
100
AcDbArc
 50
180.0
 51
270.0
  0
ARC
  5
507
330
1B
100
AcDbEntity
 67
     1
  8
1
  6
Continuous
 62
     7
100
AcDbCircle
 10
-618.1065296258
 20
496.8679927889
 30
0.0
 40
1.0
100
AcDbArc
 50
0.0
 51
90.0
  0
ARC
  5
508
330
1B
100
AcDbEntity
 67
     1
  8
1
  6
Continuous
 62
     7
100
AcDbCircle
 10
-618.1065296258
 20
421.8679927889
 30
0.0
 40
1.0
100
AcDbArc
 50
270.0
 51
0.0
  0
ARC
  5
509
330
1B
100
AcDbEntity
 67
     1
  8
1
  6
Continuous
 62
     3
100
AcDbCircle
 10
-834.3415138483
 20
391.0856885002
 30
0.0
 40
0.0500000000001819
100
AcDbArc
 50
125.8377712752
 51
180.0
  0
ARC
  5
50A
330
1B
100
AcDbEntity
 67
     1
  8
1
  6
Continuous
 62
     3
100
AcDbCircle
 10
-834.1242095597
 20
391.3029927889
 30
0.0
 40
0.049999999999784
100
AcDbArc
 50
90.0
 51
144.1622287251
  0
ARC
  5
50B
330
1B
100
AcDbEntity
 67
     1
  8
1
  6
Continuous
 62
     3
100
AcDbCircle
 10
-835.6888181369
 20
391.3029927889
 30
0.0
 40
0.049999999999784
100
AcDbArc
 50
35.837771276
 51
90.0
  0
ARC
  5
50C
330
1B
100
AcDbEntity
 67
     1
  8
1
  6
Continuous
 62
     3
100
AcDbCircle
 10
-835.4715138483
 20
391.0856885002
 30
0.0
 40
0.0499999999997272
100
AcDbArc
 50
0.0
 51
54.162228725
  0
ARC
  5
50D
330
1B
100
AcDbEntity
 67
     1
  8
1
  6
Continuous
 62
     3
100
AcDbCircle
 10
-835.4715138483
 20
392.6502970775
 30
0.0
 40
0.0499999999997272
100
AcDbArc
 50
305.8377712748
 51
0.0
  0
ARC
  5
50E
330
1B
100
AcDbEntity
 67
     1
  8
1
  6
Continuous
 62
     3
100
AcDbCircle
 10
-835.6888181369
 20
392.4329927889
 30
0.0
 40
0.0500000000000682
100
AcDbArc
 50
270.0
 51
324.1622287235
  0
ARC
  5
50F
330
1B
100
AcDbEntity
 67
     1
  8
1
  6
Continuous
 62
     3
100
AcDbCircle
 10
-834.1242095597
 20
392.4329927889
 30
0.0
 40
0.0500000000011853
100
AcDbArc
 50
215.8377712752
 51
270.0
  0
ARC
  5
510
330
1B
100
AcDbEntity
 67
     1
  8
1
  6
Continuous
 62
     3
100
AcDbCircle
 10
-834.3415138483
 20
392.6502970775
 30
0.0
 40
0.0500000000014951
100
AcDbArc
 50
180.0
 51
234.162228725
  0
ARC
  5
511
330
1B
100
AcDbEntity
 67
     1
  8
1
  6
Continuous
 62
     3
100
AcDbCircle
 10
-834.3415138483
 20
526.0856885002
 30
0.0
 40
0.0500000000001819
100
AcDbArc
 50
125.8377712753
 51
180.0
  0
ARC
  5
512
330
1B
100
AcDbEntity
 67
     1
  8
1
  6
Continuous
 62
     3
100
AcDbCircle
 10
-834.1242095597
 20
526.3029927889
 30
0.0
 40
0.0499999999997272
100
AcDbArc
 50
90.0
 51
144.1622287251
  0
ARC
  5
513
330
1B
100
AcDbEntity
 67
     1
  8
1
  6
Continuous
 62
     3
100
AcDbCircle
 10
-835.6888181369
 20
526.3029927889
 30
0.0
 40
0.0499999999997272
100
AcDbArc
 50
35.837771276
 51
90.0
  0
ARC
  5
514
330
1B
100
AcDbEntity
 67
     1
  8
1
  6
Continuous
 62
     3
100
AcDbCircle
 10
-835.4715138483
 20
526.0856885002
 30
0.0
 40
0.0499999999997272
100
AcDbArc
 50
0.0
 51
54.1622287249
  0
ARC
  5
515
330
1B
100
AcDbEntity
 67
     1
  8
1
  6
Continuous
 62
     3
100
AcDbCircle
 10
-835.4715138483
 20
527.6502970775
 30
0.0
 40
0.0499999999997272
100
AcDbArc
 50
305.8377712748
 51
0.0
  0
ARC
  5
516
330
1B
100
AcDbEntity
 67
     1
  8
1
  6
Continuous
 62
     3
100
AcDbCircle
 10
-835.6888181369
 20
527.4329927889
 30
0.0
 40
0.0500000000001819
100
AcDbArc
 50
270.0
 51
324.1622287235
  0
ARC
  5
517
330
1B
100
AcDbEntity
 67
     1
  8
1
  6
Continuous
 62
     3
100
AcDbCircle
 10
-834.1242095597
 20
527.4329927889
 30
0.0
 40
0.0500000000012186
100
AcDbArc
 50
215.8377712752
 51
270.0
  0
ARC
  5
518
330
1B
100
AcDbEntity
 67
     1
  8
1
  6
Continuous
 62
     3
100
AcDbCircle
 10
-834.3415138483
 20
527.6502970775
 30
0.0
 40
0.0500000000014951
100
AcDbArc
 50
180.0
 51
234.162228725
  0
ARC
  5
519
330
1B
100
AcDbEntity
 67
     1
  8
1
  6
Continuous
 62
     3
100
AcDbCircle
 10
-674.3415138483
 20
391.0856885002
 30
0.0
 40
0.0500000000002956
100
AcDbArc
 50
125.8377712753
 51
180.0
  0
ARC
  5
51A
330
1B
100
AcDbEntity
 67
     1
  8
1
  6
Continuous
 62
     3
100
AcDbCircle
 10
-674.1242095597
 20
391.3029927889
 30
0.0
 40
0.049999999999784
100
AcDbArc
 50
90.0
 51
144.162228725
  0
ARC
  5
51B
330
1B
100
AcDbEntity
 67
     1
  8
1
  6
Continuous
 62
     3
100
AcDbCircle
 10
-675.6888181369
 20
391.3029927889
 30
0.0
 40
0.049999999999784
100
AcDbArc
 50
35.8377712762
 51
90.0
  0
ARC
  5
51C
330
1B
100
AcDbEntity
 67
     1
  8
1
  6
Continuous
 62
     3
100
AcDbCircle
 10
-675.4715138483
 20
391.0856885002
 30
0.0
 40
0.0499999999996135
100
AcDbArc
 50
0.0
 51
54.1622287252
  0
ARC
  5
51D
330
1B
100
AcDbEntity
 67
     1
  8
1
  6
Continuous
 62
     3
100
AcDbCircle
 10
-675.4715138483
 20
392.6502970775
 30
0.0
 40
0.0499999999996135
100
AcDbArc
 50
305.8377712746
 51
0.0
  0
ARC
  5
51E
330
1B
100
AcDbEntity
 67
     1
  8
1
  6
Continuous
 62
     3
100
AcDbCircle
 10
-675.6888181369
 20
392.4329927889
 30
0.0
 40
0.0500000000000682
100
AcDbArc
 50
270.0
 51
324.1622287235
  0
ARC
  5
51F
330
1B
100
AcDbEntity
 67
     1
  8
1
  6
Continuous
 62
     3
100
AcDbCircle
 10
-674.1242095597
 20
392.4329927889
 30
0.0
 40
0.0500000000010931
100
AcDbArc
 50
215.8377712753
 51
270.0
  0
ARC
  5
520
330
1B
100
AcDbEntity
 67
     1
  8
1
  6
Continuous
 62
     3
100
AcDbCircle
 10
-674.3415138483
 20
392.6502970775
 30
0.0
 40
0.0500000000016743
100
AcDbArc
 50
180.0
 51
234.1622287248
  0
ARC
  5
521
330
1B
100
AcDbEntity
 67
     1
  8
1
  6
Continuous
 62
     3
100
AcDbCircle
 10
-674.3415138483
 20
526.0856885002
 30
0.0
 40
0.0500000000002956
100
AcDbArc
 50
125.8377712754
 51
180.0
  0
ARC
  5
522
330
1B
100
AcDbEntity
 67
     1
  8
1
  6
Continuous
 62
     3
100
AcDbCircle
 10
-674.1242095597
 20
526.3029927889
 30
0.0
 40
0.0499999999997272
100
AcDbArc
 50
90.0
 51
144.162228725
  0
ARC
  5
523
330
1B
100
AcDbEntity
 67
     1
  8
1
  6
Continuous
 62
     3
100
AcDbCircle
 10
-675.6888181369
 20
526.3029927889
 30
0.0
 40
0.0499999999997272
100
AcDbArc
 50
35.8377712762
 51
90.0
  0
ARC
  5
524
330
1B
100
AcDbEntity
 67
     1
  8
1
  6
Continuous
 62
     3
100
AcDbCircle
 10
-675.4715138483
 20
526.0856885002
 30
0.0
 40
0.0499999999996135
100
AcDbArc
 50
0.0
 51
54.1622287251
  0
ARC
  5
525
330
1B
100
AcDbEntity
 67
     1
  8
1
  6
Continuous
 62
     3
100
AcDbCircle
 10
-675.4715138483
 20
527.6502970775
 30
0.0
 40
0.0499999999996135
100
AcDbArc
 50
305.8377712746
 51
0.0
  0
ARC
  5
526
330
1B
100
AcDbEntity
 67
     1
  8
1
  6
Continuous
 62
     3
100
AcDbCircle
 10
-675.6888181369
 20
527.4329927889
 30
0.0
 40
0.0500000000001819
100
AcDbArc
 50
270.0
 51
324.1622287235
  0
ARC
  5
527
330
1B
100
AcDbEntity
 67
     1
  8
1
  6
Continuous
 62
     3
100
AcDbCircle
 10
-674.1242095597
 20
527.4329927889
 30
0.0
 40
0.0500000000011264
100
AcDbArc
 50
215.8377712753
 51
270.0
  0
ARC
  5
528
330
1B
100
AcDbEntity
 67
     1
  8
1
  6
Continuous
 62
     3
100
AcDbCircle
 10
-674.3415138483
 20
527.6502970775
 30
0.0
 40
0.0500000000016282
100
AcDbArc
 50
180.0
 51
234.1622287248
  0
INSERT
  5
529
330
1B
100
AcDbEntity
 67
     1
  8
0
  6
Continuous
 62
     7
100
AcDbBlockReference
  2
_D12
 10
0.0
 20
0.0
 30
0.0
  0
DIMENSION
  5
52A
330
1B
100
AcDbEntity
 67
     1
  8
1
100
AcDbDimension
  2
_D
 10
-607.9065296258
 20
27.7132509778
 30
0.0
 11
-593.8054844878
 21
27.7132509778
 31
0.0
 70
   160
  1
<>
 71
     2
 42
-1.0
  3
SLDDIMSTYLE0
100
AcDbAlignedDimension
 13
-619.9065138483
 23
43.6506150747
 33
0.0
 14
-607.9065296258
 24
99.9618645817
 34
0.0
100
AcDbRotatedDimension
  0
DIMENSION
  5
53E
330
1B
100
AcDbEntity
 67
     1
  8
1
100
AcDbDimension
  2
_D_1
 10
-619.9065138483
 20
27.7144513226
 30
0.0
 11
-774.6763816446
 21
27.7144513226
 31
0.0
 70
   160
  1
<>
 71
     2
 42
-1.0
  3
SLDDIMSTYLE0
100
AcDbAlignedDimension
 13
-919.9065138483
 23
43.6506150747
 33
0.0
 14
-619.9065138483
 24
43.6506150747
 34
0.0
 50
0.0
100
AcDbRotatedDimension
  0
DIMENSION
  5
54A
330
1B
100
AcDbEntity
 67
     1
  8
1
100
AcDbDimension
  2
_D_2
 10
-371.9065138483
 20
19.7066229869
 30
0.0
 11
-446.9065138483
 21
19.7066229869
 31
0.0
 70
   160
  1
<>
 71
     2
 42
-1.0
  3
SLDDIMSTYLE0
100
AcDbAlignedDimension
 13
-521.9065138483
 23
43.6506150747
 33
0.0
 14
-371.9065138483
 24
43.6506150747
 34
0.0
 50
0.0
100
AcDbRotatedDimension
  0
DIMENSION
  5
556
330
1B
100
AcDbEntity
 67
     1
  8
1
100
AcDbDimension
  2
_D_3
 10
-347.5030434208
 20
38.6506150747
 30
0.0
 11
-347.5030434208
 21
177.6506150747
 31
0.0
 70
   160
  1
<>
 71
     2
 42
-1.0
  3
SLDDIMSTYLE0
100
AcDbAlignedDimension
 13
-506.5672546051
 23
316.6506150747
 33
0.0
 14
-510.9065138483
 24
38.6506150747
 34
0.0
 50
90.0
100
AcDbRotatedDimension
  0
DIMENSION
  5
562
330
1B
100
AcDbEntity
 67
     1
  8
1
100
AcDbDimension
  2
_D_4
 10
-542.1924978606
 20
38.6506150747
 30
0.0
 11
-542.1924978606
 21
77.6506150747
 31
0.0
 70
   160
  1
<>
 71
     2
 42
-1.0
  3
SLDDIMSTYLE0
100
AcDbAlignedDimension
 13
-606.4083533182
 23
116.6506150747
 33
0.0
 14
-631.4065138483
 24
38.6506150747
 34
0.0
 50
90.0
100
AcDbRotatedDimension
  0
DIMENSION
  5
56E
330
1B
100
AcDbEntity
 67
     1
  8
1
100
AcDbDimension
  2
_D_5
 10
-542.2759118848
 20
116.6506150747
 30
0.0
 11
-542.2759118848
 21
166.1506150747
 31
0.0
 70
   160
  1
<>
 71
     2
 42
-1.0
  3
SLDDIMSTYLE0
100
AcDbAlignedDimension
 13
-596.3283533182
 23
228.6506150747
 33
0.0
 14
-606.4083533182
 24
116.6506150747
 34
0.0
 50
90.0
100
AcDbRotatedDimension
  0
MTEXT
  5
57A
330
1B
100
AcDbEntity
 67
     1
  8
1
 62
     4
100
AcDbMText
 10
-595.2098939211
 20
266.9864407442
 30
0.0
 40
10.0
 41
0.0
 71
     1
 72
     1
  1
Rp3/4
  7
SLDTEXTSTYLE2
 73
     1
 44
1.0
  0
MTEXT
  5
57B
330
1B
100
AcDbEntity
 67
     1
  8
1
 62
     4
100
AcDbMText
 10
-594.6021346175
 20
155.2778098675
 30
0.0
 40
10.0
 41
0.0
 71
     1
 72
     1
  1
Rp3/4
  7
SLDTEXTSTYLE2
 73
     1
 44
1.0
  0
ENDSEC
  0
SECTION
  2
OBJECTS
  0
DICTIONARY
  5
C
330
0
100
AcDbDictionary
281
     1
  3
ACAD_GROUP
350
D
  3
ACAD_LAYOUT
350
1A
  3
ACAD_MLINESTYLE
350
17
  3
ACAD_PLOTSETTINGS
350
19
  3
ACAD_PLOTSTYLENAME
350
E
  3
ACAD_SCALELIST
350
47
  0
DICTIONARY
  5
D
102
{ACAD_REACTORS
330
C
102
}
330
C
100
AcDbDictionary
281
     1
  0
DICTIONARY
  5
1A
102
{ACAD_REACTORS
330
C
102
}
330
C
100
AcDbDictionary
281
     1
  3
Model
350
22
  3
SW_Model_1
350
1E
  0
DICTIONARY
  5
17
102
{ACAD_REACTORS
330
C
102
}
330
C
100
AcDbDictionary
281
     1
  3
Standard
350
18
  0
DICTIONARY
  5
19
102
{ACAD_REACTORS
330
C
102
}
330
C
100
AcDbDictionary
281
     1
  0
ACDBDICTIONARYWDFLT
  5
E
102
{ACAD_REACTORS
330
C
102
}
330
C
100
AcDbDictionary
281
     1
  3
Normal
350
F
100
AcDbDictionaryWithDefault
340
F
  0
DICTIONARY
  5
47
102
{ACAD_REACTORS
330
C
102
}
330
C
100
AcDbDictionary
281
     1
  3
A0
350
48
  3
A1
350
49
  3
A2
350
4A
  3
A3
350
4B
  3
A4
350
4C
  3
A5
350
4D
  3
A6
350
4E
  3
A7
350
4F
  3
A8
350
50
  3
A9
350
51
  3
B0
350
52
  3
B1
350
53
  3
B2
350
54
  3
B3
350
55
  3
B4
350
56
  3
B5
350
57
  3
B6
350
58
  3
B7
350
59
  3
B8
350
5A
  3
B9
350
5B
  3
C0
350
5C
  3
C1
350
5D
  3
C2
350
5E
  3
C3
350
5F
  3
C4
350
60
  3
C5
350
61
  3
C6
350
62
  3
C7
350
63
  3
C8
350
64
  3
C9
350
65
  3
D0
350
66
  3
D1
350
67
  3
D2
350
68
  0
LAYOUT
  5
22
102
{ACAD_REACTORS
330
1A
102
}
330
1A
100
AcDbPlotSettings
  1

  2
none_device
  4
Letter_(8.50_x_11.00_Inches)
  6

 40
6.35
 41
6.35
 42
6.35000508
 43
6.35000508
 44
215.9
 45
279.4
 46
0.0
 47
0.0
 48
0.0
 49
0.0
140
0.0
141
0.0
142
1.0
143
1.0
 70
  1712
 72
     0
 73
     0
 74
     0
  7

 75
     0
147
1.0
148
0.0
149
0.0
100
AcDbLayout
  1
Model
 70
     1
 71
     0
 10
0.0
 20
0.0
 11
44.0
 21
34.0
 12
0.0
 22
0.0
 32
0.0
 14
0.0
 24
0.0
 34
0.0
 15
44.0
 25
34.0
 35
0.0
146
0.0
 13
0.0
 23
0.0
 33
0.0
 16
1.0
 26
0.0
 36
0.0
 17
0.0
 27
1.0
 37
0.0
 76
     0
330
1F
331
29
  0
LAYOUT
  5
1E
102
{ACAD_REACTORS
330
1A
102
}
330
1A
100
AcDbPlotSettings
  1

  2
none_device
  4
ANSI_E_(44.00_x_34.00_Inches)
  6

 40
6.35
 41
19.05
 42
6.3499746
 43
19.0499873
 44
1117.6
 45
863.6
 46
0.0
 47
0.0
 48
0.0
 49
0.0
140
0.0
141
0.0
142
1.0
143
1.0
 70
  4832
 72
     0
 73
     0
 74
     1
  7

 75
     0
147
1.0
148
0.0
149
0.0
100
AcDbLayout
  1
SW_Model_1
 70
     1
 71
     1
 10
0.0
 20
0.0
 11
44.0
 21
34.0
 12
0.0
 22
0.0
 32
0.0
 14
0.0
 24
0.0
 34
0.0
 15
44.0
 25
34.0
 35
0.0
146
0.0
 13
0.0
 23
0.0
 33
0.0
 16
1.0
 26
0.0
 36
0.0
 17
0.0
 27
1.0
 37
0.0
 76
     0
330
1B
331
85
  0
MLINESTYLE
  5
18
102
{ACAD_REACTORS
330
17
102
}
330
17
100
AcDbMlineStyle
  2
Standard
 70
     0
  3

 62
   256
 51
90.0
 52
90.0
 71
     2
 49
0.5
 62
   256
  6
BYLAYER
 49
-0.5
 62
   256
  6
BYLAYER
  0
ACDBPLACEHOLDER
  5
F
102
{ACAD_REACTORS
330
E
102
}
330
E
  0
SCALE
  5
48
102
{ACAD_REACTORS
330
47
102
}
330
47
100
AcDbScale
 70
     0
300
1:1
140
1.0
141
1.0
290
     1
  0
SCALE
  5
49
102
{ACAD_REACTORS
330
47
102
}
330
47
100
AcDbScale
 70
     0
300
1:2
140
1.0
141
2.0
290
     0
  0
SCALE
  5
4A
102
{ACAD_REACTORS
330
47
102
}
330
47
100
AcDbScale
 70
     0
300
1:4
140
1.0
141
4.0
290
     0
  0
SCALE
  5
4B
102
{ACAD_REACTORS
330
47
102
}
330
47
100
AcDbScale
 70
     0
300
1:5
140
1.0
141
5.0
290
     0
  0
SCALE
  5
4C
102
{ACAD_REACTORS
330
47
102
}
330
47
100
AcDbScale
 70
     0
300
1:8
140
1.0
141
8.0
290
     0
  0
SCALE
  5
4D
102
{ACAD_REACTORS
330
47
102
}
330
47
100
AcDbScale
 70
     0
300
1:10
140
1.0
141
10.0
290
     0
  0
SCALE
  5
4E
102
{ACAD_REACTORS
330
47
102
}
330
47
100
AcDbScale
 70
     0
300
1:16
140
1.0
141
16.0
290
     0
  0
SCALE
  5
4F
102
{ACAD_REACTORS
330
47
102
}
330
47
100
AcDbScale
 70
     0
300
1:20
140
1.0
141
20.0
290
     0
  0
SCALE
  5
50
102
{ACAD_REACTORS
330
47
102
}
330
47
100
AcDbScale
 70
     0
300
1:30
140
1.0
141
30.0
290
     0
  0
SCALE
  5
51
102
{ACAD_REACTORS
330
47
102
}
330
47
100
AcDbScale
 70
     0
300
1:40
140
1.0
141
40.0
290
     0
  0
SCALE
  5
52
102
{ACAD_REACTORS
330
47
102
}
330
47
100
AcDbScale
 70
     0
300
1:50
140
1.0
141
50.0
290
     0
  0
SCALE
  5
53
102
{ACAD_REACTORS
330
47
102
}
330
47
100
AcDbScale
 70
     0
300
1:100
140
1.0
141
100.0
290
     0
  0
SCALE
  5
54
102
{ACAD_REACTORS
330
47
102
}
330
47
100
AcDbScale
 70
     0
300
2:1
140
2.0
141
1.0
290
     0
  0
SCALE
  5
55
102
{ACAD_REACTORS
330
47
102
}
330
47
100
AcDbScale
 70
     0
300
4:1
140
4.0
141
1.0
290
     0
  0
SCALE
  5
56
102
{ACAD_REACTORS
330
47
102
}
330
47
100
AcDbScale
 70
     0
300
8:1
140
8.0
141
1.0
290
     0
  0
SCALE
  5
57
102
{ACAD_REACTORS
330
47
102
}
330
47
100
AcDbScale
 70
     0
300
10:1
140
10.0
141
1.0
290
     0
  0
SCALE
  5
58
102
{ACAD_REACTORS
330
47
102
}
330
47
100
AcDbScale
 70
     0
300
100:1
140
100.0
141
1.0
290
     0
  0
SCALE
  5
59
102
{ACAD_REACTORS
330
47
102
}
330
47
100
AcDbScale
 70
     0
300
1/128" = 1'-0"
140
0.0078125
141
12.0
290
     0
  0
SCALE
  5
5A
102
{ACAD_REACTORS
330
47
102
}
330
47
100
AcDbScale
 70
     0
300
1/64" = 1'-0"
140
0.015625
141
12.0
290
     0
  0
SCALE
  5
5B
102
{ACAD_REACTORS
330
47
102
}
330
47
100
AcDbScale
 70
     0
300
1/32" = 1'-0"
140
0.03125
141
12.0
290
     0
  0
SCALE
  5
5C
102
{ACAD_REACTORS
330
47
102
}
330
47
100
AcDbScale
 70
     0
300
1/16" = 1'-0"
140
0.0625
141
12.0
290
     0
  0
SCALE
  5
5D
102
{ACAD_REACTORS
330
47
102
}
330
47
100
AcDbScale
 70
     0
300
3/32" = 1'-0"
140
0.09375
141
12.0
290
     0
  0
SCALE
  5
5E
102
{ACAD_REACTORS
330
47
102
}
330
47
100
AcDbScale
 70
     0
300
1/8" = 1'-0"
140
0.125
141
12.0
290
     0
  0
SCALE
  5
5F
102
{ACAD_REACTORS
330
47
102
}
330
47
100
AcDbScale
 70
     0
300
3/16" = 1'-0"
140
0.1875
141
12.0
290
     0
  0
SCALE
  5
60
102
{ACAD_REACTORS
330
47
102
}
330
47
100
AcDbScale
 70
     0
300
1/4" = 1'-0"
140
0.25
141
12.0
290
     0
  0
SCALE
  5
61
102
{ACAD_REACTORS
330
47
102
}
330
47
100
AcDbScale
 70
     0
300
3/8" = 1'-0"
140
0.375
141
12.0
290
     0
  0
SCALE
  5
62
102
{ACAD_REACTORS
330
47
102
}
330
47
100
AcDbScale
 70
     0
300
1/2" = 1'-0"
140
0.5
141
12.0
290
     0
  0
SCALE
  5
63
102
{ACAD_REACTORS
330
47
102
}
330
47
100
AcDbScale
 70
     0
300
3/4" = 1'-0"
140
0.75
141
12.0
290
     0
  0
SCALE
  5
64
102
{ACAD_REACTORS
330
47
102
}
330
47
100
AcDbScale
 70
     0
300
1" = 1'-0"
140
1.0
141
12.0
290
     0
  0
SCALE
  5
65
102
{ACAD_REACTORS
330
47
102
}
330
47
100
AcDbScale
 70
     0
300
1-1/2" = 1'-0"
140
1.5
141
12.0
290
     0
  0
SCALE
  5
66
102
{ACAD_REACTORS
330
47
102
}
330
47
100
AcDbScale
 70
     0
300
3" = 1'-0"
140
3.0
141
12.0
290
     0
  0
SCALE
  5
67
102
{ACAD_REACTORS
330
47
102
}
330
47
100
AcDbScale
 70
     0
300
6" = 1'-0"
140
6.0
141
12.0
290
     0
  0
SCALE
  5
68
102
{ACAD_REACTORS
330
47
102
}
330
47
100
AcDbScale
 70
     0
300
1'-0" = 1'-0"
140
12.0
141
12.0
290
     0
  0
ENDSEC
  0
EOF
