  0
SECTION
  2
HEADER
  9
$ACADVER
  1
AC1014
  9
$ACADMAINTVER
 70
     9
  9
$DWGCODEPAGE
  3
DOS932
  9
$INSBASE
 10
0.0
 20
0.0
 30
0.0
  9
$EXTMIN
 10
0.0
 20
0.0
 30
0.0
  9
$EXTMAX
 10
210.0
 20
297.0
 30
0.0
  9
$LIMMIN
 10
0.0
 20
0.0
  9
$LIMMAX
 10
210.0
 20
297.0
  9
$ORTHOMODE
 70
     0
  9
$REGENMODE
 70
     1
  9
$FILLMODE
 70
     1
  9
$QTEXTMODE
 70
     0
  9
$MIRRTEXT
 70
     1
  9
$DRAGMODE
 70
     2
  9
$LTSCALE
 40
1.0
  9
$OSMODE
 70
    37
  9
$ATTMODE
 70
     1
  9
$TEXTSIZE
 40
3.5
  9
$TRACEWID
 40
1.0
  9
$TEXTSTYLE
  7
STANDARD
  9
$CLAYER
  8
0
  9
$CELTYPE
  6
BYLAYER
  9
$CECOLOR
 62
   256
  9
$CELTSCALE
 40
1.0
  9
$DELOBJ
 70
     1
  9
$DISPSILH
 70
     0
  9
$DIMSCALE
 40
1.0
  9
$DIMASZ
 40
3.0
  9
$DIMEXO
 40
1.0
  9
$DIMDLI
 40
3.75
  9
$DIMRND
 40
0.0
  9
$DIMDLE
 40
0.0
  9
$DIMEXE
 40
1.0
  9
$DIMTP
 40
0.0
  9
$DIMTM
 40
0.0
  9
$DIMTXT
 40
3.5
  9
$DIMCEN
 40
2.5
  9
$DIMTSZ
 40
0.0
  9
$DIMTOL
 70
     0
  9
$DIMLIM
 70
     0
  9
$DIMTIH
 70
     1
  9
$DIMTOH
 70
     1
  9
$DIMSE1
 70
     0
  9
$DIMSE2
 70
     0
  9
$DIMTAD
 70
     1
  9
$DIMZIN
 70
     0
  9
$DIMBLK
  1

  9
$DIMASO
 70
     1
  9
$DIMSHO
 70
     1
  9
$DIMPOST
  1

  9
$DIMAPOST
  1

  9
$DIMALT
 70
     0
  9
$DIMALTD
 70
     3
  9
$DIMALTF
 40
0.0393700787
  9
$DIMLFAC
 40
1.0
  9
$DIMTOFL
 70
     1
  9
$DIMTVP
 40
0.0
  9
$DIMTIX
 70
     0
  9
$DIMSOXD
 70
     0
  9
$DIMSAH
 70
     0
  9
$DIMBLK1
  1

  9
$DIMBLK2
  1

  9
$DIMSTYLE
  2
ISO-25
  9
$DIMCLRD
 70
     0
  9
$DIMCLRE
 70
     0
  9
$DIMCLRT
 70
     0
  9
$DIMTFAC
 40
1.0
  9
$DIMGAP
 40
1.524
  9
$DIMJUST
 70
     0
  9
$DIMSD1
 70
     0
  9
$DIMSD2
 70
     0
  9
$DIMTOLJ
 70
     0
  9
$DIMTZIN
 70
     0
  9
$DIMALTZ
 70
     0
  9
$DIMALTTZ
 70
     0
  9
$DIMFIT
 70
     3
  9
$DIMUPT
 70
     0
  9
$DIMUNIT
 70
     2
  9
$DIMDEC
 70
     0
  9
$DIMTDEC
 70
     4
  9
$DIMALTU
 70
     2
  9
$DIMALTTD
 70
     3
  9
$DIMTXSTY
  7
STANDARD
  9
$DIMAUNIT
 70
     0
  9
$LUNITS
 70
     2
  9
$LUPREC
 70
     4
  9
$SKETCHINC
 40
1.0
  9
$FILLETRAD
 40
10.0
  9
$AUNITS
 70
     0
  9
$AUPREC
 70
     0
  9
$MENU
  1
.
  9
$ELEVATION
 40
0.0
  9
$PELEVATION
 40
0.0
  9
$THICKNESS
 40
0.0
  9
$LIMCHECK
 70
     0
  9
$CHAMFERA
 40
10.0
  9
$CHAMFERB
 40
10.0
  9
$CHAMFERC
 40
20.0
  9
$CHAMFERD
 40
0.0
  9
$SKPOLY
 70
     0
  9
$TDCREATE
 40
2456450.819708657
  9
$TDUPDATE
 40
2456450.819708669
  9
$TDINDWG
 40
0.0000000116
  9
$TDUSRTIMER
 40
0.0000000116
  9
$USRTIMER
 70
     1
  9
$ANGBASE
 50
0.0
  9
$ANGDIR
 70
     0
  9
$PDMODE
 70
     0
  9
$PDSIZE
 40
-1.0
  9
$PLINEWID
 40
0.0
  9
$COORDS
 70
     1
  9
$SPLFRAME
 70
     0
  9
$SPLINETYPE
 70
     6
  9
$SPLINESEGS
 70
     8
  9
$ATTDIA
 70
     0
  9
$ATTREQ
 70
     1
  9
$HANDLING
 70
     1
  9
$HANDSEED
  5
47B
  9
$SURFTAB1
 70
     6
  9
$SURFTAB2
 70
     6
  9
$SURFTYPE
 70
     6
  9
$SURFU
 70
     6
  9
$SURFV
 70
     6
  9
$UCSNAME
  2

  9
$UCSORG
 10
0.0
 20
0.0
 30
0.0
  9
$UCSXDIR
 10
1.0
 20
0.0
 30
0.0
  9
$UCSYDIR
 10
0.0
 20
1.0
 30
0.0
  9
$PUCSNAME
  2

  9
$PUCSORG
 10
0.0
 20
0.0
 30
0.0
  9
$PUCSXDIR
 10
1.0
 20
0.0
 30
0.0
  9
$PUCSYDIR
 10
0.0
 20
1.0
 30
0.0
  9
$USERI1
 70
     0
  9
$USERI2
 70
     0
  9
$USERI3
 70
     0
  9
$USERI4
 70
     0
  9
$USERI5
 70
     0
  9
$USERR1
 40
0.0
  9
$USERR2
 40
0.0
  9
$USERR3
 40
0.0
  9
$USERR4
 40
0.0
  9
$USERR5
 40
0.0
  9
$WORLDVIEW
 70
     1
  9
$SHADEDGE
 70
     3
  9
$SHADEDIF
 70
    70
  9
$TILEMODE
 70
     1
  9
$MAXACTVP
 70
    64
  9
$PINSBASE
 10
0.0
 20
0.0
 30
0.0
  9
$PLIMCHECK
 70
     0
  9
$PEXTMIN
 10
1.0000000000E+20
 20
1.0000000000E+20
 30
1.0000000000E+20
  9
$PEXTMAX
 10
-1.0000000000E+20
 20
-1.0000000000E+20
 30
-1.0000000000E+20
  9
$PLIMMIN
 10
0.0
 20
0.0
  9
$PLIMMAX
 10
420.0
 20
297.0
  9
$UNITMODE
 70
     0
  9
$VISRETAIN
 70
     1
  9
$PLINEGEN
 70
     0
  9
$PSLTSCALE
 70
     1
  9
$TREEDEPTH
 70
  3020
  9
$PICKSTYLE
 70
     1
  9
$CMLSTYLE
  2
STANDARD
  9
$CMLJUST
 70
     0
  9
$CMLSCALE
 40
20.0
  9
$PROXYGRAPHICS
 70
     1
  9
$MEASUREMENT
 70
     1
  0
ENDSEC
  0
SECTION
  2
CLASSES
  0
CLASS
  1
ACDBDICTIONARYWDFLT
  2
AcDbDictionaryWithDefault
  3
ObjectDBX Classes
 90
        0
280
     0
281
     0
  0
CLASS
  1
VISUALSTYLE
  2
AcDbVisualStyle
  3
ObjectDBX Classes
 90
     4095
280
     0
281
     0
  0
CLASS
  1
MATERIAL
  2
AcDbMaterial
  3
ObjectDBX Classes
 90
     1153
280
     0
281
     0
  0
CLASS
  1
XRECORD
  2
AcDbXrecord
  3
AutoCAD 2000
 90
        0
280
     0
281
     0
  0
CLASS
  1
LWPOLYLINE
  2
AcDbPolyline
  3
AutoCAD 2000
 90
        0
280
     0
281
     1
  0
CLASS
  1
HATCH
  2
AcDbHatch
  3
AutoCAD 2000
 90
        0
280
     0
281
     1
  0
ENDSEC
  0
SECTION
  2
TABLES
  0
TABLE
  2
VPORT
  5
8
330
0
100
AcDbSymbolTable
 70
     1
  0
VPORT
  5
29
330
8
100
AcDbSymbolTableRecord
100
AcDbViewportTableRecord
  2
*ACTIVE
 70
     0
 10
0.0
 20
0.0
 11
1.0
 21
1.0
 12
105.0
 22
148.5
 13
0.0
 23
0.0
 14
10.0
 24
10.0
 15
10.0
 25
10.0
 16
0.0
 26
0.0
 36
1.0
 17
0.0
 27
0.0
 37
0.0
 40
297.0
 41
0.7070707071
 42
50.0
 43
0.0
 44
0.0
 50
0.0
 51
0.0
 71
     0
 72
  2000
 73
     1
 74
     3
 75
     0
 76
     0
 77
     0
 78
     0
  0
ENDTAB
  0
TABLE
  2
LTYPE
  5
5
330
0
100
AcDbSymbolTable
 70
     6
  0
LTYPE
  5
14
330
5
100
AcDbSymbolTableRecord
100
AcDbLinetypeTableRecord
  2
BYBLOCK
 70
     0
  3

 72
    65
 73
     0
 40
0.0
  0
LTYPE
  5
15
330
5
100
AcDbSymbolTableRecord
100
AcDbLinetypeTableRecord
  2
BYLAYER
 70
     0
  3

 72
    65
 73
     0
 40
0.0
  0
LTYPE
  5
16
330
5
100
AcDbSymbolTableRecord
100
AcDbLinetypeTableRecord
  2
CONTINUOUS
 70
     0
  3
Solid line
 72
    65
 73
     0
 40
0.0
  0
LTYPE
  5
3F
330
5
100
AcDbSymbolTableRecord
100
AcDbLinetypeTableRecord
  2
HIDDEN
 70
     0
  3
Hidden __ __ __ __ __ __ __ __ __ __ __ __ __ __
 72
    65
 73
     2
 40
1.905
 49
1.27
 74
     0
 49
-0.635
 74
     0
  0
LTYPE
  5
40
330
5
100
AcDbSymbolTableRecord
100
AcDbLinetypeTableRecord
  2
PHANTOM
 70
     0
  3
Phantom ______  __  __  ______  __  __  ______
 72
    65
 73
     6
 40
12.7
 49
6.35
 74
     0
 49
-1.27
 74
     0
 49
1.27
 74
     0
 49
-1.27
 74
     0
 49
1.27
 74
     0
 49
-1.27
 74
     0
  0
LTYPE
  5
41
330
5
100
AcDbSymbolTableRecord
100
AcDbLinetypeTableRecord
  2
CENTER
 70
     0
  3
Center ____ _ ____ _ ____ _ ____ _ ____ _ ____
 72
    65
 73
     4
 40
10.16
 49
6.35
 74
     0
 49
-1.27
 74
     0
 49
1.27
 74
     0
 49
-1.27
 74
     0
  0
LTYPE
  5
42
330
5
100
AcDbSymbolTableRecord
100
AcDbLinetypeTableRecord
  2
CENTERX2
 70
     0
  3
Center (2x) ________  __  ________  __  _____
 72
    65
 73
     4
 40
20.32
 49
12.7
 74
     0
 49
-2.54
 74
     0
 49
2.54
 74
     0
 49
-2.54
 74
     0
  0
LTYPE
  5
43
330
5
100
AcDbSymbolTableRecord
100
AcDbLinetypeTableRecord
  2
DOT2
 70
     0
  3
Dot (.5x) ........................................
 72
    65
 73
     2
 40
0.635
 49
0.0
 74
     0
 49
-0.635
 74
     0
  0
ENDTAB
  0
TABLE
  2
LAYER
  5
2
330
0
100
AcDbSymbolTable
 70
   260
  0
LAYER
  5
10
330
2
100
AcDbSymbolTableRecord
100
AcDbLayerTableRecord
  2
0
 70
     0
 62
     7
  6
CONTINUOUS
  0
LAYER
  5
44
330
2
100
AcDbSymbolTableRecord
100
AcDbLayerTableRecord
  2
SLD-0
 70
     0
 62
   179
  6
CONTINUOUS
  0
LAYER
  5
45
330
2
100
AcDbSymbolTableRecord
100
AcDbLayerTableRecord
  2
LAYER001
 70
     0
 62
     2
  6
CONTINUOUS
  0
LAYER
  5
46
330
2
100
AcDbSymbolTableRecord
100
AcDbLayerTableRecord
  2
LAYER002
 70
     0
 62
     2
  6
CONTINUOUS
  0
LAYER
  5
47
330
2
100
AcDbSymbolTableRecord
100
AcDbLayerTableRecord
  2
LAYER003
 70
     0
 62
     2
  6
CONTINUOUS
  0
LAYER
  5
48
330
2
100
AcDbSymbolTableRecord
100
AcDbLayerTableRecord
  2
LAYER004
 70
     0
 62
     2
  6
CONTINUOUS
  0
LAYER
  5
49
330
2
100
AcDbSymbolTableRecord
100
AcDbLayerTableRecord
  2
LAYER005
 70
     0
 62
     2
  6
CONTINUOUS
  0
LAYER
  5
4A
330
2
100
AcDbSymbolTableRecord
100
AcDbLayerTableRecord
  2
LAYER006
 70
     0
 62
     2
  6
CONTINUOUS
  0
LAYER
  5
4B
330
2
100
AcDbSymbolTableRecord
100
AcDbLayerTableRecord
  2
LAYER007
 70
     0
 62
     2
  6
CONTINUOUS
  0
LAYER
  5
4C
330
2
100
AcDbSymbolTableRecord
100
AcDbLayerTableRecord
  2
LAYER008
 70
     0
 62
     2
  6
CONTINUOUS
  0
LAYER
  5
4D
330
2
100
AcDbSymbolTableRecord
100
AcDbLayerTableRecord
  2
LAYER009
 70
     0
 62
     2
  6
CONTINUOUS
  0
LAYER
  5
4E
330
2
100
AcDbSymbolTableRecord
100
AcDbLayerTableRecord
  2
LAYER010
 70
     0
 62
     2
  6
CONTINUOUS
  0
LAYER
  5
4F
330
2
100
AcDbSymbolTableRecord
100
AcDbLayerTableRecord
  2
LAYER011
 70
     0
 62
     3
  6
CONTINUOUS
  0
LAYER
  5
50
330
2
100
AcDbSymbolTableRecord
100
AcDbLayerTableRecord
  2
LAYER012
 70
     0
 62
     3
  6
CONTINUOUS
  0
LAYER
  5
51
330
2
100
AcDbSymbolTableRecord
100
AcDbLayerTableRecord
  2
LAYER013
 70
     0
 62
     3
  6
CONTINUOUS
  0
LAYER
  5
52
330
2
100
AcDbSymbolTableRecord
100
AcDbLayerTableRecord
  2
LAYER014
 70
     0
 62
     3
  6
CONTINUOUS
  0
LAYER
  5
53
330
2
100
AcDbSymbolTableRecord
100
AcDbLayerTableRecord
  2
LAYER015
 70
     0
 62
     3
  6
CONTINUOUS
  0
LAYER
  5
54
330
2
100
AcDbSymbolTableRecord
100
AcDbLayerTableRecord
  2
LAYER016
 70
     0
 62
     3
  6
CONTINUOUS
  0
LAYER
  5
55
330
2
100
AcDbSymbolTableRecord
100
AcDbLayerTableRecord
  2
LAYER017
 70
     0
 62
     3
  6
CONTINUOUS
  0
LAYER
  5
56
330
2
100
AcDbSymbolTableRecord
100
AcDbLayerTableRecord
  2
LAYER018
 70
     0
 62
     3
  6
CONTINUOUS
  0
LAYER
  5
57
330
2
100
AcDbSymbolTableRecord
100
AcDbLayerTableRecord
  2
LAYER019
 70
     0
 62
     3
  6
CONTINUOUS
  0
LAYER
  5
58
330
2
100
AcDbSymbolTableRecord
100
AcDbLayerTableRecord
  2
LAYER020
 70
     0
 62
     3
  6
CONTINUOUS
  0
LAYER
  5
59
330
2
100
AcDbSymbolTableRecord
100
AcDbLayerTableRecord
  2
LAYER021
 70
     0
 62
     5
  6
CONTINUOUS
  0
LAYER
  5
5A
330
2
100
AcDbSymbolTableRecord
100
AcDbLayerTableRecord
  2
LAYER022
 70
     0
 62
     5
  6
CONTINUOUS
  0
LAYER
  5
5B
330
2
100
AcDbSymbolTableRecord
100
AcDbLayerTableRecord
  2
LAYER023
 70
     0
 62
     5
  6
CONTINUOUS
  0
LAYER
  5
5C
330
2
100
AcDbSymbolTableRecord
100
AcDbLayerTableRecord
  2
LAYER024
 70
     0
 62
     5
  6
CONTINUOUS
  0
LAYER
  5
5D
330
2
100
AcDbSymbolTableRecord
100
AcDbLayerTableRecord
  2
LAYER025
 70
     0
 62
     5
  6
CONTINUOUS
  0
LAYER
  5
5E
330
2
100
AcDbSymbolTableRecord
100
AcDbLayerTableRecord
  2
LAYER026
 70
     0
 62
     5
  6
CONTINUOUS
  0
LAYER
  5
5F
330
2
100
AcDbSymbolTableRecord
100
AcDbLayerTableRecord
  2
LAYER027
 70
     0
 62
     5
  6
CONTINUOUS
  0
LAYER
  5
60
330
2
100
AcDbSymbolTableRecord
100
AcDbLayerTableRecord
  2
LAYER028
 70
     0
 62
     5
  6
CONTINUOUS
  0
LAYER
  5
61
330
2
100
AcDbSymbolTableRecord
100
AcDbLayerTableRecord
  2
LAYER029
 70
     0
 62
     5
  6
CONTINUOUS
  0
LAYER
  5
62
330
2
100
AcDbSymbolTableRecord
100
AcDbLayerTableRecord
  2
LAYER030
 70
     0
 62
     5
  6
CONTINUOUS
  0
LAYER
  5
63
330
2
100
AcDbSymbolTableRecord
100
AcDbLayerTableRecord
  2
LAYER031
 70
     0
 62
     4
  6
CONTINUOUS
  0
LAYER
  5
64
330
2
100
AcDbSymbolTableRecord
100
AcDbLayerTableRecord
  2
LAYER032
 70
     0
 62
     4
  6
CONTINUOUS
  0
LAYER
  5
65
330
2
100
AcDbSymbolTableRecord
100
AcDbLayerTableRecord
  2
LAYER033
 70
     0
 62
     4
  6
CONTINUOUS
  0
LAYER
  5
66
330
2
100
AcDbSymbolTableRecord
100
AcDbLayerTableRecord
  2
LAYER034
 70
     0
 62
     4
  6
CONTINUOUS
  0
LAYER
  5
67
330
2
100
AcDbSymbolTableRecord
100
AcDbLayerTableRecord
  2
LAYER035
 70
     0
 62
     4
  6
CONTINUOUS
  0
LAYER
  5
68
330
2
100
AcDbSymbolTableRecord
100
AcDbLayerTableRecord
  2
LAYER036
 70
     0
 62
     4
  6
CONTINUOUS
  0
LAYER
  5
69
330
2
100
AcDbSymbolTableRecord
100
AcDbLayerTableRecord
  2
LAYER037
 70
     0
 62
     4
  6
CONTINUOUS
  0
LAYER
  5
6A
330
2
100
AcDbSymbolTableRecord
100
AcDbLayerTableRecord
  2
LAYER038
 70
     0
 62
     4
  6
CONTINUOUS
  0
LAYER
  5
6B
330
2
100
AcDbSymbolTableRecord
100
AcDbLayerTableRecord
  2
LAYER039
 70
     0
 62
     4
  6
CONTINUOUS
  0
LAYER
  5
6C
330
2
100
AcDbSymbolTableRecord
100
AcDbLayerTableRecord
  2
LAYER040
 70
     0
 62
     4
  6
CONTINUOUS
  0
LAYER
  5
6D
330
2
100
AcDbSymbolTableRecord
100
AcDbLayerTableRecord
  2
LAYER041
 70
     0
 62
   163
  6
CONTINUOUS
  0
LAYER
  5
6E
330
2
100
AcDbSymbolTableRecord
100
AcDbLayerTableRecord
  2
LAYER042
 70
     0
 62
   163
  6
CONTINUOUS
  0
LAYER
  5
6F
330
2
100
AcDbSymbolTableRecord
100
AcDbLayerTableRecord
  2
LAYER043
 70
     0
 62
   163
  6
CONTINUOUS
  0
LAYER
  5
70
330
2
100
AcDbSymbolTableRecord
100
AcDbLayerTableRecord
  2
LAYER044
 70
     0
 62
   163
  6
CONTINUOUS
  0
LAYER
  5
71
330
2
100
AcDbSymbolTableRecord
100
AcDbLayerTableRecord
  2
LAYER045
 70
     0
 62
   163
  6
CONTINUOUS
  0
LAYER
  5
72
330
2
100
AcDbSymbolTableRecord
100
AcDbLayerTableRecord
  2
LAYER046
 70
     0
 62
   163
  6
CONTINUOUS
  0
LAYER
  5
73
330
2
100
AcDbSymbolTableRecord
100
AcDbLayerTableRecord
  2
LAYER047
 70
     0
 62
   163
  6
CONTINUOUS
  0
LAYER
  5
74
330
2
100
AcDbSymbolTableRecord
100
AcDbLayerTableRecord
  2
LAYER048
 70
     0
 62
   163
  6
CONTINUOUS
  0
LAYER
  5
75
330
2
100
AcDbSymbolTableRecord
100
AcDbLayerTableRecord
  2
LAYER049
 70
     0
 62
   163
  6
CONTINUOUS
  0
LAYER
  5
76
330
2
100
AcDbSymbolTableRecord
100
AcDbLayerTableRecord
  2
LAYER050
 70
     0
 62
   163
  6
CONTINUOUS
  0
LAYER
  5
77
330
2
100
AcDbSymbolTableRecord
100
AcDbLayerTableRecord
  2
LAYER051
 70
     0
 62
    31
  6
CONTINUOUS
  0
LAYER
  5
78
330
2
100
AcDbSymbolTableRecord
100
AcDbLayerTableRecord
  2
LAYER052
 70
     0
 62
    31
  6
CONTINUOUS
  0
LAYER
  5
79
330
2
100
AcDbSymbolTableRecord
100
AcDbLayerTableRecord
  2
LAYER053
 70
     0
 62
    31
  6
CONTINUOUS
  0
LAYER
  5
7A
330
2
100
AcDbSymbolTableRecord
100
AcDbLayerTableRecord
  2
LAYER054
 70
     0
 62
    31
  6
CONTINUOUS
  0
LAYER
  5
7B
330
2
100
AcDbSymbolTableRecord
100
AcDbLayerTableRecord
  2
LAYER055
 70
     0
 62
    31
  6
CONTINUOUS
  0
LAYER
  5
7C
330
2
100
AcDbSymbolTableRecord
100
AcDbLayerTableRecord
  2
LAYER056
 70
     0
 62
    31
  6
CONTINUOUS
  0
LAYER
  5
7D
330
2
100
AcDbSymbolTableRecord
100
AcDbLayerTableRecord
  2
LAYER057
 70
     0
 62
    31
  6
CONTINUOUS
  0
LAYER
  5
7E
330
2
100
AcDbSymbolTableRecord
100
AcDbLayerTableRecord
  2
LAYER058
 70
     0
 62
    31
  6
CONTINUOUS
  0
LAYER
  5
7F
330
2
100
AcDbSymbolTableRecord
100
AcDbLayerTableRecord
  2
LAYER059
 70
     0
 62
    31
  6
CONTINUOUS
  0
LAYER
  5
80
330
2
100
AcDbSymbolTableRecord
100
AcDbLayerTableRecord
  2
LAYER060
 70
     0
 62
    31
  6
CONTINUOUS
  0
LAYER
  5
81
330
2
100
AcDbSymbolTableRecord
100
AcDbLayerTableRecord
  2
LAYER061
 70
     0
 62
    71
  6
CONTINUOUS
  0
LAYER
  5
82
330
2
100
AcDbSymbolTableRecord
100
AcDbLayerTableRecord
  2
LAYER062
 70
     0
 62
    71
  6
CONTINUOUS
  0
LAYER
  5
83
330
2
100
AcDbSymbolTableRecord
100
AcDbLayerTableRecord
  2
LAYER063
 70
     0
 62
    71
  6
CONTINUOUS
  0
LAYER
  5
84
330
2
100
AcDbSymbolTableRecord
100
AcDbLayerTableRecord
  2
LAYER064
 70
     0
 62
    71
  6
CONTINUOUS
  0
LAYER
  5
85
330
2
100
AcDbSymbolTableRecord
100
AcDbLayerTableRecord
  2
LAYER065
 70
     0
 62
    71
  6
CONTINUOUS
  0
LAYER
  5
86
330
2
100
AcDbSymbolTableRecord
100
AcDbLayerTableRecord
  2
LAYER066
 70
     0
 62
    71
  6
CONTINUOUS
  0
LAYER
  5
87
330
2
100
AcDbSymbolTableRecord
100
AcDbLayerTableRecord
  2
LAYER067
 70
     0
 62
    71
  6
CONTINUOUS
  0
LAYER
  5
88
330
2
100
AcDbSymbolTableRecord
100
AcDbLayerTableRecord
  2
LAYER068
 70
     0
 62
    71
  6
CONTINUOUS
  0
LAYER
  5
89
330
2
100
AcDbSymbolTableRecord
100
AcDbLayerTableRecord
  2
LAYER069
 70
     0
 62
    71
  6
CONTINUOUS
  0
LAYER
  5
8A
330
2
100
AcDbSymbolTableRecord
100
AcDbLayerTableRecord
  2
LAYER070
 70
     0
 62
    71
  6
CONTINUOUS
  0
LAYER
  5
8B
330
2
100
AcDbSymbolTableRecord
100
AcDbLayerTableRecord
  2
LAYER071
 70
     0
 62
   241
  6
CONTINUOUS
  0
LAYER
  5
8C
330
2
100
AcDbSymbolTableRecord
100
AcDbLayerTableRecord
  2
LAYER072
 70
     0
 62
   241
  6
CONTINUOUS
  0
LAYER
  5
8D
330
2
100
AcDbSymbolTableRecord
100
AcDbLayerTableRecord
  2
LAYER073
 70
     0
 62
   241
  6
CONTINUOUS
  0
LAYER
  5
8E
330
2
100
AcDbSymbolTableRecord
100
AcDbLayerTableRecord
  2
LAYER074
 70
     0
 62
   241
  6
CONTINUOUS
  0
LAYER
  5
8F
330
2
100
AcDbSymbolTableRecord
100
AcDbLayerTableRecord
  2
LAYER075
 70
     0
 62
   241
  6
CONTINUOUS
  0
LAYER
  5
90
330
2
100
AcDbSymbolTableRecord
100
AcDbLayerTableRecord
  2
LAYER076
 70
     0
 62
   241
  6
CONTINUOUS
  0
LAYER
  5
91
330
2
100
AcDbSymbolTableRecord
100
AcDbLayerTableRecord
  2
LAYER077
 70
     0
 62
   241
  6
CONTINUOUS
  0
LAYER
  5
92
330
2
100
AcDbSymbolTableRecord
100
AcDbLayerTableRecord
  2
LAYER078
 70
     0
 62
   241
  6
CONTINUOUS
  0
LAYER
  5
93
330
2
100
AcDbSymbolTableRecord
100
AcDbLayerTableRecord
  2
LAYER079
 70
     0
 62
   241
  6
CONTINUOUS
  0
LAYER
  5
94
330
2
100
AcDbSymbolTableRecord
100
AcDbLayerTableRecord
  2
LAYER080
 70
     0
 62
   241
  6
CONTINUOUS
  0
LAYER
  5
95
330
2
100
AcDbSymbolTableRecord
100
AcDbLayerTableRecord
  2
LAYER081
 70
     0
 62
   191
  6
CONTINUOUS
  0
LAYER
  5
96
330
2
100
AcDbSymbolTableRecord
100
AcDbLayerTableRecord
  2
LAYER082
 70
     0
 62
   191
  6
CONTINUOUS
  0
LAYER
  5
97
330
2
100
AcDbSymbolTableRecord
100
AcDbLayerTableRecord
  2
LAYER083
 70
     0
 62
   191
  6
CONTINUOUS
  0
LAYER
  5
98
330
2
100
AcDbSymbolTableRecord
100
AcDbLayerTableRecord
  2
LAYER084
 70
     0
 62
   191
  6
CONTINUOUS
  0
LAYER
  5
99
330
2
100
AcDbSymbolTableRecord
100
AcDbLayerTableRecord
  2
LAYER085
 70
     0
 62
   191
  6
CONTINUOUS
  0
LAYER
  5
9A
330
2
100
AcDbSymbolTableRecord
100
AcDbLayerTableRecord
  2
LAYER086
 70
     0
 62
   191
  6
CONTINUOUS
  0
LAYER
  5
9B
330
2
100
AcDbSymbolTableRecord
100
AcDbLayerTableRecord
  2
LAYER087
 70
     0
 62
   191
  6
CONTINUOUS
  0
LAYER
  5
9C
330
2
100
AcDbSymbolTableRecord
100
AcDbLayerTableRecord
  2
LAYER088
 70
     0
 62
   191
  6
CONTINUOUS
  0
LAYER
  5
9D
330
2
100
AcDbSymbolTableRecord
100
AcDbLayerTableRecord
  2
LAYER089
 70
     0
 62
   191
  6
CONTINUOUS
  0
LAYER
  5
9E
330
2
100
AcDbSymbolTableRecord
100
AcDbLayerTableRecord
  2
LAYER090
 70
     0
 62
   191
  6
CONTINUOUS
  0
LAYER
  5
9F
330
2
100
AcDbSymbolTableRecord
100
AcDbLayerTableRecord
  2
LAYER091
 70
     0
 62
   215
  6
CONTINUOUS
  0
LAYER
  5
A0
330
2
100
AcDbSymbolTableRecord
100
AcDbLayerTableRecord
  2
LAYER092
 70
     0
 62
   215
  6
CONTINUOUS
  0
LAYER
  5
A1
330
2
100
AcDbSymbolTableRecord
100
AcDbLayerTableRecord
  2
LAYER093
 70
     0
 62
   215
  6
CONTINUOUS
  0
LAYER
  5
A2
330
2
100
AcDbSymbolTableRecord
100
AcDbLayerTableRecord
  2
LAYER094
 70
     0
 62
   215
  6
CONTINUOUS
  0
LAYER
  5
A3
330
2
100
AcDbSymbolTableRecord
100
AcDbLayerTableRecord
  2
LAYER095
 70
     0
 62
   215
  6
CONTINUOUS
  0
LAYER
  5
A4
330
2
100
AcDbSymbolTableRecord
100
AcDbLayerTableRecord
  2
LAYER096
 70
     0
 62
   215
  6
CONTINUOUS
  0
LAYER
  5
A5
330
2
100
AcDbSymbolTableRecord
100
AcDbLayerTableRecord
  2
LAYER097
 70
     0
 62
   215
  6
CONTINUOUS
  0
LAYER
  5
A6
330
2
100
AcDbSymbolTableRecord
100
AcDbLayerTableRecord
  2
LAYER098
 70
     0
 62
   215
  6
CONTINUOUS
  0
LAYER
  5
A7
330
2
100
AcDbSymbolTableRecord
100
AcDbLayerTableRecord
  2
LAYER099
 70
     0
 62
   215
  6
CONTINUOUS
  0
LAYER
  5
A8
330
2
100
AcDbSymbolTableRecord
100
AcDbLayerTableRecord
  2
LAYER100
 70
     0
 62
   215
  6
CONTINUOUS
  0
LAYER
  5
A9
330
2
100
AcDbSymbolTableRecord
100
AcDbLayerTableRecord
  2
LAYER101
 70
     0
 62
   155
  6
CONTINUOUS
  0
LAYER
  5
AA
330
2
100
AcDbSymbolTableRecord
100
AcDbLayerTableRecord
  2
LAYER102
 70
     0
 62
   155
  6
CONTINUOUS
  0
LAYER
  5
AB
330
2
100
AcDbSymbolTableRecord
100
AcDbLayerTableRecord
  2
LAYER103
 70
     0
 62
   155
  6
CONTINUOUS
  0
LAYER
  5
AC
330
2
100
AcDbSymbolTableRecord
100
AcDbLayerTableRecord
  2
LAYER104
 70
     0
 62
   155
  6
CONTINUOUS
  0
LAYER
  5
AD
330
2
100
AcDbSymbolTableRecord
100
AcDbLayerTableRecord
  2
LAYER105
 70
     0
 62
   155
  6
CONTINUOUS
  0
LAYER
  5
AE
330
2
100
AcDbSymbolTableRecord
100
AcDbLayerTableRecord
  2
LAYER106
 70
     0
 62
   155
  6
CONTINUOUS
  0
LAYER
  5
AF
330
2
100
AcDbSymbolTableRecord
100
AcDbLayerTableRecord
  2
LAYER107
 70
     0
 62
   155
  6
CONTINUOUS
  0
LAYER
  5
B0
330
2
100
AcDbSymbolTableRecord
100
AcDbLayerTableRecord
  2
LAYER108
 70
     0
 62
   155
  6
CONTINUOUS
  0
LAYER
  5
B1
330
2
100
AcDbSymbolTableRecord
100
AcDbLayerTableRecord
  2
LAYER109
 70
     0
 62
   155
  6
CONTINUOUS
  0
LAYER
  5
B2
330
2
100
AcDbSymbolTableRecord
100
AcDbLayerTableRecord
  2
LAYER110
 70
     0
 62
   155
  6
CONTINUOUS
  0
LAYER
  5
B3
330
2
100
AcDbSymbolTableRecord
100
AcDbLayerTableRecord
  2
LAYER111
 70
     0
 62
   232
  6
CONTINUOUS
  0
LAYER
  5
B4
330
2
100
AcDbSymbolTableRecord
100
AcDbLayerTableRecord
  2
LAYER112
 70
     0
 62
   232
  6
CONTINUOUS
  0
LAYER
  5
B5
330
2
100
AcDbSymbolTableRecord
100
AcDbLayerTableRecord
  2
LAYER113
 70
     0
 62
   232
  6
CONTINUOUS
  0
LAYER
  5
B6
330
2
100
AcDbSymbolTableRecord
100
AcDbLayerTableRecord
  2
LAYER114
 70
     0
 62
   232
  6
CONTINUOUS
  0
LAYER
  5
B7
330
2
100
AcDbSymbolTableRecord
100
AcDbLayerTableRecord
  2
LAYER115
 70
     0
 62
   232
  6
CONTINUOUS
  0
LAYER
  5
B8
330
2
100
AcDbSymbolTableRecord
100
AcDbLayerTableRecord
  2
LAYER116
 70
     0
 62
   232
  6
CONTINUOUS
  0
LAYER
  5
B9
330
2
100
AcDbSymbolTableRecord
100
AcDbLayerTableRecord
  2
LAYER117
 70
     0
 62
   232
  6
CONTINUOUS
  0
LAYER
  5
BA
330
2
100
AcDbSymbolTableRecord
100
AcDbLayerTableRecord
  2
LAYER118
 70
     0
 62
   232
  6
CONTINUOUS
  0
LAYER
  5
BB
330
2
100
AcDbSymbolTableRecord
100
AcDbLayerTableRecord
  2
LAYER119
 70
     0
 62
   232
  6
CONTINUOUS
  0
LAYER
  5
BC
330
2
100
AcDbSymbolTableRecord
100
AcDbLayerTableRecord
  2
LAYER120
 70
     0
 62
   232
  6
CONTINUOUS
  0
LAYER
  5
BD
330
2
100
AcDbSymbolTableRecord
100
AcDbLayerTableRecord
  2
LAYER121
 70
     0
 62
   254
  6
CONTINUOUS
  0
LAYER
  5
BE
330
2
100
AcDbSymbolTableRecord
100
AcDbLayerTableRecord
  2
LAYER122
 70
     0
 62
   254
  6
CONTINUOUS
  0
LAYER
  5
BF
330
2
100
AcDbSymbolTableRecord
100
AcDbLayerTableRecord
  2
LAYER123
 70
     0
 62
   254
  6
CONTINUOUS
  0
LAYER
  5
C0
330
2
100
AcDbSymbolTableRecord
100
AcDbLayerTableRecord
  2
LAYER124
 70
     0
 62
   254
  6
CONTINUOUS
  0
LAYER
  5
C1
330
2
100
AcDbSymbolTableRecord
100
AcDbLayerTableRecord
  2
LAYER125
 70
     0
 62
   254
  6
CONTINUOUS
  0
LAYER
  5
C2
330
2
100
AcDbSymbolTableRecord
100
AcDbLayerTableRecord
  2
LAYER126
 70
     0
 62
   254
  6
CONTINUOUS
  0
LAYER
  5
C3
330
2
100
AcDbSymbolTableRecord
100
AcDbLayerTableRecord
  2
LAYER127
 70
     0
 62
   254
  6
CONTINUOUS
  0
LAYER
  5
C4
330
2
100
AcDbSymbolTableRecord
100
AcDbLayerTableRecord
  2
LAYER128
 70
     0
 62
   254
  6
CONTINUOUS
  0
LAYER
  5
C5
330
2
100
AcDbSymbolTableRecord
100
AcDbLayerTableRecord
  2
LAYER129
 70
     0
 62
   254
  6
CONTINUOUS
  0
LAYER
  5
C6
330
2
100
AcDbSymbolTableRecord
100
AcDbLayerTableRecord
  2
LAYER130
 70
     0
 62
   254
  6
CONTINUOUS
  0
LAYER
  5
C7
330
2
100
AcDbSymbolTableRecord
100
AcDbLayerTableRecord
  2
LAYER131
 70
     0
 62
     2
  6
CONTINUOUS
  0
LAYER
  5
C8
330
2
100
AcDbSymbolTableRecord
100
AcDbLayerTableRecord
  2
LAYER132
 70
     0
 62
     2
  6
CONTINUOUS
  0
LAYER
  5
C9
330
2
100
AcDbSymbolTableRecord
100
AcDbLayerTableRecord
  2
LAYER133
 70
     0
 62
     2
  6
CONTINUOUS
  0
LAYER
  5
CA
330
2
100
AcDbSymbolTableRecord
100
AcDbLayerTableRecord
  2
LAYER134
 70
     0
 62
     2
  6
CONTINUOUS
  0
LAYER
  5
CB
330
2
100
AcDbSymbolTableRecord
100
AcDbLayerTableRecord
  2
LAYER135
 70
     0
 62
     2
  6
CONTINUOUS
  0
LAYER
  5
CC
330
2
100
AcDbSymbolTableRecord
100
AcDbLayerTableRecord
  2
LAYER136
 70
     0
 62
     2
  6
CONTINUOUS
  0
LAYER
  5
CD
330
2
100
AcDbSymbolTableRecord
100
AcDbLayerTableRecord
  2
LAYER137
 70
     0
 62
     2
  6
CONTINUOUS
  0
LAYER
  5
CE
330
2
100
AcDbSymbolTableRecord
100
AcDbLayerTableRecord
  2
LAYER138
 70
     0
 62
     2
  6
CONTINUOUS
  0
LAYER
  5
CF
330
2
100
AcDbSymbolTableRecord
100
AcDbLayerTableRecord
  2
LAYER139
 70
     0
 62
     2
  6
CONTINUOUS
  0
LAYER
  5
D0
330
2
100
AcDbSymbolTableRecord
100
AcDbLayerTableRecord
  2
LAYER140
 70
     0
 62
     2
  6
CONTINUOUS
  0
LAYER
  5
D1
330
2
100
AcDbSymbolTableRecord
100
AcDbLayerTableRecord
  2
LAYER141
 70
     0
 62
     3
  6
CONTINUOUS
  0
LAYER
  5
D2
330
2
100
AcDbSymbolTableRecord
100
AcDbLayerTableRecord
  2
LAYER142
 70
     0
 62
     3
  6
CONTINUOUS
  0
LAYER
  5
D3
330
2
100
AcDbSymbolTableRecord
100
AcDbLayerTableRecord
  2
LAYER143
 70
     0
 62
     3
  6
CONTINUOUS
  0
LAYER
  5
D4
330
2
100
AcDbSymbolTableRecord
100
AcDbLayerTableRecord
  2
LAYER144
 70
     0
 62
     3
  6
CONTINUOUS
  0
LAYER
  5
D5
330
2
100
AcDbSymbolTableRecord
100
AcDbLayerTableRecord
  2
LAYER145
 70
     0
 62
     3
  6
CONTINUOUS
  0
LAYER
  5
D6
330
2
100
AcDbSymbolTableRecord
100
AcDbLayerTableRecord
  2
LAYER146
 70
     0
 62
     3
  6
CONTINUOUS
  0
LAYER
  5
D7
330
2
100
AcDbSymbolTableRecord
100
AcDbLayerTableRecord
  2
LAYER147
 70
     0
 62
     3
  6
CONTINUOUS
  0
LAYER
  5
D8
330
2
100
AcDbSymbolTableRecord
100
AcDbLayerTableRecord
  2
LAYER148
 70
     0
 62
     3
  6
CONTINUOUS
  0
LAYER
  5
D9
330
2
100
AcDbSymbolTableRecord
100
AcDbLayerTableRecord
  2
LAYER149
 70
     0
 62
     3
  6
CONTINUOUS
  0
LAYER
  5
DA
330
2
100
AcDbSymbolTableRecord
100
AcDbLayerTableRecord
  2
LAYER150
 70
     0
 62
     3
  6
CONTINUOUS
  0
LAYER
  5
DB
330
2
100
AcDbSymbolTableRecord
100
AcDbLayerTableRecord
  2
LAYER151
 70
     0
 62
     5
  6
CONTINUOUS
  0
LAYER
  5
DC
330
2
100
AcDbSymbolTableRecord
100
AcDbLayerTableRecord
  2
LAYER152
 70
     0
 62
     5
  6
CONTINUOUS
  0
LAYER
  5
DD
330
2
100
AcDbSymbolTableRecord
100
AcDbLayerTableRecord
  2
LAYER153
 70
     0
 62
     5
  6
CONTINUOUS
  0
LAYER
  5
DE
330
2
100
AcDbSymbolTableRecord
100
AcDbLayerTableRecord
  2
LAYER154
 70
     0
 62
     5
  6
CONTINUOUS
  0
LAYER
  5
DF
330
2
100
AcDbSymbolTableRecord
100
AcDbLayerTableRecord
  2
LAYER155
 70
     0
 62
     5
  6
CONTINUOUS
  0
LAYER
  5
E0
330
2
100
AcDbSymbolTableRecord
100
AcDbLayerTableRecord
  2
LAYER156
 70
     0
 62
     5
  6
CONTINUOUS
  0
LAYER
  5
E1
330
2
100
AcDbSymbolTableRecord
100
AcDbLayerTableRecord
  2
LAYER157
 70
     0
 62
     5
  6
CONTINUOUS
  0
LAYER
  5
E2
330
2
100
AcDbSymbolTableRecord
100
AcDbLayerTableRecord
  2
LAYER158
 70
     0
 62
     5
  6
CONTINUOUS
  0
LAYER
  5
E3
330
2
100
AcDbSymbolTableRecord
100
AcDbLayerTableRecord
  2
LAYER159
 70
     0
 62
     5
  6
CONTINUOUS
  0
LAYER
  5
E4
330
2
100
AcDbSymbolTableRecord
100
AcDbLayerTableRecord
  2
LAYER160
 70
     0
 62
     5
  6
CONTINUOUS
  0
LAYER
  5
E5
330
2
100
AcDbSymbolTableRecord
100
AcDbLayerTableRecord
  2
LAYER161
 70
     0
 62
     4
  6
CONTINUOUS
  0
LAYER
  5
E6
330
2
100
AcDbSymbolTableRecord
100
AcDbLayerTableRecord
  2
LAYER162
 70
     0
 62
     4
  6
CONTINUOUS
  0
LAYER
  5
E7
330
2
100
AcDbSymbolTableRecord
100
AcDbLayerTableRecord
  2
LAYER163
 70
     0
 62
     4
  6
CONTINUOUS
  0
LAYER
  5
E8
330
2
100
AcDbSymbolTableRecord
100
AcDbLayerTableRecord
  2
LAYER164
 70
     0
 62
     4
  6
CONTINUOUS
  0
LAYER
  5
E9
330
2
100
AcDbSymbolTableRecord
100
AcDbLayerTableRecord
  2
LAYER165
 70
     0
 62
     4
  6
CONTINUOUS
  0
LAYER
  5
EA
330
2
100
AcDbSymbolTableRecord
100
AcDbLayerTableRecord
  2
LAYER166
 70
     0
 62
     4
  6
CONTINUOUS
  0
LAYER
  5
EB
330
2
100
AcDbSymbolTableRecord
100
AcDbLayerTableRecord
  2
LAYER167
 70
     0
 62
     4
  6
CONTINUOUS
  0
LAYER
  5
EC
330
2
100
AcDbSymbolTableRecord
100
AcDbLayerTableRecord
  2
LAYER168
 70
     0
 62
     4
  6
CONTINUOUS
  0
LAYER
  5
ED
330
2
100
AcDbSymbolTableRecord
100
AcDbLayerTableRecord
  2
LAYER169
 70
     0
 62
     4
  6
CONTINUOUS
  0
LAYER
  5
EE
330
2
100
AcDbSymbolTableRecord
100
AcDbLayerTableRecord
  2
LAYER170
 70
     0
 62
     4
  6
CONTINUOUS
  0
LAYER
  5
EF
330
2
100
AcDbSymbolTableRecord
100
AcDbLayerTableRecord
  2
LAYER171
 70
     0
 62
   163
  6
CONTINUOUS
  0
LAYER
  5
F0
330
2
100
AcDbSymbolTableRecord
100
AcDbLayerTableRecord
  2
LAYER172
 70
     0
 62
   163
  6
CONTINUOUS
  0
LAYER
  5
F1
330
2
100
AcDbSymbolTableRecord
100
AcDbLayerTableRecord
  2
LAYER173
 70
     0
 62
   163
  6
CONTINUOUS
  0
LAYER
  5
F2
330
2
100
AcDbSymbolTableRecord
100
AcDbLayerTableRecord
  2
LAYER174
 70
     0
 62
   163
  6
CONTINUOUS
  0
LAYER
  5
F3
330
2
100
AcDbSymbolTableRecord
100
AcDbLayerTableRecord
  2
LAYER175
 70
     0
 62
   163
  6
CONTINUOUS
  0
LAYER
  5
F4
330
2
100
AcDbSymbolTableRecord
100
AcDbLayerTableRecord
  2
LAYER176
 70
     0
 62
   163
  6
CONTINUOUS
  0
LAYER
  5
F5
330
2
100
AcDbSymbolTableRecord
100
AcDbLayerTableRecord
  2
LAYER177
 70
     0
 62
   163
  6
CONTINUOUS
  0
LAYER
  5
F6
330
2
100
AcDbSymbolTableRecord
100
AcDbLayerTableRecord
  2
LAYER178
 70
     0
 62
   163
  6
CONTINUOUS
  0
LAYER
  5
F7
330
2
100
AcDbSymbolTableRecord
100
AcDbLayerTableRecord
  2
LAYER179
 70
     0
 62
   163
  6
CONTINUOUS
  0
LAYER
  5
F8
330
2
100
AcDbSymbolTableRecord
100
AcDbLayerTableRecord
  2
LAYER180
 70
     0
 62
   163
  6
CONTINUOUS
  0
LAYER
  5
F9
330
2
100
AcDbSymbolTableRecord
100
AcDbLayerTableRecord
  2
LAYER181
 70
     0
 62
    31
  6
CONTINUOUS
  0
LAYER
  5
FA
330
2
100
AcDbSymbolTableRecord
100
AcDbLayerTableRecord
  2
LAYER182
 70
     0
 62
    31
  6
CONTINUOUS
  0
LAYER
  5
FB
330
2
100
AcDbSymbolTableRecord
100
AcDbLayerTableRecord
  2
LAYER183
 70
     0
 62
    31
  6
CONTINUOUS
  0
LAYER
  5
FC
330
2
100
AcDbSymbolTableRecord
100
AcDbLayerTableRecord
  2
LAYER184
 70
     0
 62
    31
  6
CONTINUOUS
  0
LAYER
  5
FD
330
2
100
AcDbSymbolTableRecord
100
AcDbLayerTableRecord
  2
LAYER185
 70
     0
 62
    31
  6
CONTINUOUS
  0
LAYER
  5
FE
330
2
100
AcDbSymbolTableRecord
100
AcDbLayerTableRecord
  2
LAYER186
 70
     0
 62
    31
  6
CONTINUOUS
  0
LAYER
  5
FF
330
2
100
AcDbSymbolTableRecord
100
AcDbLayerTableRecord
  2
LAYER187
 70
     0
 62
    31
  6
CONTINUOUS
  0
LAYER
  5
100
330
2
100
AcDbSymbolTableRecord
100
AcDbLayerTableRecord
  2
LAYER188
 70
     0
 62
    31
  6
CONTINUOUS
  0
LAYER
  5
101
330
2
100
AcDbSymbolTableRecord
100
AcDbLayerTableRecord
  2
LAYER189
 70
     0
 62
    31
  6
CONTINUOUS
  0
LAYER
  5
102
330
2
100
AcDbSymbolTableRecord
100
AcDbLayerTableRecord
  2
LAYER190
 70
     0
 62
    31
  6
CONTINUOUS
  0
LAYER
  5
103
330
2
100
AcDbSymbolTableRecord
100
AcDbLayerTableRecord
  2
LAYER191
 70
     0
 62
    71
  6
CONTINUOUS
  0
LAYER
  5
104
330
2
100
AcDbSymbolTableRecord
100
AcDbLayerTableRecord
  2
LAYER192
 70
     0
 62
    71
  6
CONTINUOUS
  0
LAYER
  5
105
330
2
100
AcDbSymbolTableRecord
100
AcDbLayerTableRecord
  2
LAYER193
 70
     0
 62
    71
  6
CONTINUOUS
  0
LAYER
  5
106
330
2
100
AcDbSymbolTableRecord
100
AcDbLayerTableRecord
  2
LAYER194
 70
     0
 62
    71
  6
CONTINUOUS
  0
LAYER
  5
107
330
2
100
AcDbSymbolTableRecord
100
AcDbLayerTableRecord
  2
LAYER195
 70
     0
 62
    71
  6
CONTINUOUS
  0
LAYER
  5
108
330
2
100
AcDbSymbolTableRecord
100
AcDbLayerTableRecord
  2
LAYER196
 70
     0
 62
    71
  6
CONTINUOUS
  0
LAYER
  5
109
330
2
100
AcDbSymbolTableRecord
100
AcDbLayerTableRecord
  2
LAYER197
 70
     0
 62
    71
  6
CONTINUOUS
  0
LAYER
  5
10A
330
2
100
AcDbSymbolTableRecord
100
AcDbLayerTableRecord
  2
LAYER198
 70
     0
 62
    71
  6
CONTINUOUS
  0
LAYER
  5
10B
330
2
100
AcDbSymbolTableRecord
100
AcDbLayerTableRecord
  2
LAYER199
 70
     0
 62
    71
  6
CONTINUOUS
  0
LAYER
  5
10C
330
2
100
AcDbSymbolTableRecord
100
AcDbLayerTableRecord
  2
LAYER200
 70
     0
 62
    71
  6
CONTINUOUS
  0
LAYER
  5
10D
330
2
100
AcDbSymbolTableRecord
100
AcDbLayerTableRecord
  2
LAYER201
 70
     0
 62
   241
  6
CONTINUOUS
  0
LAYER
  5
10E
330
2
100
AcDbSymbolTableRecord
100
AcDbLayerTableRecord
  2
LAYER202
 70
     0
 62
   241
  6
CONTINUOUS
  0
LAYER
  5
10F
330
2
100
AcDbSymbolTableRecord
100
AcDbLayerTableRecord
  2
LAYER203
 70
     0
 62
   241
  6
CONTINUOUS
  0
LAYER
  5
110
330
2
100
AcDbSymbolTableRecord
100
AcDbLayerTableRecord
  2
LAYER204
 70
     0
 62
   241
  6
CONTINUOUS
  0
LAYER
  5
111
330
2
100
AcDbSymbolTableRecord
100
AcDbLayerTableRecord
  2
LAYER205
 70
     0
 62
   241
  6
CONTINUOUS
  0
LAYER
  5
112
330
2
100
AcDbSymbolTableRecord
100
AcDbLayerTableRecord
  2
LAYER206
 70
     0
 62
   241
  6
CONTINUOUS
  0
LAYER
  5
113
330
2
100
AcDbSymbolTableRecord
100
AcDbLayerTableRecord
  2
LAYER207
 70
     0
 62
   241
  6
CONTINUOUS
  0
LAYER
  5
114
330
2
100
AcDbSymbolTableRecord
100
AcDbLayerTableRecord
  2
LAYER208
 70
     0
 62
   241
  6
CONTINUOUS
  0
LAYER
  5
115
330
2
100
AcDbSymbolTableRecord
100
AcDbLayerTableRecord
  2
LAYER209
 70
     0
 62
   241
  6
CONTINUOUS
  0
LAYER
  5
116
330
2
100
AcDbSymbolTableRecord
100
AcDbLayerTableRecord
  2
LAYER210
 70
     0
 62
   241
  6
CONTINUOUS
  0
LAYER
  5
117
330
2
100
AcDbSymbolTableRecord
100
AcDbLayerTableRecord
  2
LAYER211
 70
     0
 62
   191
  6
CONTINUOUS
  0
LAYER
  5
118
330
2
100
AcDbSymbolTableRecord
100
AcDbLayerTableRecord
  2
LAYER212
 70
     0
 62
   191
  6
CONTINUOUS
  0
LAYER
  5
119
330
2
100
AcDbSymbolTableRecord
100
AcDbLayerTableRecord
  2
LAYER213
 70
     0
 62
   191
  6
CONTINUOUS
  0
LAYER
  5
11A
330
2
100
AcDbSymbolTableRecord
100
AcDbLayerTableRecord
  2
LAYER214
 70
     0
 62
   191
  6
CONTINUOUS
  0
LAYER
  5
11B
330
2
100
AcDbSymbolTableRecord
100
AcDbLayerTableRecord
  2
LAYER215
 70
     0
 62
   191
  6
CONTINUOUS
  0
LAYER
  5
11C
330
2
100
AcDbSymbolTableRecord
100
AcDbLayerTableRecord
  2
LAYER216
 70
     0
 62
   191
  6
CONTINUOUS
  0
LAYER
  5
11D
330
2
100
AcDbSymbolTableRecord
100
AcDbLayerTableRecord
  2
LAYER217
 70
     0
 62
   191
  6
CONTINUOUS
  0
LAYER
  5
11E
330
2
100
AcDbSymbolTableRecord
100
AcDbLayerTableRecord
  2
LAYER218
 70
     0
 62
   191
  6
CONTINUOUS
  0
LAYER
  5
11F
330
2
100
AcDbSymbolTableRecord
100
AcDbLayerTableRecord
  2
LAYER219
 70
     0
 62
   191
  6
CONTINUOUS
  0
LAYER
  5
120
330
2
100
AcDbSymbolTableRecord
100
AcDbLayerTableRecord
  2
LAYER220
 70
     0
 62
   191
  6
CONTINUOUS
  0
LAYER
  5
121
330
2
100
AcDbSymbolTableRecord
100
AcDbLayerTableRecord
  2
LAYER221
 70
     0
 62
   215
  6
CONTINUOUS
  0
LAYER
  5
122
330
2
100
AcDbSymbolTableRecord
100
AcDbLayerTableRecord
  2
LAYER222
 70
     0
 62
   215
  6
CONTINUOUS
  0
LAYER
  5
123
330
2
100
AcDbSymbolTableRecord
100
AcDbLayerTableRecord
  2
LAYER223
 70
     0
 62
   215
  6
CONTINUOUS
  0
LAYER
  5
124
330
2
100
AcDbSymbolTableRecord
100
AcDbLayerTableRecord
  2
LAYER224
 70
     0
 62
   215
  6
CONTINUOUS
  0
LAYER
  5
125
330
2
100
AcDbSymbolTableRecord
100
AcDbLayerTableRecord
  2
LAYER225
 70
     0
 62
   215
  6
CONTINUOUS
  0
LAYER
  5
126
330
2
100
AcDbSymbolTableRecord
100
AcDbLayerTableRecord
  2
LAYER226
 70
     0
 62
   215
  6
CONTINUOUS
  0
LAYER
  5
127
330
2
100
AcDbSymbolTableRecord
100
AcDbLayerTableRecord
  2
LAYER227
 70
     0
 62
   215
  6
CONTINUOUS
  0
LAYER
  5
128
330
2
100
AcDbSymbolTableRecord
100
AcDbLayerTableRecord
  2
LAYER228
 70
     0
 62
   215
  6
CONTINUOUS
  0
LAYER
  5
129
330
2
100
AcDbSymbolTableRecord
100
AcDbLayerTableRecord
  2
LAYER229
 70
     0
 62
   215
  6
CONTINUOUS
  0
LAYER
  5
12A
330
2
100
AcDbSymbolTableRecord
100
AcDbLayerTableRecord
  2
LAYER230
 70
     0
 62
   215
  6
CONTINUOUS
  0
LAYER
  5
12B
330
2
100
AcDbSymbolTableRecord
100
AcDbLayerTableRecord
  2
LAYER231
 70
     0
 62
   155
  6
CONTINUOUS
  0
LAYER
  5
12C
330
2
100
AcDbSymbolTableRecord
100
AcDbLayerTableRecord
  2
LAYER232
 70
     0
 62
   155
  6
CONTINUOUS
  0
LAYER
  5
12D
330
2
100
AcDbSymbolTableRecord
100
AcDbLayerTableRecord
  2
LAYER233
 70
     0
 62
   155
  6
CONTINUOUS
  0
LAYER
  5
12E
330
2
100
AcDbSymbolTableRecord
100
AcDbLayerTableRecord
  2
LAYER234
 70
     0
 62
   155
  6
CONTINUOUS
  0
LAYER
  5
12F
330
2
100
AcDbSymbolTableRecord
100
AcDbLayerTableRecord
  2
LAYER235
 70
     0
 62
   155
  6
CONTINUOUS
  0
LAYER
  5
130
330
2
100
AcDbSymbolTableRecord
100
AcDbLayerTableRecord
  2
LAYER236
 70
     0
 62
   155
  6
CONTINUOUS
  0
LAYER
  5
131
330
2
100
AcDbSymbolTableRecord
100
AcDbLayerTableRecord
  2
LAYER237
 70
     0
 62
   155
  6
CONTINUOUS
  0
LAYER
  5
132
330
2
100
AcDbSymbolTableRecord
100
AcDbLayerTableRecord
  2
LAYER238
 70
     0
 62
   155
  6
CONTINUOUS
  0
LAYER
  5
133
330
2
100
AcDbSymbolTableRecord
100
AcDbLayerTableRecord
  2
LAYER239
 70
     0
 62
   155
  6
CONTINUOUS
  0
LAYER
  5
134
330
2
100
AcDbSymbolTableRecord
100
AcDbLayerTableRecord
  2
LAYER240
 70
     0
 62
   155
  6
CONTINUOUS
  0
LAYER
  5
135
330
2
100
AcDbSymbolTableRecord
100
AcDbLayerTableRecord
  2
LAYER241
 70
     0
 62
   232
  6
CONTINUOUS
  0
LAYER
  5
136
330
2
100
AcDbSymbolTableRecord
100
AcDbLayerTableRecord
  2
LAYER242
 70
     0
 62
   232
  6
CONTINUOUS
  0
LAYER
  5
137
330
2
100
AcDbSymbolTableRecord
100
AcDbLayerTableRecord
  2
LAYER243
 70
     0
 62
   232
  6
CONTINUOUS
  0
LAYER
  5
138
330
2
100
AcDbSymbolTableRecord
100
AcDbLayerTableRecord
  2
LAYER244
 70
     0
 62
   232
  6
CONTINUOUS
  0
LAYER
  5
139
330
2
100
AcDbSymbolTableRecord
100
AcDbLayerTableRecord
  2
LAYER245
 70
     0
 62
   232
  6
CONTINUOUS
  0
LAYER
  5
13A
330
2
100
AcDbSymbolTableRecord
100
AcDbLayerTableRecord
  2
LAYER246
 70
     0
 62
   232
  6
CONTINUOUS
  0
LAYER
  5
13B
330
2
100
AcDbSymbolTableRecord
100
AcDbLayerTableRecord
  2
LAYER247
 70
     0
 62
   232
  6
CONTINUOUS
  0
LAYER
  5
13C
330
2
100
AcDbSymbolTableRecord
100
AcDbLayerTableRecord
  2
LAYER248
 70
     0
 62
   232
  6
CONTINUOUS
  0
LAYER
  5
13D
330
2
100
AcDbSymbolTableRecord
100
AcDbLayerTableRecord
  2
LAYER249
 70
     0
 62
   232
  6
CONTINUOUS
  0
LAYER
  5
13E
330
2
100
AcDbSymbolTableRecord
100
AcDbLayerTableRecord
  2
LAYER250
 70
     0
 62
   232
  6
CONTINUOUS
  0
LAYER
  5
13F
330
2
100
AcDbSymbolTableRecord
100
AcDbLayerTableRecord
  2
LAYER251
 70
     0
 62
   254
  6
CONTINUOUS
  0
LAYER
  5
140
330
2
100
AcDbSymbolTableRecord
100
AcDbLayerTableRecord
  2
LAYER252
 70
     0
 62
   254
  6
CONTINUOUS
  0
LAYER
  5
141
330
2
100
AcDbSymbolTableRecord
100
AcDbLayerTableRecord
  2
LAYER253
 70
     0
 62
   254
  6
CONTINUOUS
  0
LAYER
  5
142
330
2
100
AcDbSymbolTableRecord
100
AcDbLayerTableRecord
  2
LAYER254
 70
     0
 62
   254
  6
CONTINUOUS
  0
LAYER
  5
143
330
2
100
AcDbSymbolTableRecord
100
AcDbLayerTableRecord
  2
LAYER255
 70
     0
 62
   254
  6
CONTINUOUS
  0
LAYER
  5
144
330
2
100
AcDbSymbolTableRecord
100
AcDbLayerTableRecord
  2
LAYER256
 70
     0
 62
   254
  6
CONTINUOUS
  0
LAYER
  5
145
330
2
100
AcDbSymbolTableRecord
100
AcDbLayerTableRecord
  2
SLD-DEFPOINTS
 70
     0
 62
   179
  6
CONTINUOUS
  0
LAYER
  5
146
330
2
100
AcDbSymbolTableRecord
100
AcDbLayerTableRecord
  2
FORMAT
 70
     0
 62
     7
  6
CONTINUOUS
  0
ENDTAB
  0
TABLE
  2
STYLE
  5
3
330
0
100
AcDbSymbolTable
 70
     2
  0
STYLE
  5
11
330
3
100
AcDbSymbolTableRecord
100
AcDbTextStyleTableRecord
  2
STANDARD
 70
     0
 40
0.0
 41
1.0
 50
0.0
 71
     0
 42
2.5
  3
txt
  4
bigfont
  0
STYLE
  5
207
330
3
100
AcDbSymbolTableRecord
100
AcDbTextStyleTableRecord
  2
SLDTEXTSTYLE0
 70
     0
 40
0.0
 41
0.7
 50
0.0
 71
     0
 42
0.2
  3
TXT
  4
bigfont
  0
ENDTAB
  0
TABLE
  2
VIEW
  5
6
330
0
100
AcDbSymbolTable
 70
     0
  0
ENDTAB
  0
TABLE
  2
UCS
  5
7
330
0
100
AcDbSymbolTable
 70
     0
  0
ENDTAB
  0
TABLE
  2
APPID
  5
9
330
0
100
AcDbSymbolTable
 70
     1
  0
APPID
  5
12
330
9
100
AcDbSymbolTableRecord
100
AcDbRegAppTableRecord
  2
ACAD
 70
     0
  0
ENDTAB
  0
TABLE
  2
DIMSTYLE
  5
A
330
0
100
AcDbSymbolTable
 70
     5
  0
DIMSTYLE
105
27
330
A
100
AcDbSymbolTableRecord
100
AcDbDimStyleTableRecord
  2
ISO-25
 70
     0
  3

  4

  5

  6

  7

 40
1.0
 41
2.5
 42
0.625
 43
3.75
 44
1.25
 45
0.0
 46
0.0
 47
0.0
 48
0.0
140
2.5
141
2.5
142
0.0
143
0.0393700787
144
1.0
145
0.0
146
1.0
147
0.625
 71
     0
 72
     0
 73
     0
 74
     0
 75
     0
 76
     0
 77
     1
 78
     8
170
     0
171
     3
172
     1
173
     0
174
     0
175
     0
176
     0
177
     0
178
     0
270
     2
271
     2
272
     2
273
     2
274
     3
340
11
275
     0
280
     0
281
     0
282
     0
283
     0
284
     8
285
     0
286
     0
287
     3
288
     0
  0
DIMSTYLE
105
208
102
{ACAD_REACTORS
330
206
330
217
330
222
330
22C
330
237
330
241
330
3DB
330
3E4
330
3ED
330
3F7
102
}
330
A
100
AcDbSymbolTableRecord
100
AcDbDimStyleTableRecord
  2
SLDDIMSTYLE0
 70
     0
  3

  4

  5

  6
OPEN30
  7
OPEN30
 40
1.0
 41
3.0
 42
0.0625
 43
0.38
 44
0.0
 45
0.000000001
 46
0.0
 47
0.0
 48
0.0
140
3.5
141
0.09
142
0.0
143
25.4
144
1.0
145
0.0
146
1.0
147
0.875
 71
     0
 72
     0
 73
     0
 74
     0
 75
     0
 76
     0
 77
     3
 78
    12
170
     0
171
     2
172
     0
173
     1
174
     0
175
     0
176
     0
177
     0
178
     0
270
     2
271
     4
272
     4
273
     2
274
     2
340
207
275
     0
280
     0
281
     0
282
     0
283
     1
284
    12
285
     0
286
     0
287
     3
288
     0
  0
DIMSTYLE
105
24D
102
{ACAD_REACTORS
330
24C
102
}
330
A
100
AcDbSymbolTableRecord
100
AcDbDimStyleTableRecord
  2
SLDDIMSTYLE1
 70
     0
  3

  4

  5

  6
OPEN30
  7
OPEN30
 40
1.0
 41
3.0
 42
0.0625
 43
0.38
 44
0.0
 45
0.000000001
 46
0.0
 47
0.0
 48
0.0
140
3.5
141
0.09
142
0.0
143
25.4
144
1.0
145
0.0
146
1.0
147
0.875
 71
     0
 72
     0
 73
     0
 74
     0
 75
     0
 76
     0
 77
     3
 78
    12
170
     0
171
     2
172
     1
173
     1
174
     0
175
     0
176
     0
177
     0
178
     0
270
     2
271
     4
272
     4
273
     2
274
     2
340
207
275
     0
280
     0
281
     0
282
     0
283
     1
284
    12
285
     0
286
     0
288
     0
  0
DIMSTYLE
105
3D1
102
{ACAD_REACTORS
330
3D0
330
400
102
}
330
A
100
AcDbSymbolTableRecord
100
AcDbDimStyleTableRecord
  2
SLDDIMSTYLE2
 70
     0
  3

  4

  5

  6
OPEN30
  7
OPEN30
 40
1.0
 41
3.0
 42
0.0625
 43
0.38
 44
0.0
 45
0.000000001
 46
0.0
 47
0.0
 48
0.0
140
3.5
141
0.09
142
0.0
143
25.4
144
1.0
145
0.0
146
1.0
147
0.875
 71
     0
 72
     0
 73
     0
 74
     0
 75
     0
 76
     0
 77
     3
 78
    12
170
     0
171
     2
172
     0
173
     1
174
     0
175
     0
176
     0
177
     0
178
     0
270
     2
271
     0
272
     4
273
     2
274
     2
340
207
275
     0
280
     0
281
     0
282
     0
283
     1
284
    12
285
     0
286
     0
287
     3
288
     0
  0
DIMSTYLE
105
410
330
A
100
AcDbSymbolTableRecord
100
AcDbDimStyleTableRecord
  2
SLDDIMSTYLE3
 70
     0
  3

  4

  5

  6
OPEN30
  7
OPEN30
 40
1.0
 41
3.0
 42
0.0625
 43
0.38
 44
0.0
 45
0.000000001
 46
0.0
 47
0.0
 48
0.0
140
0.0
141
0.09
142
0.0
143
25.4
144
1.0
145
0.0
146
3.0
147
0.0
 71
     0
 72
     0
 73
     1
 74
     1
 75
     0
 76
     0
 77
     0
 78
     0
170
     0
171
     2
172
     0
173
     1
174
     0
175
     0
176
     0
177
     0
178
     0
270
     2
271
     0
272
     0
273
     2
274
     2
340
11
275
     0
280
     0
281
     0
282
     0
283
     1
284
     0
285
     0
286
     0
287
     3
288
     0
  0
ENDTAB
  0
TABLE
  2
BLOCK_RECORD
  5
1
330
0
100
AcDbSymbolTable
 70
    24
  0
BLOCK_RECORD
  5
1F
330
1
100
AcDbSymbolTableRecord
100
AcDbBlockTableRecord
  2
*MODEL_SPACE
  0
BLOCK_RECORD
  5
1B
330
1
100
AcDbSymbolTableRecord
100
AcDbBlockTableRecord
  2
*PAPER_SPACE
  0
BLOCK_RECORD
  5
23
330
1
100
AcDbSymbolTableRecord
100
AcDbBlockTableRecord
  2
*PAPER_SPACE0
  0
BLOCK_RECORD
  5
209
330
1
100
AcDbSymbolTableRecord
100
AcDbBlockTableRecord
  2
_OPEN30
  0
BLOCK_RECORD
  5
20F
330
1
100
AcDbSymbolTableRecord
100
AcDbBlockTableRecord
  2
*D2
  0
BLOCK_RECORD
  5
218
330
1
100
AcDbSymbolTableRecord
100
AcDbBlockTableRecord
  2
*D3
  0
BLOCK_RECORD
  5
223
330
1
100
AcDbSymbolTableRecord
100
AcDbBlockTableRecord
  2
*D4
  0
BLOCK_RECORD
  5
22D
330
1
100
AcDbSymbolTableRecord
100
AcDbBlockTableRecord
  2
*D5
  0
BLOCK_RECORD
  5
238
330
1
100
AcDbSymbolTableRecord
100
AcDbBlockTableRecord
  2
*D6
  0
BLOCK_RECORD
  5
242
330
1
100
AcDbSymbolTableRecord
100
AcDbBlockTableRecord
  2
*D7
  0
BLOCK_RECORD
  5
24E
330
1
100
AcDbSymbolTableRecord
100
AcDbBlockTableRecord
  2
*D8
  0
BLOCK_RECORD
  5
25A
330
1
100
AcDbSymbolTableRecord
100
AcDbBlockTableRecord
  2
SW_CENTERMARKSYMBOL_0
  0
BLOCK_RECORD
  5
3D2
330
1
100
AcDbSymbolTableRecord
100
AcDbBlockTableRecord
  2
*D10
  0
BLOCK_RECORD
  5
3DC
330
1
100
AcDbSymbolTableRecord
100
AcDbBlockTableRecord
  2
*D11
  0
BLOCK_RECORD
  5
3E5
330
1
100
AcDbSymbolTableRecord
100
AcDbBlockTableRecord
  2
*D12
  0
BLOCK_RECORD
  5
3EE
330
1
100
AcDbSymbolTableRecord
100
AcDbBlockTableRecord
  2
*D13
  0
BLOCK_RECORD
  5
3F8
330
1
100
AcDbSymbolTableRecord
100
AcDbBlockTableRecord
  2
*D14
  0
BLOCK_RECORD
  5
401
330
1
100
AcDbSymbolTableRecord
100
AcDbBlockTableRecord
  2
*D15
  0
BLOCK_RECORD
  5
40A
330
1
100
AcDbSymbolTableRecord
100
AcDbBlockTableRecord
  2
SW_NOTE_0
  0
BLOCK_RECORD
  5
412
330
1
100
AcDbSymbolTableRecord
100
AcDbBlockTableRecord
  2
SW_NOTE_1
  0
BLOCK_RECORD
  5
419
330
1
100
AcDbSymbolTableRecord
100
AcDbBlockTableRecord
  2
SW_NOTE_2
  0
BLOCK_RECORD
  5
420
330
1
100
AcDbSymbolTableRecord
100
AcDbBlockTableRecord
  2
SW_NOTE_3
  0
BLOCK_RECORD
  5
42B
330
1
100
AcDbSymbolTableRecord
100
AcDbBlockTableRecord
  2
SW_CENTERMARKSYMBOL_1
  0
BLOCK_RECORD
  5
457
330
1
100
AcDbSymbolTableRecord
100
AcDbBlockTableRecord
  2
SW_CENTERMARKSYMBOL_2
  0
BLOCK_RECORD
  5
463
330
1
100
AcDbSymbolTableRecord
100
AcDbBlockTableRecord
  2
SW_CENTERMARKSYMBOL_3
  0
BLOCK_RECORD
  5
46F
330
1
100
AcDbSymbolTableRecord
100
AcDbBlockTableRecord
  2
SW_CENTERMARKSYMBOL_4
  0
ENDTAB
  0
ENDSEC
  0
SECTION
  2
BLOCKS
  0
BLOCK
  5
20
330
1F
100
AcDbEntity
  8
0
100
AcDbBlockBegin
  2
*MODEL_SPACE
 70
     0
 10
0.0
 20
0.0
 30
0.0
  3
*MODEL_SPACE
  1

  0
ENDBLK
  5
21
330
1F
100
AcDbEntity
  8
0
100
AcDbBlockEnd
  0
BLOCK
  5
1C
330
1B
100
AcDbEntity
 67
     1
  8
0
100
AcDbBlockBegin
  2
*PAPER_SPACE
 70
     0
 10
0.0
 20
0.0
 30
0.0
  3
*PAPER_SPACE
  1

  0
ENDBLK
  5
1D
330
1B
100
AcDbEntity
 67
     1
  8
0
100
AcDbBlockEnd
  0
BLOCK
  5
24
330
23
100
AcDbEntity
  8
0
100
AcDbBlockBegin
  2
*PAPER_SPACE0
 70
     0
 10
0.0
 20
0.0
 30
0.0
  3
*PAPER_SPACE0
  1

  0
ENDBLK
  5
25
330
23
100
AcDbEntity
  8
0
100
AcDbBlockEnd
  0
BLOCK
  5
20A
330
209
100
AcDbEntity
  8
0
100
AcDbBlockBegin
  2
_OPEN30
 70
     0
 10
0.0
 20
0.0
 30
0.0
  3
_OPEN30
  1

  0
LINE
  5
20C
330
209
100
AcDbEntity
  8
0
  6
BYBLOCK
 62
     0
100
AcDbLine
 10
-1.0
 20
0.267949
 30
0.0
 11
0.0
 21
0.0
 31
0.0
  0
LINE
  5
20D
330
209
100
AcDbEntity
  8
0
  6
BYBLOCK
 62
     0
100
AcDbLine
 10
0.0
 20
0.0
 30
0.0
 11
-1.0
 21
-0.267949
 31
0.0
  0
LINE
  5
20E
330
209
100
AcDbEntity
  8
0
  6
BYBLOCK
 62
     0
100
AcDbLine
 10
0.0
 20
0.0
 30
0.0
 11
-1.0
 21
0.0
 31
0.0
  0
ENDBLK
  5
20B
330
209
100
AcDbEntity
  8
0
100
AcDbBlockEnd
  0
BLOCK
  5
210
330
20F
100
AcDbEntity
  8
0
100
AcDbBlockBegin
  2
*D2
 70
     1
 10
0.0
 20
0.0
 30
0.0
  3
*D2
  1

  0
INSERT
  5
212
330
20F
100
AcDbEntity
  8
LAYER001
100
AcDbBlockReference
  2
_OPEN30
 10
-57.9187779278
 20
-92.0184737395
 30
0.1
 41
3.0
 42
3.0
 50
90.0
  0
INSERT
  5
213
330
20F
100
AcDbEntity
  8
LAYER001
100
AcDbBlockReference
  2
_OPEN30
 10
-57.9187779278
 20
-167.5184737395
 30
0.1
 41
3.0
 42
3.0
 50
270.0
  0
LINE
  5
214
330
20F
100
AcDbEntity
  8
LAYER001
100
AcDbLine
 10
-30.3614316581
 20
-167.5184737395
 30
0.0
 11
-58.9187779278
 21
-167.5184737395
 31
0.0
  0
LINE
  5
215
330
20F
100
AcDbEntity
  8
LAYER001
100
AcDbLine
 10
-57.9187779278
 20
-92.0184737395
 30
0.0
 11
-57.9187779278
 21
-167.5184737395
 31
0.0
  0
MTEXT
  5
216
330
20F
100
AcDbEntity
  8
LAYER001
100
AcDbMText
 10
-62.4305147842
 20
-137.1907573804
 30
0.1
 40
3.5
 41
0.0
 71
     1
 72
     1
  1
75.5
  7
SLDTEXTSTYLE0
 11
-7.044195017643634E-15
 21
1.0
 31
0.0
  0
ENDBLK
  5
211
330
20F
100
AcDbEntity
  8
0
100
AcDbBlockEnd
  0
BLOCK
  5
219
330
218
100
AcDbEntity
  8
0
100
AcDbBlockBegin
  2
*D3
 70
     1
 10
0.0
 20
0.0
 30
0.0
  3
*D3
  1

  0
INSERT
  5
21B
330
218
100
AcDbEntity
  8
LAYER001
100
AcDbBlockReference
  2
_OPEN30
 10
-57.9187779278
 20
156.4815262605
 30
0.1
 41
3.0
 42
3.0
 50
90.0
  0
INSERT
  5
21C
330
218
100
AcDbEntity
  8
LAYER001
100
AcDbBlockReference
  2
_OPEN30
 10
-57.9187779278
 20
147.4815262605
 30
0.1
 41
3.0
 42
3.0
 50
270.0
  0
LINE
  5
21D
330
218
100
AcDbEntity
  8
LAYER001
100
AcDbLine
 10
138.7743448857
 20
156.4815262605
 30
0.0
 11
-58.9187779278
 21
156.4815262605
 31
0.0
  0
LINE
  5
21E
330
218
100
AcDbEntity
  8
LAYER001
100
AcDbLine
 10
89.5243448857
 20
147.4815262605
 30
0.0
 11
-58.9187779278
 21
147.4815262605
 31
0.0
  0
LINE
  5
21F
330
218
100
AcDbEntity
  8
LAYER001
100
AcDbLine
 10
-57.9187779278
 20
156.4815262605
 30
0.0
 11
-57.9187779278
 21
147.4815262605
 31
0.0
  0
LINE
  5
220
330
218
100
AcDbEntity
  8
LAYER001
100
AcDbLine
 10
-57.9187779278
 20
147.4815262605
 30
0.0
 11
-57.9187779278
 21
106.910635838
 31
0.0
  0
MTEXT
  5
221
330
218
100
AcDbEntity
  8
LAYER001
100
AcDbMText
 10
-62.4305147842
 20
106.910635838
 30
0.1
 40
3.5
 41
0.0
 71
     1
 72
     1
  1
9
  7
SLDTEXTSTYLE0
 11
-7.044195017643634E-15
 21
1.0
 31
0.0
  0
ENDBLK
  5
21A
330
218
100
AcDbEntity
  8
0
100
AcDbBlockEnd
  0
BLOCK
  5
224
330
223
100
AcDbEntity
  8
0
100
AcDbBlockBegin
  2
*D4
 70
     1
 10
0.0
 20
0.0
 30
0.0
  3
*D4
  1

  0
INSERT
  5
226
330
223
100
AcDbEntity
  8
LAYER001
100
AcDbBlockReference
  2
_OPEN30
 10
-63.2256551143
 20
156.4815262605
 30
0.1
 41
3.0
 42
3.0
 50
90.0
  0
INSERT
  5
227
330
223
100
AcDbEntity
  8
LAYER001
100
AcDbBlockReference
  2
_OPEN30
 10
-63.2256551143
 20
-167.5184737395
 30
0.1
 41
3.0
 42
3.0
 50
270.0
  0
LINE
  5
228
330
223
100
AcDbEntity
  8
LAYER001
100
AcDbLine
 10
138.7743448857
 20
156.4815262605
 30
0.0
 11
-64.2256551143
 21
156.4815262605
 31
0.0
  0
LINE
  5
229
330
223
100
AcDbEntity
  8
LAYER001
100
AcDbLine
 10
-30.3614316581
 20
-167.5184737395
 30
0.0
 11
-64.2256551143
 21
-167.5184737395
 31
0.0
  0
LINE
  5
22A
330
223
100
AcDbEntity
  8
LAYER001
100
AcDbLine
 10
-63.2256551143
 20
156.4815262605
 30
0.0
 11
-63.2256551143
 21
-167.5184737395
 31
0.0
  0
MTEXT
  5
22B
330
223
100
AcDbEntity
  8
LAYER001
100
AcDbMText
 10
-67.7373919706
 20
-0.8826978602
 30
0.1
 40
3.5
 41
0.0
 71
     1
 72
     1
  1
324
  7
SLDTEXTSTYLE0
 11
-7.044195017643634E-15
 21
1.0
 31
0.0
  0
ENDBLK
  5
225
330
223
100
AcDbEntity
  8
0
100
AcDbBlockEnd
  0
BLOCK
  5
22E
330
22D
100
AcDbEntity
  8
0
100
AcDbBlockBegin
  2
*D5
 70
     1
 10
0.0
 20
0.0
 30
0.0
  3
*D5
  1

  0
INSERT
  5
230
330
22D
100
AcDbEntity
  8
LAYER001
100
AcDbBlockReference
  2
_OPEN30
 10
-30.2256551143
 20
161.9110234901
 30
0.1
 41
3.0
 42
3.0
 50
180.0
  0
INSERT
  5
231
330
22D
100
AcDbEntity
  8
LAYER001
100
AcDbBlockReference
  2
_OPEN30
 10
309.7743448857
 20
161.9110234901
 30
0.1
 41
3.0
 42
3.0
 50
0.0
  0
LINE
  5
232
330
22D
100
AcDbEntity
  8
LAYER001
100
AcDbLine
 10
-30.2256551143
 20
111.8575888557
 30
0.0
 11
-30.2256551143
 21
162.9110234901
 31
0.0
  0
LINE
  5
233
330
22D
100
AcDbEntity
  8
LAYER001
100
AcDbLine
 10
309.7743448857
 20
111.8575888557
 30
0.0
 11
309.7743448857
 21
162.9110234901
 31
0.0
  0
LINE
  5
234
330
22D
100
AcDbEntity
  8
LAYER001
100
AcDbLine
 10
-30.2256551143
 20
161.9110234901
 30
0.0
 11
309.7743448857
 21
161.9110234901
 31
0.0
  0
MTEXT
  5
235
330
22D
100
AcDbEntity
  8
LAYER001
100
AcDbMText
 10
118.3771367475
 20
166.4227608122
 30
0.1
 40
3.5
 41
0.0
 71
     1
 72
     1
  1
%%c
  7
SLDTEXTSTYLE0
  0
MTEXT
  5
236
330
22D
100
AcDbEntity
  8
LAYER001
100
AcDbMText
 10
122.2470672625
 20
166.4227608122
 30
0.1
 40
3.5
 41
0.0
 71
     1
 72
     1
  1
340
  7
SLDTEXTSTYLE0
  0
ENDBLK
  5
22F
330
22D
100
AcDbEntity
  8
0
100
AcDbBlockEnd
  0
BLOCK
  5
239
330
238
100
AcDbEntity
  8
0
100
AcDbBlockBegin
  2
*D6
 70
     1
 10
0.0
 20
0.0
 30
0.0
  3
*D6
  1

  0
INSERT
  5
23B
330
238
100
AcDbEntity
  8
LAYER001
100
AcDbBlockReference
  2
_OPEN30
 10
107.2743448857
 20
-172.862277725
 30
0.1
 41
3.0
 42
3.0
 50
180.0
  0
INSERT
  5
23C
330
238
100
AcDbEntity
  8
LAYER001
100
AcDbBlockReference
  2
_OPEN30
 10
172.2743448857
 20
-172.862277725
 30
0.1
 41
3.0
 42
3.0
 50
0.0
  0
LINE
  5
23D
330
238
100
AcDbEntity
  8
LAYER001
100
AcDbLine
 10
107.2743448857
 20
-100.524027239
 30
0.0
 11
107.2743448857
 21
-173.862277725
 31
0.0
  0
LINE
  5
23E
330
238
100
AcDbEntity
  8
LAYER001
100
AcDbLine
 10
172.2743448857
 20
-100.524027239
 30
0.0
 11
172.2743448857
 21
-173.862277725
 31
0.0
  0
LINE
  5
23F
330
238
100
AcDbEntity
  8
LAYER001
100
AcDbLine
 10
107.2743448857
 20
-172.862277725
 30
0.0
 11
172.2743448857
 21
-172.862277725
 31
0.0
  0
MTEXT
  5
240
330
238
100
AcDbEntity
  8
LAYER001
100
AcDbMText
 10
139.0520864088
 20
-168.3505408686
 30
0.1
 40
3.5
 41
0.0
 71
     1
 72
     1
  1
65
  7
SLDTEXTSTYLE0
  0
ENDBLK
  5
23A
330
238
100
AcDbEntity
  8
0
100
AcDbBlockEnd
  0
BLOCK
  5
243
330
242
100
AcDbEntity
  8
0
100
AcDbBlockBegin
  2
*D7
 70
     1
 10
0.0
 20
0.0
 30
0.0
  3
*D7
  1

  0
INSERT
  5
245
330
242
100
AcDbEntity
  8
LAYER001
100
AcDbBlockReference
  2
_OPEN30
 10
338.8463698798
 20
-153.3184737395
 30
0.1
 41
3.0
 42
3.0
 50
90.0
  0
INSERT
  5
246
330
242
100
AcDbEntity
  8
LAYER001
100
AcDbBlockReference
  2
_OPEN30
 10
338.8463698798
 20
-167.5184737395
 30
0.1
 41
3.0
 42
3.0
 50
270.0
  0
LINE
  5
247
330
242
100
AcDbEntity
  8
LAYER001
100
AcDbLine
 10
305.463968855
 20
-153.3184737395
 30
0.0
 11
339.8463698798
 21
-153.3184737395
 31
0.0
  0
LINE
  5
248
330
242
100
AcDbEntity
  8
LAYER001
100
AcDbLine
 10
309.9101214295
 20
-167.5184737395
 30
0.0
 11
339.8463698798
 21
-167.5184737395
 31
0.0
  0
LINE
  5
249
330
242
100
AcDbEntity
  8
LAYER001
100
AcDbLine
 10
338.8463698798
 20
-153.3184737395
 30
0.0
 11
338.8463698798
 21
-95.6575886696
 31
0.0
  0
LINE
  5
24A
330
242
100
AcDbEntity
  8
LAYER001
100
AcDbLine
 10
338.8463698798
 20
-153.3184737395
 30
0.0
 11
338.8463698798
 21
-167.5184737395
 31
0.0
  0
MTEXT
  5
24B
330
242
100
AcDbEntity
  8
LAYER001
100
AcDbMText
 10
334.3346330234
 20
-105.0443944871
 30
0.1
 40
3.5
 41
0.0
 71
     1
 72
     1
  1
14.2
  7
SLDTEXTSTYLE0
 11
-7.044195017643634E-15
 21
1.0
 31
0.0
  0
ENDBLK
  5
244
330
242
100
AcDbEntity
  8
0
100
AcDbBlockEnd
  0
BLOCK
  5
24F
330
24E
100
AcDbEntity
  8
0
100
AcDbBlockBegin
  2
*D8
 70
     1
 10
0.0
 20
0.0
 30
0.0
  3
*D8
  1

  0
INSERT
  5
251
330
24E
100
AcDbEntity
  8
LAYER001
100
AcDbBlockReference
  2
_OPEN30
 10
338.8463698798
 20
150.4815262605
 30
0.1
 41
3.0
 42
3.0
 50
90.0
  0
INSERT
  5
252
330
24E
100
AcDbEntity
  8
LAYER001
100
AcDbBlockReference
  2
_OPEN30
 10
338.8463698798
 20
156.4815262605
 30
0.1
 41
3.0
 42
3.0
 50
270.0
  0
LINE
  5
253
330
24E
100
AcDbEntity
  8
LAYER001
100
AcDbLine
 10
151.7743448857
 20
150.4815262605
 30
0.0
 11
339.8463698798
 21
150.4815262605
 31
0.0
  0
LINE
  5
254
330
24E
100
AcDbEntity
  8
LAYER001
100
AcDbLine
 10
140.7743448857
 20
156.4815262605
 30
0.0
 11
339.8463698798
 21
156.4815262605
 31
0.0
  0
LINE
  5
255
330
24E
100
AcDbEntity
  8
LAYER001
100
AcDbLine
 10
338.8463698798
 20
150.4815262605
 30
0.0
 11
338.8463698798
 21
106.910635838
 31
0.0
  0
LINE
  5
256
330
24E
100
AcDbEntity
  8
LAYER001
100
AcDbLine
 10
338.8463698798
 20
150.4815262605
 30
0.0
 11
338.8463698798
 21
156.4815262605
 31
0.0
  0
LINE
  5
257
330
24E
100
AcDbEntity
  8
LAYER001
100
AcDbLine
 10
338.8463698798
 20
156.4815262605
 30
0.0
 11
338.8463698798
 21
162.4815262605
 31
0.0
  0
MTEXT
  5
258
330
24E
100
AcDbEntity
  8
LAYER001
100
AcDbMText
 10
334.3346330234
 20
106.910635838
 30
0.1
 40
3.5
 41
0.0
 71
     1
 72
     1
  1
6
  7
SLDTEXTSTYLE0
 11
6.123233995736766E-17
 21
1.0
 31
0.0
  0
ENDBLK
  5
250
330
24E
100
AcDbEntity
  8
0
100
AcDbBlockEnd
  0
BLOCK
  5
25B
330
25A
100
AcDbEntity
  8
0
100
AcDbBlockBegin
  2
SW_CENTERMARKSYMBOL_0
 70
     0
 10
0.0
 20
0.0
 30
0.0
  3
SW_CENTERMARKSYMBOL_0
  1

  0
LINE
  5
25D
330
25A
100
AcDbEntity
  8
LAYER001
 62
     0
100
AcDbLine
 10
0.0
 20
0.0
 30
0.0
 11
0.0
 21
2.5
 31
0.0
  0
LINE
  5
25E
330
25A
100
AcDbEntity
  8
LAYER001
 62
     0
100
AcDbLine
 10
0.0
 20
0.0
 30
0.0
 11
-2.5
 21
0.0
 31
0.0
  0
LINE
  5
25F
330
25A
100
AcDbEntity
  8
LAYER001
 62
     0
100
AcDbLine
 10
0.0
 20
0.0
 30
0.0
 11
0.0
 21
-2.5
 31
0.0
  0
LINE
  5
260
330
25A
100
AcDbEntity
  8
LAYER001
 62
     0
100
AcDbLine
 10
0.0
 20
0.0
 30
0.0
 11
2.5
 21
0.0
 31
0.0
  0
LINE
  5
261
330
25A
100
AcDbEntity
  8
LAYER001
 62
     0
100
AcDbLine
 10
0.0
 20
5.0
 30
0.0
 11
0.0
 21
26.0
 31
0.0
  0
LINE
  5
262
330
25A
100
AcDbEntity
  8
LAYER001
 62
     0
100
AcDbLine
 10
-5.0
 20
0.0
 30
0.0
 11
-52.4568263148
 21
0.0
 31
0.0
  0
LINE
  5
263
330
25A
100
AcDbEntity
  8
LAYER001
 62
     0
100
AcDbLine
 10
0.0
 20
-5.0
 30
0.0
 11
0.0
 21
-26.0
 31
0.0
  0
LINE
  5
264
330
25A
100
AcDbEntity
  8
LAYER001
 62
     0
100
AcDbLine
 10
5.0
 20
0.0
 30
0.0
 11
46.2497330897
 21
0.0
 31
0.0
  0
ENDBLK
  5
25C
330
25A
100
AcDbEntity
  8
0
100
AcDbBlockEnd
  0
BLOCK
  5
3D3
330
3D2
100
AcDbEntity
  8
0
100
AcDbBlockBegin
  2
*D10
 70
     1
 10
0.0
 20
0.0
 30
0.0
  3
*D10
  1

  0
INSERT
  5
3D5
330
3D2
100
AcDbEntity
  8
LAYER001
100
AcDbBlockReference
  2
_OPEN30
 10
342.2297317056
 20
594.1856470762
 30
162.1
 41
3.0
 42
3.0
 50
90.0
  0
INSERT
  5
3D6
330
3D2
100
AcDbEntity
  8
LAYER001
100
AcDbBlockReference
  2
_OPEN30
 10
342.2297317056
 20
229.7856470762
 30
162.1
 41
3.0
 42
3.0
 50
270.0
  0
LINE
  5
3D7
330
3D2
100
AcDbEntity
  8
LAYER001
100
AcDbLine
 10
179.7743448857
 20
594.1856470762
 30
0.0
 11
343.2297317056
 21
594.1856470762
 31
0.0
  0
LINE
  5
3D8
330
3D2
100
AcDbEntity
  8
LAYER001
100
AcDbLine
 10
179.7743448857
 20
229.7856470762
 30
0.0
 11
343.2297317056
 21
229.7856470762
 31
0.0
  0
LINE
  5
3D9
330
3D2
100
AcDbEntity
  8
LAYER001
100
AcDbLine
 10
342.2297317056
 20
594.1856470762
 30
0.0
 11
342.2297317056
 21
229.7856470762
 31
0.0
  0
MTEXT
  5
3DA
330
3D2
100
AcDbEntity
  8
LAYER001
100
AcDbMText
 10
337.7179948492
 20
403.9899023574
 30
162.1
 40
3.5
 41
0.0
 71
     1
 72
     1
  1
364
  7
SLDTEXTSTYLE0
 11
-1.947869289344539E-14
 21
1.0
 31
0.0
  0
ENDBLK
  5
3D4
330
3D2
100
AcDbEntity
  8
0
100
AcDbBlockEnd
  0
BLOCK
  5
3DD
330
3DC
100
AcDbEntity
  8
0
100
AcDbBlockBegin
  2
*D11
 70
     1
 10
0.0
 20
0.0
 30
0.0
  3
*D11
  1

  0
INSERT
  5
3DF
330
3DC
100
AcDbEntity
  8
LAYER001
100
AcDbBlockReference
  2
_OPEN30
 10
336.6242363105
 20
536.9856470762
 30
162.1
 41
3.0
 42
3.0
 50
90.0
  0
INSERT
  5
3E0
330
3DC
100
AcDbEntity
  8
LAYER001
100
AcDbBlockReference
  2
_OPEN30
 10
336.6242363105
 20
411.9856470762
 30
162.1
 41
3.0
 42
3.0
 50
270.0
  0
LINE
  5
3E1
330
3DC
100
AcDbEntity
  8
LAYER001
100
AcDbLine
 10
116.2743448857
 20
536.9856470762
 30
0.0
 11
337.6242363105
 21
536.9856470762
 31
0.0
  0
LINE
  5
3E2
330
3DC
100
AcDbEntity
  8
LAYER001
100
AcDbLine
 10
336.6242363105
 20
536.9856470762
 30
0.0
 11
336.6242363105
 21
411.9856470762
 31
0.0
  0
MTEXT
  5
3E3
330
3DC
100
AcDbEntity
  8
LAYER001
100
AcDbMText
 10
332.1124994542
 20
470.9188505387
 30
162.1
 40
3.5
 41
0.0
 71
     1
 72
     1
  1
125
  7
SLDTEXTSTYLE0
 11
-7.044195017643634E-15
 21
1.0
 31
0.0
  0
ENDBLK
  5
3DE
330
3DC
100
AcDbEntity
  8
0
100
AcDbBlockEnd
  0
BLOCK
  5
3E6
330
3E5
100
AcDbEntity
  8
0
100
AcDbBlockBegin
  2
*D12
 70
     1
 10
0.0
 20
0.0
 30
0.0
  3
*D12
  1

  0
INSERT
  5
3E8
330
3E5
100
AcDbEntity
  8
LAYER001
100
AcDbBlockReference
  2
_OPEN30
 10
99.7743448857
 20
596.1451962603
 30
162.1
 41
3.0
 42
3.0
 50
180.0
  0
INSERT
  5
3E9
330
3E5
100
AcDbEntity
  8
LAYER001
100
AcDbBlockReference
  2
_OPEN30
 10
139.7743448857
 20
596.1451962603
 30
162.1
 41
3.0
 42
3.0
 50
0.0
  0
LINE
  5
3EA
330
3E5
100
AcDbEntity
  8
LAYER001
100
AcDbLine
 10
99.7743448857
 20
553.4856470762
 30
0.0
 11
99.7743448857
 21
597.1451962603
 31
0.0
  0
LINE
  5
3EB
330
3E5
100
AcDbEntity
  8
LAYER001
100
AcDbLine
 10
99.7743448857
 20
596.1451962603
 30
0.0
 11
139.7743448857
 21
596.1451962603
 31
0.0
  0
MTEXT
  5
3EC
330
3E5
100
AcDbEntity
  8
LAYER001
100
AcDbMText
 10
117.3966951383
 20
600.6569331167
 30
162.1
 40
3.5
 41
0.0
 71
     1
 72
     1
  1
40
  7
SLDTEXTSTYLE0
  0
ENDBLK
  5
3E7
330
3E5
100
AcDbEntity
  8
0
100
AcDbBlockEnd
  0
BLOCK
  5
3EF
330
3EE
100
AcDbEntity
  8
0
100
AcDbBlockBegin
  2
*D13
 70
     1
 10
0.0
 20
0.0
 30
0.0
  3
*D13
  1

  0
INSERT
  5
3F1
330
3EE
100
AcDbEntity
  8
LAYER001
100
AcDbBlockReference
  2
_OPEN30
 10
-53.2256551143
 20
221.0602645008
 30
162.1
 41
3.0
 42
3.0
 50
180.0
  0
INSERT
  5
3F2
330
3EE
100
AcDbEntity
  8
LAYER001
100
AcDbBlockReference
  2
_OPEN30
 10
332.7743448857
 20
221.0602645008
 30
162.1
 41
3.0
 42
3.0
 50
0.0
  0
LINE
  5
3F3
330
3EE
100
AcDbEntity
  8
LAYER001
100
AcDbLine
 10
-53.2256551143
 20
393.4856470762
 30
0.0
 11
-53.2256551143
 21
220.0602645008
 31
0.0
  0
LINE
  5
3F4
330
3EE
100
AcDbEntity
  8
LAYER001
100
AcDbLine
 10
332.7743448857
 20
393.4856470762
 30
0.0
 11
332.7743448857
 21
220.0602645008
 31
0.0
  0
LINE
  5
3F5
330
3EE
100
AcDbEntity
  8
LAYER001
100
AcDbLine
 10
-53.2256551143
 20
221.0602645008
 30
0.0
 11
332.7743448857
 21
221.0602645008
 31
0.0
  0
MTEXT
  5
3F6
330
3EE
100
AcDbEntity
  8
LAYER001
100
AcDbMText
 10
137.7120976883
 20
225.5720013571
 30
162.1
 40
3.5
 41
0.0
 71
     1
 72
     1
  1
386
  7
SLDTEXTSTYLE0
  0
ENDBLK
  5
3F0
330
3EE
100
AcDbEntity
  8
0
100
AcDbBlockEnd
  0
BLOCK
  5
3F9
330
3F8
100
AcDbEntity
  8
0
100
AcDbBlockBegin
  2
*D14
 70
     1
 10
0.0
 20
0.0
 30
0.0
  3
*D14
  1

  0
INSERT
  5
3FB
330
3F8
100
AcDbEntity
  8
LAYER001
100
AcDbBlockReference
  2
_OPEN30
 10
336.6242363105
 20
411.9856470762
 30
162.1
 41
3.0
 42
3.0
 50
90.0
  0
INSERT
  5
3FC
330
3F8
100
AcDbEntity
  8
LAYER001
100
AcDbBlockReference
  2
_OPEN30
 10
336.6242363105
 20
290.9856470762
 30
162.1
 41
3.0
 42
3.0
 50
270.0
  0
LINE
  5
3FD
330
3F8
100
AcDbEntity
  8
LAYER001
100
AcDbLine
 10
157.2743448857
 20
290.9856470762
 30
0.0
 11
337.6242363105
 21
290.9856470762
 31
0.0
  0
LINE
  5
3FE
330
3F8
100
AcDbEntity
  8
LAYER001
100
AcDbLine
 10
336.6242363105
 20
411.9856470762
 30
0.0
 11
336.6242363105
 21
290.9856470762
 31
0.0
  0
MTEXT
  5
3FF
330
3F8
100
AcDbEntity
  8
LAYER001
100
AcDbMText
 10
332.1124994542
 20
348.1202955001
 30
162.1
 40
3.5
 41
0.0
 71
     1
 72
     1
  1
121
  7
SLDTEXTSTYLE0
 11
-7.044195017643634E-15
 21
1.0
 31
0.0
  0
ENDBLK
  5
3FA
330
3F8
100
AcDbEntity
  8
0
100
AcDbBlockEnd
  0
BLOCK
  5
402
330
401
100
AcDbEntity
  8
0
100
AcDbBlockBegin
  2
*D15
 70
     1
 10
0.0
 20
0.0
 30
0.0
  3
*D15
  1

  0
INSERT
  5
404
330
401
100
AcDbEntity
  8
LAYER001
100
AcDbBlockReference
  2
_OPEN30
 10
-37.2359395323
 20
225.02318911
 30
162.1
 41
3.0
 42
3.0
 50
180.0
  0
INSERT
  5
405
330
401
100
AcDbEntity
  8
LAYER001
100
AcDbBlockReference
  2
_OPEN30
 10
316.7846293038
 20
225.02318911
 30
162.1
 41
3.0
 42
3.0
 50
0.0
  0
LINE
  5
406
330
401
100
AcDbEntity
  8
LAYER001
100
AcDbLine
 10
-37.2359395323
 20
410.9856470762
 30
0.0
 11
-37.2359395323
 21
224.02318911
 31
0.0
  0
LINE
  5
407
330
401
100
AcDbEntity
  8
LAYER001
100
AcDbLine
 10
316.7846293038
 20
410.9856470762
 30
0.0
 11
316.7846293038
 21
224.02318911
 31
0.0
  0
LINE
  5
408
330
401
100
AcDbEntity
  8
LAYER001
100
AcDbLine
 10
-37.2359395323
 20
225.02318911
 30
0.0
 11
316.7846293038
 21
225.02318911
 31
0.0
  0
MTEXT
  5
409
330
401
100
AcDbEntity
  8
LAYER001
100
AcDbMText
 10
137.7120976883
 20
229.5349259664
 30
162.1
 40
3.5
 41
0.0
 71
     1
 72
     1
  1
354
  7
SLDTEXTSTYLE0
  0
ENDBLK
  5
403
330
401
100
AcDbEntity
  8
0
100
AcDbBlockEnd
  0
BLOCK
  5
40B
330
40A
100
AcDbEntity
  8
0
100
AcDbBlockBegin
  2
SW_NOTE_0
 70
     0
 10
0.0
 20
0.0
 30
0.0
  3
SW_NOTE_0
  1

  0
MTEXT
  5
40D
330
40A
100
AcDbEntity
  8
LAYER001
 62
     0
100
AcDbMText
 10
0.0080917425
 20
9.014134684
 30
0.0
 40
3.5
 41
0.0
 71
     1
 72
     1
  1
G1/4
  7
SLDTEXTSTYLE0
  0
MTEXT
  5
40E
330
40A
100
AcDbEntity
  8
LAYER001
 62
     0
100
AcDbMText
 10
0.0080917425
 20
4.5141348777
 30
0.0
 40
3.5
 41
0.0
 71
     1
 72
     1
  1
空気抜栓取付ﾈｼﾞ
  7
SLDTEXTSTYLE0
  0
ENDBLK
  5
40C
330
40A
100
AcDbEntity
  8
0
100
AcDbBlockEnd
  0
BLOCK
  5
413
330
412
100
AcDbEntity
  8
0
100
AcDbBlockBegin
  2
SW_NOTE_1
 70
     0
 10
0.0
 20
0.0
 30
0.0
  3
SW_NOTE_1
  1

  0
MTEXT
  5
415
330
412
100
AcDbEntity
  8
LAYER001
 62
     0
100
AcDbMText
 10
0.0096630716
 20
9.0160734786
 30
0.0
 40
3.5
 41
0.0
 71
     1
 72
     1
  1
Rc3/8
  7
SLDTEXTSTYLE0
  0
MTEXT
  5
416
330
412
100
AcDbEntity
  8
LAYER001
 62
     0
100
AcDbMText
 10
0.0096630716
 20
4.5160736723
 30
0.0
 40
3.5
 41
0.0
 71
     1
 72
     1
  1
注入側ｺﾈｸﾀｰ取付ﾈｼﾞ
  7
SLDTEXTSTYLE0
  0
ENDBLK
  5
414
330
412
100
AcDbEntity
  8
0
100
AcDbBlockEnd
  0
BLOCK
  5
41A
330
419
100
AcDbEntity
  8
0
100
AcDbBlockBegin
  2
SW_NOTE_2
 70
     0
 10
0.0
 20
0.0
 30
0.0
  3
SW_NOTE_2
  1

  0
MTEXT
  5
41C
330
419
100
AcDbEntity
  8
LAYER001
 62
     0
100
AcDbMText
 10
-22.4284014967
 20
9.023455985
 30
0.0
 40
3.5
 41
0.0
 71
     1
 72
     1
  1
Rc1
  7
SLDTEXTSTYLE0
  0
MTEXT
  5
41D
330
419
100
AcDbEntity
  8
LAYER001
 62
     0
100
AcDbMText
 10
-22.4284014967
 20
4.5234561787
 30
0.0
 40
3.5
 41
0.0
 71
     1
 72
     1
  1
出口側ﾌﾗﾝｼﾞ
  7
SLDTEXTSTYLE0
  0
ENDBLK
  5
41B
330
419
100
AcDbEntity
  8
0
100
AcDbBlockEnd
  0
BLOCK
  5
421
330
420
100
AcDbEntity
  8
0
100
AcDbBlockBegin
  2
SW_NOTE_3
 70
     0
 10
0.0
 20
0.0
 30
0.0
  3
SW_NOTE_3
  1

  0
MTEXT
  5
423
330
420
100
AcDbEntity
  8
LAYER001
 62
     0
100
AcDbMText
 10
0.012086975
 20
9.012719673
 30
0.0
 40
3.5
 41
0.0
 71
     1
 72
     1
  1
Rc1
  7
SLDTEXTSTYLE0
  0
MTEXT
  5
424
330
420
100
AcDbEntity
  8
LAYER001
 62
     0
100
AcDbMText
 10
0.012086975
 20
4.5127198667
 30
0.0
 40
3.5
 41
0.0
 71
     1
 72
     1
  1
入口側ﾌﾗﾝｼﾞ
  7
SLDTEXTSTYLE0
  0
ENDBLK
  5
422
330
420
100
AcDbEntity
  8
0
100
AcDbBlockEnd
  0
BLOCK
  5
42C
330
42B
100
AcDbEntity
  8
0
100
AcDbBlockBegin
  2
SW_CENTERMARKSYMBOL_1
 70
     0
 10
0.0
 20
0.0
 30
0.0
  3
SW_CENTERMARKSYMBOL_1
  1

  0
ARC
  5
42E
330
42B
100
AcDbEntity
  8
LAYER001
 62
     0
100
AcDbCircle
 10
130.8147545195
 20
-130.8147545195
 30
0.0
 40
185.0
100
AcDbArc
 50
135.0
 51
135.7742672907
  0
ARC
  5
42F
330
42B
100
AcDbEntity
  8
LAYER001
 62
     0
100
AcDbCircle
 10
130.8147545195
 20
-130.8147545195
 30
0.0
 40
185.0
100
AcDbArc
 50
134.2257327093
 51
135.0
  0
ARC
  5
430
330
42B
100
AcDbEntity
  8
LAYER001
 62
     0
100
AcDbCircle
 10
130.8147545195
 20
-130.8147545195
 30
0.0
 40
185.0
100
AcDbArc
 50
136.5485345814
 51
137.6325087884
  0
ARC
  5
431
330
42B
100
AcDbEntity
  8
LAYER001
 62
     0
100
AcDbCircle
 10
130.8147545195
 20
-130.8147545195
 30
0.0
 40
185.0
100
AcDbArc
 50
132.3674912116
 51
133.4514654186
  0
ARC
  5
432
330
42B
100
AcDbEntity
  8
LAYER001
 62
     0
100
AcDbCircle
 10
130.8147545195
 20
-130.8147545195
 30
0.0
 40
185.0
100
AcDbArc
 50
45.0
 51
45.7742672907
  0
ARC
  5
433
330
42B
100
AcDbEntity
  8
LAYER001
 62
     0
100
AcDbCircle
 10
130.8147545195
 20
-130.8147545195
 30
0.0
 40
185.0
100
AcDbArc
 50
44.2257327093
 51
45.0
  0
ARC
  5
434
330
42B
100
AcDbEntity
  8
LAYER001
 62
     0
100
AcDbCircle
 10
130.8147545195
 20
-130.8147545195
 30
0.0
 40
185.0000000000001
100
AcDbArc
 50
46.5485345814
 51
47.6325087884
  0
ARC
  5
435
330
42B
100
AcDbEntity
  8
LAYER001
 62
     0
100
AcDbCircle
 10
130.8147545195
 20
-130.8147545195
 30
0.0
 40
185.0
100
AcDbArc
 50
42.3674912116
 51
43.4514654186
  0
ARC
  5
436
330
42B
100
AcDbEntity
  8
LAYER001
 62
     0
100
AcDbCircle
 10
130.8147545195
 20
-130.8147545195
 30
0.0
 40
185.0
100
AcDbArc
 50
315.0
 51
315.7742672907
  0
ARC
  5
437
330
42B
100
AcDbEntity
  8
LAYER001
 62
     0
100
AcDbCircle
 10
130.8147545195
 20
-130.8147545195
 30
0.0
 40
185.0
100
AcDbArc
 50
314.2257327093
 51
315.0
  0
ARC
  5
438
330
42B
100
AcDbEntity
  8
LAYER001
 62
     0
100
AcDbCircle
 10
130.8147545195
 20
-130.8147545195
 30
0.0
 40
185.0
100
AcDbArc
 50
316.5485345814
 51
317.6325087884
  0
ARC
  5
439
330
42B
100
AcDbEntity
  8
LAYER001
 62
     0
100
AcDbCircle
 10
130.8147545195
 20
-130.8147545195
 30
0.0
 40
185.0
100
AcDbArc
 50
312.3674912116
 51
313.4514654186
  0
ARC
  5
43A
330
42B
100
AcDbEntity
  8
LAYER001
 62
     0
100
AcDbCircle
 10
130.8147545195
 20
-130.8147545195
 30
0.0
 40
185.0
100
AcDbArc
 50
225.0
 51
225.7742672907
  0
ARC
  5
43B
330
42B
100
AcDbEntity
  8
LAYER001
 62
     0
100
AcDbCircle
 10
130.8147545195
 20
-130.8147545195
 30
0.0
 40
185.0
100
AcDbArc
 50
224.2257327093
 51
225.0
  0
ARC
  5
43C
330
42B
100
AcDbEntity
  8
LAYER001
 62
     0
100
AcDbCircle
 10
130.8147545195
 20
-130.8147545195
 30
0.0
 40
185.0
100
AcDbArc
 50
226.5485345814
 51
227.6325087884
  0
ARC
  5
43D
330
42B
100
AcDbEntity
  8
LAYER001
 62
     0
100
AcDbCircle
 10
130.8147545195
 20
-130.8147545195
 30
0.0
 40
185.0
100
AcDbArc
 50
222.3674912116
 51
223.4514654186
  0
LINE
  5
43E
330
42B
100
AcDbEntity
  8
LAYER001
 62
     0
100
AcDbLine
 10
0.0
 20
0.0
 30
0.0
 11
-1.767766953
 21
1.767766953
 31
0.0
  0
LINE
  5
43F
330
42B
100
AcDbEntity
  8
LAYER001
 62
     0
100
AcDbLine
 10
0.0
 20
0.0
 30
0.0
 11
1.767766953
 21
-1.767766953
 31
0.0
  0
LINE
  5
440
330
42B
100
AcDbEntity
  8
LAYER001
 62
     0
100
AcDbLine
 10
-3.5355339059
 20
3.5355339059
 30
0.0
 11
-6.0104076401
 21
6.0104076401
 31
0.0
  0
LINE
  5
441
330
42B
100
AcDbEntity
  8
LAYER001
 62
     0
100
AcDbLine
 10
3.5355339059
 20
-3.5355339059
 30
0.0
 11
6.0104076401
 21
-6.0104076401
 31
0.0
  0
LINE
  5
442
330
42B
100
AcDbEntity
  8
LAYER001
 62
     0
100
AcDbLine
 10
261.629509039
 20
0.0
 30
0.0
 11
263.397275992
 21
1.767766953
 31
0.0
  0
LINE
  5
443
330
42B
100
AcDbEntity
  8
LAYER001
 62
     0
100
AcDbLine
 10
261.629509039
 20
0.0
 30
0.0
 11
259.8617420861
 21
-1.767766953
 31
0.0
  0
LINE
  5
444
330
42B
100
AcDbEntity
  8
LAYER001
 62
     0
100
AcDbLine
 10
265.165042945
 20
3.5355339059
 30
0.0
 11
267.6399166791
 21
6.0104076401
 31
0.0
  0
LINE
  5
445
330
42B
100
AcDbEntity
  8
LAYER001
 62
     0
100
AcDbLine
 10
258.0939751331
 20
-3.5355339059
 30
0.0
 11
255.6191013989
 21
-6.0104076401
 31
0.0
  0
LINE
  5
446
330
42B
100
AcDbEntity
  8
LAYER001
 62
     0
100
AcDbLine
 10
261.629509039
 20
-261.629509039
 30
0.0
 11
263.397275992
 21
-263.397275992
 31
0.0
  0
LINE
  5
447
330
42B
100
AcDbEntity
  8
LAYER001
 62
     0
100
AcDbLine
 10
261.629509039
 20
-261.629509039
 30
0.0
 11
259.8617420861
 21
-259.8617420861
 31
0.0
  0
LINE
  5
448
330
42B
100
AcDbEntity
  8
LAYER001
 62
     0
100
AcDbLine
 10
265.165042945
 20
-265.165042945
 30
0.0
 11
267.6399166791
 21
-267.6399166791
 31
0.0
  0
LINE
  5
449
330
42B
100
AcDbEntity
  8
LAYER001
 62
     0
100
AcDbLine
 10
258.0939751331
 20
-258.0939751331
 30
0.0
 11
255.6191013989
 21
-255.6191013989
 31
0.0
  0
LINE
  5
44A
330
42B
100
AcDbEntity
  8
LAYER001
 62
     0
100
AcDbLine
 10
0.0
 20
-261.629509039
 30
0.0
 11
-1.767766953
 21
-263.397275992
 31
0.0
  0
LINE
  5
44B
330
42B
100
AcDbEntity
  8
LAYER001
 62
     0
100
AcDbLine
 10
0.0
 20
-261.629509039
 30
0.0
 11
1.767766953
 21
-259.8617420861
 31
0.0
  0
LINE
  5
44C
330
42B
100
AcDbEntity
  8
LAYER001
 62
     0
100
AcDbLine
 10
-3.5355339059
 20
-265.165042945
 30
0.0
 11
-6.0104076401
 21
-267.6399166791
 31
0.0
  0
LINE
  5
44D
330
42B
100
AcDbEntity
  8
LAYER001
 62
     0
100
AcDbLine
 10
3.5355339059
 20
-258.0939751331
 30
0.0
 11
6.0104076401
 21
-255.6191013989
 31
0.0
  0
LINE
  5
44E
330
42B
100
AcDbEntity
  8
LAYER001
 62
     0
100
AcDbLine
 10
130.8147545195
 20
-130.8147545195
 30
0.0
 11
130.8147545195
 21
-128.3147545195
 31
0.0
  0
LINE
  5
44F
330
42B
100
AcDbEntity
  8
LAYER001
 62
     0
100
AcDbLine
 10
130.8147545195
 20
-130.8147545195
 30
0.0
 11
128.3147545195
 21
-130.8147545195
 31
0.0
  0
LINE
  5
450
330
42B
100
AcDbEntity
  8
LAYER001
 62
     0
100
AcDbLine
 10
130.8147545195
 20
-130.8147545195
 30
0.0
 11
130.8147545195
 21
-133.3147545195
 31
0.0
  0
LINE
  5
451
330
42B
100
AcDbEntity
  8
LAYER001
 62
     0
100
AcDbLine
 10
130.8147545195
 20
-130.8147545195
 30
0.0
 11
133.3147545195
 21
-130.8147545195
 31
0.0
  0
LINE
  5
452
330
42B
100
AcDbEntity
  8
LAYER001
 62
     0
100
AcDbLine
 10
130.8147545195
 20
-125.8147545195
 30
0.0
 11
130.8147545195
 21
54.9156497749
 31
0.0
  0
LINE
  5
453
330
42B
100
AcDbEntity
  8
LAYER001
 62
     0
100
AcDbLine
 10
125.8147545195
 20
-130.8147545195
 30
0.0
 11
-74.2587184346
 21
-130.8147545195
 31
0.0
  0
LINE
  5
454
330
42B
100
AcDbEntity
  8
LAYER001
 62
     0
100
AcDbLine
 10
130.8147545195
 20
-135.8147545195
 30
0.0
 11
130.8147545195
 21
-320.0269732235
 31
0.0
  0
LINE
  5
455
330
42B
100
AcDbEntity
  8
LAYER001
 62
     0
100
AcDbLine
 10
135.8147545195
 20
-130.8147545195
 30
0.0
 11
332.8481001641
 21
-130.8147545195
 31
0.0
  0
ENDBLK
  5
42D
330
42B
100
AcDbEntity
  8
0
100
AcDbBlockEnd
  0
BLOCK
  5
458
330
457
100
AcDbEntity
  8
0
100
AcDbBlockBegin
  2
SW_CENTERMARKSYMBOL_2
 70
     0
 10
0.0
 20
0.0
 30
0.0
  3
SW_CENTERMARKSYMBOL_2
  1

  0
LINE
  5
45A
330
457
100
AcDbEntity
  8
LAYER001
 62
     0
100
AcDbLine
 10
0.0
 20
0.0
 30
0.0
 11
0.0
 21
2.5
 31
0.0
  0
LINE
  5
45B
330
457
100
AcDbEntity
  8
LAYER001
 62
     0
100
AcDbLine
 10
0.0
 20
0.0
 30
0.0
 11
-2.5
 21
0.0
 31
0.0
  0
LINE
  5
45C
330
457
100
AcDbEntity
  8
LAYER001
 62
     0
100
AcDbLine
 10
0.0
 20
0.0
 30
0.0
 11
0.0
 21
-2.5
 31
0.0
  0
LINE
  5
45D
330
457
100
AcDbEntity
  8
LAYER001
 62
     0
100
AcDbLine
 10
0.0
 20
0.0
 30
0.0
 11
2.5
 21
0.0
 31
0.0
  0
LINE
  5
45E
330
457
100
AcDbEntity
  8
LAYER001
 62
     0
100
AcDbLine
 10
0.0
 20
5.0
 30
0.0
 11
0.0
 21
15.5
 31
0.0
  0
LINE
  5
45F
330
457
100
AcDbEntity
  8
LAYER001
 62
     0
100
AcDbLine
 10
-5.0
 20
0.0
 30
0.0
 11
-15.5
 21
0.0
 31
0.0
  0
LINE
  5
460
330
457
100
AcDbEntity
  8
LAYER001
 62
     0
100
AcDbLine
 10
0.0
 20
-5.0
 30
0.0
 11
0.0
 21
-15.5
 31
0.0
  0
LINE
  5
461
330
457
100
AcDbEntity
  8
LAYER001
 62
     0
100
AcDbLine
 10
5.0
 20
0.0
 30
0.0
 11
15.5
 21
0.0
 31
0.0
  0
ENDBLK
  5
459
330
457
100
AcDbEntity
  8
0
100
AcDbBlockEnd
  0
BLOCK
  5
464
330
463
100
AcDbEntity
  8
0
100
AcDbBlockBegin
  2
SW_CENTERMARKSYMBOL_3
 70
     0
 10
0.0
 20
0.0
 30
0.0
  3
SW_CENTERMARKSYMBOL_3
  1

  0
LINE
  5
466
330
463
100
AcDbEntity
  8
LAYER001
 62
     0
100
AcDbLine
 10
0.0
 20
0.0
 30
0.0
 11
0.0
 21
2.5
 31
0.0
  0
LINE
  5
467
330
463
100
AcDbEntity
  8
LAYER001
 62
     0
100
AcDbLine
 10
0.0
 20
0.0
 30
0.0
 11
-2.5
 21
0.0
 31
0.0
  0
LINE
  5
468
330
463
100
AcDbEntity
  8
LAYER001
 62
     0
100
AcDbLine
 10
0.0
 20
0.0
 30
0.0
 11
0.0
 21
-2.5
 31
0.0
  0
LINE
  5
469
330
463
100
AcDbEntity
  8
LAYER001
 62
     0
100
AcDbLine
 10
0.0
 20
0.0
 30
0.0
 11
2.5
 21
0.0
 31
0.0
  0
LINE
  5
46A
330
463
100
AcDbEntity
  8
LAYER001
 62
     0
100
AcDbLine
 10
0.0
 20
5.0
 30
0.0
 11
0.0
 21
16.1
 31
0.0
  0
LINE
  5
46B
330
463
100
AcDbEntity
  8
LAYER001
 62
     0
100
AcDbLine
 10
-5.0
 20
0.0
 30
0.0
 11
-16.1
 21
0.0
 31
0.0
  0
LINE
  5
46C
330
463
100
AcDbEntity
  8
LAYER001
 62
     0
100
AcDbLine
 10
0.0
 20
-5.0
 30
0.0
 11
0.0
 21
-16.1
 31
0.0
  0
LINE
  5
46D
330
463
100
AcDbEntity
  8
LAYER001
 62
     0
100
AcDbLine
 10
5.0
 20
0.0
 30
0.0
 11
16.1
 21
0.0
 31
0.0
  0
ENDBLK
  5
465
330
463
100
AcDbEntity
  8
0
100
AcDbBlockEnd
  0
BLOCK
  5
470
330
46F
100
AcDbEntity
  8
0
100
AcDbBlockBegin
  2
SW_CENTERMARKSYMBOL_4
 70
     0
 10
0.0
 20
0.0
 30
0.0
  3
SW_CENTERMARKSYMBOL_4
  1

  0
LINE
  5
472
330
46F
100
AcDbEntity
  8
LAYER001
 62
     0
100
AcDbLine
 10
0.0
 20
0.0
 30
0.0
 11
0.0
 21
2.5
 31
0.0
  0
LINE
  5
473
330
46F
100
AcDbEntity
  8
LAYER001
 62
     0
100
AcDbLine
 10
0.0
 20
0.0
 30
0.0
 11
-2.5
 21
0.0
 31
0.0
  0
LINE
  5
474
330
46F
100
AcDbEntity
  8
LAYER001
 62
     0
100
AcDbLine
 10
0.0
 20
0.0
 30
0.0
 11
0.0
 21
-2.5
 31
0.0
  0
LINE
  5
475
330
46F
100
AcDbEntity
  8
LAYER001
 62
     0
100
AcDbLine
 10
0.0
 20
0.0
 30
0.0
 11
2.5
 21
0.0
 31
0.0
  0
LINE
  5
476
330
46F
100
AcDbEntity
  8
LAYER001
 62
     0
100
AcDbLine
 10
0.0
 20
5.0
 30
0.0
 11
0.0
 21
16.5
 31
0.0
  0
LINE
  5
477
330
46F
100
AcDbEntity
  8
LAYER001
 62
     0
100
AcDbLine
 10
-5.0
 20
0.0
 30
0.0
 11
-16.5
 21
0.0
 31
0.0
  0
LINE
  5
478
330
46F
100
AcDbEntity
  8
LAYER001
 62
     0
100
AcDbLine
 10
0.0
 20
-5.0
 30
0.0
 11
0.0
 21
-16.5
 31
0.0
  0
LINE
  5
479
330
46F
100
AcDbEntity
  8
LAYER001
 62
     0
100
AcDbLine
 10
5.0
 20
0.0
 30
0.0
 11
16.5
 21
0.0
 31
0.0
  0
ENDBLK
  5
471
330
46F
100
AcDbEntity
  8
0
100
AcDbBlockEnd
  0
ENDSEC
  0
SECTION
  2
ENTITIES
  0
LINE
  5
147
330
1F
100
AcDbEntity
  8
0
  6
CONTINUOUS
 62
     7
100
AcDbLine
 10
153.7743453179
 20
138.4815270354
 30
0.0
 11
153.7743453179
 21
142.4815258284
 31
0.0
  0
LINE
  5
148
330
1F
100
AcDbEntity
  8
0
  6
CONTINUOUS
 62
     7
100
AcDbLine
 10
125.7743444536
 20
142.4815258284
 30
0.0
 11
125.7743444536
 21
138.4815270354
 31
0.0
  0
LINE
  5
149
330
1F
100
AcDbEntity
  8
0
  6
CONTINUOUS
 62
     7
100
AcDbLine
 10
150.7743448261
 20
142.4815258284
 30
0.0
 11
150.7743448261
 21
150.4815262083
 31
0.0
  0
LINE
  5
14A
330
1F
100
AcDbEntity
  8
0
  6
CONTINUOUS
 62
     7
100
AcDbLine
 10
128.7743449453
 20
150.4815262083
 30
0.0
 11
128.7743449453
 21
142.4815258284
 31
0.0
  0
LINE
  5
14B
330
1F
100
AcDbEntity
  8
0
  6
CONTINUOUS
 62
     7
100
AcDbLine
 10
-53.2256588098
 20
-109.5184763621
 30
0.0
 11
-40.2256622668
 21
-109.5184763621
 31
0.0
  0
LINE
  5
14C
330
1F
100
AcDbEntity
  8
0
  6
CONTINUOUS
 62
     7
100
AcDbLine
 10
-40.2256622668
 20
-74.5184799384
 30
0.0
 11
-53.2256588098
 21
-74.5184799384
 31
0.0
  0
LINE
  5
14D
330
1F
100
AcDbEntity
  8
0
  6
CONTINUOUS
 62
     7
100
AcDbLine
 10
-32.2256609555
 20
-68.518467779
 30
0.0
 11
-40.2256622668
 21
-68.518467779
 31
0.0
  0
LINE
  5
14E
330
1F
100
AcDbEntity
  8
0
  6
CONTINUOUS
 62
     7
100
AcDbLine
 10
-40.2256622668
 20
-115.5184885215
 30
0.0
 11
-32.2256609555
 21
-115.5184885215
 31
0.0
  0
LINE
  5
14F
330
1F
100
AcDbEntity
  8
0
  6
CONTINUOUS
 62
     7
100
AcDbLine
 10
332.7743485812
 20
-74.5184799384
 30
0.0
 11
319.7743520383
 21
-74.5184799384
 31
0.0
  0
LINE
  5
150
330
1F
100
AcDbEntity
  8
0
  6
CONTINUOUS
 62
     7
100
AcDbLine
 10
319.7743520383
 20
-109.5184763621
 30
0.0
 11
332.7743485812
 21
-109.5184763621
 31
0.0
  0
LINE
  5
151
330
1F
100
AcDbEntity
  8
0
  6
CONTINUOUS
 62
     7
100
AcDbLine
 10
311.774350727
 20
-115.5184885215
 30
0.0
 11
319.7743520383
 21
-115.5184885215
 31
0.0
  0
LINE
  5
152
330
1F
100
AcDbEntity
  8
0
  6
CONTINUOUS
 62
     7
100
AcDbLine
 10
319.7743520383
 20
-68.518467779
 30
0.0
 11
311.774350727
 21
-68.518467779
 31
0.0
  0
LINE
  5
153
330
1F
100
AcDbEntity
  8
0
  6
CONTINUOUS
 62
     7
100
AcDbLine
 10
311.774350727
 20
-68.518467779
 30
0.0
 11
309.7743466739
 21
-68.518467779
 31
0.0
  0
LINE
  5
154
330
1F
100
AcDbEntity
  8
0
  6
CONTINUOUS
 62
     7
100
AcDbLine
 10
309.7743466739
 20
-115.5184885215
 30
0.0
 11
311.774350727
 21
-115.5184885215
 31
0.0
  0
LINE
  5
155
330
1F
100
AcDbEntity
  8
0
  6
CONTINUOUS
 62
     7
100
AcDbLine
 10
-32.2256609555
 20
-115.5184885215
 30
0.0
 11
-30.2256569024
 21
-115.5184885215
 31
0.0
  0
LINE
  5
156
330
1F
100
AcDbEntity
  8
0
  6
CONTINUOUS
 62
     7
100
AcDbLine
 10
-30.2256569024
 20
-68.518467779
 30
0.0
 11
-32.2256609555
 21
-68.518467779
 31
0.0
  0
LINE
  5
157
330
1F
100
AcDbEntity
  8
0
  6
CONTINUOUS
 62
     7
100
AcDbLine
 10
316.7846277598
 20
-167.5184746932
 30
0.0
 11
316.7846277598
 21
-165.5184706401
 31
0.0
  0
LINE
  5
158
330
1F
100
AcDbEntity
  8
0
  6
CONTINUOUS
 62
     7
100
AcDbLine
 10
-37.2359379884
 20
-165.5184706401
 30
0.0
 11
-37.2359379884
 21
-167.5184746932
 31
0.0
  0
ARC
  5
159
330
1F
100
AcDbEntity
  8
0
  6
CONTINUOUS
 62
     7
100
AcDbCircle
 10
315.7846293038
 20
-163.5184737395
 30
0.0
 40
2.000000000000057
100
AcDbArc
 50
180.0
 51
270.0
  0
ARC
  5
15A
330
1F
100
AcDbEntity
  8
0
  6
CONTINUOUS
 62
     7
100
AcDbCircle
 10
-36.2359395323
 20
-163.5184737395
 30
0.0
 40
2.000000000000036
100
AcDbArc
 50
270.0
 51
0.0
  0
LINE
  5
15B
330
1F
100
AcDbEntity
  8
0
  6
CONTINUOUS
 62
     7
100
AcDbLine
 10
313.7846365813
 20
-163.5184665869
 30
0.0
 11
313.7846365813
 21
-146.3604649256
 31
0.0
  0
LINE
  5
15C
330
1F
100
AcDbEntity
  8
0
  6
CONTINUOUS
 62
     7
100
AcDbLine
 10
-34.2359468099
 20
-146.3604649256
 30
0.0
 11
-34.2359468099
 21
-163.5184665869
 31
0.0
  0
SPLINE
  5
15D
330
1F
100
AcDbEntity
  8
0
  6
CONTINUOUS
 62
     7
100
AcDbSpline
210
0.0
220
0.0
230
1.0
 70
     8
 71
     3
 72
    11
 73
     7
 74
     0
 42
0.00000001
 43
0.00000001
 40
0.0
 40
0.0
 40
0.0
 40
0.0
 40
0.2407142534914086
 40
0.5283151594948723
 40
0.8222013817658925
 40
1.0
 40
1.0
 40
1.0
 40
1.0
 10
313.7741014603589
 20
-146.3611205767356
 30
0.0
 10
313.760235247918
 20
-146.0684239321824
 30
0.0
 10
313.7298019431549
 20
-145.4260187891224
 30
0.0
 10
313.3617944248439
 20
-144.4874363105561
 30
0.0
 10
312.8504324679921
 20
-143.7025468239793
 30
0.0
 10
312.3925074041146
 20
-143.3570233991823
 30
0.0
 10
312.2198954466794
 20
-143.2267805288993
 30
0.0
  0
SPLINE
  5
15E
330
1F
100
AcDbEntity
  8
0
  6
CONTINUOUS
 62
     7
100
AcDbSpline
210
0.0
220
0.0
230
1.0
 70
     8
 71
     3
 72
    11
 73
     7
 74
     0
 42
0.00000001
 43
0.00000001
 40
0.0
 40
0.0
 40
0.0
 40
0.0
 40
0.2528255458472302
 40
0.5672549493448749
 40
0.8387068489786621
 40
0.9999999999999999
 40
0.9999999999999999
 40
0.9999999999999999
 40
0.9999999999999999
 10
-32.68360344133639
 20
-143.2142933558189
 30
0.0
 10
-32.91766880116204
 20
-143.414047395753
 30
0.0
 10
-33.44283224295885
 20
-143.8622278492929
 30
0.0
 10
-33.94629383784112
 20
-144.7642425101476
 30
0.0
 10
-34.21527884513317
 20
-145.6400492121868
 30
0.0
 10
-34.21495322857232
 20
-146.165357113437
 30
0.0
 10
-34.21483186445498
 20
-146.361150379058
 30
0.0
  0
ARC
  5
15F
330
1F
100
AcDbEntity
  8
0
  6
CONTINUOUS
 62
     7
100
AcDbCircle
 10
311.6633976807
 20
-144.0184737395
 30
0.0
 40
1.0
100
AcDbArc
 50
54.9410027925
 51
89.9999999962
  0
ARC
  5
160
330
1F
100
AcDbEntity
  8
0
  6
CONTINUOUS
 62
     7
100
AcDbCircle
 10
-32.1147079093
 20
-144.0184737395
 30
0.0
 40
1.0
100
AcDbArc
 50
90.0000000038
 51
124.9407088748
  0
ARC
  5
161
330
1F
100
AcDbEntity
  8
0
  6
CONTINUOUS
 62
     7
100
AcDbCircle
 10
291.7743448857
 20
110.8575888557
 30
0.0
 40
18.00000000000002
100
AcDbArc
 50
0.0
 51
69.3993754503
  0
ARC
  5
162
330
1F
100
AcDbEntity
  8
0
  6
CONTINUOUS
 62
     7
100
AcDbCircle
 10
-12.2256551143
 20
110.8575888557
 30
0.0
 40
18.00000000000003
100
AcDbArc
 50
110.6006245497
 51
180.0
  0
LINE
  5
163
330
1F
100
AcDbEntity
  8
0
  6
CONTINUOUS
 62
     7
100
AcDbLine
 10
309.7743466739
 20
-61.5184684943
 30
0.0
 11
309.7743466739
 21
110.8575905014
 31
0.0
  0
LINE
  5
164
330
1F
100
AcDbEntity
  8
0
  6
CONTINUOUS
 62
     7
100
AcDbLine
 10
309.7743466739
 20
-143.0184622954
 30
0.0
 11
309.7743466739
 21
-122.5184878062
 31
0.0
  0
LINE
  5
165
330
1F
100
AcDbEntity
  8
0
  6
CONTINUOUS
 62
     7
100
AcDbLine
 10
-30.2256569024
 20
-122.5184878062
 30
0.0
 11
-30.2256569024
 21
-143.0184622954
 31
0.0
  0
LINE
  5
166
330
1F
100
AcDbEntity
  8
0
  6
CONTINUOUS
 62
     7
100
AcDbLine
 10
-30.2256569024
 20
110.8575905014
 30
0.0
 11
-30.2256569024
 21
-61.5184684943
 31
0.0
  0
ARC
  5
167
330
1F
100
AcDbEntity
  8
0
  6
CONTINUOUS
 62
     7
100
AcDbCircle
 10
139.7743448857
 20
-293.5184737395
 30
0.0
 40
450.0000000000001
100
AcDbArc
 50
109.0022533864
 51
110.6006245497
  0
ARC
  5
168
330
1F
100
AcDbEntity
  8
0
  6
CONTINUOUS
 62
     7
100
AcDbCircle
 10
139.7743448857
 20
-293.5184737395
 30
0.0
 40
450.0000000000003
100
AcDbArc
 50
69.3993754503
 51
77.2023709169
  0
ARC
  5
169
330
1F
100
AcDbEntity
  8
0
  6
CONTINUOUS
 62
     7
100
AcDbCircle
 10
139.7743448857
 20
-293.5184737395
 30
0.0
 40
450.0000000000002
100
AcDbArc
 50
81.2812917867
 51
98.9671833462
  0
ARC
  5
16A
330
1F
100
AcDbEntity
  8
0
  6
CONTINUOUS
 62
     7
100
AcDbCircle
 10
186.8743448857
 20
152.4815262605
 30
0.0
 40
2.0
100
AcDbArc
 50
270.0
 51
306.8698976458
  0
ARC
  5
16B
330
1F
100
AcDbEntity
  8
0
  6
CONTINUOUS
 62
     7
100
AcDbCircle
 10
227.6743448857
 20
152.4815262605
 30
0.0
 40
2.0
100
AcDbArc
 50
233.1301023542
 51
270.0
  0
ARC
  5
16C
330
1F
100
AcDbEntity
  8
0
  6
CONTINUOUS
 62
     7
100
AcDbCircle
 10
225.2743448857
 20
149.2815262605
 30
0.0
 40
2.000000000000057
100
AcDbArc
 50
53.1301023542
 51
90.0
  0
ARC
  5
16D
330
1F
100
AcDbEntity
  8
0
  6
CONTINUOUS
 62
     7
100
AcDbCircle
 10
189.2743448857
 20
149.2815262605
 30
0.0
 40
2.000000000000057
100
AcDbArc
 50
90.0
 51
126.8698976458
  0
LINE
  5
16E
330
1F
100
AcDbEntity
  8
0
  6
CONTINUOUS
 62
     7
100
AcDbLine
 10
153.7743453179
 20
142.4815258284
 30
0.0
 11
125.7743444536
 21
142.4815258284
 31
0.0
  0
LINE
  5
16F
330
1F
100
AcDbEntity
  8
0
  6
CONTINUOUS
 62
     7
100
AcDbLine
 10
150.7743448261
 20
150.4815262083
 30
0.0
 11
128.7743449453
 21
150.4815262083
 31
0.0
  0
LINE
  5
170
330
1F
100
AcDbEntity
  8
0
  6
CONTINUOUS
 62
     7
100
AcDbLine
 10
326.774351323
 20
-95.7712610911
 30
0.0
 11
319.7743520383
 21
-95.7712610911
 31
0.0
  0
LINE
  5
171
330
1F
100
AcDbEntity
  8
0
  6
CONTINUOUS
 62
     7
100
AcDbLine
 10
326.774351323
 20
-95.7712610911
 30
0.0
 11
326.774351323
 21
-99.5240291308
 31
0.0
  0
LINE
  5
172
330
1F
100
AcDbEntity
  8
0
  6
CONTINUOUS
 62
     7
100
AcDbLine
 10
326.774351323
 20
-99.5240291308
 30
0.0
 11
319.7743520383
 21
-99.5240291308
 31
0.0
  0
LINE
  5
173
330
1F
100
AcDbEntity
  8
0
  6
CONTINUOUS
 62
     7
100
AcDbLine
 10
326.774351323
 20
-88.2656952094
 30
0.0
 11
319.7743520383
 21
-88.2656952094
 31
0.0
  0
LINE
  5
174
330
1F
100
AcDbEntity
  8
0
  6
CONTINUOUS
 62
     7
100
AcDbLine
 10
326.774351323
 20
-88.2656952094
 30
0.0
 11
326.774351323
 21
-95.7712610911
 31
0.0
  0
LINE
  5
175
330
1F
100
AcDbEntity
  8
0
  6
CONTINUOUS
 62
     7
100
AcDbLine
 10
326.774351323
 20
-84.5129271697
 30
0.0
 11
319.7743520383
 21
-84.5129271697
 31
0.0
  0
LINE
  5
176
330
1F
100
AcDbEntity
  8
0
  6
CONTINUOUS
 62
     7
100
AcDbLine
 10
326.774351323
 20
-84.5129271697
 30
0.0
 11
326.774351323
 21
-88.2656952094
 31
0.0
  0
LINE
  5
177
330
1F
100
AcDbEntity
  8
0
  6
CONTINUOUS
 62
     7
100
AcDbLine
 10
178.7743456904
 20
-88.2656952094
 30
0.0
 11
172.2743436936
 21
-84.5129271697
 31
0.0
  0
LINE
  5
178
330
1F
100
AcDbEntity
  8
0
  6
CONTINUOUS
 62
     7
100
AcDbLine
 10
178.7743456904
 20
-95.7712610911
 30
0.0
 11
178.7743456904
 21
-88.2656952094
 31
0.0
  0
LINE
  5
179
330
1F
100
AcDbEntity
  8
0
  6
CONTINUOUS
 62
     7
100
AcDbLine
 10
172.2743436936
 20
-99.5240291308
 30
0.0
 11
178.7743456904
 21
-95.7712610911
 31
0.0
  0
LINE
  5
17A
330
1F
100
AcDbEntity
  8
0
  6
CONTINUOUS
 62
     7
100
AcDbLine
 10
172.2743436936
 20
-84.5129271697
 30
0.0
 11
165.7743454222
 21
-88.2656952094
 31
0.0
  0
LINE
  5
17B
330
1F
100
AcDbEntity
  8
0
  6
CONTINUOUS
 62
     7
100
AcDbLine
 10
165.7743454222
 20
-95.7712610911
 30
0.0
 11
172.2743436936
 21
-99.5240291308
 31
0.0
  0
LINE
  5
17C
330
1F
100
AcDbEntity
  8
0
  6
CONTINUOUS
 62
     7
100
AcDbLine
 10
165.7743454222
 20
-88.2656952094
 30
0.0
 11
165.7743454222
 21
-95.7712610911
 31
0.0
  0
LINE
  5
17D
330
1F
100
AcDbEntity
  8
0
  6
CONTINUOUS
 62
     7
100
AcDbLine
 10
100.7743440811
 20
-88.2656952094
 30
0.0
 11
100.7743440811
 21
-95.7712610911
 31
0.0
  0
LINE
  5
17E
330
1F
100
AcDbEntity
  8
0
  6
CONTINUOUS
 62
     7
100
AcDbLine
 10
107.2743460778
 20
-84.5129271697
 30
0.0
 11
100.7743440811
 21
-88.2656952094
 31
0.0
  0
LINE
  5
17F
330
1F
100
AcDbEntity
  8
0
  6
CONTINUOUS
 62
     7
100
AcDbLine
 10
113.7743443493
 20
-88.2656952094
 30
0.0
 11
107.2743460778
 21
-84.5129271697
 31
0.0
  0
LINE
  5
180
330
1F
100
AcDbEntity
  8
0
  6
CONTINUOUS
 62
     7
100
AcDbLine
 10
113.7743443493
 20
-95.7712610911
 30
0.0
 11
113.7743443493
 21
-88.2656952094
 31
0.0
  0
LINE
  5
181
330
1F
100
AcDbEntity
  8
0
  6
CONTINUOUS
 62
     7
100
AcDbLine
 10
107.2743460778
 20
-99.5240291308
 30
0.0
 11
113.7743443493
 21
-95.7712610911
 31
0.0
  0
LINE
  5
182
330
1F
100
AcDbEntity
  8
0
  6
CONTINUOUS
 62
     7
100
AcDbLine
 10
100.7743440811
 20
-95.7712610911
 30
0.0
 11
107.2743460778
 21
-99.5240291308
 31
0.0
  0
LINE
  5
183
330
1F
100
AcDbEntity
  8
0
  6
CONTINUOUS
 62
     7
100
AcDbLine
 10
-47.2256615516
 20
-95.8013614367
 30
0.0
 11
-40.2256622668
 21
-95.8013614367
 31
0.0
  0
LINE
  5
184
330
1F
100
AcDbEntity
  8
0
  6
CONTINUOUS
 62
     7
100
AcDbLine
 10
-47.2256615516
 20
-88.2958998631
 30
0.0
 11
-40.2256622668
 21
-88.2958998631
 31
0.0
  0
LINE
  5
185
330
1F
100
AcDbEntity
  8
0
  6
CONTINUOUS
 62
     7
100
AcDbLine
 10
-47.2256615516
 20
-95.8013614367
 30
0.0
 11
-47.2256615516
 21
-88.2958998631
 31
0.0
  0
LINE
  5
186
330
1F
100
AcDbEntity
  8
0
  6
CONTINUOUS
 62
     7
100
AcDbLine
 10
-47.2256615516
 20
-84.5130016755
 30
0.0
 11
-40.2256622668
 21
-84.5130016755
 31
0.0
  0
LINE
  5
187
330
1F
100
AcDbEntity
  8
0
  6
CONTINUOUS
 62
     7
100
AcDbLine
 10
-47.2256615516
 20
-88.2958998631
 30
0.0
 11
-47.2256615516
 21
-84.5130016755
 31
0.0
  0
LINE
  5
188
330
1F
100
AcDbEntity
  8
0
  6
CONTINUOUS
 62
     7
100
AcDbLine
 10
-47.2256615516
 20
-99.5239397238
 30
0.0
 11
-40.2256622668
 21
-99.5239397238
 31
0.0
  0
LINE
  5
189
330
1F
100
AcDbEntity
  8
0
  6
CONTINUOUS
 62
     7
100
AcDbLine
 10
-47.2256615516
 20
-99.5239397238
 30
0.0
 11
-47.2256615516
 21
-95.8013614367
 31
0.0
  0
LINE
  5
18A
330
1F
100
AcDbEntity
  8
0
  6
CONTINUOUS
 62
     7
100
AcDbLine
 10
104.7497540955
 20
-80.9041490506
 30
0.0
 11
130.9136888254
 21
-70.2529331397
 31
0.0
  0
ARC
  5
18B
330
1F
100
AcDbEntity
  8
0
  6
CONTINUOUS
 62
     7
100
AcDbCircle
 10
139.7743448857
 20
-92.0184737395
 30
0.0
 40
23.50000000000001
100
AcDbArc
 50
67.8489785585
 51
112.1510214415
  0
LINE
  5
18C
330
1F
100
AcDbEntity
  8
0
  6
CONTINUOUS
 62
     7
100
AcDbLine
 10
148.635000946
 20
-70.2529331397
 30
0.0
 11
174.798935676
 21
-80.9041490506
 31
0.0
  0
ARC
  5
18D
330
1F
100
AcDbEntity
  8
0
  6
CONTINUOUS
 62
     7
100
AcDbCircle
 10
170.2743448857
 20
-92.0184737395
 30
0.0
 40
12.00000000000001
100
AcDbArc
 50
292.1510214415
 51
67.8489785585
  0
LINE
  5
18E
330
1F
100
AcDbEntity
  8
0
  6
CONTINUOUS
 62
     7
100
AcDbLine
 10
174.798935676
 20
-103.1327923487
 30
0.0
 11
148.635000946
 21
-113.7840231608
 31
0.0
  0
ARC
  5
18F
330
1F
100
AcDbEntity
  8
0
  6
CONTINUOUS
 62
     7
100
AcDbCircle
 10
139.7743448857
 20
-92.0184737395
 30
0.0
 40
23.50000000000004
100
AcDbArc
 50
247.8489785585
 51
292.1510214415
  0
LINE
  5
190
330
1F
100
AcDbEntity
  8
0
  6
CONTINUOUS
 62
     7
100
AcDbLine
 10
130.9136888254
 20
-113.7840231608
 30
0.0
 11
104.7497540955
 21
-103.1327923487
 31
0.0
  0
ARC
  5
191
330
1F
100
AcDbEntity
  8
0
  6
CONTINUOUS
 62
     7
100
AcDbCircle
 10
109.2743448857
 20
-92.0184737395
 30
0.0
 40
12.00000000000002
100
AcDbArc
 50
112.1510214415
 51
247.8489785585
  0
LINE
  5
192
330
1F
100
AcDbEntity
  8
0
  6
CONTINUOUS
 62
     7
100
AcDbLine
 10
-32.2256609555
 20
-103.1327923487
 30
0.0
 11
-32.2256609555
 21
-80.9041490506
 31
0.0
  0
LINE
  5
193
330
1F
100
AcDbEntity
  8
0
  6
CONTINUOUS
 62
     7
100
AcDbLine
 10
-40.2256622668
 20
-80.9041490506
 30
0.0
 11
-40.2256622668
 21
-103.1327923487
 31
0.0
  0
LINE
  5
194
330
1F
100
AcDbEntity
  8
0
  6
CONTINUOUS
 62
     7
100
AcDbLine
 10
-32.2256609555
 20
-80.9041490506
 30
0.0
 11
-32.2256609555
 21
-70.2529331397
 31
0.0
  0
LINE
  5
195
330
1F
100
AcDbEntity
  8
0
  6
CONTINUOUS
 62
     7
100
AcDbLine
 10
-40.2256622668
 20
-70.2529331397
 30
0.0
 11
-40.2256622668
 21
-80.9041490506
 31
0.0
  0
LINE
  5
196
330
1F
100
AcDbEntity
  8
0
  6
CONTINUOUS
 62
     7
100
AcDbLine
 10
-32.2256609555
 20
-113.7840231608
 30
0.0
 11
-32.2256609555
 21
-103.1327923487
 31
0.0
  0
LINE
  5
197
330
1F
100
AcDbEntity
  8
0
  6
CONTINUOUS
 62
     7
100
AcDbLine
 10
-40.2256622668
 20
-103.1327923487
 30
0.0
 11
-40.2256622668
 21
-113.7840231608
 31
0.0
  0
LINE
  5
198
330
1F
100
AcDbEntity
  8
0
  6
CONTINUOUS
 62
     7
100
AcDbLine
 10
-53.2256588098
 20
-92.0184781502
 30
0.0
 11
-53.2256588098
 21
-74.5184799384
 31
0.0
  0
LINE
  5
199
330
1F
100
AcDbEntity
  8
0
  6
CONTINUOUS
 62
     7
100
AcDbLine
 10
-53.2256588098
 20
-109.5184763621
 30
0.0
 11
-53.2256588098
 21
-92.0184781502
 31
0.0
  0
LINE
  5
19A
330
1F
100
AcDbEntity
  8
0
  6
CONTINUOUS
 62
     7
100
AcDbLine
 10
-32.2256609555
 20
-70.2529331397
 30
0.0
 11
-32.2256609555
 21
-68.518467779
 31
0.0
  0
LINE
  5
19B
330
1F
100
AcDbEntity
  8
0
  6
CONTINUOUS
 62
     7
100
AcDbLine
 10
-40.2256622668
 20
-68.518467779
 30
0.0
 11
-40.2256622668
 21
-70.2529331397
 31
0.0
  0
LINE
  5
19C
330
1F
100
AcDbEntity
  8
0
  6
CONTINUOUS
 62
     7
100
AcDbLine
 10
-32.2256609555
 20
-115.5184885215
 30
0.0
 11
-32.2256609555
 21
-113.7840231608
 31
0.0
  0
LINE
  5
19D
330
1F
100
AcDbEntity
  8
0
  6
CONTINUOUS
 62
     7
100
AcDbLine
 10
-40.2256622668
 20
-113.7840231608
 30
0.0
 11
-40.2256622668
 21
-115.5184885215
 31
0.0
  0
LINE
  5
19E
330
1F
100
AcDbEntity
  8
0
  6
CONTINUOUS
 62
     7
100
AcDbLine
 10
319.7743520383
 20
-103.1327923487
 30
0.0
 11
319.7743520383
 21
-80.9041490506
 31
0.0
  0
LINE
  5
19F
330
1F
100
AcDbEntity
  8
0
  6
CONTINUOUS
 62
     7
100
AcDbLine
 10
311.774350727
 20
-80.9041490506
 30
0.0
 11
311.774350727
 21
-103.1327923487
 31
0.0
  0
LINE
  5
1A0
330
1F
100
AcDbEntity
  8
0
  6
CONTINUOUS
 62
     7
100
AcDbLine
 10
319.7743520383
 20
-113.7840231608
 30
0.0
 11
319.7743520383
 21
-103.1327923487
 31
0.0
  0
LINE
  5
1A1
330
1F
100
AcDbEntity
  8
0
  6
CONTINUOUS
 62
     7
100
AcDbLine
 10
311.774350727
 20
-103.1327923487
 30
0.0
 11
311.774350727
 21
-113.7840231608
 31
0.0
  0
LINE
  5
1A2
330
1F
100
AcDbEntity
  8
0
  6
CONTINUOUS
 62
     7
100
AcDbLine
 10
319.7743520383
 20
-80.9041490506
 30
0.0
 11
319.7743520383
 21
-70.2529331397
 31
0.0
  0
LINE
  5
1A3
330
1F
100
AcDbEntity
  8
0
  6
CONTINUOUS
 62
     7
100
AcDbLine
 10
311.774350727
 20
-70.2529331397
 30
0.0
 11
311.774350727
 21
-80.9041490506
 31
0.0
  0
LINE
  5
1A4
330
1F
100
AcDbEntity
  8
0
  6
CONTINUOUS
 62
     7
100
AcDbLine
 10
332.7743485812
 20
-74.5184799384
 30
0.0
 11
332.7743485812
 21
-109.5184763621
 31
0.0
  0
LINE
  5
1A5
330
1F
100
AcDbEntity
  8
0
  6
CONTINUOUS
 62
     7
100
AcDbLine
 10
319.7743520383
 20
-115.5184885215
 30
0.0
 11
319.7743520383
 21
-113.7840231608
 31
0.0
  0
LINE
  5
1A6
330
1F
100
AcDbEntity
  8
0
  6
CONTINUOUS
 62
     7
100
AcDbLine
 10
311.774350727
 20
-113.7840231608
 30
0.0
 11
311.774350727
 21
-115.5184885215
 31
0.0
  0
LINE
  5
1A7
330
1F
100
AcDbEntity
  8
0
  6
CONTINUOUS
 62
     7
100
AcDbLine
 10
319.7743520383
 20
-70.2529331397
 30
0.0
 11
319.7743520383
 21
-68.518467779
 31
0.0
  0
LINE
  5
1A8
330
1F
100
AcDbEntity
  8
0
  6
CONTINUOUS
 62
     7
100
AcDbLine
 10
311.774350727
 20
-68.518467779
 30
0.0
 11
311.774350727
 21
-70.2529331397
 31
0.0
  0
LINE
  5
1A9
330
1F
100
AcDbEntity
  8
0
  6
CONTINUOUS
 62
     7
100
AcDbLine
 10
311.774350727
 20
-99.3499239634
 30
0.0
 11
309.7743466739
 21
-99.3499239634
 31
0.0
  0
LINE
  5
1AA
330
1F
100
AcDbEntity
  8
0
  6
CONTINUOUS
 62
     7
100
AcDbLine
 10
311.774350727
 20
-99.3499239634
 30
0.0
 11
311.774350727
 21
-103.1327923487
 31
0.0
  0
LINE
  5
1AB
330
1F
100
AcDbEntity
  8
0
  6
CONTINUOUS
 62
     7
100
AcDbLine
 10
311.774350727
 20
-84.6870323371
 30
0.0
 11
309.7743466739
 21
-84.6870323371
 31
0.0
  0
LINE
  5
1AC
330
1F
100
AcDbEntity
  8
0
  6
CONTINUOUS
 62
     7
100
AcDbLine
 10
311.774350727
 20
-80.9041490506
 30
0.0
 11
311.774350727
 21
-84.6870323371
 31
0.0
  0
LINE
  5
1AD
330
1F
100
AcDbEntity
  8
0
  6
CONTINUOUS
 62
     7
100
AcDbLine
 10
-30.2256569024
 20
-84.6870323371
 30
0.0
 11
-32.2256609555
 21
-84.6870323371
 31
0.0
  0
LINE
  5
1AE
330
1F
100
AcDbEntity
  8
0
  6
CONTINUOUS
 62
     7
100
AcDbLine
 10
-32.2256609555
 20
-80.9041490506
 30
0.0
 11
-32.2256609555
 21
-84.6870323371
 31
0.0
  0
LINE
  5
1AF
330
1F
100
AcDbEntity
  8
0
  6
CONTINUOUS
 62
     7
100
AcDbLine
 10
-30.2256569024
 20
-99.3499239634
 30
0.0
 11
-32.2256609555
 21
-99.3499239634
 31
0.0
  0
LINE
  5
1B0
330
1F
100
AcDbEntity
  8
0
  6
CONTINUOUS
 62
     7
100
AcDbLine
 10
-32.2256609555
 20
-99.3499239634
 30
0.0
 11
-32.2256609555
 21
-103.1327923487
 31
0.0
  0
LINE
  5
1B1
330
1F
100
AcDbEntity
  8
0
  6
CONTINUOUS
 62
     7
100
AcDbLine
 10
51.3859987501
 20
-165.5184706401
 30
0.0
 11
228.1626910213
 21
-165.5184706401
 31
0.0
  0
LINE
  5
1B2
330
1F
100
AcDbEntity
  8
0
  6
CONTINUOUS
 62
     7
100
AcDbLine
 10
51.3859987501
 20
-167.5184746932
 30
0.0
 11
228.1626910213
 21
-167.5184746932
 31
0.0
  0
SPLINE
  5
1B3
330
1F
100
AcDbEntity
  8
0
  6
CONTINUOUS
 62
     7
100
AcDbSpline
210
0.0
220
0.0
230
1.0
 70
    24
 71
     3
 72
    13
 73
     9
 74
     0
 42
0.00000001
 43
0.00000001
 40
0.0
 40
0.0
 40
0.0
 40
0.0
 40
0.1163831778228673
 40
0.3491371433359481
 40
0.5825794320610629
 40
0.7909414895254109
 40
0.8954894061196542
 40
1.0
 40
1.0
 40
1.0
 40
1.0
 10
114.0437759701226
 20
-143.0184622954093
 30
0.0
 10
116.0298643069462
 20
-143.0184622954093
 30
0.0
 10
121.9879178788018
 20
-143.0184622954093
 30
0.0
 10
132.0050588335769
 20
-143.0184622954093
 30
0.0
 10
143.6049247057077
 20
-143.0184622954093
 30
0.0
 10
152.9947507198254
 20
-143.0184622954092
 30
0.0
 10
160.1574109958441
 20
-143.0184622954094
 30
0.0
 10
163.7226250292041
 20
-143.0184622954093
 30
0.0
 10
165.5049138013337
 20
-143.0184622954093
 30
0.0
  0
LINE
  5
1B4
330
1F
100
AcDbEntity
  8
0
  6
CONTINUOUS
 62
     7
100
AcDbLine
 10
165.5049138013
 20
-143.0184622954
 30
0.0
 11
221.810244048
 21
-143.0184622954
 31
0.0
  0
LINE
  5
1B5
330
1F
100
AcDbEntity
  8
0
  6
CONTINUOUS
 62
     7
100
AcDbLine
 10
57.7384457234
 20
-143.0184622954
 30
0.0
 11
114.0437759701
 21
-143.0184622954
 31
0.0
  0
LINE
  5
1B6
330
1F
100
AcDbEntity
  8
0
  6
CONTINUOUS
 62
     7
100
AcDbLine
 10
-29.3614342567
 20
-165.5184706401
 30
0.0
 11
51.3859987501
 21
-165.5184706401
 31
0.0
  0
LINE
  5
1B7
330
1F
100
AcDbEntity
  8
0
  6
CONTINUOUS
 62
     7
100
AcDbLine
 10
-29.3614342567
 20
-167.5184746932
 30
0.0
 11
51.3859987501
 21
-167.5184746932
 31
0.0
  0
LINE
  5
1B8
330
1F
100
AcDbEntity
  8
0
  6
CONTINUOUS
 62
     7
100
AcDbLine
 10
228.1626910213
 20
-165.5184706401
 30
0.0
 11
308.9101240281
 21
-165.5184706401
 31
0.0
  0
LINE
  5
1B9
330
1F
100
AcDbEntity
  8
0
  6
CONTINUOUS
 62
     7
100
AcDbLine
 10
228.1626910213
 20
-167.5184746932
 30
0.0
 11
308.9101240281
 21
-167.5184746932
 31
0.0
  0
LINE
  5
1BA
330
1F
100
AcDbEntity
  8
0
  6
CONTINUOUS
 62
     7
100
AcDbLine
 10
52.3582697157
 20
-153.3184727381
 30
0.0
 11
57.926245058
 21
-153.3184727381
 31
0.0
  0
LINE
  5
1BB
330
1F
100
AcDbEntity
  8
0
  6
CONTINUOUS
 62
     7
100
AcDbLine
 10
221.6224447135
 20
-153.3184727381
 30
0.0
 11
227.1904200558
 21
-153.3184727381
 31
0.0
  0
LINE
  5
1BC
330
1F
100
AcDbEntity
  8
0
  6
CONTINUOUS
 62
     7
100
AcDbLine
 10
227.1904200558
 20
-153.3184727381
 30
0.0
 11
303.4967407826
 21
-153.3184727381
 31
0.0
  0
LINE
  5
1BD
330
1F
100
AcDbEntity
  8
0
  6
CONTINUOUS
 62
     7
100
AcDbLine
 10
-23.9480510112
 20
-153.3184727381
 30
0.0
 11
52.3582697157
 21
-153.3184727381
 31
0.0
  0
LINE
  5
1BE
330
1F
100
AcDbEntity
  8
0
  6
CONTINUOUS
 62
     7
100
AcDbLine
 10
50.8000925426
 20
-143.0184622954
 30
0.0
 11
57.7384457234
 21
-143.0184622954
 31
0.0
  0
SPLINE
  5
1BF
330
1F
100
AcDbEntity
  8
0
  6
CONTINUOUS
 62
     7
100
AcDbSpline
210
0.0
220
0.0
230
1.0
 70
     8
 71
     3
 72
    11
 73
     7
 74
     0
 42
0.00000001
 43
0.00000001
 40
0.0
 40
0.0
 40
0.0
 40
0.0
 40
0.348683207609874
 40
0.6589511473904569
 40
0.846582280770051
 40
1.0
 40
1.0
 40
1.0
 40
1.0
 10
221.8102440480206
 20
-143.0184622954093
 30
0.0
 10
221.9189104449784
 20
-143.0202406234887
 30
0.0
 10
222.1242712005161
 20
-143.0236013569648
 30
0.0
 10
222.3956321854374
 20
-143.0554030222734
 30
0.0
 10
222.5958317567714
 20
-143.0986328710206
 30
0.0
 10
222.6858611053774
 20
-143.1310885280527
 30
0.0
 10
222.7263599876377
 20
-143.1456884096824
 30
0.0
  0
LINE
  5
1C0
330
1F
100
AcDbEntity
  8
0
  6
CONTINUOUS
 62
     7
100
AcDbLine
 10
221.810244048
 20
-143.0184622954
 30
0.0
 11
228.7485972289
 21
-143.0184622954
 31
0.0
  0
LINE
  5
1C1
330
1F
100
AcDbEntity
  8
0
  6
CONTINUOUS
 62
     7
100
AcDbLine
 10
-5.0827637073
 20
-143.0184622954
 30
0.0
 11
50.8000925426
 21
-143.0184622954
 31
0.0
  0
LINE
  5
1C2
330
1F
100
AcDbEntity
  8
0
  6
CONTINUOUS
 62
     7
100
AcDbLine
 10
228.7485972289
 20
-143.0184622954
 30
0.0
 11
284.6314534787
 21
-143.0184622954
 31
0.0
  0
LINE
  5
1C3
330
1F
100
AcDbEntity
  8
0
  6
CONTINUOUS
 62
     7
100
AcDbLine
 10
-11.764116561
 20
-143.0184622954
 30
0.0
 11
-5.0827637073
 21
-143.0184622954
 31
0.0
  0
LINE
  5
1C4
330
1F
100
AcDbEntity
  8
0
  6
CONTINUOUS
 62
     7
100
AcDbLine
 10
284.6314534787
 20
-143.0184622954
 30
0.0
 11
291.3128063325
 21
-143.0184622954
 31
0.0
  0
LINE
  5
1C5
330
1F
100
AcDbEntity
  8
0
  6
CONTINUOUS
 62
     7
100
AcDbLine
 10
308.9101240281
 20
-165.5184706401
 30
0.0
 11
316.7846277598
 21
-165.5184706401
 31
0.0
  0
LINE
  5
1C6
330
1F
100
AcDbEntity
  8
0
  6
CONTINUOUS
 62
     7
100
AcDbLine
 10
308.9101240281
 20
-167.5184746932
 30
0.0
 11
316.7846277598
 21
-167.5184746932
 31
0.0
  0
LINE
  5
1C7
330
1F
100
AcDbEntity
  8
0
  6
CONTINUOUS
 62
     7
100
AcDbLine
 10
-37.2359379884
 20
-165.5184706401
 30
0.0
 11
-29.3614342567
 21
-165.5184706401
 31
0.0
  0
LINE
  5
1C8
330
1F
100
AcDbEntity
  8
0
  6
CONTINUOUS
 62
     7
100
AcDbLine
 10
-37.2359379884
 20
-167.5184746932
 30
0.0
 11
-29.3614342567
 21
-167.5184746932
 31
0.0
  0
LINE
  5
1C9
330
1F
100
AcDbEntity
  8
0
  6
CONTINUOUS
 62
     7
100
AcDbLine
 10
303.4967407826
 20
-153.3184727381
 30
0.0
 11
304.4639751557
 21
-153.3184727381
 31
0.0
  0
LINE
  5
1CA
330
1F
100
AcDbEntity
  8
0
  6
CONTINUOUS
 62
     7
100
AcDbLine
 10
-24.9152853843
 20
-153.3184727381
 30
0.0
 11
-23.9480510112
 21
-153.3184727381
 31
0.0
  0
LINE
  5
1CB
330
1F
100
AcDbEntity
  8
0
  6
CONTINUOUS
 62
     7
100
AcDbLine
 10
-30.6126549598
 20
-143.0184622954
 30
0.0
 11
-11.764116561
 21
-143.0184622954
 31
0.0
  0
LINE
  5
1CC
330
1F
100
AcDbEntity
  8
0
  6
CONTINUOUS
 62
     7
100
AcDbLine
 10
291.3128063325
 20
-143.0184622954
 30
0.0
 11
310.1613447312
 21
-143.0184622954
 31
0.0
  0
SPLINE
  5
1CD
330
1F
100
AcDbEntity
  8
0
  6
CONTINUOUS
 62
     7
100
AcDbSpline
210
0.0
220
0.0
230
1.0
 70
    24
 71
     3
 72
    10
 73
     6
 74
     0
 42
0.00000001
 43
0.00000001
 40
0.0
 40
0.0
 40
0.0
 40
0.0
 40
0.2327709637010267
 40
0.6982881103471995
 40
1.0
 40
1.0
 40
1.0
 40
1.0
 10
310.1613447312329
 20
-143.0184622954093
 30
0.0
 10
310.4083045235639
 20
-143.0184622954093
 30
0.0
 10
311.1491576092609
 20
-143.0184622954092
 30
0.0
 10
311.6010371939727
 20
-143.0184622954094
 30
0.0
 10
311.6002230098195
 20
-143.0184622954093
 30
0.0
 10
311.599902832887
 20
-143.0184622954093
 30
0.0
  0
SPLINE
  5
1CE
330
1F
100
AcDbEntity
  8
0
  6
CONTINUOUS
 62
     7
100
AcDbSpline
210
0.0
220
0.0
230
1.0
 70
    24
 71
     3
 72
    11
 73
     7
 74
     0
 42
0.00000001
 43
0.00000001
 40
0.0
 40
0.0
 40
0.0
 40
0.0
 40
0.1651753907454737
 40
0.5818912561495697
 40
0.7909829500498372
 40
1.0
 40
1.0
 40
1.0
 40
1.0
 10
-32.05121306143069
 20
-143.0184622954093
 30
0.0
 10
-32.06909695230004
 20
-143.0184622954093
 30
0.0
 10
-32.13209955623422
 20
-143.0184622954093
 30
0.0
 10
-31.80031640758627
 20
-143.0184622954094
 30
0.0
 10
-31.31295507474774
 20
-143.0184622954093
 30
0.0
 10
-30.846060546914
 20
-143.0184622954093
 30
0.0
 10
-30.61265495977664
 20
-143.0184622954093
 30
0.0
  0
SPLINE
  5
1CF
330
1F
100
AcDbEntity
  8
0
  6
CONTINUOUS
 62
     7
100
AcDbSpline
210
0.0
220
0.0
230
1.0
 70
     8
 71
     3
 72
    16
 73
    12
 74
     0
 42
0.00000001
 43
0.00000001
 40
0.0
 40
0.0
 40
0.0
 40
0.0
 40
0.1225110051978988
 40
0.2450387887400959
 40
0.3679795712781624
 40
0.4909109066850879
 40
0.6148711487589342
 40
0.7387963148546517
 40
0.8583530222781528
 40
0.9778662285255534
 40
1.0
 40
1.0
 40
1.0
 40
1.0
 10
120.0742274764988
 20
138.4815270353593
 30
0.0
 10
119.5936906286484
 20
138.8140473611162
 30
0.0
 10
118.6325511216135
 20
139.4791335525431
 30
0.0
 10
118.0271097707409
 20
140.5334495286288
 30
0.0
 10
118.0723083287977
 20
141.591929321242
 30
0.0
 10
118.8078689684792
 20
142.6353223233245
 30
0.0
 10
120.2417880574256
 20
143.627983682027
 30
0.0
 10
122.2965364791793
 20
144.5366568901033
 30
0.0
 10
124.9631605198983
 20
145.3099109968713
 30
0.0
 10
127.1594648387965
 20
145.8102009032284
 30
0.0
 10
128.5561056991936
 20
145.9987467521461
 30
0.0
 10
128.7743449453328
 20
146.0282089461125
 30
0.0
  0
SPLINE
  5
1D0
330
1F
100
AcDbEntity
  8
0
  6
CONTINUOUS
 62
     7
100
AcDbSpline
210
0.0
220
0.0
230
1.0
 70
     8
 71
     3
 72
    17
 73
    13
 74
     0
 42
0.00000001
 43
0.00000001
 40
0.0
 40
0.0
 40
0.0
 40
0.0
 40
0.0291789495585291
 40
0.1327529167834411
 40
0.240914308764026
 40
0.3491028824095242
 40
0.4638597108515827
 40
0.578636783151247
 40
0.699690320225923
 40
0.8207460847716909
 40
0.9103758773505318
 40
1.0
 40
1.0
 40
1.0
 40
1.0
 10
150.7743448261235
 20
146.0265940327681
 30
0.0
 10
151.0594953427857
 20
145.9865465772894
 30
0.0
 10
152.3568197284112
 20
145.8043461689472
 30
0.0
 10
154.4017126317769
 20
145.3524036236842
 30
0.0
 10
156.7958976419626
 20
144.6803327295732
 30
0.0
 10
158.7858552788311
 20
143.8851650141331
 30
0.0
 10
160.2813748551544
 20
143.0013238388814
 30
0.0
 10
161.2464560321728
 20
142.0297400681428
 30
0.0
 10
161.5855216233673
 20
141.0083712121828
 30
0.0
 10
161.2895417942395
 20
140.0553411420538
 30
0.0
 10
160.5668746557127
 20
139.2071221289809
 30
0.0
 10
159.8385920698431
 20
138.7233869662702
 30
0.0
 10
159.4744622949574
 20
138.4815270353593
 30
0.0
  0
SPLINE
  5
1D1
330
1F
100
AcDbEntity
  8
0
  6
CONTINUOUS
 62
     7
100
AcDbSpline
210
0.0
220
0.0
230
1.0
 70
     8
 71
     3
 72
    66
 73
    62
 74
     0
 42
0.00000001
 43
0.00000001
 40
0.0
 40
0.0
 40
0.0
 40
0.0
 40
0.0625000000000033
 40
0.0625000000000033
 40
0.0937500000000044
 40
0.0937500000000044
 40
0.1250000000000055
 40
0.1250000000000055
 40
0.1875000000000076
 40
0.1875000000000076
 40
0.2187500000000092
 40
0.2187500000000092
 40
0.23437500000001
 40
0.23437500000001
 40
0.2500000000000107
 40
0.2500000000000107
 40
0.312500000000011
 40
0.312500000000011
 40
0.3281250000000109
 40
0.3281250000000109
 40
0.3437500000000108
 40
0.3437500000000108
 40
0.3750000000000107
 40
0.3750000000000107
 40
0.4062500000000105
 40
0.4062500000000105
 40
0.4375000000000104
 40
0.4375000000000104
 40
0.50000000000001
 40
0.50000000000001
 40
0.5156250000000099
 40
0.5156250000000099
 40
0.5312500000000099
 40
0.5312500000000099
 40
0.5625000000000094
 40
0.5625000000000094
 40
0.5937500000000091
 40
0.5937500000000091
 40
0.6250000000000088
 40
0.6250000000000088
 40
0.6875000000000077
 40
0.6875000000000077
 40
0.7031250000000075
 40
0.7031250000000075
 40
0.7187500000000075
 40
0.7187500000000075
 40
0.7500000000000074
 40
0.7500000000000074
 40
0.7812500000000074
 40
0.7812500000000074
 40
0.7968750000000074
 40
0.7968750000000074
 40
0.8125000000000073
 40
0.8125000000000073
 40
0.8750000000000052
 40
0.8750000000000052
 40
0.9062500000000037
 40
0.9062500000000037
 40
0.9375000000000021
 40
0.9375000000000021
 40
1.0
 40
1.0
 40
1.0
 40
1.0
 10
159.4744628698818
 20
138.4815262604988
 30
0.0
 10
159.6495774890153
 20
138.0634465541246
 30
0.0
 10
159.6832731061028
 20
137.6462403551452
 30
0.0
 10
159.5317413048907
 20
137.0216165588152
 30
0.0
 10
159.4472789235261
 20
136.8136101212179
 30
0.0
 10
159.2088964827712
 20
136.3980263648259
 30
0.0
 10
159.0538074412483
 20
136.1893456876389
 30
0.0
 10
158.4895534821958
 20
135.574979294958
 30
0.0
 10
157.9835277458094
 20
135.1796365165961
 30
0.0
 10
157.0276381699383
 20
134.6085682815009
 30
0.0
 10
156.6759525209461
 20
134.4218989904588
 30
0.0
 10
156.0960546687714
 20
134.1478007717698
 30
0.0
 10
155.8934872359131
 20
134.0572237767331
 30
0.0
 10
155.4751760719448
 20
133.8801833068388
 30
0.0
 10
155.259015086874
 20
133.7934991861498
 30
0.0
 10
154.1433969678094
 20
133.3692340186063
 30
0.0
 10
153.1407360250398
 20
133.0587880203792
 30
0.0
 10
151.7410871106262
 20
132.7097482677658
 30
0.0
 10
151.4537610010768
 20
132.6419127547352
 30
0.0
 10
150.8637472120825
 20
132.5103522191033
 30
0.0
 10
150.5602129826231
 20
132.4464792951725
 30
0.0
 10
149.6381389627424
 20
132.263742662275
 30
0.0
 10
149.005083272772
 20
132.1529698448829
 30
0.0
 10
147.7024859368372
 20
131.9535107299587
 30
0.0
 10
147.0329469508154
 20
131.8648226694614
 30
0.0
 10
145.6562491239692
 20
131.7103060460034
 30
0.0
 10
144.9473084964187
 20
131.644340272261
 30
0.0
 10
142.7713552870109
 20
131.4840820192554
 30
0.0
 10
141.3063386115368
 20
131.4304552719784
 30
0.0
 10
139.4574171399507
 20
131.4288766307
 30
0.0
 10
139.0867399998086
 20
131.4318707463555
 30
0.0
 10
138.3435660973639
 20
131.4446036085573
 30
0.0
 10
137.9697283472222
 20
131.4543981797261
 30
0.0
 10
136.857705679227
 20
131.4937008799688
 30
0.0
 10
136.1286414357548
 20
131.5329754140638
 30
0.0
 10
134.6940424796723
 20
131.6365230052945
 30
0.0
 10
133.9885113237229
 20
131.7007998799969
 30
0.0
 10
132.6008509994483
 20
131.8541504146669
 30
0.0
 10
131.9149394945051
 20
131.9438998915603
 30
0.0
 10
129.937632575761
 20
132.2440518561598
 30
0.0
 10
128.7155571652453
 20
132.4854523799516
 30
0.0
 10
127.3015292216899
 20
132.8354845154304
 30
0.0
 10
127.0237121892813
 20
132.9081481973447
 30
0.0
 10
126.4839569426943
 20
133.057175127205
 30
0.0
 10
126.2221147140108
 20
133.1334821549402
 30
0.0
 10
125.459891788665
 20
133.3675845417168
 30
0.0
 10
124.9827474539826
 20
133.5305459393263
 30
0.0
 10
124.0880039971212
 20
133.8696046912321
 30
0.0
 10
123.6704127911697
 20
134.0457040009348
 30
0.0
 10
123.088413217346
 20
134.3195729197661
 30
0.0
 10
122.9013823309083
 20
134.4127320902021
 30
0.0
 10
122.5451754902113
 20
134.6007461855054
 30
0.0
 10
122.3758550560358
 20
134.6956367466944
 30
0.0
 10
121.5719260863229
 20
135.1743569398065
 30
0.0
 10
121.0639716862698
 20
135.5708423345213
 30
0.0
 10
120.4985111373758
 20
136.1848396695201
 30
0.0
 10
120.3426940588973
 20
136.3936976480487
 30
0.0
 10
120.1027411270082
 20
136.810575394711
 30
0.0
 10
120.0177646672612
 20
137.0191489477811
 30
0.0
 10
119.8652276558907
 20
137.6452385193948
 30
0.0
 10
119.8989714585114
 20
138.0631103421769
 30
0.0
 10
120.0742269015745
 20
138.4815262604989
 30
0.0
  0
SPLINE
  5
1D2
330
1F
100
AcDbEntity
  8
0
  6
CONTINUOUS
 62
     7
100
AcDbSpline
210
0.0
220
0.0
230
1.0
 70
     8
 71
     3
 72
    14
 73
    10
 74
     0
 42
0.00000001
 43
0.00000001
 40
0.0
 40
0.0
 40
0.0
 40
0.0
 40
0.5000000000000006
 40
0.5000000000000006
 40
0.7500000000000001
 40
0.7500000000000001
 40
0.8750000000000001
 40
0.8750000000000001
 40
1.0
 40
1.0
 40
1.0
 40
1.0
 10
182.058730979485
 20
150.4815262604988
 30
0.0
 10
182.5084696688976
 20
149.7788320104451
 30
0.0
 10
183.3771593897548
 20
148.9710307439335
 30
0.0
 10
185.2504785469481
 20
147.6100417876993
 30
0.0
 10
185.9705653641193
 20
147.1313417467117
 30
0.0
 10
187.1915479163295
 20
146.3755289683744
 30
0.0
 10
187.6220460272688
 20
146.1172896158685
 30
0.0
 10
188.5299452061447
 20
145.5880780182612
 30
0.0
 10
189.0079742024922
 20
145.3167603440013
 30
0.0
 10
189.5079911000833
 20
145.0398162154739
 30
0.0
  0
SPLINE
  5
1D3
330
1F
100
AcDbEntity
  8
0
  6
CONTINUOUS
 62
     7
100
AcDbSpline
210
0.0
220
0.0
230
1.0
 70
     8
 71
     3
 72
    48
 73
    44
 74
     0
 42
0.00000001
 43
0.00000001
 40
0.0
 40
0.0
 40
0.0
 40
0.0
 40
0.0625
 40
0.0625
 40
0.0937500000000005
 40
0.0937500000000005
 40
0.125000000000001
 40
0.125000000000001
 40
0.2500000000000017
 40
0.2500000000000017
 40
0.2812500000000015
 40
0.2812500000000015
 40
0.3125000000000013
 40
0.3125000000000013
 40
0.3750000000000013
 40
0.3750000000000013
 40
0.4375000000000019
 40
0.4375000000000019
 40
0.468750000000002
 40
0.468750000000002
 40
0.5000000000000021
 40
0.5000000000000021
 40
0.5625000000000021
 40
0.5625000000000021
 40
0.5937500000000022
 40
0.5937500000000022
 40
0.6250000000000022
 40
0.6250000000000022
 40
0.6875000000000022
 40
0.6875000000000022
 40
0.7500000000000023
 40
0.7500000000000023
 40
0.7812500000000024
 40
0.7812500000000024
 40
0.8125000000000026
 40
0.8125000000000026
 40
0.8750000000000018
 40
0.8750000000000018
 40
0.9062500000000013
 40
0.9062500000000013
 40
0.937500000000001
 40
0.937500000000001
 40
1.0
 40
1.0
 40
1.0
 40
1.0
 10
189.5079911000833
 20
145.0398162154738
 30
0.0
 10
189.9399286166417
 20
144.8005791823299
 30
0.0
 10
190.4301124873741
 20
144.5567675187025
 30
0.0
 10
191.2527029072502
 20
144.1841223727366
 30
0.0
 10
191.5414964959863
 20
144.0587494975246
 30
0.0
 10
192.1488204957507
 20
143.8056367457416
 30
0.0
 10
192.4665023956623
 20
143.6782839811076
 30
0.0
 10
194.1080488734528
 20
143.0439098207478
 30
0.0
 10
195.602590125482
 20
142.538067215876
 30
0.0
 10
197.6986296866923
 20
141.9079019954099
 30
0.0
 10
198.1309635131426
 20
141.7815442305821
 30
0.0
 10
199.0105545243931
 20
141.5315918705491
 30
0.0
 10
199.4575633229947
 20
141.4080366637725
 30
0.0
 10
200.8198742766637
 20
141.0415797399176
 30
0.0
 10
201.7563730733338
 20
140.80286813008
 30
0.0
 10
203.6862264658593
 20
140.3367968004566
 30
0.0
 10
204.6795660586493
 20
140.1094335833158
 30
0.0
 10
206.2146650022763
 20
139.7775037115354
 30
0.0
 10
206.733133924012
 20
139.6685808996971
 30
0.0
 10
207.7697618039798
 20
139.4570977962658
 30
0.0
 10
208.2897936683757
 20
139.3541274393583
 30
0.0
 10
209.8550134134027
 20
139.0535071316444
 30
0.0
 10
210.905302447345
 20
138.864110268532
 30
0.0
 10
212.4912375552723
 20
138.5971113406191
 30
0.0
 10
213.0216384375726
 20
138.5109702264376
 30
0.0
 10
214.0860739220746
 20
138.3446218725158
 30
0.0
 10
214.6222827558856
 20
138.2641077526783
 30
0.0
 10
216.2189519248544
 20
138.0344402445605
 30
0.0
 10
217.2642572112888
 20
137.8974451959893
 30
0.0
 10
219.3171327901759
 20
137.6554342922358
 30
0.0
 10
220.3247076281868
 20
137.5504140952382
 30
0.0
 10
221.8066042529469
 20
137.417986420293
 30
0.0
 10
222.297047032771
 20
137.3779403457567
 30
0.0
 10
223.2612828655676
 20
137.3070820554979
 30
0.0
 10
223.7319708579801
 20
137.2764734338757
 30
0.0
 10
225.1104855342404
 20
137.1988160437624
 30
0.0
 10
225.9849149146538
 20
137.1658734262385
 30
0.0
 10
227.229784497081
 20
137.1447044859697
 30
0.0
 10
227.6335738761955
 20
137.1423712712988
 30
0.0
 10
228.418359356469
 20
137.1473461708674
 30
0.0
 10
228.8008885579172
 20
137.1547202256525
 30
0.0
 10
229.8990528331753
 20
137.1912526433217
 30
0.0
 10
230.5663051818098
 20
137.234538161712
 30
0.0
 10
231.1712367102047
 20
137.2959786927391
 30
0.0
  0
SPLINE
  5
1D4
330
1F
100
AcDbEntity
  8
0
  6
CONTINUOUS
 62
     7
100
AcDbSpline
210
0.0
220
0.0
230
1.0
 70
     8
 71
     3
 72
    22
 73
    18
 74
     0
 42
0.00000001
 43
0.00000001
 40
0.0
 40
0.0
 40
0.0
 40
0.0
 40
0.1249999999999998
 40
0.1249999999999998
 40
0.1874999999999998
 40
0.1874999999999998
 40
0.2499999999999999
 40
0.2499999999999999
 40
0.4999999999999992
 40
0.4999999999999992
 40
0.5624999999999992
 40
0.5624999999999992
 40
0.6249999999999992
 40
0.6249999999999992
 40
0.7499999999999994
 40
0.7499999999999994
 40
1.0
 40
1.0
 40
1.0
 40
1.0
 10
231.1712367102047
 20
137.2959786927391
 30
0.0
 10
232.3498083792076
 20
137.4156816108351
 30
0.0
 10
233.451468793238
 20
137.5491746174209
 30
0.0
 10
234.9856899904699
 20
137.7704824998632
 30
0.0
 10
235.4778610584165
 20
137.8478925701916
 30
0.0
 10
236.4123310070235
 20
138.0081035955372
 30
0.0
 10
236.8559721210005
 20
138.0910793059067
 30
0.0
 10
238.9585010575135
 20
138.5199658673609
 30
0.0
 10
240.2732501728017
 20
138.9075553433325
 30
0.0
 10
241.4641495443718
 20
139.4457755491854
 30
0.0
 10
241.6795235026027
 20
139.5561275672965
 30
0.0
 10
242.0640987896465
 20
139.7822865741465
 30
0.0
 10
242.2335581151428
 20
139.8983595918122
 30
0.0
 10
242.6681212802207
 20
140.2518902389462
 30
0.0
 10
242.8609088497292
 20
140.4951267423353
 30
0.0
 10
243.156765470261
 20
141.2465371994981
 30
0.0
 10
242.9796434265852
 20
141.7762277196419
 30
0.0
 10
242.4213932666315
 20
142.3344778795955
 30
0.0
  0
ARC
  5
1D5
330
1F
100
AcDbEntity
  8
0
  6
CONTINUOUS
 62
     7
100
AcDbCircle
 10
141.0224089166
 20
-269.2792341865
 30
0.0
 40
425.5561480935791
100
AcDbArc
 50
81.212414948
 51
82.4041540857
  0
SPLINE
  5
1D6
330
1F
100
AcDbEntity
  8
0
  6
CONTINUOUS
 62
     7
100
AcDbSpline
210
0.0
220
0.0
230
1.0
 70
     8
 71
     3
 72
    32
 73
    28
 74
     0
 42
0.00000001
 43
0.00000001
 40
0.0
 40
0.0
 40
0.0
 40
0.0
 40
0.1249999999999999
 40
0.1249999999999999
 40
0.1562499999999997
 40
0.1562499999999997
 40
0.1874999999999996
 40
0.1874999999999996
 40
0.2499999999999992
 40
0.2499999999999992
 40
0.3124999999999988
 40
0.3124999999999988
 40
0.3749999999999986
 40
0.3749999999999986
 40
0.4999999999999983
 40
0.4999999999999983
 40
0.5624999999999986
 40
0.5624999999999986
 40
0.6249999999999987
 40
0.6249999999999987
 40
0.7499999999999992
 40
0.7499999999999992
 40
0.8749999999999997
 40
0.8749999999999997
 40
0.9374999999999998
 40
0.9374999999999998
 40
1.0
 40
1.0
 40
1.0
 40
1.0
 10
197.2743448857281
 20
152.5427124698906
 30
0.0
 10
195.9565400546471
 20
152.718471796325
 30
0.0
 10
194.6407759821793
 20
152.8830979199859
 30
0.0
 10
192.9985835719378
 20
153.075308209559
 30
0.0
 10
192.6702721654499
 20
153.113063942411
 30
0.0
 10
192.0139084274205
 20
153.1871800357963
 30
0.0
 10
191.6848618361348
 20
153.2236472585465
 30
0.0
 10
190.7067502886533
 20
153.3299706903912
 30
0.0
 10
190.0671075489251
 20
153.3967342630384
 30
0.0
 10
188.8120405714502
 20
153.52225712573
 30
0.0
 10
188.1966175182639
 20
153.5810159830384
 30
0.0
 10
186.9902454243397
 20
153.6904640045898
 30
0.0
 10
186.3980016786672
 20
153.7412578209984
 30
0.0
 10
184.6679115615785
 20
153.8803219444022
 30
0.0
 10
183.609926517213
 20
153.9527801268367
 30
0.0
 10
182.1624279682975
 20
154.0319436094901
 30
0.0
 10
181.7029541666863
 20
154.0533814998822
 30
0.0
 10
180.8347725260391
 20
154.0858276659234
 30
0.0
 10
180.4336983306702
 20
154.0965590013895
 30
0.0
 10
179.3259979757232
 20
154.1128710443807
 30
0.0
 10
178.7129565953055
 20
154.1027191224847
 30
0.0
 10
177.752643714065
 20
154.0389252802949
 30
0.0
 10
177.4219811838927
 20
153.9864816043119
 30
0.0
 10
177.1412033153733
 20
153.8781760725928
 30
0.0
 10
177.0837880703388
 20
153.83700385707
 30
0.0
 10
177.0441286722786
 20
153.744664045587
 30
0.0
 10
177.0619322735012
 20
153.6939388727258
 30
0.0
 10
177.1172012816068
 20
153.6386698646202
 30
0.0
  0
LWPOLYLINE
  5
1D7
330
1F
100
AcDbEntity
  8
0
  6
CONTINUOUS
 62
     7
100
AcDbPolyline
 90
        9
 70
   128
 43
0.0
 10
177.1172024552
 20
153.6386699223
 10
177.2303469721
 20
153.525524474
 10
177.347853804
 20
153.4080162451
 10
177.4697229508
 20
153.2861480296
 10
177.595946962
 20
153.1599223886
 10
177.7265295629
 20
153.0293418833
 10
177.8614633028
 20
152.8944093075
 10
178.0007444564
 20
152.7551274553
 10
178.1443730239
 20
152.6114995864
  0
SPLINE
  5
1D8
330
1F
100
AcDbEntity
  8
0
  6
CONTINUOUS
 62
     7
100
AcDbSpline
210
0.0
220
0.0
230
1.0
 70
     8
 71
     3
 72
    10
 73
     6
 74
     0
 42
0.00000001
 43
0.00000001
 40
0.0
 40
0.0
 40
0.0
 40
0.0
 40
0.5
 40
0.5
 40
1.0
 40
1.0
 40
1.0
 40
1.0
 10
178.1443716460911
 20
152.6114995001359
 30
0.0
 10
178.431951011657
 20
152.32392013457
 30
0.0
 10
178.9070185883811
 20
152.0019691834114
 30
0.0
 10
180.2140351725157
 20
151.2918487910796
 30
0.0
 10
181.0460544045913
 20
150.9036693911663
 30
0.0
 10
182.0587309794851
 20
150.4815262604988
 30
0.0
  0
SPLINE
  5
1D9
330
1F
100
AcDbEntity
  8
0
  6
CONTINUOUS
 62
     7
100
AcDbSpline
210
0.0
220
0.0
230
1.0
 70
     8
 71
     3
 72
    38
 73
    34
 74
     0
 42
0.00000001
 43
0.00000001
 40
0.0
 40
0.0
 40
0.0
 40
0.0
 40
0.125000000000001
 40
0.125000000000001
 40
0.1875000000000016
 40
0.1875000000000016
 40
0.2187500000000018
 40
0.2187500000000018
 40
0.250000000000002
 40
0.250000000000002
 40
0.3750000000000028
 40
0.3750000000000028
 40
0.4375000000000023
 40
0.4375000000000023
 40
0.5000000000000018
 40
0.5000000000000018
 40
0.5625000000000013
 40
0.5625000000000013
 40
0.5937500000000011
 40
0.5937500000000011
 40
0.6250000000000009
 40
0.6250000000000009
 40
0.75
 40
0.75
 40
0.7812500000000001
 40
0.7812500000000001
 40
0.8125000000000001
 40
0.8125000000000001
 40
0.8750000000000001
 40
0.8750000000000001
 40
0.9375
 40
0.9375
 40
1.0
 40
1.0
 40
1.0
 40
1.0
 10
20.27434488572816
 20
139.6993591026305
 30
0.0
 10
18.73957665719879
 20
139.251960111369
 30
0.0
 10
17.18709015202635
 20
138.7996957035191
 30
0.0
 10
14.83340677076221
 20
138.1141796420875
 30
0.0
 10
14.04464381158263
 20
137.8844793759441
 30
0.0
 10
12.85502033351729
 20
137.5380841415343
 30
0.0
 10
12.45658848185374
 20
137.4220758003123
 30
0.0
 10
11.66644639249323
 20
137.1920331267903
 30
0.0
 10
11.27378322527658
 20
137.0777212917643
 30
0.0
 10
9.322329142748497
 20
136.5096679519899
 30
0.0
 10
7.798663323384636
 20
136.0662886237006
 30
0.0
 10
5.571520788403367
 20
135.4188652535364
 30
0.0
 10
4.835764266079262
 20
135.2051039621821
 30
0.0
 10
3.420097292893332
 20
134.7941667094506
 30
0.0
 10
2.736264707965674
 20
134.5958492497758
 30
0.0
 10
1.416820005938318
 20
134.2137125467213
 30
0.0
 10
0.7811994194556193
 20
134.0298903982132
 30
0.0
 10
-0.134389495613646
 20
133.7656463558271
 30
0.0
 10
-0.4332623512313116
 20
133.6794849991584
 30
0.0
 10
-1.017853685517406
 20
133.5111763287893
 30
0.0
 10
-1.303941897611155
 20
133.4289238984297
 30
0.0
 10
-2.679819482504925
 20
133.0339923721334
 30
0.0
 10
-3.625136241267285
 20
132.7647399219291
 30
0.0
 10
-4.603721266969035
 20
132.4899667511764
 30
0.0
 10
-4.789146754653001
 20
132.4381433367437
 30
0.0
 10
-5.13858693695457
 20
132.341027670861
 30
0.0
 10
-5.302715000450986
 20
132.295707480551
 30
0.0
 10
-5.754435903965016
 20
132.1719430043324
 30
0.0
 10
-6.004474680988525
 20
132.104824006222
 30
0.0
 10
-6.403373269257495
 20
132.0011465833101
 30
0.0
 10
-6.552242490731275
 20
131.964585205886
 30
0.0
 10
-6.74519383717978
 20
131.9231654093457
 30
0.0
 10
-6.78867633447422
 20
131.9185050402966
 30
0.0
 10
-6.776739736632536
 20
131.9304416381383
 30
0.0
  0
ARC
  5
1DA
330
1F
100
AcDbEntity
  8
0
  6
CONTINUOUS
 62
     7
100
AcDbCircle
 10
135.5356080018
 20
-256.9445273829
 30
0.0
 40
413.051487325719
100
AcDbArc
 50
99.0354742849
 51
106.2034044195
  0
LINE
  5
1DB
330
1F
100
AcDbEntity
  8
0
  6
CONTINUOUS
 62
     7
100
AcDbLine
 10
120.0742274765
 20
138.4815270354
 30
0.0
 11
159.474462295
 21
138.4815270354
 31
0.0
  0
LINE
  5
1DC
330
1F
100
AcDbEntity
  8
0
  6
CONTINUOUS
 62
     7
100
AcDbLine
 10
220.7326814774
 20
150.4815262083
 30
0.0
 11
193.8160099331
 21
150.4815262083
 31
0.0
  0
LINE
  5
1DD
330
1F
100
AcDbEntity
  8
0
  6
CONTINUOUS
 62
     7
100
AcDbLine
 10
234.2743426804
 20
150.4815262083
 30
0.0
 11
220.7326814774
 21
150.4815262083
 31
0.0
  0
LINE
  5
1DE
330
1F
100
AcDbEntity
  8
0
  6
CONTINUOUS
 62
     7
100
AcDbLine
 10
242.4213961009
 20
142.3344774444
 30
0.0
 11
234.2743426804
 21
150.4815262083
 31
0.0
  0
LINE
  5
1DF
330
1F
100
AcDbEntity
  8
0
  6
CONTINUOUS
 62
     7
100
AcDbLine
 10
193.8160099331
 20
150.4815262083
 30
0.0
 11
182.0587292556
 21
150.4815262083
 31
0.0
  0
LINE
  5
1E0
330
1F
100
AcDbEntity
  8
0
  6
CONTINUOUS
 62
     7
100
AcDbLine
 10
189.2743446175
 20
151.2815262463
 30
0.0
 11
225.2743467931
 21
151.2815262463
 31
0.0
  0
LINE
  5
1E1
330
1F
100
AcDbEntity
  8
0
  6
CONTINUOUS
 62
     7
100
AcDbLine
 10
-30.2256569024
 20
-107.6259394835
 30
0.0
 11
-30.2256569024
 21
-76.4110019158
 31
0.0
  0
LINE
  5
1E2
330
1F
100
AcDbEntity
  8
0
  6
CONTINUOUS
 62
     7
100
AcDbLine
 10
309.7743466739
 20
-76.4110019158
 30
0.0
 11
309.7743466739
 21
-107.6259394835
 31
0.0
  0
LINE
  5
1E3
330
1F
100
AcDbEntity
  8
0
  6
CONTINUOUS
 62
     7
100
AcDbLine
 10
-30.2256569024
 20
-117.7563449095
 30
0.0
 11
-30.2256569024
 21
-107.6259394835
 31
0.0
  0
LINE
  5
1E4
330
1F
100
AcDbEntity
  8
0
  6
CONTINUOUS
 62
     7
100
AcDbLine
 10
-30.2256569024
 20
-76.4110019158
 30
0.0
 11
-30.2256569024
 21
-66.2806113909
 31
0.0
  0
LINE
  5
1E5
330
1F
100
AcDbEntity
  8
0
  6
CONTINUOUS
 62
     7
100
AcDbLine
 10
309.7743466739
 20
-72.5494852017
 30
0.0
 11
309.7743466739
 21
-76.4110019158
 31
0.0
  0
LINE
  5
1E6
330
1F
100
AcDbEntity
  8
0
  6
CONTINUOUS
 62
     7
100
AcDbLine
 10
309.7743466739
 20
-107.6259394835
 30
0.0
 11
309.7743466739
 21
-111.4874561976
 31
0.0
  0
LINE
  5
1E7
330
1F
100
AcDbEntity
  8
0
  6
CONTINUOUS
 62
     7
100
AcDbLine
 10
309.7743466739
 20
-111.4874561976
 30
0.0
 11
309.7743466739
 21
-113.22078907
 31
0.0
  0
SPLINE
  5
1E8
330
1F
100
AcDbEntity
  8
0
  6
CONTINUOUS
 62
     7
100
AcDbSpline
210
0.0
220
0.0
230
1.0
 70
    24
 71
     3
 72
     8
 73
     4
 74
     0
 42
0.00000001
 43
0.00000001
 40
0.0
 40
0.0
 40
0.0
 40
0.0
 40
1.0
 40
1.0
 40
1.0
 40
1.0
 10
309.7743448857282
 20
-70.81614622210466
 30
0.0
 10
309.7743448857282
 20
-71.41946339324087
 30
0.0
 10
309.7743448857282
 20
-71.99777499138006
 30
0.0
 10
309.7743448857282
 20
-72.54947853849016
 30
0.0
  0
SPLINE
  5
1E9
330
1F
100
AcDbEntity
  8
0
  6
CONTINUOUS
 62
     7
100
AcDbSpline
210
0.0
220
0.0
230
1.0
 70
    24
 71
     3
 72
     8
 73
     4
 74
     0
 42
0.00000001
 43
0.00000001
 40
0.0
 40
0.0
 40
0.0
 40
0.0
 40
1.0
 40
1.0
 40
1.0
 40
1.0
 10
309.7743448857282
 20
-64.21421803628533
 30
0.0
 10
309.7743448857282
 20
-66.40557097606428
 30
0.0
 10
309.7743448857282
 20
-68.60264095811262
 30
0.0
 10
309.7743448857282
 20
-70.8161462221046
 30
0.0
  0
SPLINE
  5
1EA
330
1F
100
AcDbEntity
  8
0
  6
CONTINUOUS
 62
     7
100
AcDbSpline
210
0.0
220
0.0
230
1.0
 70
    24
 71
     3
 72
     9
 73
     5
 74
     0
 42
0.00000001
 43
0.00000001
 40
0.0
 40
0.0
 40
0.0
 40
0.0
 40
0.5321149378085709
 40
1.0
 40
1.0
 40
1.0
 40
1.0
 10
309.7743466738675
 20
-113.2207890700065
 30
0.0
 10
309.7743466738675
 20
-114.3960192073575
 30
0.0
 10
309.7743466738675
 20
-116.6046212477191
 30
0.0
 10
309.7743466738675
 20
-118.7969573984085
 30
0.0
 10
309.7743466738675
 20
-119.8227187346183
 30
0.0
  0
LINE
  5
1EB
330
1F
100
AcDbEntity
  8
0
  6
CONTINUOUS
 62
     7
100
AcDbLine
 10
-6.7767426129
 20
131.9304419954
 30
0.0
 11
12.2743472699
 21
150.9815262903
 31
0.0
  0
LINE
  5
1EC
330
1F
100
AcDbEntity
  8
0
  6
CONTINUOUS
 62
     7
100
AcDbLine
 10
12.2743472699
 20
150.9815262903
 30
0.0
 11
20.2743485812
 21
150.9815262903
 31
0.0
  0
LINE
  5
1ED
330
1F
100
AcDbEntity
  8
0
  6
CONTINUOUS
 62
     7
100
AcDbLine
 10
20.2743485812
 20
150.9815262903
 30
0.0
 11
70.6675425414
 21
150.9815262903
 31
0.0
  0
SPLINE
  5
1EE
330
1F
100
AcDbEntity
  8
0
  6
CONTINUOUS
 62
     7
100
AcDbSpline
210
0.0
220
0.0
230
1.0
 70
    24
 71
     3
 72
     8
 73
     4
 74
     0
 42
0.00000001
 43
0.00000001
 40
0.0
 40
0.0
 40
0.0
 40
0.0
 40
1.0
 40
1.0
 40
1.0
 40
1.0
 10
-30.22565511427183
 20
-66.28061609598754
 30
0.0
 10
-30.22565511427183
 20
-65.80458079579091
 30
0.0
 10
-30.22565511427183
 20
-65.30856595998316
 30
0.0
 10
-30.22565511427183
 20
-64.79466814593322
 30
0.0
  0
LINE
  5
1EF
330
1F
100
AcDbEntity
  8
0
  6
CONTINUOUS
 62
     7
100
AcDbLine
 10
-30.2256569024
 20
-119.2422887038
 30
0.0
 11
-30.2256569024
 21
-117.7563449095
 31
0.0
  0
SPLINE
  5
1F0
330
1F
100
AcDbEntity
  8
0
  6
CONTINUOUS
 62
     7
100
AcDbSpline
210
0.0
220
0.0
230
1.0
 70
    24
 71
     3
 72
    15
 73
    11
 74
     0
 42
0.00000001
 43
0.00000001
 40
0.0
 40
0.0
 40
0.0
 40
0.0
 40
0.3951398061738064
 40
0.6088879725918087
 40
0.8488088914887875
 40
0.8981506882325372
 40
0.9703388478554614
 40
0.9883841457532142
 40
0.9928954408652544
 40
0.9999999999999999
 40
0.9999999999999999
 40
0.9999999999999999
 40
0.9999999999999999
 10
309.7743466738675
 20
-119.8227187346184
 30
0.0
 10
309.7743466738675
 20
-120.4109922123069
 30
0.0
 10
309.7743466738675
 20
-121.3174881905983
 30
0.0
 10
309.7743466738675
 20
-122.0636015406337
 30
0.0
 10
309.7743466738676
 20
-122.345350018735
 30
0.0
 10
309.7743466738675
 20
-122.4636141021316
 30
0.0
 10
309.7743466738674
 20
-122.496217537174
 30
0.0
 10
309.7743466738675
 20
-122.5116456081414
 30
0.0
 10
309.7743466738675
 20
-122.5159634904694
 30
0.0
 10
309.7743466738675
 20
-122.5175298064994
 30
0.0
 10
309.7743466738675
 20
-122.5184878061973
 30
0.0
  0
SPLINE
  5
1F1
330
1F
100
AcDbEntity
  8
0
  6
CONTINUOUS
 62
     7
100
AcDbSpline
210
0.0
220
0.0
230
1.0
 70
    24
 71
     3
 72
    16
 73
    12
 74
     0
 42
0.00000001
 43
0.00000001
 40
0.0
 40
0.0
 40
0.0
 40
0.0
 40
0.2500000000000004
 40
0.2500000000000004
 40
0.5000000000000006
 40
0.5000000000000006
 40
0.7500000000000007
 40
0.7500000000000007
 40
0.8750000000000003
 40
0.8750000000000003
 40
1.0
 40
1.0
 40
1.0
 40
1.0
 10
309.7743448857282
 20
-64.21421803628638
 30
0.0
 10
309.7743448857282
 20
-63.80260472425456
 30
0.0
 10
309.7743448857282
 20
-63.43718317060515
 30
0.0
 10
309.7743448857282
 20
-62.79786607450274
 30
0.0
 10
309.7743448857281
 20
-62.52358936471097
 30
0.0
 10
309.7743448857282
 20
-62.07152843280159
 30
0.0
 10
309.7743448857282
 20
-61.89303841314739
 30
0.0
 10
309.7743448857282
 20
-61.69788804999462
 30
0.0
 10
309.7743448857282
 20
-61.64498478137725
 30
0.0
 10
309.7743448857282
 20
-61.56345599780441
 30
0.0
 10
309.7743448857282
 20
-61.5355152933017
 30
0.0
 10
309.7743448857282
 20
-61.51847373950112
 30
0.0
  0
SPLINE
  5
1F2
330
1F
100
AcDbEntity
  8
0
  6
CONTINUOUS
 62
     7
100
AcDbSpline
210
0.0
220
0.0
230
1.0
 70
    24
 71
     3
 72
    14
 73
    10
 74
     0
 42
0.00000001
 43
0.00000001
 40
0.0
 40
0.0
 40
0.0
 40
0.0
 40
0.25
 40
0.25
 40
0.5
 40
0.5
 40
0.75
 40
0.75
 40
1.0
 40
1.0
 40
1.0
 40
1.0
 10
-30.22565511427183
 20
-64.79466814593162
 30
0.0
 10
-30.22565511427186
 20
-64.38633302149849
 30
0.0
 10
-30.22565511427189
 20
-64.01063538608228
 30
0.0
 10
-30.22565511427189
 20
-63.32510086694615
 30
0.0
 10
-30.22565511427189
 20
-63.0152959292603
 30
0.0
 10
-30.22565511427189
 20
-62.46539798446168
 30
0.0
 10
-30.22565511427192
 20
-62.22536736584519
 30
0.0
 10
-30.22565511427194
 20
-61.81710771793198
 30
0.0
 10
-30.22565511427172
 20
-61.65000345918045
 30
0.0
 10
-30.22565511427192
 20
-61.51847373950112
 30
0.0
  0
SPLINE
  5
1F3
330
1F
100
AcDbEntity
  8
0
  6
CONTINUOUS
 62
     7
100
AcDbSpline
210
0.0
220
0.0
230
1.0
 70
    24
 71
     3
 72
    15
 73
    11
 74
     0
 42
0.00000001
 43
0.00000001
 40
0.0
 40
0.0
 40
0.0
 40
0.0
 40
0.0069300231531248
 40
0.055701906068561
 40
0.10446322551873
 40
0.2728009925105948
 40
0.5146910884199477
 40
0.5465695701115862
 40
0.8547042848394713
 40
1.0
 40
1.0
 40
1.0
 40
1.0
 10
-30.22565690241125
 20
-122.5184878061973
 30
0.0
 10
-30.22565690241127
 20
-122.5148416872505
 30
0.0
 10
-30.22565690241125
 20
-122.4855350355113
 30
0.0
 10
-30.22565690241127
 20
-122.4270721124415
 30
0.0
 10
-30.22565690241122
 20
-122.2628775200134
 30
0.0
 10
-30.22565690241125
 20
-121.9206654925447
 30
0.0
 10
-30.22565690241122
 20
-121.4868018051241
 30
0.0
 10
-30.22565690241116
 20
-120.8269839010279
 30
0.0
 10
-30.22565690241119
 20
-120.1928083133902
 30
0.0
 10
-30.22565690241122
 20
-119.4729558086016
 30
0.0
 10
-30.22565690241122
 20
-119.2422887037956
 30
0.0
  0
LINE
  5
1F4
330
1F
100
AcDbEntity
  8
LAYER001
  6
HIDDEN
100
AcDbLine
 10
86.7743448857
 20
134.4815262605
 30
0.0
 11
86.7743448857
 21
138.4815262605
 31
0.0
  0
LINE
  5
1F5
330
1F
100
AcDbEntity
  8
LAYER001
  6
HIDDEN
100
AcDbLine
 10
112.7743448857
 20
138.4815262605
 30
0.0
 11
112.7743448857
 21
134.4815262605
 31
0.0
  0
LINE
  5
1F6
330
1F
100
AcDbEntity
  8
LAYER001
  6
HIDDEN
100
AcDbLine
 10
112.7743448857
 20
134.4815262605
 30
0.0
 11
86.7743448857
 21
134.4815262605
 31
0.0
  0
LINE
  5
1F7
330
1F
100
AcDbEntity
  8
LAYER001
  6
HIDDEN
100
AcDbLine
 10
90.5243448857
 20
138.4815262605
 30
0.0
 11
90.5243448857
 21
147.4815262605
 31
0.0
  0
LINE
  5
1F8
330
1F
100
AcDbEntity
  8
LAYER001
  6
HIDDEN
100
AcDbLine
 10
90.5243448857
 20
147.4815262605
 30
0.0
 11
109.0243448857
 21
147.4815262605
 31
0.0
  0
LINE
  5
1F9
330
1F
100
AcDbEntity
  8
LAYER001
  6
HIDDEN
100
AcDbLine
 10
109.0243448857
 20
147.4815262605
 30
0.0
 11
109.0243448857
 21
138.4815262605
 31
0.0
  0
LINE
  5
1FA
330
1F
100
AcDbEntity
  8
LAYER001
  6
HIDDEN
100
AcDbLine
 10
109.0243448857
 20
138.4815262605
 30
0.0
 11
90.5243448857
 21
138.4815262605
 31
0.0
  0
LINE
  5
1FB
330
1F
100
AcDbEntity
  8
LAYER001
100
AcDbLine
 10
-62.9472311629
 20
-92.0184737395
 30
0.0
 11
-21.7256551143
 21
-92.0184737395
 31
0.0
  0
LINE
  5
1FC
330
1F
100
AcDbEntity
  8
LAYER001
100
AcDbLine
 10
71.8743448857
 20
96.3769777519
 30
0.0
 11
71.8743448857
 21
1.5815262605
 31
0.0
  0
LINE
  5
1FD
330
1F
100
AcDbEntity
  8
LAYER001
  6
HIDDEN
100
AcDbLine
 10
58.2743448857
 20
68.4815262605
 30
0.0
 11
85.4743448857
 21
68.4815262605
 31
0.0
  0
LINE
  5
1FE
330
1F
100
AcDbEntity
  8
LAYER001
  6
HIDDEN
100
AcDbLine
 10
85.4743448857
 20
68.4815262605
 30
0.0
 11
85.4743448857
 21
1.5815262605
 31
0.0
  0
LINE
  5
1FF
330
1F
100
AcDbEntity
  8
LAYER001
  6
HIDDEN
100
AcDbLine
 10
-21.7256551143
 20
-105.6184737395
 30
0.0
 11
-30.2256551143
 21
-105.6184737395
 31
0.0
  0
LINE
  5
200
330
1F
100
AcDbEntity
  8
LAYER001
  6
HIDDEN
100
AcDbLine
 10
-30.2256551143
 20
-105.6184737395
 30
0.0
 11
-30.2256551143
 21
-78.4184737395
 31
0.0
  0
LINE
  5
201
330
1F
100
AcDbEntity
  8
LAYER001
  6
HIDDEN
100
AcDbLine
 10
-30.2256551143
 20
-78.4184737395
 30
0.0
 11
-21.7256551143
 21
-78.4184737395
 31
0.0
  0
LINE
  5
202
330
1F
100
AcDbEntity
  8
LAYER001
  6
HIDDEN
100
AcDbLine
 10
58.2743448857
 20
1.5815262605
 30
0.0
 11
58.2743448857
 21
68.4815262605
 31
0.0
  0
ARC
  5
203
330
1F
100
AcDbEntity
  8
LAYER001
100
AcDbCircle
 10
-21.7256551143
 20
1.5815262605
 30
0.0
 40
93.60000000000001
100
AcDbArc
 50
270.0
 51
0.0
  0
ARC
  5
204
330
1F
100
AcDbEntity
  8
LAYER001
  6
HIDDEN
100
AcDbCircle
 10
-21.7256551143
 20
1.5815262605
 30
0.0
 40
107.2
100
AcDbArc
 50
270.0
 51
0.0
  0
ARC
  5
205
330
1F
100
AcDbEntity
  8
LAYER001
  6
HIDDEN
100
AcDbCircle
 10
-21.7256551143
 20
1.5815262605
 30
0.0
 40
80.0
100
AcDbArc
 50
270.0
 51
0.0
  0
DIMENSION
  5
206
330
1F
100
AcDbEntity
  8
LAYER001
100
AcDbDimension
  2
*D2
 10
-57.9187779278
 20
-167.5184737395
 30
0.0
 11
-57.9187779278
 21
-132.4973544716
 31
0.0
 70
   160
  3
SLDDIMSTYLE0
100
AcDbAlignedDimension
 13
-62.9472311629
 23
-92.0184737395
 33
0.0
 14
-29.3614316581
 24
-167.5184737395
 34
0.0
 50
90.0
100
AcDbRotatedDimension
  0
DIMENSION
  5
217
330
1F
100
AcDbEntity
  8
LAYER001
100
AcDbDimension
  2
*D3
 10
-57.9187779278
 20
147.4815262605
 30
0.0
 11
-57.9187779278
 21
109.1540387177
 31
0.0
 70
   160
  3
SLDDIMSTYLE0
100
AcDbAlignedDimension
 13
139.7743448857
 23
156.4815262605
 33
0.0
 14
90.5243448857
 24
147.4815262605
 34
0.0
 50
90.0
100
AcDbRotatedDimension
  0
DIMENSION
  5
222
330
1F
100
AcDbEntity
  8
LAYER001
100
AcDbDimension
  2
*D4
 10
-63.2256551143
 20
-167.5184737395
 30
0.0
 11
-63.2256551143
 21
3.3975107498
 31
0.0
 70
   160
  3
SLDDIMSTYLE0
100
AcDbAlignedDimension
 13
139.7743448857
 23
156.4815262605
 33
0.0
 14
-29.3614316581
 24
-167.5184737395
 34
0.0
 50
90.0
100
AcDbRotatedDimension
  0
DIMENSION
  5
22C
330
1F
100
AcDbEntity
  8
LAYER001
100
AcDbDimension
  2
*D5
 10
309.7743448857
 20
161.9110234901
 30
0.0
 11
124.5923104986
 21
161.9110234901
 31
0.0
 70
   160
  1
%%c<>
  3
SLDDIMSTYLE0
100
AcDbAlignedDimension
 13
-30.2256551143
 23
110.8575888557
 33
0.0
 14
309.7743448857
 24
110.8575888557
 34
0.0
 50
0.0
100
AcDbRotatedDimension
  0
DIMENSION
  5
237
330
1F
100
AcDbEntity
  8
LAYER001
100
AcDbDimension
  2
*D6
 10
172.2743448857
 20
-172.862277725
 30
0.0
 11
142.3138919208
 21
-172.862277725
 31
0.0
 70
   160
  3
SLDDIMSTYLE0
100
AcDbAlignedDimension
 13
107.2743448857
 23
-99.524027239
 33
0.0
 14
172.2743448857
 24
-99.524027239
 34
0.0
100
AcDbRotatedDimension
  0
DIMENSION
  5
241
330
1F
100
AcDbEntity
  8
LAYER001
100
AcDbDimension
  2
*D7
 10
338.8463698798
 20
-167.5184737395
 30
0.0
 11
338.8463698798
 21
-100.3509915783
 31
0.0
 70
   160
  3
SLDDIMSTYLE0
100
AcDbAlignedDimension
 13
304.463968855
 23
-153.3184737395
 33
0.0
 14
308.9101214295
 24
-167.5184737395
 34
0.0
 50
90.0
100
AcDbRotatedDimension
  0
DIMENSION
  5
24C
330
1F
100
AcDbEntity
  8
LAYER001
100
AcDbDimension
  2
*D8
 10
338.8463698798
 20
156.4815262605
 30
0.0
 11
338.8463698798
 21
109.1540387177
 31
0.0
 70
   160
  3
SLDDIMSTYLE1
100
AcDbAlignedDimension
 13
150.7743448857
 23
150.4815262605
 33
0.0
 14
139.7743448857
 24
156.4815262605
 34
0.0
 50
90.0
100
AcDbRotatedDimension
  0
MTEXT
  5
259
330
1F
100
AcDbEntity
  8
LAYER001
100
AcDbMText
 10
288.7145229913
 20
-198.0431956036
 30
0.0
 40
3.5
 41
0.0
 71
     1
 72
     1
  1
P-20-T
  7
SLDTEXTSTYLE0
  0
INSERT
  5
265
330
1F
100
AcDbEntity
  8
LAYER001
100
AcDbBlockReference
  2
SW_CENTERMARKSYMBOL_0
 10
139.7743448857
 20
-92.0184737395
 30
0.0
  0
LINE
  5
266
330
1F
100
AcDbEntity
  8
LAYER001
  6
CENTERX2
100
AcDbLine
 10
139.7743448857
 20
-177.5260276543
 30
0.0
 11
139.7743448857
 21
163.829817105
 31
0.0
  0
LINE
  5
267
330
1F
100
AcDbEntity
  8
LAYER001
  6
CENTERX2
100
AcDbLine
 10
317.7743448857
 20
-92.0184737395
 30
0.0
 11
334.7743448857
 21
-92.0184737395
 31
0.0
  0
LINE
  5
268
330
1F
100
AcDbEntity
  8
0
  6
CONTINUOUS
 62
     7
100
AcDbLine
 10
182.2743453328
 20
583.9856529175
 30
0.0
 11
182.2743453328
 21
587.1856474815
 31
0.0
  0
LINE
  5
269
330
1F
100
AcDbEntity
  8
0
  6
CONTINUOUS
 62
     7
100
AcDbLine
 10
97.2743444387
 20
587.1856474815
 30
0.0
 11
97.2743444387
 21
583.9856529175
 31
0.0
  0
LINE
  5
26A
330
1F
100
AcDbEntity
  8
0
  6
CONTINUOUS
 62
     7
100
AcDbLine
 10
97.2743444387
 20
239.9856412349
 30
0.0
 11
97.2743444387
 21
236.7856466709
 31
0.0
  0
LINE
  5
26B
330
1F
100
AcDbEntity
  8
0
  6
CONTINUOUS
 62
     7
100
AcDbLine
 10
182.2743453328
 20
236.7856466709
 30
0.0
 11
182.2743453328
 21
239.9856412349
 31
0.0
  0
LINE
  5
26C
330
1F
100
AcDbEntity
  8
0
  6
CONTINUOUS
 62
     7
100
AcDbLine
 10
-53.2256588098
 20
394.4856470017
 30
0.0
 11
-40.2256622668
 21
394.4856470017
 31
0.0
  0
LINE
  5
26D
330
1F
100
AcDbEntity
  8
0
  6
CONTINUOUS
 62
     7
100
AcDbLine
 10
-40.2256622668
 20
429.4856471507
 30
0.0
 11
-53.2256588098
 21
429.4856471507
 31
0.0
  0
LINE
  5
26E
330
1F
100
AcDbEntity
  8
0
  6
CONTINUOUS
 62
     7
100
AcDbLine
 10
-32.2256609555
 20
454.4856475232
 30
0.0
 11
-40.2256622668
 21
454.4856475232
 31
0.0
  0
LINE
  5
26F
330
1F
100
AcDbEntity
  8
0
  6
CONTINUOUS
 62
     7
100
AcDbLine
 10
-40.2256622668
 20
369.4856466292
 30
0.0
 11
-32.2256609555
 21
369.4856466292
 31
0.0
  0
LINE
  5
270
330
1F
100
AcDbEntity
  8
0
  6
CONTINUOUS
 62
     7
100
AcDbLine
 10
332.7743485812
 20
429.4856471507
 30
0.0
 11
319.7743520383
 21
429.4856471507
 31
0.0
  0
LINE
  5
271
330
1F
100
AcDbEntity
  8
0
  6
CONTINUOUS
 62
     7
100
AcDbLine
 10
319.7743520383
 20
394.4856470017
 30
0.0
 11
332.7743485812
 21
394.4856470017
 31
0.0
  0
LINE
  5
272
330
1F
100
AcDbEntity
  8
0
  6
CONTINUOUS
 62
     7
100
AcDbLine
 10
319.7743520383
 20
454.4856475232
 30
0.0
 11
311.774350727
 21
454.4856475232
 31
0.0
  0
LINE
  5
273
330
1F
100
AcDbEntity
  8
0
  6
CONTINUOUS
 62
     7
100
AcDbLine
 10
311.774350727
 20
369.4856466292
 30
0.0
 11
319.7743520383
 21
369.4856466292
 31
0.0
  0
SPLINE
  5
274
330
1F
100
AcDbEntity
  8
0
  6
CONTINUOUS
 62
     7
100
AcDbSpline
210
0.0
220
0.0
230
1.0
 70
     8
 71
     3
 72
    11
 73
     7
 74
     0
 42
0.00000001
 43
0.00000001
 40
0.0
 40
0.0
 40
0.0
 40
0.0
 40
0.2652028471810152
 40
0.5862817366838707
 40
0.8365993433884127
 40
1.0
 40
1.0
 40
1.0
 40
1.0
 10
74.09892233648038
 20
569.2641550241204
 30
0.0
 10
73.9318205676632
 20
569.1241196868694
 30
0.0
 10
73.5624100720126
 20
568.8145447271991
 30
0.0
 10
72.9875299590647
 20
568.4354394825366
 30
0.0
 10
72.4659710545274
 20
568.1308701216237
 30
0.0
 10
72.16175892912139
 20
567.9791348332595
 30
0.0
 10
72.04160841741299
 20
567.9192060170861
 30
0.0
  0
SPLINE
  5
275
330
1F
100
AcDbEntity
  8
0
  6
CONTINUOUS
 62
     7
100
AcDbSpline
210
0.0
220
0.0
230
1.0
 70
     8
 71
     3
 72
    10
 73
     6
 74
     0
 42
0.00000001
 43
0.00000001
 40
0.0
 40
0.0
 40
0.0
 40
0.0
 40
0.2016412239119802
 40
0.4619256013862309
 40
1.0
 40
1.0
 40
1.0
 40
1.0
 10
207.5079903248761
 20
567.9210090575906
 30
0.0
 10
207.3771848816304
 20
567.9858388749261
 30
0.0
 10
207.0775319542
 20
568.1343529127779
 30
0.0
 10
206.4471308084781
 20
568.4936212291219
 30
0.0
 10
205.9948782418654
 20
568.8557553967623
 30
0.0
 10
205.6900710109684
 20
569.0998250184747
 30
0.0
  0
SPLINE
  5
276
330
1F
100
AcDbEntity
  8
0
  6
CONTINUOUS
 62
     7
100
AcDbSpline
210
0.0
220
0.0
230
1.0
 70
     8
 71
     3
 72
    10
 73
     6
 74
     0
 42
0.00000001
 43
0.00000001
 40
0.0
 40
0.0
 40
0.0
 40
0.0
 40
0.2016442655351436
 40
0.4619256501935491
 40
1.0
 40
1.0
 40
1.0
 40
1.0
 10
-16.16101709566381
 20
479.7192925153466
 30
0.0
 10
-16.22584642585259
 20
479.5884843260582
 30
0.0
 10
-16.37435712324131
 20
479.2888295963425
 30
0.0
 10
-16.73363364173624
 20
478.6584330142537
 30
0.0
 10
-17.09576465385573
 20
478.2061811157018
 30
0.0
 10
-17.33983305654788
 20
477.901373201439
 30
0.0
  0
SPLINE
  5
277
330
1F
100
AcDbEntity
  8
0
  6
CONTINUOUS
 62
     7
100
AcDbSpline
210
0.0
220
0.0
230
1.0
 70
     8
 71
     3
 72
    11
 73
     7
 74
     0
 42
0.00000001
 43
0.00000001
 40
0.0
 40
0.0
 40
0.0
 40
0.0
 40
0.2652028770929095
 40
0.5862843085336504
 40
0.836599324958659
 40
1.0
 40
1.0
 40
1.0
 40
1.0
 10
297.0528528336499
 20
477.6610696254464
 30
0.0
 10
296.9128170974644
 20
477.8281711364336
 30
0.0
 10
296.6032399327688
 20
478.1975826409316
 30
0.0
 10
296.2241420947609
 20
478.7724674612626
 30
0.0
 10
295.9195661554388
 20
479.2940223500372
 30
0.0
 10
295.7678324119368
 20
479.5982328961126
 30
0.0
 10
295.7079038266156
 20
479.7183835445138
 30
0.0
  0
SPLINE
  5
278
330
1F
100
AcDbEntity
  8
0
  6
CONTINUOUS
 62
     7
100
AcDbSpline
210
0.0
220
0.0
230
1.0
 70
     8
 71
     3
 72
    10
 73
     6
 74
     0
 42
0.00000001
 43
0.00000001
 40
0.0
 40
0.0
 40
0.0
 40
0.0
 40
0.2016442655351436
 40
0.4619256501935491
 40
1.0
 40
1.0
 40
1.0
 40
1.0
 10
295.7097068671201
 20
344.2520016370507
 30
0.0
 10
295.7745361973089
 20
344.382809826339
 30
0.0
 10
295.9230468946976
 20
344.6824645560549
 30
0.0
 10
296.2823234131925
 20
345.3128611381437
 30
0.0
 10
296.6444544253119
 20
345.7651130366955
 30
0.0
 10
296.8885228280042
 20
346.0699209509584
 30
0.0
  0
SPLINE
  5
279
330
1F
100
AcDbEntity
  8
0
  6
CONTINUOUS
 62
     7
100
AcDbSpline
210
0.0
220
0.0
230
1.0
 70
     8
 71
     3
 72
    11
 73
     7
 74
     0
 42
0.00000001
 43
0.00000001
 40
0.0
 40
0.0
 40
0.0
 40
0.0
 40
0.2652028770929095
 40
0.5862843085336504
 40
0.836599324958659
 40
1.0
 40
1.0
 40
1.0
 40
1.0
 10
-17.50416306219363
 20
346.3102245269509
 30
0.0
 10
-17.36412732600812
 20
346.1431230159637
 30
0.0
 10
-17.05455016131255
 20
345.7737115114658
 30
0.0
 10
-16.67545232330467
 20
345.1988266911348
 30
0.0
 10
-16.37087638398257
 20
344.6772718023601
 30
0.0
 10
-16.21914264048061
 20
344.3730612562847
 30
0.0
 10
-16.15921405515935
 20
344.2529106078836
 30
0.0
  0
SPLINE
  5
27A
330
1F
100
AcDbEntity
  8
0
  6
CONTINUOUS
 62
     7
100
AcDbSpline
210
0.0
220
0.0
230
1.0
 70
     8
 71
     3
 72
    11
 73
     7
 74
     0
 42
0.00000001
 43
0.00000001
 40
0.0
 40
0.0
 40
0.0
 40
0.0
 40
0.2652028770929095
 40
0.5862843085336504
 40
0.836599324958659
 40
1.0
 40
1.0
 40
1.0
 40
1.0
 10
205.4497674349759
 20
254.7071391282769
 30
0.0
 10
205.6168689459631
 20
254.8471748644624
 30
0.0
 10
205.986280450461
 20
255.156752029158
 30
0.0
 10
206.5611652707921
 20
255.5358498671659
 30
0.0
 10
207.0827201595667
 20
255.840425806488
 30
0.0
 10
207.3869307056421
 20
255.9921595499899
 30
0.0
 10
207.5070813540433
 20
256.0520881353112
 30
0.0
  0
SPLINE
  5
27B
330
1F
100
AcDbEntity
  8
0
  6
CONTINUOUS
 62
     7
100
AcDbSpline
210
0.0
220
0.0
230
1.0
 70
     8
 71
     3
 72
    10
 73
     6
 74
     0
 42
0.00000001
 43
0.00000001
 40
0.0
 40
0.0
 40
0.0
 40
0.0
 40
0.2016442655351436
 40
0.4619256501935491
 40
1.0
 40
1.0
 40
1.0
 40
1.0
 10
72.04069944658016
 20
256.0502850948068
 30
0.0
 10
72.17150763586855
 20
255.9854557646179
 30
0.0
 10
72.47116236558436
 20
255.8369450672292
 30
0.0
 10
73.10155894767311
 20
255.4776685487343
 30
0.0
 10
73.55381084622495
 20
255.1155375366148
 30
0.0
 10
73.8586187604878
 20
254.8714691339227
 30
0.0
  0
LINE
  5
27C
330
1F
100
AcDbEntity
  8
0
  6
CONTINUOUS
 62
     7
100
AcDbLine
 10
88.4378925208
 20
581.2837743698
 30
0.0
 11
74.1046890859
 21
569.2567938505
 31
0.0
  0
LINE
  5
27D
330
1F
100
AcDbEntity
  8
0
  6
CONTINUOUS
 62
     7
100
AcDbLine
 10
205.4440006856
 20
569.2567938505
 30
0.0
 11
191.1107972506
 21
581.2837743698
 31
0.0
  0
LINE
  5
27E
330
1F
100
AcDbEntity
  8
0
  6
CONTINUOUS
 62
     7
100
AcDbLine
 10
-17.4968018886
 20
477.6553028761
 30
0.0
 11
-29.5237824079
 21
463.3220994411
 31
0.0
  0
LINE
  5
27F
330
1F
100
AcDbEntity
  8
0
  6
CONTINUOUS
 62
     7
100
AcDbLine
 10
309.0724721793
 20
463.3220994411
 30
0.0
 11
297.04549166
 21
477.6553028761
 31
0.0
  0
LINE
  5
280
330
1F
100
AcDbEntity
  8
0
  6
CONTINUOUS
 62
     7
100
AcDbLine
 10
297.04549166
 20
346.3159912763
 30
0.0
 11
309.0724721793
 21
360.6491947113
 31
0.0
  0
LINE
  5
281
330
1F
100
AcDbEntity
  8
0
  6
CONTINUOUS
 62
     7
100
AcDbLine
 10
-29.5237824079
 20
360.6491947113
 30
0.0
 11
-17.4968018886
 21
346.3159912763
 31
0.0
  0
LINE
  5
282
330
1F
100
AcDbEntity
  8
0
  6
CONTINUOUS
 62
     7
100
AcDbLine
 10
191.1107972506
 20
242.6875197826
 30
0.0
 11
205.4440006856
 21
254.7145003019
 31
0.0
  0
LINE
  5
283
330
1F
100
AcDbEntity
  8
0
  6
CONTINUOUS
 62
     7
100
AcDbLine
 10
74.1046890859
 20
254.7145003019
 30
0.0
 11
88.4378925208
 21
242.6875197826
 31
0.0
  0
ARC
  5
284
330
1F
100
AcDbEntity
  8
0
  6
CONTINUOUS
 62
     7
100
AcDbCircle
 10
90.3662555885
 20
578.9856470762
 30
0.0
 40
3.000000000000114
100
AcDbArc
 50
90.0
 51
130.0
  0
ARC
  5
285
330
1F
100
AcDbEntity
  8
0
  6
CONTINUOUS
 62
     7
100
AcDbCircle
 10
189.1824341829
 20
578.9856470762
 30
0.0
 40
2.999999999999979
100
AcDbArc
 50
50.0
 51
90.0
  0
ARC
  5
286
330
1F
100
AcDbEntity
  8
0
  6
CONTINUOUS
 62
     7
100
AcDbCircle
 10
306.7743448857
 20
461.3937363734
 30
0.0
 40
3.0
100
AcDbArc
 50
0.0
 51
40.0
  0
ARC
  5
287
330
1F
100
AcDbEntity
  8
0
  6
CONTINUOUS
 62
     7
100
AcDbCircle
 10
-27.2256551143
 20
461.3937363734
 30
0.0
 40
3.000000000000039
100
AcDbArc
 50
140.0
 51
180.0
  0
ARC
  5
288
330
1F
100
AcDbEntity
  8
0
  6
CONTINUOUS
 62
     7
100
AcDbCircle
 10
-27.2256551143
 20
362.577557779
 30
0.0
 40
3.000000000000004
100
AcDbArc
 50
180.0
 51
220.0
  0
ARC
  5
289
330
1F
100
AcDbEntity
  8
0
  6
CONTINUOUS
 62
     7
100
AcDbCircle
 10
306.7743448857
 20
362.577557779
 30
0.0
 40
3.000000000000016
100
AcDbArc
 50
320.0
 51
0.0
  0
ARC
  5
28A
330
1F
100
AcDbEntity
  8
0
  6
CONTINUOUS
 62
     7
100
AcDbCircle
 10
189.1824341829
 20
244.9856470762
 30
0.0
 40
3.000000000000028
100
AcDbArc
 50
270.0
 51
310.0
  0
ARC
  5
28B
330
1F
100
AcDbEntity
  8
0
  6
CONTINUOUS
 62
     7
100
AcDbCircle
 10
90.3662555885
 20
244.9856470762
 30
0.0
 40
3.0
100
AcDbArc
 50
230.0
 51
270.0
  0
CIRCLE
  5
28C
330
1F
100
AcDbEntity
  8
0
  6
CONTINUOUS
 62
     7
100
AcDbCircle
 10
99.7743448857
 20
536.9856470762
 30
0.0
 40
4.0
  0
CIRCLE
  5
28D
330
1F
100
AcDbEntity
  8
0
  6
CONTINUOUS
 62
     7
100
AcDbCircle
 10
99.7743448857
 20
536.9856470762
 30
0.0
 40
9.25
  0
CIRCLE
  5
28E
330
1F
100
AcDbEntity
  8
0
  6
CONTINUOUS
 62
     7
100
AcDbCircle
 10
99.7743448857
 20
536.9856470762
 30
0.0
 40
13.0
  0
CIRCLE
  5
28F
330
1F
100
AcDbEntity
  8
0
  6
CONTINUOUS
 62
     7
100
AcDbCircle
 10
139.7743448857
 20
290.9856470762
 30
0.0
 40
11.0
  0
CIRCLE
  5
290
330
1F
100
AcDbEntity
  8
0
  6
CONTINUOUS
 62
     7
100
AcDbCircle
 10
139.7743448857
 20
290.9856470762
 30
0.0
 40
7.25
  0
CIRCLE
  5
291
330
1F
100
AcDbEntity
  8
0
  6
CONTINUOUS
 62
     7
100
AcDbCircle
 10
139.7743448857
 20
290.9856470762
 30
0.0
 40
14.0
  0
LINE
  5
292
330
1F
100
AcDbEntity
  8
0
  6
CONTINUOUS
 62
     7
100
AcDbLine
 10
326.774351323
 20
385.9856465398
 30
0.0
 11
319.7743520383
 21
385.9856465398
 31
0.0
  0
LINE
  5
293
330
1F
100
AcDbEntity
  8
0
  6
CONTINUOUS
 62
     7
100
AcDbLine
 10
326.774351323
 20
379.4856482683
 30
0.0
 11
319.7743520383
 21
379.4856482683
 31
0.0
  0
LINE
  5
294
330
1F
100
AcDbEntity
  8
0
  6
CONTINUOUS
 62
     7
100
AcDbLine
 10
326.774351323
 20
385.9856465398
 30
0.0
 11
326.774351323
 21
379.4856482683
 31
0.0
  0
LINE
  5
295
330
1F
100
AcDbEntity
  8
0
  6
CONTINUOUS
 62
     7
100
AcDbLine
 10
326.774351323
 20
372.9856462715
 30
0.0
 11
319.7743520383
 21
372.9856462715
 31
0.0
  0
LINE
  5
296
330
1F
100
AcDbEntity
  8
0
  6
CONTINUOUS
 62
     7
100
AcDbLine
 10
326.774351323
 20
379.4856482683
 30
0.0
 11
326.774351323
 21
372.9856462715
 31
0.0
  0
LINE
  5
297
330
1F
100
AcDbEntity
  8
0
  6
CONTINUOUS
 62
     7
100
AcDbLine
 10
326.774351323
 20
450.9856478809
 30
0.0
 11
319.7743520383
 21
450.9856478809
 31
0.0
  0
LINE
  5
298
330
1F
100
AcDbEntity
  8
0
  6
CONTINUOUS
 62
     7
100
AcDbLine
 10
326.774351323
 20
444.4856458841
 30
0.0
 11
319.7743520383
 21
444.4856458841
 31
0.0
  0
LINE
  5
299
330
1F
100
AcDbEntity
  8
0
  6
CONTINUOUS
 62
     7
100
AcDbLine
 10
326.774351323
 20
450.9856478809
 30
0.0
 11
326.774351323
 21
444.4856458841
 31
0.0
  0
LINE
  5
29A
330
1F
100
AcDbEntity
  8
0
  6
CONTINUOUS
 62
     7
100
AcDbLine
 10
326.774351323
 20
437.9856476126
 30
0.0
 11
319.7743520383
 21
437.9856476126
 31
0.0
  0
LINE
  5
29B
330
1F
100
AcDbEntity
  8
0
  6
CONTINUOUS
 62
     7
100
AcDbLine
 10
326.774351323
 20
444.4856458841
 30
0.0
 11
326.774351323
 21
437.9856476126
 31
0.0
  0
LINE
  5
29C
330
1F
100
AcDbEntity
  8
0
  6
CONTINUOUS
 62
     7
100
AcDbLine
 10
178.7743456904
 20
229.7856473861
 30
0.0
 11
178.7743456904
 21
236.7856466709
 31
0.0
  0
LINE
  5
29D
330
1F
100
AcDbEntity
  8
0
  6
CONTINUOUS
 62
     7
100
AcDbLine
 10
178.7743456904
 20
229.7856473861
 30
0.0
 11
172.2743436936
 21
229.7856473861
 31
0.0
  0
LINE
  5
29E
330
1F
100
AcDbEntity
  8
0
  6
CONTINUOUS
 62
     7
100
AcDbLine
 10
172.2743436936
 20
229.7856473861
 30
0.0
 11
172.2743436936
 21
236.7856466709
 31
0.0
  0
LINE
  5
29F
330
1F
100
AcDbEntity
  8
0
  6
CONTINUOUS
 62
     7
100
AcDbLine
 10
172.2743436936
 20
229.7856473861
 30
0.0
 11
165.7743454222
 21
229.7856473861
 31
0.0
  0
LINE
  5
2A0
330
1F
100
AcDbEntity
  8
0
  6
CONTINUOUS
 62
     7
100
AcDbLine
 10
165.7743454222
 20
229.7856473861
 30
0.0
 11
165.7743454222
 21
236.7856466709
 31
0.0
  0
LINE
  5
2A1
330
1F
100
AcDbEntity
  8
0
  6
CONTINUOUS
 62
     7
100
AcDbLine
 10
113.7743443493
 20
229.7856473861
 30
0.0
 11
113.7743443493
 21
236.7856466709
 31
0.0
  0
LINE
  5
2A2
330
1F
100
AcDbEntity
  8
0
  6
CONTINUOUS
 62
     7
100
AcDbLine
 10
113.7743443493
 20
229.7856473861
 30
0.0
 11
107.2743460778
 21
229.7856473861
 31
0.0
  0
LINE
  5
2A3
330
1F
100
AcDbEntity
  8
0
  6
CONTINUOUS
 62
     7
100
AcDbLine
 10
107.2743460778
 20
229.7856473861
 30
0.0
 11
107.2743460778
 21
236.7856466709
 31
0.0
  0
LINE
  5
2A4
330
1F
100
AcDbEntity
  8
0
  6
CONTINUOUS
 62
     7
100
AcDbLine
 10
107.2743460778
 20
229.7856473861
 30
0.0
 11
100.7743440811
 21
229.7856473861
 31
0.0
  0
LINE
  5
2A5
330
1F
100
AcDbEntity
  8
0
  6
CONTINUOUS
 62
     7
100
AcDbLine
 10
100.7743440811
 20
229.7856473861
 30
0.0
 11
100.7743440811
 21
236.7856466709
 31
0.0
  0
LINE
  5
2A6
330
1F
100
AcDbEntity
  8
0
  6
CONTINUOUS
 62
     7
100
AcDbLine
 10
-47.2256615516
 20
437.085457289
 30
0.0
 11
-40.2256622668
 21
437.085457289
 31
0.0
  0
LINE
  5
2A7
330
1F
100
AcDbEntity
  8
0
  6
CONTINUOUS
 62
     7
100
AcDbLine
 10
-47.2256615516
 20
437.085457289
 30
0.0
 11
-47.2256615516
 21
441.8708553104
 31
0.0
  0
LINE
  5
2A8
330
1F
100
AcDbEntity
  8
0
  6
CONTINUOUS
 62
     7
100
AcDbLine
 10
-47.2256615516
 20
441.8708553104
 30
0.0
 11
-40.2256622668
 21
441.8708553104
 31
0.0
  0
LINE
  5
2A9
330
1F
100
AcDbEntity
  8
0
  6
CONTINUOUS
 62
     7
100
AcDbLine
 10
-47.2256615516
 20
449.2710457681
 30
0.0
 11
-40.2256622668
 21
449.2710457681
 31
0.0
  0
LINE
  5
2AA
330
1F
100
AcDbEntity
  8
0
  6
CONTINUOUS
 62
     7
100
AcDbLine
 10
-47.2256615516
 20
441.8708553104
 30
0.0
 11
-47.2256615516
 21
449.2710457681
 31
0.0
  0
LINE
  5
2AB
330
1F
100
AcDbEntity
  8
0
  6
CONTINUOUS
 62
     7
100
AcDbLine
 10
-47.2256615516
 20
451.8858382045
 30
0.0
 11
-40.2256622668
 21
451.8858382045
 31
0.0
  0
LINE
  5
2AC
330
1F
100
AcDbEntity
  8
0
  6
CONTINUOUS
 62
     7
100
AcDbLine
 10
-47.2256615516
 20
449.2710457681
 30
0.0
 11
-47.2256615516
 21
451.8858382045
 31
0.0
  0
LINE
  5
2AD
330
1F
100
AcDbEntity
  8
0
  6
CONTINUOUS
 62
     7
100
AcDbLine
 10
-47.2256615516
 20
372.9683013199
 30
0.0
 11
-40.2256622668
 21
372.9683013199
 31
0.0
  0
LINE
  5
2AE
330
1F
100
AcDbEntity
  8
0
  6
CONTINUOUS
 62
     7
100
AcDbLine
 10
-47.2256615516
 20
379.450816804
 30
0.0
 11
-40.2256622668
 21
379.450816804
 31
0.0
  0
LINE
  5
2AF
330
1F
100
AcDbEntity
  8
0
  6
CONTINUOUS
 62
     7
100
AcDbLine
 10
-47.2256615516
 20
372.9683013199
 30
0.0
 11
-47.2256615516
 21
379.450816804
 31
0.0
  0
LINE
  5
2B0
330
1F
100
AcDbEntity
  8
0
  6
CONTINUOUS
 62
     7
100
AcDbLine
 10
-47.2256615516
 20
385.9681618897
 30
0.0
 11
-40.2256622668
 21
385.9681618897
 31
0.0
  0
LINE
  5
2B1
330
1F
100
AcDbEntity
  8
0
  6
CONTINUOUS
 62
     7
100
AcDbLine
 10
-47.2256615516
 20
379.450816804
 30
0.0
 11
-47.2256615516
 21
385.9681618897
 31
0.0
  0
LINE
  5
2B2
330
1F
100
AcDbEntity
  8
0
  6
CONTINUOUS
 62
     7
100
AcDbLine
 10
-47.2256615516
 20
386.002993354
 30
0.0
 11
-40.2256622668
 21
386.002993354
 31
0.0
  0
LINE
  5
2B3
330
1F
100
AcDbEntity
  8
0
  6
CONTINUOUS
 62
     7
100
AcDbLine
 10
-47.2256615516
 20
385.9681618897
 30
0.0
 11
-47.2256615516
 21
386.002993354
 31
0.0
  0
LINE
  5
2B4
330
1F
100
AcDbEntity
  8
0
  6
CONTINUOUS
 62
     7
100
AcDbLine
 10
165.7743454222
 20
594.1856467663
 30
0.0
 11
165.7743454222
 21
587.1856474815
 31
0.0
  0
LINE
  5
2B5
330
1F
100
AcDbEntity
  8
0
  6
CONTINUOUS
 62
     7
100
AcDbLine
 10
165.7743454222
 20
594.1856467663
 30
0.0
 11
172.2743436936
 21
594.1856467663
 31
0.0
  0
LINE
  5
2B6
330
1F
100
AcDbEntity
  8
0
  6
CONTINUOUS
 62
     7
100
AcDbLine
 10
172.2743436936
 20
594.1856467663
 30
0.0
 11
172.2743436936
 21
587.1856474815
 31
0.0
  0
LINE
  5
2B7
330
1F
100
AcDbEntity
  8
0
  6
CONTINUOUS
 62
     7
100
AcDbLine
 10
172.2743436936
 20
594.1856467663
 30
0.0
 11
178.7743456904
 21
594.1856467663
 31
0.0
  0
LINE
  5
2B8
330
1F
100
AcDbEntity
  8
0
  6
CONTINUOUS
 62
     7
100
AcDbLine
 10
178.7743456904
 20
594.1856467663
 30
0.0
 11
178.7743456904
 21
587.1856474815
 31
0.0
  0
LINE
  5
2B9
330
1F
100
AcDbEntity
  8
0
  6
CONTINUOUS
 62
     7
100
AcDbLine
 10
107.2743460778
 20
594.1856467663
 30
0.0
 11
107.2743460778
 21
587.1856474815
 31
0.0
  0
LINE
  5
2BA
330
1F
100
AcDbEntity
  8
0
  6
CONTINUOUS
 62
     7
100
AcDbLine
 10
113.7743443493
 20
594.1856467663
 30
0.0
 11
113.7743443493
 21
587.1856474815
 31
0.0
  0
LINE
  5
2BB
330
1F
100
AcDbEntity
  8
0
  6
CONTINUOUS
 62
     7
100
AcDbLine
 10
107.2743460778
 20
594.1856467663
 30
0.0
 11
113.7743443493
 21
594.1856467663
 31
0.0
  0
LINE
  5
2BC
330
1F
100
AcDbEntity
  8
0
  6
CONTINUOUS
 62
     7
100
AcDbLine
 10
100.7743440811
 20
594.1856467663
 30
0.0
 11
100.7743440811
 21
587.1856474815
 31
0.0
  0
LINE
  5
2BD
330
1F
100
AcDbEntity
  8
0
  6
CONTINUOUS
 62
     7
100
AcDbLine
 10
100.7743440811
 20
594.1856467663
 30
0.0
 11
107.2743460778
 21
594.1856467663
 31
0.0
  0
LINE
  5
2BE
330
1F
100
AcDbEntity
  8
0
  6
CONTINUOUS
 62
     7
100
AcDbLine
 10
148.635000946
 20
583.9856529175
 30
0.0
 11
130.9136888254
 21
583.9856529175
 31
0.0
  0
LINE
  5
2BF
330
1F
100
AcDbEntity
  8
0
  6
CONTINUOUS
 62
     7
100
AcDbLine
 10
148.635000946
 20
587.1856474815
 30
0.0
 11
130.9136888254
 21
587.1856474815
 31
0.0
  0
LINE
  5
2C0
330
1F
100
AcDbEntity
  8
0
  6
CONTINUOUS
 62
     7
100
AcDbLine
 10
174.798935676
 20
587.1856474815
 30
0.0
 11
148.635000946
 21
587.1856474815
 31
0.0
  0
LINE
  5
2C1
330
1F
100
AcDbEntity
  8
0
  6
CONTINUOUS
 62
     7
100
AcDbLine
 10
174.798935676
 20
583.9856529175
 30
0.0
 11
148.635000946
 21
583.9856529175
 31
0.0
  0
LINE
  5
2C2
330
1F
100
AcDbEntity
  8
0
  6
CONTINUOUS
 62
     7
100
AcDbLine
 10
130.9136888254
 20
587.1856474815
 30
0.0
 11
104.7497540955
 21
587.1856474815
 31
0.0
  0
LINE
  5
2C3
330
1F
100
AcDbEntity
  8
0
  6
CONTINUOUS
 62
     7
100
AcDbLine
 10
130.9136888254
 20
583.9856529175
 30
0.0
 11
104.7497540955
 21
583.9856529175
 31
0.0
  0
LINE
  5
2C4
330
1F
100
AcDbEntity
  8
0
  6
CONTINUOUS
 62
     7
100
AcDbLine
 10
182.2743453328
 20
587.1856474815
 30
0.0
 11
174.798935676
 21
587.1856474815
 31
0.0
  0
LINE
  5
2C5
330
1F
100
AcDbEntity
  8
0
  6
CONTINUOUS
 62
     7
100
AcDbLine
 10
182.2743453328
 20
583.9856529175
 30
0.0
 11
174.798935676
 21
583.9856529175
 31
0.0
  0
LINE
  5
2C6
330
1F
100
AcDbEntity
  8
0
  6
CONTINUOUS
 62
     7
100
AcDbLine
 10
104.7497540955
 20
587.1856474815
 30
0.0
 11
97.2743444387
 21
587.1856474815
 31
0.0
  0
LINE
  5
2C7
330
1F
100
AcDbEntity
  8
0
  6
CONTINUOUS
 62
     7
100
AcDbLine
 10
104.7497540955
 20
583.9856529175
 30
0.0
 11
97.2743444387
 21
583.9856529175
 31
0.0
  0
LINE
  5
2C8
330
1F
100
AcDbEntity
  8
0
  6
CONTINUOUS
 62
     7
100
AcDbLine
 10
130.9136888254
 20
239.9856412349
 30
0.0
 11
148.635000946
 21
239.9856412349
 31
0.0
  0
LINE
  5
2C9
330
1F
100
AcDbEntity
  8
0
  6
CONTINUOUS
 62
     7
100
AcDbLine
 10
130.9136888254
 20
236.7856466709
 30
0.0
 11
148.635000946
 21
236.7856466709
 31
0.0
  0
LINE
  5
2CA
330
1F
100
AcDbEntity
  8
0
  6
CONTINUOUS
 62
     7
100
AcDbLine
 10
104.7497540955
 20
239.9856412349
 30
0.0
 11
130.9136888254
 21
239.9856412349
 31
0.0
  0
LINE
  5
2CB
330
1F
100
AcDbEntity
  8
0
  6
CONTINUOUS
 62
     7
100
AcDbLine
 10
104.7497540955
 20
236.7856466709
 30
0.0
 11
130.9136888254
 21
236.7856466709
 31
0.0
  0
LINE
  5
2CC
330
1F
100
AcDbEntity
  8
0
  6
CONTINUOUS
 62
     7
100
AcDbLine
 10
148.635000946
 20
239.9856412349
 30
0.0
 11
174.798935676
 21
239.9856412349
 31
0.0
  0
LINE
  5
2CD
330
1F
100
AcDbEntity
  8
0
  6
CONTINUOUS
 62
     7
100
AcDbLine
 10
148.635000946
 20
236.7856466709
 30
0.0
 11
174.798935676
 21
236.7856466709
 31
0.0
  0
LINE
  5
2CE
330
1F
100
AcDbEntity
  8
0
  6
CONTINUOUS
 62
     7
100
AcDbLine
 10
97.2743444387
 20
239.9856412349
 30
0.0
 11
104.7497540955
 21
239.9856412349
 31
0.0
  0
LINE
  5
2CF
330
1F
100
AcDbEntity
  8
0
  6
CONTINUOUS
 62
     7
100
AcDbLine
 10
97.2743444387
 20
236.7856466709
 30
0.0
 11
104.7497540955
 21
236.7856466709
 31
0.0
  0
LINE
  5
2D0
330
1F
100
AcDbEntity
  8
0
  6
CONTINUOUS
 62
     7
100
AcDbLine
 10
174.798935676
 20
239.9856412349
 30
0.0
 11
182.2743453328
 21
239.9856412349
 31
0.0
  0
LINE
  5
2D1
330
1F
100
AcDbEntity
  8
0
  6
CONTINUOUS
 62
     7
100
AcDbLine
 10
174.798935676
 20
236.7856466709
 30
0.0
 11
182.2743453328
 21
236.7856466709
 31
0.0
  0
LINE
  5
2D2
330
1F
100
AcDbEntity
  8
0
  6
CONTINUOUS
 62
     7
100
AcDbLine
 10
-32.2256609555
 20
403.1249910159
 30
0.0
 11
-32.2256609555
 21
420.8463031365
 31
0.0
  0
LINE
  5
2D3
330
1F
100
AcDbEntity
  8
0
  6
CONTINUOUS
 62
     7
100
AcDbLine
 10
-40.2256622668
 20
420.8463031365
 30
0.0
 11
-40.2256622668
 21
403.1249910159
 31
0.0
  0
LINE
  5
2D4
330
1F
100
AcDbEntity
  8
0
  6
CONTINUOUS
 62
     7
100
AcDbLine
 10
-32.2256609555
 20
420.8463031365
 30
0.0
 11
-32.2256609555
 21
447.0102378665
 31
0.0
  0
LINE
  5
2D5
330
1F
100
AcDbEntity
  8
0
  6
CONTINUOUS
 62
     7
100
AcDbLine
 10
-40.2256622668
 20
447.0102378665
 30
0.0
 11
-40.2256622668
 21
420.8463031365
 31
0.0
  0
LINE
  5
2D6
330
1F
100
AcDbEntity
  8
0
  6
CONTINUOUS
 62
     7
100
AcDbLine
 10
-32.2256609555
 20
376.9610562859
 30
0.0
 11
-32.2256609555
 21
403.1249910159
 31
0.0
  0
LINE
  5
2D7
330
1F
100
AcDbEntity
  8
0
  6
CONTINUOUS
 62
     7
100
AcDbLine
 10
-40.2256622668
 20
403.1249910159
 30
0.0
 11
-40.2256622668
 21
376.9610562859
 31
0.0
  0
LINE
  5
2D8
330
1F
100
AcDbEntity
  8
0
  6
CONTINUOUS
 62
     7
100
AcDbLine
 10
-53.2256588098
 20
394.4856470017
 30
0.0
 11
-53.2256588098
 21
429.4856471507
 31
0.0
  0
LINE
  5
2D9
330
1F
100
AcDbEntity
  8
0
  6
CONTINUOUS
 62
     7
100
AcDbLine
 10
-32.2256609555
 20
447.0102378665
 30
0.0
 11
-32.2256609555
 21
454.4856475232
 31
0.0
  0
LINE
  5
2DA
330
1F
100
AcDbEntity
  8
0
  6
CONTINUOUS
 62
     7
100
AcDbLine
 10
-40.2256622668
 20
454.4856475232
 30
0.0
 11
-40.2256622668
 21
447.0102378665
 31
0.0
  0
LINE
  5
2DB
330
1F
100
AcDbEntity
  8
0
  6
CONTINUOUS
 62
     7
100
AcDbLine
 10
-32.2256609555
 20
369.4856466292
 30
0.0
 11
-32.2256609555
 21
376.9610562859
 31
0.0
  0
LINE
  5
2DC
330
1F
100
AcDbEntity
  8
0
  6
CONTINUOUS
 62
     7
100
AcDbLine
 10
-40.2256622668
 20
376.9610562859
 30
0.0
 11
-40.2256622668
 21
369.4856466292
 31
0.0
  0
LINE
  5
2DD
330
1F
100
AcDbEntity
  8
0
  6
CONTINUOUS
 62
     7
100
AcDbLine
 10
311.774350727
 20
420.8463031365
 30
0.0
 11
311.774350727
 21
403.1249910159
 31
0.0
  0
LINE
  5
2DE
330
1F
100
AcDbEntity
  8
0
  6
CONTINUOUS
 62
     7
100
AcDbLine
 10
319.7743520383
 20
403.1249910159
 30
0.0
 11
319.7743520383
 21
420.8463031365
 31
0.0
  0
LINE
  5
2DF
330
1F
100
AcDbEntity
  8
0
  6
CONTINUOUS
 62
     7
100
AcDbLine
 10
311.774350727
 20
447.0102378665
 30
0.0
 11
311.774350727
 21
420.8463031365
 31
0.0
  0
LINE
  5
2E0
330
1F
100
AcDbEntity
  8
0
  6
CONTINUOUS
 62
     7
100
AcDbLine
 10
319.7743520383
 20
420.8463031365
 30
0.0
 11
319.7743520383
 21
447.0102378665
 31
0.0
  0
LINE
  5
2E1
330
1F
100
AcDbEntity
  8
0
  6
CONTINUOUS
 62
     7
100
AcDbLine
 10
311.774350727
 20
403.1249910159
 30
0.0
 11
311.774350727
 21
376.9610562859
 31
0.0
  0
LINE
  5
2E2
330
1F
100
AcDbEntity
  8
0
  6
CONTINUOUS
 62
     7
100
AcDbLine
 10
319.7743520383
 20
376.9610562859
 30
0.0
 11
319.7743520383
 21
403.1249910159
 31
0.0
  0
LINE
  5
2E3
330
1F
100
AcDbEntity
  8
0
  6
CONTINUOUS
 62
     7
100
AcDbLine
 10
332.7743485812
 20
429.4856471507
 30
0.0
 11
332.7743485812
 21
394.4856470017
 31
0.0
  0
LINE
  5
2E4
330
1F
100
AcDbEntity
  8
0
  6
CONTINUOUS
 62
     7
100
AcDbLine
 10
311.774350727
 20
454.4856475232
 30
0.0
 11
311.774350727
 21
447.0102378665
 31
0.0
  0
LINE
  5
2E5
330
1F
100
AcDbEntity
  8
0
  6
CONTINUOUS
 62
     7
100
AcDbLine
 10
319.7743520383
 20
447.0102378665
 30
0.0
 11
319.7743520383
 21
454.4856475232
 31
0.0
  0
LINE
  5
2E6
330
1F
100
AcDbEntity
  8
0
  6
CONTINUOUS
 62
     7
100
AcDbLine
 10
311.774350727
 20
376.9610562859
 30
0.0
 11
311.774350727
 21
369.4856466292
 31
0.0
  0
LINE
  5
2E7
330
1F
100
AcDbEntity
  8
0
  6
CONTINUOUS
 62
     7
100
AcDbLine
 10
319.7743520383
 20
369.4856466292
 30
0.0
 11
319.7743520383
 21
376.9610562859
 31
0.0
  0
LINE
  5
2E8
330
1F
100
AcDbEntity
  8
0
  6
CONTINUOUS
 62
     7
100
AcDbLine
 10
179.7743439917
 20
581.9856488643
 30
0.0
 11
179.7743439917
 21
583.9856529175
 31
0.0
  0
LINE
  5
2E9
330
1F
100
AcDbEntity
  8
0
  6
CONTINUOUS
 62
     7
100
AcDbLine
 10
179.7743439917
 20
583.9856529175
 30
0.0
 11
174.798935676
 21
583.9856529175
 31
0.0
  0
LINE
  5
2EA
330
1F
100
AcDbEntity
  8
0
  6
CONTINUOUS
 62
     7
100
AcDbLine
 10
99.7743457798
 20
581.9856488643
 30
0.0
 11
99.7743457798
 21
583.9856529175
 31
0.0
  0
LINE
  5
2EB
330
1F
100
AcDbEntity
  8
0
  6
CONTINUOUS
 62
     7
100
AcDbLine
 10
104.7497540955
 20
583.9856529175
 30
0.0
 11
99.7743457798
 21
583.9856529175
 31
0.0
  0
LINE
  5
2EC
330
1F
100
AcDbEntity
  8
0
  6
CONTINUOUS
 62
     7
100
AcDbLine
 10
179.7743439917
 20
241.9856452881
 30
0.0
 11
179.7743439917
 21
239.9856412349
 31
0.0
  0
LINE
  5
2ED
330
1F
100
AcDbEntity
  8
0
  6
CONTINUOUS
 62
     7
100
AcDbLine
 10
174.798935676
 20
239.9856412349
 30
0.0
 11
179.7743439917
 21
239.9856412349
 31
0.0
  0
LINE
  5
2EE
330
1F
100
AcDbEntity
  8
0
  6
CONTINUOUS
 62
     7
100
AcDbLine
 10
99.7743457798
 20
241.9856452881
 30
0.0
 11
99.7743457798
 21
239.9856412349
 31
0.0
  0
LINE
  5
2EF
330
1F
100
AcDbEntity
  8
0
  6
CONTINUOUS
 62
     7
100
AcDbLine
 10
99.7743457798
 20
239.9856412349
 30
0.0
 11
104.7497540955
 21
239.9856412349
 31
0.0
  0
LINE
  5
2F0
330
1F
100
AcDbEntity
  8
0
  6
CONTINUOUS
 62
     7
100
AcDbLine
 10
311.774350727
 20
451.9856461821
 30
0.0
 11
309.7743466739
 21
451.9856461821
 31
0.0
  0
LINE
  5
2F1
330
1F
100
AcDbEntity
  8
0
  6
CONTINUOUS
 62
     7
100
AcDbLine
 10
311.774350727
 20
451.9856461821
 30
0.0
 11
311.774350727
 21
447.0102378665
 31
0.0
  0
LINE
  5
2F2
330
1F
100
AcDbEntity
  8
0
  6
CONTINUOUS
 62
     7
100
AcDbLine
 10
311.774350727
 20
371.9856479703
 30
0.0
 11
309.7743466739
 21
371.9856479703
 31
0.0
  0
LINE
  5
2F3
330
1F
100
AcDbEntity
  8
0
  6
CONTINUOUS
 62
     7
100
AcDbLine
 10
311.774350727
 20
376.9610562859
 30
0.0
 11
311.774350727
 21
371.9856479703
 31
0.0
  0
LINE
  5
2F4
330
1F
100
AcDbEntity
  8
0
  6
CONTINUOUS
 62
     7
100
AcDbLine
 10
-30.2256569024
 20
451.9856461821
 30
0.0
 11
-32.2256609555
 21
451.9856461821
 31
0.0
  0
LINE
  5
2F5
330
1F
100
AcDbEntity
  8
0
  6
CONTINUOUS
 62
     7
100
AcDbLine
 10
-32.2256609555
 20
451.9856461821
 30
0.0
 11
-32.2256609555
 21
447.0102378665
 31
0.0
  0
LINE
  5
2F6
330
1F
100
AcDbEntity
  8
0
  6
CONTINUOUS
 62
     7
100
AcDbLine
 10
-30.2256569024
 20
371.9856479703
 30
0.0
 11
-32.2256609555
 21
371.9856479703
 31
0.0
  0
LINE
  5
2F7
330
1F
100
AcDbEntity
  8
0
  6
CONTINUOUS
 62
     7
100
AcDbLine
 10
-32.2256609555
 20
376.9610562859
 30
0.0
 11
-32.2256609555
 21
371.9856479703
 31
0.0
  0
SPLINE
  5
2F8
330
1F
100
AcDbEntity
  8
0
  6
CONTINUOUS
 62
     7
100
AcDbSpline
210
0.0
220
0.0
230
1.0
 70
     8
 71
     3
 72
     9
 73
     5
 74
     0
 42
0.00000001
 43
0.00000001
 40
0.0
 40
0.0
 40
0.0
 40
0.0
 40
0.5600546131634409
 40
1.0
 40
1.0
 40
1.0
 40
1.0
 10
64.00959196128584
 20
580.187034004757
 30
0.0
 10
70.22056564844814
 20
581.0921891426773
 30
0.0
 10
81.3105085596938
 20
582.7083799866513
 30
0.0
 10
92.50465063556041
 20
583.6943499727048
 30
0.0
 10
97.42946180143095
 20
584.1281229196283
 30
0.0
  0
SPLINE
  5
2F9
330
1F
100
AcDbEntity
  8
0
  6
CONTINUOUS
 62
     7
100
AcDbSpline
210
0.0
220
0.0
230
1.0
 70
     8
 71
     3
 72
     9
 73
     5
 74
     0
 42
0.00000001
 43
0.00000001
 40
0.0
 40
0.0
 40
0.0
 40
0.0
 40
0.4290642814298591
 40
1.0
 40
1.0
 40
1.0
 40
1.0
 10
182.2743453327629
 20
584.1062629161569
 30
0.0
 10
187.0554583826385
 20
583.6887624965577
 30
0.0
 10
198.1985743603716
 20
582.7157138470459
 30
0.0
 10
209.2369149142309
 20
581.1060491023991
 30
0.0
 10
215.5390978101704
 20
580.187034004757
 30
0.0
  0
SPLINE
  5
2FA
330
1F
100
AcDbEntity
  8
0
  6
CONTINUOUS
 62
     7
100
AcDbSpline
210
0.0
220
0.0
230
1.0
 70
     8
 71
     3
 72
     9
 73
     5
 74
     0
 42
0.00000001
 43
0.00000001
 40
0.0
 40
0.0
 40
0.0
 40
0.0
 40
0.5626570608477104
 40
1.0
 40
1.0
 40
1.0
 40
1.0
 10
-28.42704204283023
 20
336.2208941517564
 30
0.0
 10
-29.3325030254121
 20
342.4318173594144
 30
0.0
 10
-30.94176210272237
 20
353.4703764389016
 30
0.0
 10
-31.92371849649214
 20
364.6126513644024
 30
0.0
 10
-32.35317019186282
 20
369.4856466291639
 30
0.0
  0
SPLINE
  5
2FB
330
1F
100
AcDbEntity
  8
0
  6
CONTINUOUS
 62
     7
100
AcDbSpline
210
0.0
220
0.0
230
1.0
 70
     8
 71
     3
 72
     9
 73
     5
 74
     0
 42
0.00000001
 43
0.00000001
 40
0.0
 40
0.0
 40
0.0
 40
0.0
 40
0.4317114250414837
 40
1.0
 40
1.0
 40
1.0
 40
1.0
 10
-32.36114231310152
 20
454.3301390050145
 30
0.0
 10
-31.93935243466567
 20
459.1631981830662
 30
0.0
 10
-30.96233432958467
 20
470.3583134793252
 30
0.0
 10
-29.34573625749734
 20
481.4481644155763
 30
0.0
 10
-28.42704204283023
 20
487.750400000641
 30
0.0
  0
SPLINE
  5
2FC
330
1F
100
AcDbEntity
  8
0
  6
CONTINUOUS
 62
     7
100
AcDbSpline
210
0.0
220
0.0
230
1.0
 70
     8
 71
     3
 72
     9
 73
     5
 74
     0
 42
0.00000001
 43
0.00000001
 40
0.0
 40
0.0
 40
0.0
 40
0.0
 40
0.5626570608477104
 40
1.0
 40
1.0
 40
1.0
 40
1.0
 10
307.9757318142865
 20
487.750400000641
 30
0.0
 10
308.8811927968683
 20
481.5394767929829
 30
0.0
 10
310.4904518741786
 20
470.5009177134958
 30
0.0
 10
311.4724082679484
 20
459.3586427879949
 30
0.0
 10
311.9018599633191
 20
454.4856475232335
 30
0.0
  0
SPLINE
  5
2FD
330
1F
100
AcDbEntity
  8
0
  6
CONTINUOUS
 62
     7
100
AcDbSpline
210
0.0
220
0.0
230
1.0
 70
     8
 71
     3
 72
     9
 73
     5
 74
     0
 42
0.00000001
 43
0.00000001
 40
0.0
 40
0.0
 40
0.0
 40
0.0
 40
0.4317114250414837
 40
1.0
 40
1.0
 40
1.0
 40
1.0
 10
311.9098320845578
 20
369.6411551473828
 30
0.0
 10
311.4880422061219
 20
364.8080959693311
 30
0.0
 10
310.5110241010409
 20
353.6129806730721
 30
0.0
 10
308.8944260289535
 20
342.5231297368209
 30
0.0
 10
307.9757318142865
 20
336.2208941517564
 30
0.0
  0
SPLINE
  5
2FE
330
1F
100
AcDbEntity
  8
0
  6
CONTINUOUS
 62
     7
100
AcDbSpline
210
0.0
220
0.0
230
1.0
 70
     8
 71
     3
 72
     9
 73
     5
 74
     0
 42
0.00000001
 43
0.00000001
 40
0.0
 40
0.0
 40
0.0
 40
0.0
 40
0.5600546131634409
 40
1.0
 40
1.0
 40
1.0
 40
1.0
 10
215.5390978101704
 20
243.7842601476403
 30
0.0
 10
209.3281241230081
 20
242.8791050097201
 30
0.0
 10
198.2381812117625
 20
241.2629141657461
 30
0.0
 10
187.0440391358958
 20
240.2769441796926
 30
0.0
 10
182.1192279700253
 20
239.8431712327691
 30
0.0
  0
SPLINE
  5
2FF
330
1F
100
AcDbEntity
  8
0
  6
CONTINUOUS
 62
     7
100
AcDbSpline
210
0.0
220
0.0
230
1.0
 70
     8
 71
     3
 72
     9
 73
     5
 74
     0
 42
0.00000001
 43
0.00000001
 40
0.0
 40
0.0
 40
0.0
 40
0.0
 40
0.4290642814298591
 40
1.0
 40
1.0
 40
1.0
 40
1.0
 10
97.27434443869329
 20
239.8650312362405
 30
0.0
 10
92.49323138881769
 20
240.2825316558396
 30
0.0
 10
81.3501154110847
 20
241.2555803053514
 30
0.0
 10
70.3117748572254
 20
242.8652450499983
 30
0.0
 10
64.00959196128582
 20
243.7842601476403
 30
0.0
  0
LINE
  5
300
330
1F
100
AcDbEntity
  8
0
  6
CONTINUOUS
 62
     7
100
AcDbLine
 10
222.2531289104
 20
567.8815507827
 30
0.0
 11
224.1908088569
 21
564.4734764038
 31
0.0
  0
LINE
  5
301
330
1F
100
AcDbEntity
  8
0
  6
CONTINUOUS
 62
     7
100
AcDbLine
 10
55.3578809146
 20
564.4734764038
 30
0.0
 11
57.295560861
 21
567.8815507827
 31
0.0
  0
LINE
  5
302
330
1F
100
AcDbEntity
  8
0
  6
CONTINUOUS
 62
     7
100
AcDbLine
 10
-16.1215588208
 20
494.4644311009
 30
0.0
 11
-12.7134844419
 21
496.4021110473
 31
0.0
  0
LINE
  5
303
330
1F
100
AcDbEntity
  8
0
  6
CONTINUOUS
 62
     7
100
AcDbLine
 10
292.2621742133
 20
496.4021110473
 30
0.0
 11
295.6702485923
 21
494.4644311009
 31
0.0
  0
LINE
  5
304
330
1F
100
AcDbEntity
  8
0
  6
CONTINUOUS
 62
     7
100
AcDbLine
 10
295.6702485923
 20
329.5068630515
 30
0.0
 11
292.2621742133
 21
327.5691831051
 31
0.0
  0
LINE
  5
305
330
1F
100
AcDbEntity
  8
0
  6
CONTINUOUS
 62
     7
100
AcDbLine
 10
-12.7134844419
 20
327.5691831051
 30
0.0
 11
-16.1215588208
 21
329.5068630515
 31
0.0
  0
LINE
  5
306
330
1F
100
AcDbEntity
  8
0
  6
CONTINUOUS
 62
     7
100
AcDbLine
 10
57.295560861
 20
256.0897433696
 30
0.0
 11
55.3578809146
 21
259.4978177486
 31
0.0
  0
LINE
  5
307
330
1F
100
AcDbEntity
  8
0
  6
CONTINUOUS
 62
     7
100
AcDbLine
 10
224.1908088569
 20
259.4978177486
 30
0.0
 11
222.2531289104
 21
256.0897433696
 31
0.0
  0
ARC
  5
308
330
1F
100
AcDbEntity
  8
0
  6
CONTINUOUS
 62
     7
100
AcDbCircle
 10
240.5245974368
 20
576.0150243563
 30
0.0
 40
20.00000000000001
100
AcDbArc
 50
215.2452319724
 51
238.4408892899
  0
ARC
  5
309
330
1F
100
AcDbEntity
  8
0
  6
CONTINUOUS
 62
     7
100
AcDbCircle
 10
-24.2550323943
 20
512.7358996273
 30
0.0
 40
20.00000000000006
100
AcDbArc
 50
305.2452319724
 51
328.4408892899
  0
ARC
  5
30A
330
1F
100
AcDbEntity
  8
0
  6
CONTINUOUS
 62
     7
100
AcDbCircle
 10
303.8037221658
 20
311.2353945251
 30
0.0
 40
20.00000000000003
100
AcDbArc
 50
125.2452319724
 51
148.4408892899
  0
ARC
  5
30B
330
1F
100
AcDbEntity
  8
0
  6
CONTINUOUS
 62
     7
100
AcDbCircle
 10
39.0240923346
 20
247.9562697961
 30
0.0
 40
19.99999999999998
100
AcDbArc
 50
35.2452319724
 51
58.4408892899
  0
ARC
  5
30C
330
1F
100
AcDbEntity
  8
0
  6
CONTINUOUS
 62
     7
100
AcDbCircle
 10
303.8037221658
 20
512.7358996273
 30
0.0
 40
19.99999999999998
100
AcDbArc
 50
211.5591107101
 51
234.7547680276
  0
ARC
  5
30D
330
1F
100
AcDbEntity
  8
0
  6
CONTINUOUS
 62
     7
100
AcDbCircle
 10
39.0240923346
 20
576.0150243563
 30
0.0
 40
20.0
100
AcDbArc
 50
301.5591107101
 51
324.7547680276
  0
ARC
  5
30E
330
1F
100
AcDbEntity
  8
0
  6
CONTINUOUS
 62
     7
100
AcDbCircle
 10
-24.2550323943
 20
311.2353945251
 30
0.0
 40
20.00000000000002
100
AcDbArc
 50
31.5591107101
 51
54.7547680276
  0
ARC
  5
30F
330
1F
100
AcDbEntity
  8
0
  6
CONTINUOUS
 62
     7
100
AcDbCircle
 10
240.5245974368
 20
247.9562697961
 30
0.0
 40
20.0
100
AcDbArc
 50
121.5591107101
 51
144.7547680276
  0
ARC
  5
310
330
1F
100
AcDbEntity
  8
0
  6
CONTINUOUS
 62
     7
100
AcDbCircle
 10
139.7743448857
 20
411.9856470762
 30
0.0
 40
172.5
100
AcDbArc
 50
31.5591107101
 51
58.4408892899
  0
ARC
  5
311
330
1F
100
AcDbEntity
  8
0
  6
CONTINUOUS
 62
     7
100
AcDbCircle
 10
139.7743448857
 20
411.9856470762
 30
0.0
 40
172.5
100
AcDbArc
 50
121.5591107101
 51
148.4408892899
  0
ARC
  5
312
330
1F
100
AcDbEntity
  8
0
  6
CONTINUOUS
 62
     7
100
AcDbCircle
 10
139.7743448857
 20
411.9856470762
 30
0.0
 40
172.5
100
AcDbArc
 50
301.5591107101
 51
328.4408892899
  0
ARC
  5
313
330
1F
100
AcDbEntity
  8
0
  6
CONTINUOUS
 62
     7
100
AcDbCircle
 10
139.7743448857
 20
411.9856470762
 30
0.0
 40
172.5
100
AcDbArc
 50
211.5591107101
 51
238.4408892899
  0
LINE
  5
314
330
1F
100
AcDbEntity
  8
0
  6
CONTINUOUS
 62
     7
100
AcDbLine
 10
57.295560861
 20
567.8815507827
 30
0.0
 11
61.6465285663
 21
577.6558035551
 31
0.0
  0
LINE
  5
315
330
1F
100
AcDbEntity
  8
0
  6
CONTINUOUS
 62
     7
100
AcDbLine
 10
217.9021612052
 20
577.6558035551
 30
0.0
 11
222.2531289104
 21
567.8815507827
 31
0.0
  0
LINE
  5
316
330
1F
100
AcDbEntity
  8
0
  6
CONTINUOUS
 62
     7
100
AcDbLine
 10
295.6702485923
 20
494.4644311009
 30
0.0
 11
305.4445013646
 21
490.1134633957
 31
0.0
  0
LINE
  5
317
330
1F
100
AcDbEntity
  8
0
  6
CONTINUOUS
 62
     7
100
AcDbLine
 10
-25.8958115932
 20
490.1134633957
 30
0.0
 11
-16.1215588208
 21
494.4644311009
 31
0.0
  0
LINE
  5
318
330
1F
100
AcDbEntity
  8
0
  6
CONTINUOUS
 62
     7
100
AcDbLine
 10
-16.1215588208
 20
329.5068630515
 30
0.0
 11
-25.8958115932
 21
333.8578307567
 31
0.0
  0
LINE
  5
319
330
1F
100
AcDbEntity
  8
0
  6
CONTINUOUS
 62
     7
100
AcDbLine
 10
305.4445013646
 20
333.8578307567
 30
0.0
 11
295.6702485923
 21
329.5068630515
 31
0.0
  0
LINE
  5
31A
330
1F
100
AcDbEntity
  8
0
  6
CONTINUOUS
 62
     7
100
AcDbLine
 10
222.2531289104
 20
256.0897433696
 30
0.0
 11
217.9021612052
 21
246.3154905973
 31
0.0
  0
LINE
  5
31B
330
1F
100
AcDbEntity
  8
0
  6
CONTINUOUS
 62
     7
100
AcDbLine
 10
61.6465285663
 20
246.3154905973
 30
0.0
 11
57.295560861
 21
256.0897433696
 31
0.0
  0
SPLINE
  5
31C
330
1F
100
AcDbEntity
  8
0
  6
CONTINUOUS
 62
     7
100
AcDbSpline
210
0.0
220
0.0
230
1.0
 70
     8
 71
     3
 72
     9
 73
     5
 74
     0
 42
0.00000001
 43
0.00000001
 40
0.0
 40
0.0
 40
0.0
 40
0.0
 40
0.7415168135553853
 40
1.0
 40
1.0
 40
1.0
 40
1.0
 10
61.64652856626248
 20
577.6558035550805
 30
0.0
 10
61.72186979388766
 20
577.8250389558168
 30
0.0
 10
61.823474000627
 20
578.0532676320147
 30
0.0
 10
61.90703757182932
 20
578.2410192930502
 30
0.0
 10
61.92863734998441
 20
578.2895499406549
 30
0.0
  0
SPLINE
  5
31D
330
1F
100
AcDbEntity
  8
0
  6
CONTINUOUS
 62
     7
100
AcDbSpline
210
0.0
220
0.0
230
1.0
 70
     8
 71
     3
 72
     9
 73
     5
 74
     0
 42
0.00000001
 43
0.00000001
 40
0.0
 40
0.0
 40
0.0
 40
0.0
 40
0.7415168135553853
 40
1.0
 40
1.0
 40
1.0
 40
1.0
 10
-25.89581159315374
 20
333.8578307567331
 30
0.0
 10
-26.06504699389001
 20
333.9331719843582
 30
0.0
 10
-26.29327567008796
 20
334.0347761910975
 30
0.0
 10
-26.4810273311234
 20
334.1183397622999
 30
0.0
 10
-26.52955797872805
 20
334.139939540455
 30
0.0
  0
SPLINE
  5
31E
330
1F
100
AcDbEntity
  8
0
  6
CONTINUOUS
 62
     7
100
AcDbSpline
210
0.0
220
0.0
230
1.0
 70
     8
 71
     3
 72
     9
 73
     5
 74
     0
 42
0.00000001
 43
0.00000001
 40
0.0
 40
0.0
 40
0.0
 40
0.0
 40
0.7412699723273551
 40
1.0
 40
1.0
 40
1.0
 40
1.0
 10
217.6200524214718
 20
578.2895499406549
 30
0.0
 10
217.6854365104225
 20
578.1426623113509
 30
0.0
 10
217.7736420109709
 20
577.9445055873672
 30
0.0
 10
217.8757442818292
 20
577.7151458152639
 30
0.0
 10
217.9021612051937
 20
577.6558035550805
 30
0.0
  0
SPLINE
  5
31F
330
1F
100
AcDbEntity
  8
0
  6
CONTINUOUS
 62
     7
100
AcDbSpline
210
0.0
220
0.0
230
1.0
 70
     8
 71
     3
 72
     9
 73
     5
 74
     0
 42
0.00000001
 43
0.00000001
 40
0.0
 40
0.0
 40
0.0
 40
0.0
 40
0.7415168135553853
 40
1.0
 40
1.0
 40
1.0
 40
1.0
 10
305.44450136461
 20
490.1134633956643
 30
0.0
 10
305.6137367653462
 20
490.0381221680391
 30
0.0
 10
305.8419654415442
 20
489.9365179612998
 30
0.0
 10
306.0297171025796
 20
489.8529543900975
 30
0.0
 10
306.0782477501843
 20
489.8313546119424
 30
0.0
  0
SPLINE
  5
320
330
1F
100
AcDbEntity
  8
0
  6
CONTINUOUS
 62
     7
100
AcDbSpline
210
0.0
220
0.0
230
1.0
 70
     8
 71
     3
 72
     9
 73
     5
 74
     0
 42
0.00000001
 43
0.00000001
 40
0.0
 40
0.0
 40
0.0
 40
0.0
 40
0.7412699723273551
 40
1.0
 40
1.0
 40
1.0
 40
1.0
 10
-26.52955797872805
 20
489.8313546119424
 30
0.0
 10
-26.38267034942412
 20
489.896738700893
 30
0.0
 10
-26.18451362544039
 20
489.9849442014415
 30
0.0
 10
-25.95515385333699
 20
490.0870464722997
 30
0.0
 10
-25.89581159315371
 20
490.1134633956643
 30
0.0
  0
SPLINE
  5
321
330
1F
100
AcDbEntity
  8
0
  6
CONTINUOUS
 62
     7
100
AcDbSpline
210
0.0
220
0.0
230
1.0
 70
     8
 71
     3
 72
     9
 73
     5
 74
     0
 42
0.00000001
 43
0.00000001
 40
0.0
 40
0.0
 40
0.0
 40
0.0
 40
0.7412699723273551
 40
1.0
 40
1.0
 40
1.0
 40
1.0
 10
306.0782477501843
 20
334.139939540455
 30
0.0
 10
305.9313601208804
 20
334.0745554515043
 30
0.0
 10
305.7332033968966
 20
333.9863499509559
 30
0.0
 10
305.5038436247932
 20
333.8842476800976
 30
0.0
 10
305.44450136461
 20
333.8578307567331
 30
0.0
  0
SPLINE
  5
322
330
1F
100
AcDbEntity
  8
0
  6
CONTINUOUS
 62
     7
100
AcDbSpline
210
0.0
220
0.0
230
1.0
 70
     8
 71
     3
 72
     9
 73
     5
 74
     0
 42
0.00000001
 43
0.00000001
 40
0.0
 40
0.0
 40
0.0
 40
0.0
 40
0.7415168135553853
 40
1.0
 40
1.0
 40
1.0
 40
1.0
 10
217.9021612051938
 20
246.3154905973168
 30
0.0
 10
217.8268199775686
 20
246.1462551965805
 30
0.0
 10
217.7252157708293
 20
245.9180265203826
 30
0.0
 10
217.6416521996269
 20
245.7302748593471
 30
0.0
 10
217.6200524214718
 20
245.6817442117425
 30
0.0
  0
SPLINE
  5
323
330
1F
100
AcDbEntity
  8
0
  6
CONTINUOUS
 62
     7
100
AcDbSpline
210
0.0
220
0.0
230
1.0
 70
     8
 71
     3
 72
     9
 73
     5
 74
     0
 42
0.00000001
 43
0.00000001
 40
0.0
 40
0.0
 40
0.0
 40
0.0
 40
0.7412699723273551
 40
1.0
 40
1.0
 40
1.0
 40
1.0
 10
61.92863734998441
 20
245.6817442117425
 30
0.0
 10
61.86325326103375
 20
245.8286318410464
 30
0.0
 10
61.77504776048534
 20
246.0267885650302
 30
0.0
 10
61.6729454896271
 20
246.2561483371335
 30
0.0
 10
61.64652856626249
 20
246.3154905973168
 30
0.0
  0
SPLINE
  5
324
330
1F
100
AcDbEntity
  8
0
  6
CONTINUOUS
 62
     7
100
AcDbSpline
210
0.0
220
0.0
230
1.0
 70
     8
 71
     3
 72
    10
 73
     6
 74
     0
 42
0.00000001
 43
0.00000001
 40
0.0
 40
0.0
 40
0.0
 40
0.0
 40
0.3625000683546823
 40
0.7681747872906617
 40
1.0
 40
1.0
 40
1.0
 40
1.0
 10
61.92863734998441
 20
578.2895499406549
 30
0.0
 10
61.95426160867147
 20
578.349938364798
 30
0.0
 10
62.0085620383397
 20
578.4779076230707
 30
0.0
 10
62.03366150447908
 20
578.5500006792306
 30
0.0
 10
62.03702658781467
 20
578.5590644007439
 30
0.0
 10
62.03825029172634
 20
578.5623603997918
 30
0.0
  0
ARC
  5
325
330
1F
100
AcDbEntity
  8
0
  6
CONTINUOUS
 62
     7
100
AcDbCircle
 10
64.3905064095
 20
577.7162085858
 30
0.0
 40
2.499816340417962
100
AcDbArc
 50
98.821724292
 51
160.2153650113
  0
SPLINE
  5
326
330
1F
100
AcDbEntity
  8
0
  6
CONTINUOUS
 62
     7
100
AcDbSpline
210
0.0
220
0.0
230
1.0
 70
     8
 71
     3
 72
    10
 73
     6
 74
     0
 42
0.00000001
 43
0.00000001
 40
0.0
 40
0.0
 40
0.0
 40
0.0
 40
0.4115584338952435
 40
0.7944357401752777
 40
1.0
 40
1.0
 40
1.0
 40
1.0
 10
217.5104394797299
 20
578.5623603997918
 30
0.0
 10
217.5136957153345
 20
578.5533731907651
 30
0.0
 10
217.519981262488
 20
578.5360250830184
 30
0.0
 10
217.5595138426232
 20
578.4293668932999
 30
0.0
 10
217.6043792768355
 20
578.3257478720085
 30
0.0
 10
217.6200524214718
 20
578.2895499406549
 30
0.0
  0
ARC
  5
327
330
1F
100
AcDbEntity
  8
0
  6
CONTINUOUS
 62
     7
100
AcDbCircle
 10
215.158183362
 20
577.7162085858
 30
0.0
 40
2.499816340417949
100
AcDbArc
 50
19.7846349887
 51
81.178275708
  0
SPLINE
  5
328
330
1F
100
AcDbEntity
  8
0
  6
CONTINUOUS
 62
     7
100
AcDbSpline
210
0.0
220
0.0
230
1.0
 70
     8
 71
     3
 72
    10
 73
     6
 74
     0
 42
0.00000001
 43
0.00000001
 40
0.0
 40
0.0
 40
0.0
 40
0.0
 40
0.3625000683546823
 40
0.7681747872906617
 40
1.0
 40
1.0
 40
1.0
 40
1.0
 10
217.6200524214718
 20
245.6817442117425
 30
0.0
 10
217.5944281627848
 20
245.6213557875992
 30
0.0
 10
217.5401277331165
 20
245.4933865293266
 30
0.0
 10
217.5150282669772
 20
245.4212934731667
 30
0.0
 10
217.5116631836416
 20
245.4122297516535
 30
0.0
 10
217.5104394797299
 20
245.4089337526055
 30
0.0
  0
ARC
  5
329
330
1F
100
AcDbEntity
  8
0
  6
CONTINUOUS
 62
     7
100
AcDbCircle
 10
215.158183362
 20
246.2550855666
 30
0.0
 40
2.499816340417961
100
AcDbArc
 50
278.821724292
 51
340.2153650113
  0
SPLINE
  5
32A
330
1F
100
AcDbEntity
  8
0
  6
CONTINUOUS
 62
     7
100
AcDbSpline
210
0.0
220
0.0
230
1.0
 70
     8
 71
     3
 72
    10
 73
     6
 74
     0
 42
0.00000001
 43
0.00000001
 40
0.0
 40
0.0
 40
0.0
 40
0.0
 40
0.3625000683546823
 40
0.7681747872906617
 40
1.0
 40
1.0
 40
1.0
 40
1.0
 10
-26.52955797872805
 20
334.139939540455
 30
0.0
 10
-26.58994640287132
 20
334.165563799142
 30
0.0
 10
-26.7179156611439
 20
334.2198642288103
 30
0.0
 10
-26.7900087173038
 20
334.2449636949496
 30
0.0
 10
-26.7990724388171
 20
334.2483287782852
 30
0.0
 10
-26.80236843786504
 20
334.2495524821969
 30
0.0
  0
ARC
  5
32B
330
1F
100
AcDbEntity
  8
0
  6
CONTINUOUS
 62
     7
100
AcDbCircle
 10
-25.9562166239
 20
336.6018086
 30
0.0
 40
2.499816340417971
100
AcDbArc
 50
188.821724292
 51
250.2153650113
  0
SPLINE
  5
32C
330
1F
100
AcDbEntity
  8
0
  6
CONTINUOUS
 62
     7
100
AcDbSpline
210
0.0
220
0.0
230
1.0
 70
     8
 71
     3
 72
    10
 73
     6
 74
     0
 42
0.00000001
 43
0.00000001
 40
0.0
 40
0.0
 40
0.0
 40
0.0
 40
0.3625000683546823
 40
0.7681747872906617
 40
1.0
 40
1.0
 40
1.0
 40
1.0
 10
306.0782477501843
 20
489.8313546119424
 30
0.0
 10
306.1386361743276
 20
489.8057303532553
 30
0.0
 10
306.2666054326002
 20
489.7514299235871
 30
0.0
 10
306.33869848876
 20
489.7263304574477
 30
0.0
 10
306.3477622102734
 20
489.7229653741121
 30
0.0
 10
306.3510582093213
 20
489.7217416702005
 30
0.0
  0
ARC
  5
32D
330
1F
100
AcDbEntity
  8
0
  6
CONTINUOUS
 62
     7
100
AcDbCircle
 10
305.5049063953
 20
487.3694855524
 30
0.0
 40
2.499816340418048
100
AcDbArc
 50
8.821724292
 51
70.2153650113
  0
SPLINE
  5
32E
330
1F
100
AcDbEntity
  8
0
  6
CONTINUOUS
 62
     7
100
AcDbSpline
210
0.0
220
0.0
230
1.0
 70
     8
 71
     3
 72
    10
 73
     6
 74
     0
 42
0.00000001
 43
0.00000001
 40
0.0
 40
0.0
 40
0.0
 40
0.0
 40
0.4115584338952435
 40
0.7944357401752777
 40
1.0
 40
1.0
 40
1.0
 40
1.0
 10
-26.80236843786504
 20
489.7217416702005
 30
0.0
 10
-26.79338122883834
 20
489.724997905805
 30
0.0
 10
-26.77603312109164
 20
489.7312834529585
 30
0.0
 10
-26.66937493137297
 20
489.7708160330938
 30
0.0
 10
-26.56575591008167
 20
489.815681467306
 30
0.0
 10
-26.52955797872805
 20
489.8313546119424
 30
0.0
  0
ARC
  5
32F
330
1F
100
AcDbEntity
  8
0
  6
CONTINUOUS
 62
     7
100
AcDbCircle
 10
-25.9562166239
 20
487.3694855524
 30
0.0
 40
2.499816340418044
100
AcDbArc
 50
109.7846349887
 51
171.178275708
  0
SPLINE
  5
330
330
1F
100
AcDbEntity
  8
0
  6
CONTINUOUS
 62
     7
100
AcDbSpline
210
0.0
220
0.0
230
1.0
 70
     8
 71
     3
 72
    10
 73
     6
 74
     0
 42
0.00000001
 43
0.00000001
 40
0.0
 40
0.0
 40
0.0
 40
0.0
 40
0.4115584338952435
 40
0.7944357401752777
 40
1.0
 40
1.0
 40
1.0
 40
1.0
 10
306.3510582093213
 20
334.2495524821969
 30
0.0
 10
306.3420710002946
 20
334.2462962465923
 30
0.0
 10
306.3247228925479
 20
334.2400106994388
 30
0.0
 10
306.2180647028292
 20
334.2004781193036
 30
0.0
 10
306.1144456815379
 20
334.1556126850912
 30
0.0
 10
306.0782477501843
 20
334.139939540455
 30
0.0
  0
ARC
  5
331
330
1F
100
AcDbEntity
  8
0
  6
CONTINUOUS
 62
     7
100
AcDbCircle
 10
305.5049063953
 20
336.6018086
 30
0.0
 40
2.499816340417985
100
AcDbArc
 50
289.7846349887
 51
351.178275708
  0
SPLINE
  5
332
330
1F
100
AcDbEntity
  8
0
  6
CONTINUOUS
 62
     7
100
AcDbSpline
210
0.0
220
0.0
230
1.0
 70
     8
 71
     3
 72
    10
 73
     6
 74
     0
 42
0.00000001
 43
0.00000001
 40
0.0
 40
0.0
 40
0.0
 40
0.0
 40
0.4115584338952435
 40
0.7944357401752777
 40
1.0
 40
1.0
 40
1.0
 40
1.0
 10
62.03825029172634
 20
245.4089337526055
 30
0.0
 10
62.0349940561218
 20
245.4179209616322
 30
0.0
 10
62.02870850896827
 20
245.4352690693789
 30
0.0
 10
61.98917592883305
 20
245.5419272590976
 30
0.0
 10
61.94431049462072
 20
245.6455462803889
 30
0.0
 10
61.92863734998441
 20
245.6817442117425
 30
0.0
  0
ARC
  5
333
330
1F
100
AcDbEntity
  8
0
  6
CONTINUOUS
 62
     7
100
AcDbCircle
 10
64.3905064095
 20
246.2550855666
 30
0.0
 40
2.499816340417972
100
AcDbArc
 50
199.7846349887
 51
261.178275708
  0
ARC
  5
334
330
1F
100
AcDbEntity
  8
0
  6
CONTINUOUS
 62
     7
100
AcDbCircle
 10
215.1580022902
 20
577.716281779
 30
0.0
 40
2.499970071137796
100
AcDbArc
 50
19.7826737025
 51
81.2316433875
  0
LINE
  5
335
330
1F
100
AcDbEntity
  8
0
  6
CONTINUOUS
 62
     7
100
AcDbLine
 10
306.3510582093
 20
489.7217416702
 30
0.0
 11
306.3511029128
 21
489.7217342196
 31
0.0
  0
ARC
  5
336
330
1F
100
AcDbEntity
  8
0
  6
CONTINUOUS
 62
     7
100
AcDbCircle
 10
305.5049795885
 20
487.3693044807
 30
0.0
 40
2.499970071137702
100
AcDbArc
 50
8.7683566125
 51
70.2173262975
  0
ARC
  5
337
330
1F
100
AcDbEntity
  8
0
  6
CONTINUOUS
 62
     7
100
AcDbCircle
 10
-25.956289817
 20
487.3693044807
 30
0.0
 40
2.499970071137708
100
AcDbArc
 50
109.7826737025
 51
171.2316433875
  0
LINE
  5
338
330
1F
100
AcDbEntity
  8
0
  6
CONTINUOUS
 62
     7
100
AcDbLine
 10
-26.8023684379
 20
334.2495524822
 30
0.0
 11
-26.8024131413
 21
334.2495599328
 31
0.0
  0
ARC
  5
339
330
1F
100
AcDbEntity
  8
0
  6
CONTINUOUS
 62
     7
100
AcDbCircle
 10
-25.956289817
 20
336.6019896717
 30
0.0
 40
2.499970071137711
100
AcDbArc
 50
188.7683566125
 51
250.2173262975
  0
ARC
  5
33A
330
1F
100
AcDbEntity
  8
0
  6
CONTINUOUS
 62
     7
100
AcDbCircle
 10
215.1580022902
 20
246.2550123734
 30
0.0
 40
2.499970071137712
100
AcDbArc
 50
278.7683566125
 51
340.2173262975
  0
ARC
  5
33B
330
1F
100
AcDbEntity
  8
0
  6
CONTINUOUS
 62
     7
100
AcDbCircle
 10
305.5049795885
 20
336.6019896717
 30
0.0
 40
2.499970071137675
100
AcDbArc
 50
289.7826737025
 51
351.2316433875
  0
ARC
  5
33C
330
1F
100
AcDbEntity
  8
0
  6
CONTINUOUS
 62
     7
100
AcDbCircle
 10
64.3906874812
 20
577.716281779
 30
0.0
 40
2.499970071137794
100
AcDbArc
 50
98.7683566125
 51
160.2173262975
  0
ARC
  5
33D
330
1F
100
AcDbEntity
  8
0
  6
CONTINUOUS
 62
     7
100
AcDbCircle
 10
64.3906874812
 20
246.2550123734
 30
0.0
 40
2.499970071137709
100
AcDbArc
 50
199.7826737025
 51
261.2316433875
  0
SPLINE
  5
33E
330
1F
100
AcDbEntity
  8
0
  6
CONTINUOUS
 62
     7
100
AcDbSpline
210
0.0
220
0.0
230
1.0
 70
     8
 71
     3
 72
     9
 73
     5
 74
     0
 42
0.00000001
 43
0.00000001
 40
0.0
 40
0.0
 40
0.0
 40
0.0
 40
0.5546959762779875
 40
1.0
 40
1.0
 40
1.0
 40
1.0
 10
307.9757318142865
 20
336.2208941517564
 30
0.0
 10
307.9680808935518
 20
336.1709531835141
 30
0.0
 10
307.9542878951132
 20
336.0809201377052
 30
0.0
 10
307.8751796523155
 20
335.5722839491285
 30
0.0
 10
307.8399524334882
 20
335.3457862077447
 30
0.0
  0
SPLINE
  5
33F
330
1F
100
AcDbEntity
  8
0
  6
CONTINUOUS
 62
     7
100
AcDbSpline
210
0.0
220
0.0
230
1.0
 70
     8
 71
     3
 72
     9
 73
     5
 74
     0
 42
0.00000001
 43
0.00000001
 40
0.0
 40
0.0
 40
0.0
 40
0.0
 40
0.5568919973007546
 40
1.0
 40
1.0
 40
1.0
 40
1.0
 10
63.13448401727415
 20
580.0512546239587
 30
0.0
 10
63.4104190605371
 20
580.0941372649762
 30
0.0
 10
63.90591018736313
 20
580.171140779527
 30
0.0
 10
63.97775635114904
 20
580.1821539713328
 30
0.0
 10
64.00959196128584
 20
580.187034004757
 30
0.0
  0
SPLINE
  5
340
330
1F
100
AcDbEntity
  8
0
  6
CONTINUOUS
 62
     7
100
AcDbSpline
210
0.0
220
0.0
230
1.0
 70
     8
 71
     3
 72
     9
 73
     5
 74
     0
 42
0.00000001
 43
0.00000001
 40
0.0
 40
0.0
 40
0.0
 40
0.0
 40
0.5546959762779875
 40
1.0
 40
1.0
 40
1.0
 40
1.0
 10
215.5390978101704
 20
580.187034004757
 30
0.0
 10
215.5890387784127
 20
580.1793830840223
 30
0.0
 10
215.6790718242216
 20
580.1655900855836
 30
0.0
 10
216.1877080127983
 20
580.086481842786
 30
0.0
 10
216.4142057541821
 20
580.0512546239587
 30
0.0
  0
SPLINE
  5
341
330
1F
100
AcDbEntity
  8
0
  6
CONTINUOUS
 62
     7
100
AcDbSpline
210
0.0
220
0.0
230
1.0
 70
     8
 71
     3
 72
     9
 73
     5
 74
     0
 42
0.00000001
 43
0.00000001
 40
0.0
 40
0.0
 40
0.0
 40
0.0
 40
0.5568919973007546
 40
1.0
 40
1.0
 40
1.0
 40
1.0
 10
307.8399524334882
 20
488.6255079446527
 30
0.0
 10
307.8828350745056
 20
488.3495729013897
 30
0.0
 10
307.9598385890565
 20
487.8540817745636
 30
0.0
 10
307.9708517808621
 20
487.7822356107777
 30
0.0
 10
307.9757318142865
 20
487.750400000641
 30
0.0
  0
SPLINE
  5
342
330
1F
100
AcDbEntity
  8
0
  6
CONTINUOUS
 62
     7
100
AcDbSpline
210
0.0
220
0.0
230
1.0
 70
     8
 71
     3
 72
     9
 73
     5
 74
     0
 42
0.00000001
 43
0.00000001
 40
0.0
 40
0.0
 40
0.0
 40
0.0
 40
0.5546959762779875
 40
1.0
 40
1.0
 40
1.0
 40
1.0
 10
-28.42704204283023
 20
487.750400000641
 30
0.0
 10
-28.41939112209552
 20
487.8003409688832
 30
0.0
 10
-28.40559812365689
 20
487.8903740146921
 30
0.0
 10
-28.32648988085923
 20
488.3990102032688
 30
0.0
 10
-28.29126266203189
 20
488.6255079446527
 30
0.0
  0
SPLINE
  5
343
330
1F
100
AcDbEntity
  8
0
  6
CONTINUOUS
 62
     7
100
AcDbSpline
210
0.0
220
0.0
230
1.0
 70
     8
 71
     3
 72
     9
 73
     5
 74
     0
 42
0.00000001
 43
0.00000001
 40
0.0
 40
0.0
 40
0.0
 40
0.0
 40
0.5568919973007546
 40
1.0
 40
1.0
 40
1.0
 40
1.0
 10
-28.29126266203189
 20
335.3457862077447
 30
0.0
 10
-28.33414530304934
 20
335.6217212510077
 30
0.0
 10
-28.41114881760026
 20
336.1172123778337
 30
0.0
 10
-28.42216200940592
 20
336.1890585416195
 30
0.0
 10
-28.42704204283023
 20
336.2208941517564
 30
0.0
  0
SPLINE
  5
344
330
1F
100
AcDbEntity
  8
0
  6
CONTINUOUS
 62
     7
100
AcDbSpline
210
0.0
220
0.0
230
1.0
 70
     8
 71
     3
 72
     9
 73
     5
 74
     0
 42
0.00000001
 43
0.00000001
 40
0.0
 40
0.0
 40
0.0
 40
0.0
 40
0.5546959762779875
 40
1.0
 40
1.0
 40
1.0
 40
1.0
 10
64.00959196128584
 20
243.7842601476403
 30
0.0
 10
63.95965099304357
 20
243.791911068375
 30
0.0
 10
63.86961794723467
 20
243.8057040668137
 30
0.0
 10
63.36098175865798
 20
243.8848123096113
 30
0.0
 10
63.13448401727415
 20
243.9200395284387
 30
0.0
  0
SPLINE
  5
345
330
1F
100
AcDbEntity
  8
0
  6
CONTINUOUS
 62
     7
100
AcDbSpline
210
0.0
220
0.0
230
1.0
 70
     8
 71
     3
 72
     9
 73
     5
 74
     0
 42
0.00000001
 43
0.00000001
 40
0.0
 40
0.0
 40
0.0
 40
0.0
 40
0.5568919973007546
 40
1.0
 40
1.0
 40
1.0
 40
1.0
 10
216.4142057541821
 20
243.9200395284387
 30
0.0
 10
216.1382707109192
 20
243.8771568874212
 30
0.0
 10
215.6427795840931
 20
243.8001533728703
 30
0.0
 10
215.5709334203072
 20
243.7891401810646
 30
0.0
 10
215.5390978101704
 20
243.7842601476403
 30
0.0
  0
SPLINE
  5
346
330
1F
100
AcDbEntity
  8
0
  6
CONTINUOUS
 62
     7
100
AcDbSpline
210
0.0
220
0.0
230
1.0
 70
     8
 71
     3
 72
    10
 73
     6
 74
     0
 42
0.00000001
 43
0.00000001
 40
0.0
 40
0.0
 40
0.0
 40
0.0
 40
0.4311094121184107
 40
0.8289212513178853
 40
1.0
 40
1.0
 40
1.0
 40
1.0
 10
57.51244726218916
 20
579.1407936750146
 30
0.0
 10
58.43868746793682
 20
579.2946455678815
 30
0.0
 10
60.2196279178252
 20
579.5904663037965
 30
0.0
 10
62.13769705290577
 20
579.8952709935913
 30
0.0
 10
62.90402978337482
 20
580.0151916643472
 30
0.0
 10
63.13448401727415
 20
580.0512546239587
 30
0.0
  0
SPLINE
  5
347
330
1F
100
AcDbEntity
  8
0
  6
CONTINUOUS
 62
     7
100
AcDbSpline
210
0.0
220
0.0
230
1.0
 70
     8
 71
     3
 72
    10
 73
     6
 74
     0
 42
0.00000001
 43
0.00000001
 40
0.0
 40
0.0
 40
0.0
 40
0.0
 40
0.4311094121184107
 40
0.8289212513178853
 40
1.0
 40
1.0
 40
1.0
 40
1.0
 10
306.9294914845441
 20
494.2475446997377
 30
0.0
 10
307.0833433774109
 20
493.32130449399
 30
0.0
 10
307.3791641133259
 20
491.5403640441016
 30
0.0
 10
307.6839688031208
 20
489.622294909021
 30
0.0
 10
307.8038894738767
 20
488.855962178552
 30
0.0
 10
307.8399524334882
 20
488.6255079446527
 30
0.0
  0
SPLINE
  5
348
330
1F
100
AcDbEntity
  8
0
  6
CONTINUOUS
 62
     7
100
AcDbSpline
210
0.0
220
0.0
230
1.0
 70
     8
 71
     3
 72
    10
 73
     6
 74
     0
 42
0.00000001
 43
0.00000001
 40
0.0
 40
0.0
 40
0.0
 40
0.0
 40
0.4311094121184107
 40
0.8289212513178853
 40
1.0
 40
1.0
 40
1.0
 40
1.0
 10
-27.38080171308779
 20
329.7237494526597
 30
0.0
 10
-27.53465360595464
 20
330.6499896584074
 30
0.0
 10
-27.83047434186969
 20
332.4309301082957
 30
0.0
 10
-28.13527903166449
 20
334.3489992433763
 30
0.0
 10
-28.25519970242049
 20
335.1153319738453
 30
0.0
 10
-28.29126266203189
 20
335.3457862077447
 30
0.0
  0
SPLINE
  5
349
330
1F
100
AcDbEntity
  8
0
  6
CONTINUOUS
 62
     7
100
AcDbSpline
210
0.0
220
0.0
230
1.0
 70
     8
 71
     3
 72
    10
 73
     6
 74
     0
 42
0.00000001
 43
0.00000001
 40
0.0
 40
0.0
 40
0.0
 40
0.0
 40
0.4311094121184107
 40
0.8289212513178853
 40
1.0
 40
1.0
 40
1.0
 40
1.0
 10
222.0362425092671
 20
244.8305004773827
 30
0.0
 10
221.1100023035194
 20
244.6766485845159
 30
0.0
 10
219.3290618536311
 20
244.3808278486009
 30
0.0
 10
217.4109927185505
 20
244.0760231588061
 30
0.0
 10
216.6446599880814
 20
243.95610248805
 30
0.0
 10
216.4142057541821
 20
243.9200395284387
 30
0.0
  0
SPLINE
  5
34A
330
1F
100
AcDbEntity
  8
0
  6
CONTINUOUS
 62
     7
100
AcDbSpline
210
0.0
220
0.0
230
1.0
 70
     8
 71
     3
 72
    10
 73
     6
 74
     0
 42
0.00000001
 43
0.00000001
 40
0.0
 40
0.0
 40
0.0
 40
0.0
 40
0.3127332807631187
 40
0.6244278319846872
 40
1.0
 40
1.0
 40
1.0
 40
1.0
 10
-28.29126266203189
 20
488.6255079446527
 30
0.0
 10
-28.22083271622613
 20
489.0747160956034
 30
0.0
 10
-28.08020675451528
 20
489.9716403728135
 30
0.0
 10
-27.76037675304174
 20
491.9657289446001
 30
0.0
 10
-27.5149309987113
 20
493.441226356998
 30
0.0
 10
-27.38080171308782
 20
494.2475446997377
 30
0.0
  0
SPLINE
  5
34B
330
1F
100
AcDbEntity
  8
0
  6
CONTINUOUS
 62
     7
100
AcDbSpline
210
0.0
220
0.0
230
1.0
 70
     8
 71
     3
 72
    10
 73
     6
 74
     0
 42
0.00000001
 43
0.00000001
 40
0.0
 40
0.0
 40
0.0
 40
0.0
 40
0.3127332807631187
 40
0.6244278319846872
 40
1.0
 40
1.0
 40
1.0
 40
1.0
 10
216.4142057541821
 20
580.0512546239587
 30
0.0
 10
216.8634139051328
 20
579.9808246781529
 30
0.0
 10
217.7603381823429
 20
579.840198716442
 30
0.0
 10
219.7544267541295
 20
579.5203687149686
 30
0.0
 10
221.2299241665274
 20
579.2749229606382
 30
0.0
 10
222.0362425092671
 20
579.1407936750146
 30
0.0
  0
SPLINE
  5
34C
330
1F
100
AcDbEntity
  8
0
  6
CONTINUOUS
 62
     7
100
AcDbSpline
210
0.0
220
0.0
230
1.0
 70
     8
 71
     3
 72
    10
 73
     6
 74
     0
 42
0.00000001
 43
0.00000001
 40
0.0
 40
0.0
 40
0.0
 40
0.0
 40
0.3127332807631187
 40
0.6244278319846872
 40
1.0
 40
1.0
 40
1.0
 40
1.0
 10
307.8399524334882
 20
335.3457862077447
 30
0.0
 10
307.7695224876824
 20
334.8965780567939
 30
0.0
 10
307.6288965259715
 20
333.9996537795839
 30
0.0
 10
307.309066524498
 20
332.0055652077973
 30
0.0
 10
307.0636207701676
 20
330.5300677953994
 30
0.0
 10
306.9294914845441
 20
329.7237494526597
 30
0.0
  0
SPLINE
  5
34D
330
1F
100
AcDbEntity
  8
0
  6
CONTINUOUS
 62
     7
100
AcDbSpline
210
0.0
220
0.0
230
1.0
 70
     8
 71
     3
 72
    10
 73
     6
 74
     0
 42
0.00000001
 43
0.00000001
 40
0.0
 40
0.0
 40
0.0
 40
0.0
 40
0.3127332807631187
 40
0.6244278319846872
 40
1.0
 40
1.0
 40
1.0
 40
1.0
 10
63.13448401727415
 20
243.9200395284387
 30
0.0
 10
62.68527586632343
 20
243.9904694742444
 30
0.0
 10
61.78835158911336
 20
244.1310954359553
 30
0.0
 10
59.79426301732673
 20
244.4509254374288
 30
0.0
 10
58.31876560492886
 20
244.6963711917593
 30
0.0
 10
57.51244726218914
 20
244.8305004773827
 30
0.0
  0
ARC
  5
34E
330
1F
100
AcDbEntity
  8
0
  6
CONTINUOUS
 62
     7
100
AcDbCircle
 10
139.7743448857
 20
88.9959314943
 30
0.0
 40
496.9999999999999
100
AcDbArc
 50
79.8179325968
 51
80.4727370637
  0
ARC
  5
34F
330
1F
100
AcDbEntity
  8
0
  6
CONTINUOUS
 62
     7
100
AcDbCircle
 10
139.7743448857
 20
88.9959314943
 30
0.0
 40
497.0
100
AcDbArc
 50
99.5272629363
 51
100.1820674032
  0
ARC
  5
350
330
1F
100
AcDbEntity
  8
0
  6
CONTINUOUS
 62
     7
100
AcDbCircle
 10
69.0636667671
 20
482.6963251949
 30
0.0
 40
97.00000000000001
100
AcDbArc
 50
100.1820674032
 51
169.8179325968
  0
CIRCLE
  5
351
330
1F
100
AcDbEntity
  8
0
  6
CONTINUOUS
 62
     7
100
AcDbCircle
 10
8.9595903662
 20
542.8004015957
 30
0.0
 40
6.0
  0
ARC
  5
352
330
1F
100
AcDbEntity
  8
0
  6
CONTINUOUS
 62
     7
100
AcDbCircle
 10
210.4850230044
 20
482.6963251949
 30
0.0
 40
97.00000000000007
100
AcDbArc
 50
10.1820674032
 51
79.8179325968
  0
CIRCLE
  5
353
330
1F
100
AcDbEntity
  8
0
  6
CONTINUOUS
 62
     7
100
AcDbCircle
 10
270.5890994052
 20
542.8004015957
 30
0.0
 40
6.0
  0
ARC
  5
354
330
1F
100
AcDbEntity
  8
0
  6
CONTINUOUS
 62
     7
100
AcDbCircle
 10
462.7640604677
 20
411.9856470762
 30
0.0
 40
497.0000000000001
100
AcDbArc
 50
169.8179325968
 51
170.4727370637
  0
ARC
  5
355
330
1F
100
AcDbEntity
  8
0
  6
CONTINUOUS
 62
     7
100
AcDbCircle
 10
-183.2153706962
 20
411.9856470762
 30
0.0
 40
497.0000000000001
100
AcDbArc
 50
9.5272629363
 51
10.1820674032
  0
ARC
  5
356
330
1F
100
AcDbEntity
  8
0
  6
CONTINUOUS
 62
     7
100
AcDbCircle
 10
462.7640604677
 20
411.9856470762
 30
0.0
 40
497.0000000000001
100
AcDbArc
 50
189.5272629363
 51
190.1820674032
  0
CIRCLE
  5
357
330
1F
100
AcDbEntity
  8
0
  6
CONTINUOUS
 62
     7
100
AcDbCircle
 10
8.9595903662
 20
281.1708925567
 30
0.0
 40
6.000000000000006
  0
CIRCLE
  5
358
330
1F
100
AcDbEntity
  8
0
  6
CONTINUOUS
 62
     7
100
AcDbCircle
 10
25.8405914757
 20
266.2320885128
 30
0.0
 40
2.0
  0
ARC
  5
359
330
1F
100
AcDbEntity
  8
0
  6
CONTINUOUS
 62
     7
100
AcDbCircle
 10
210.4850230044
 20
341.2749689575
 30
0.0
 40
97.00000000000007
100
AcDbArc
 50
280.1820674032
 51
349.8179325968
  0
ARC
  5
35A
330
1F
100
AcDbEntity
  8
0
  6
CONTINUOUS
 62
     7
100
AcDbCircle
 10
69.0636667671
 20
341.2749689575
 30
0.0
 40
96.99999999999999
100
AcDbArc
 50
190.1820674032
 51
259.8179325968
  0
ARC
  5
35B
330
1F
100
AcDbEntity
  8
0
  6
CONTINUOUS
 62
     7
100
AcDbCircle
 10
-183.2153706962
 20
411.9856470762
 30
0.0
 40
497.0000000000001
100
AcDbArc
 50
349.8179325968
 51
350.4727370637
  0
CIRCLE
  5
35C
330
1F
100
AcDbEntity
  8
0
  6
CONTINUOUS
 62
     7
100
AcDbCircle
 10
270.5890994052
 20
281.1708925567
 30
0.0
 40
6.0
  0
ARC
  5
35D
330
1F
100
AcDbEntity
  8
0
  6
CONTINUOUS
 62
     7
100
AcDbCircle
 10
139.7743448857
 20
734.9753626581
 30
0.0
 40
497.0000000000001
100
AcDbArc
 50
259.8179325968
 51
260.4727370637
  0
ARC
  5
35E
330
1F
100
AcDbEntity
  8
0
  6
CONTINUOUS
 62
     7
100
AcDbCircle
 10
139.7743448857
 20
734.9753626581
 30
0.0
 40
497.0000000000001
100
AcDbArc
 50
279.5272629363
 51
280.1820674032
  0
ARC
  5
35F
330
1F
100
AcDbEntity
  8
0
  6
CONTINUOUS
 62
     7
100
AcDbCircle
 10
210.4850230044
 20
341.2749689575
 30
0.0
 40
100.0
100
AcDbArc
 50
280.1820674032
 51
349.8179325968
  0
ARC
  5
360
330
1F
100
AcDbEntity
  8
0
  6
CONTINUOUS
 62
     7
100
AcDbCircle
 10
139.7743448857
 20
734.9753626581
 30
0.0
 40
500.0000000000001
100
AcDbArc
 50
259.8179325968
 51
265.5263851084
  0
ARC
  5
361
330
1F
100
AcDbEntity
  8
0
  6
CONTINUOUS
 62
     7
100
AcDbCircle
 10
139.7743448857
 20
734.9753626581
 30
0.0
 40
500.0000000000001
100
AcDbArc
 50
267.0192751214
 51
272.9807248786
  0
ARC
  5
362
330
1F
100
AcDbEntity
  8
0
  6
CONTINUOUS
 62
     7
100
AcDbCircle
 10
139.7743448857
 20
734.9753626581
 30
0.0
 40
500.0000000000001
100
AcDbArc
 50
274.4736148916
 51
280.1820674032
  0
ARC
  5
363
330
1F
100
AcDbEntity
  8
0
  6
CONTINUOUS
 62
     7
100
AcDbCircle
 10
69.0636667671
 20
341.2749689575
 30
0.0
 40
100.0
100
AcDbArc
 50
190.1820674032
 51
259.8179325968
  0
ARC
  5
364
330
1F
100
AcDbEntity
  8
0
  6
CONTINUOUS
 62
     7
100
AcDbCircle
 10
462.7640604677
 20
411.9856470762
 30
0.0
 40
500.0000000000001
100
AcDbArc
 50
169.8179325968
 51
175.1239751304
  0
ARC
  5
365
330
1F
100
AcDbEntity
  8
0
  6
CONTINUOUS
 62
     7
100
AcDbCircle
 10
462.7640604677
 20
411.9856470762
 30
0.0
 40
500.0000000000001
100
AcDbArc
 50
184.8760248696
 51
190.1820674032
  0
ARC
  5
366
330
1F
100
AcDbEntity
  8
0
  6
CONTINUOUS
 62
     7
100
AcDbCircle
 10
69.0636667671
 20
482.6963251949
 30
0.0
 40
100.0000000000001
100
AcDbArc
 50
100.1820674032
 51
169.8179325968
  0
ARC
  5
367
330
1F
100
AcDbEntity
  8
0
  6
CONTINUOUS
 62
     7
100
AcDbCircle
 10
210.4850230044
 20
482.6963251949
 30
0.0
 40
100.0000000000001
100
AcDbArc
 50
10.1820674032
 51
79.8179325968
  0
ARC
  5
368
330
1F
100
AcDbEntity
  8
0
  6
CONTINUOUS
 62
     7
100
AcDbCircle
 10
-183.2153706962
 20
411.9856470762
 30
0.0
 40
500.0000000000001
100
AcDbArc
 50
349.8179325968
 51
355.1239751304
  0
ARC
  5
369
330
1F
100
AcDbEntity
  8
0
  6
CONTINUOUS
 62
     7
100
AcDbCircle
 10
-183.2153706962
 20
411.9856470762
 30
0.0
 40
500.0000000000001
100
AcDbArc
 50
4.8760248696
 51
10.1820674032
  0
ARC
  5
36A
330
1F
100
AcDbEntity
  8
0
  6
CONTINUOUS
 62
     7
100
AcDbCircle
 10
139.7743448857
 20
88.9959314943
 30
0.0
 40
500.0000000000001
100
AcDbArc
 50
79.8179325968
 51
85.5263851084
  0
ARC
  5
36B
330
1F
100
AcDbEntity
  8
0
  6
CONTINUOUS
 62
     7
100
AcDbCircle
 10
139.7743448857
 20
88.9959314943
 30
0.0
 40
500.0000000000001
100
AcDbArc
 50
87.0192751214
 51
92.9807248786
  0
ARC
  5
36C
330
1F
100
AcDbEntity
  8
0
  6
CONTINUOUS
 62
     7
100
AcDbCircle
 10
139.7743448857
 20
88.9959314943
 30
0.0
 40
500.0000000000001
100
AcDbArc
 50
94.4736148916
 51
100.1820674032
  0
SPLINE
  5
36D
330
1F
100
AcDbEntity
  8
0
  6
CONTINUOUS
 62
     7
100
AcDbSpline
210
0.0
220
0.0
230
1.0
 70
     8
 71
     3
 72
    36
 73
    32
 74
     0
 42
0.00000001
 43
0.00000001
 40
0.0
 40
0.0
 40
0.0
 40
0.0
 40
0.1250000000000026
 40
0.1250000000000026
 40
0.1875000000000035
 40
0.1875000000000035
 40
0.2500000000000045
 40
0.2500000000000045
 40
0.3125000000000054
 40
0.3125000000000054
 40
0.3750000000000064
 40
0.3750000000000064
 40
0.5000000000000081
 40
0.5000000000000081
 40
0.5312500000000082
 40
0.5312500000000082
 40
0.5625000000000083
 40
0.5625000000000083
 40
0.6250000000000078
 40
0.6250000000000078
 40
0.6875000000000073
 40
0.6875000000000073
 40
0.7187500000000068
 40
0.7187500000000068
 40
0.7500000000000061
 40
0.7500000000000061
 40
0.8750000000000034
 40
0.8750000000000034
 40
0.9375000000000017
 40
0.9375000000000017
 40
1.0
 40
1.0
 40
1.0
 40
1.0
 10
197.2743448857281
 20
441.662104136521
 30
0.0
 10
196.0218591355743
 20
441.4888371196683
 30
0.0
 10
194.7709135715454
 20
441.4574463213921
 30
0.0
 10
192.8967832327541
 20
441.6196674010814
 30
0.0
 10
192.2700492127566
 20
441.7094535351997
 30
0.0
 10
191.0281190432597
 20
441.9607341030515
 30
0.0
 10
190.4194896328763
 20
442.1206010913783
 30
0.0
 10
189.2262528828967
 20
442.506982002112
 30
0.0
 10
188.6416467009376
 20
442.7334991472312
 30
0.0
 10
187.4967408536781
 20
443.2539650729096
 30
0.0
 10
186.9344358397339
 20
443.5491236591485
 30
0.0
 10
185.2990322835777
 20
444.5329433680797
 30
0.0
 10
184.3027488901471
 20
445.3017789737778
 30
0.0
 10
183.1722559055246
 20
446.4008663363836
 30
0.0
 10
182.9519705678117
 20
446.6276703242854
 30
0.0
 10
182.5232465437965
 20
447.095515872827
 30
0.0
 10
182.3141405515591
 20
447.3374074454471
 30
0.0
 10
181.7110954972432
 20
448.0775292552238
 30
0.0
 10
181.3411815573148
 20
448.5898403395923
 30
0.0
 10
180.6634824092916
 20
449.6510178652046
 30
0.0
 10
180.3557028117044
 20
450.1998876077167
 30
0.0
 10
179.9409059678642
 20
451.0507709518992
 30
0.0
 10
179.8104709834439
 20
451.3390060946716
 30
0.0
 10
179.5655389929893
 20
451.9248538729675
 30
0.0
 10
179.4508717317069
 20
452.2231077294609
 30
0.0
 10
178.9247237656859
 20
453.7191718013766
 30
0.0
 10
178.6469659933845
 20
454.9440268561688
 30
0.0
 10
178.439165826101
 20
456.8221517758908
 30
0.0
 10
178.405192316273
 20
457.4580291788604
 30
0.0
 10
178.4100481529122
 20
458.7246463298933
 30
0.0
 10
178.4484079088294
 20
459.3560824243817
 30
0.0
 10
178.5226557035496
 20
459.9856470761986
 30
0.0
  0
ARC
  5
36E
330
1F
100
AcDbEntity
  8
0
  6
CONTINUOUS
 62
     7
100
AcDbCircle
 10
141.1010491155
 20
847.7713470207
 30
0.0
 40
409.9757990121225
100
AcDbArc
 50
277.875219042
 51
279.1265272098
  0
ARC
  5
36F
330
1F
100
AcDbEntity
  8
0
  6
CONTINUOUS
 62
     7
100
AcDbCircle
 10
141.3617188104
 20
-20.7224866108
 30
0.0
 40
468.2094524325075
100
AcDbArc
 50
80.669222571
 51
82.0487391135
  0
SPLINE
  5
370
330
1F
100
AcDbEntity
  8
0
  6
CONTINUOUS
 62
     7
100
AcDbSpline
210
0.0
220
0.0
230
1.0
 70
     8
 71
     3
 72
    36
 73
    32
 74
     0
 42
0.00000001
 43
0.00000001
 40
0.0
 40
0.0
 40
0.0
 40
0.0
 40
0.1250000000000008
 40
0.1250000000000008
 40
0.1875000000000009
 40
0.1875000000000009
 40
0.250000000000001
 40
0.250000000000001
 40
0.3750000000000012
 40
0.3750000000000012
 40
0.4062500000000014
 40
0.4062500000000014
 40
0.4375000000000016
 40
0.4375000000000016
 40
0.5000000000000023
 40
0.5000000000000023
 40
0.6250000000000036
 40
0.6250000000000036
 40
0.6562500000000031
 40
0.6562500000000031
 40
0.6875000000000026
 40
0.6875000000000026
 40
0.7500000000000017
 40
0.7500000000000017
 40
0.8125000000000007
 40
0.8125000000000007
 40
0.8437500000000008
 40
0.8437500000000008
 40
0.8750000000000009
 40
0.8750000000000009
 40
1.0
 40
1.0
 40
1.0
 40
1.0
 10
242.8845317764074
 20
459.9856470761986
 30
0.0
 10
242.6705764636939
 20
458.5045430900331
 30
0.0
 10
242.3079735154812
 20
457.0761408866846
 30
0.0
 10
241.5573351092815
 20
455.006771714511
 30
0.0
 10
241.2723640662799
 20
454.3292950392252
 30
0.0
 10
240.6322311251459
 20
452.9991968981632
 30
0.0
 10
240.2758208053944
 20
452.3453480410284
 30
0.0
 10
239.1247201685268
 20
450.4631424864865
 30
0.0
 10
238.2428743012217
 20
449.2988424329583
 30
0.0
 10
237.0008012215582
 20
447.9539482848161
 30
0.0
 10
236.7453312824378
 20
447.6905465948219
 30
0.0
 10
236.220092995516
 20
447.1750451243344
 30
0.0
 10
235.9498059061909
 20
446.9225364671183
 30
0.0
 10
235.1255529900046
 20
446.1895729125194
 30
0.0
 10
234.5560434800136
 20
445.7312891199206
 30
0.0
 10
232.7892418814951
 20
444.4448523165721
 30
0.0
 10
231.5342559306847
 20
443.7042330429144
 30
0.0
 10
229.8660816036881
 20
442.9293440308532
 30
0.0
 10
229.52691585977
 20
442.7818247918335
 30
0.0
 10
228.845644584662
 20
442.5052251283329
 30
0.0
 10
228.5027259944845
 20
442.3757360980644
 30
0.0
 10
227.4672187481102
 20
442.0133290603575
 30
0.0
 10
226.767895155056
 20
441.8064070465894
 30
0.0
 10
225.3513848309944
 20
441.4615365089162
 30
0.0
 10
224.6341989223629
 20
441.3235847582346
 30
0.0
 10
223.5446977738333
 20
441.1696651121735
 30
0.0
 10
223.1792393954481
 20
441.1272098167773
 30
0.0
 10
222.4436300744198
 20
441.0604308089223
 30
0.0
 10
222.0727437246105
 20
441.0361068807193
 30
0.0
 10
220.2224607016663
 20
440.9616495104618
 30
0.0
 10
218.7462841989098
 20
441.0500930582518
 30
0.0
 10
217.2743448857282
 20
441.2919765077897
 30
0.0
  0
ARC
  5
371
330
1F
100
AcDbEntity
  8
0
  6
CONTINUOUS
 62
     7
100
AcDbCircle
 10
566.1354733111
 20
413.3035381393
 30
0.0
 40
326.6043334435549
100
AcDbArc
 50
169.885598603
 51
171.782473773
  0
SPLINE
  5
372
330
1F
100
AcDbEntity
  8
0
  6
CONTINUOUS
 62
     7
100
AcDbSpline
210
0.0
220
0.0
230
1.0
 70
     8
 71
     3
 72
    18
 73
    14
 74
     0
 42
0.00000001
 43
0.00000001
 40
0.0
 40
0.0
 40
0.0
 40
0.0
 40
0.0625000000000003
 40
0.0625000000000003
 40
0.1250000000000006
 40
0.1250000000000006
 40
0.2500000000000004
 40
0.2500000000000004
 40
0.5000000000000002
 40
0.5000000000000002
 40
0.7500000000000001
 40
0.7500000000000001
 40
1.0
 40
1.0
 40
1.0
 40
1.0
 10
234.9901364279999
 20
521.3747669885207
 30
0.0
 10
235.5764964950075
 20
520.4341314784107
 30
0.0
 10
236.1422129039033
 20
519.4769151209513
 30
0.0
 10
237.2316495969129
 20
517.5287463492193
 30
0.0
 10
237.7512619202161
 20
516.545096732721
 30
0.0
 10
239.2346803373339
 20
513.5698298194966
 30
0.0
 10
240.1241458184802
 20
511.5523233693146
 30
0.0
 10
242.5033833628819
 20
505.400907702655
 30
0.0
 10
243.7067289416612
 20
501.1674543078504
 30
0.0
 10
245.3341080034532
 20
492.4399345132433
 30
0.0
 10
245.7336568532535
 20
488.0796564150254
 30
0.0
 10
245.7583409786593
 20
479.3652052473249
 30
0.0
 10
245.3832539266769
 20
475.0110363684441
 30
0.0
 10
244.6068759824626
 20
470.6598904789683
 30
0.0
  0
SPLINE
  5
373
330
1F
100
AcDbEntity
  8
0
  6
CONTINUOUS
 62
     7
100
AcDbSpline
210
0.0
220
0.0
230
1.0
 70
     8
 71
     3
 72
    50
 73
    46
 74
     0
 42
0.00000001
 43
0.00000001
 40
0.0
 40
0.0
 40
0.0
 40
0.0
 40
0.0624999999999994
 40
0.0624999999999994
 40
0.0937499999999992
 40
0.0937499999999992
 40
0.1249999999999989
 40
0.1249999999999989
 40
0.1874999999999979
 40
0.1874999999999979
 40
0.2187499999999975
 40
0.2187499999999975
 40
0.2499999999999971
 40
0.2499999999999971
 40
0.3124999999999968
 40
0.3124999999999968
 40
0.3749999999999964
 40
0.3749999999999964
 40
0.4062499999999961
 40
0.4062499999999961
 40
0.4374999999999957
 40
0.4374999999999957
 40
0.4999999999999957
 40
0.4999999999999957
 40
0.5624999999999956
 40
0.5624999999999956
 40
0.5937499999999956
 40
0.5937499999999956
 40
0.6249999999999954
 40
0.6249999999999954
 40
0.6874999999999954
 40
0.6874999999999954
 40
0.718749999999996
 40
0.718749999999996
 40
0.7499999999999964
 40
0.7499999999999964
 40
0.8124999999999972
 40
0.8124999999999972
 40
0.8749999999999981
 40
0.8749999999999981
 40
0.9062499999999986
 40
0.9062499999999986
 40
0.937499999999999
 40
0.937499999999999
 40
1.0
 40
1.0
 40
1.0
 40
1.0
 10
186.9637062871853
 20
515.6599850729139
 30
0.0
 10
187.4298839269866
 20
516.7854613415783
 30
0.0
 10
187.9672317090512
 20
517.8814741858411
 30
0.0
 10
188.8817581137091
 20
519.4805436162679
 30
0.0
 10
189.2051532853818
 20
520.0063914320763
 30
0.0
 10
189.8794797971245
 20
521.028935971029
 30
0.0
 10
190.2313957751945
 20
521.5274649245241
 30
0.0
 10
191.3305264802396
 20
522.9855746701928
 30
0.0
 10
192.1209413647386
 20
523.9078352268248
 30
0.0
 10
193.392973723997
 20
525.2165801807564
 30
0.0
 10
193.8314318421876
 20
525.6403482916498
 30
0.0
 10
194.7377988732491
 20
526.4624468510841
 30
0.0
 10
195.2071621816119
 20
526.8619172973492
 30
0.0
 10
196.6502110892606
 20
528.0125373976508
 30
0.0
 10
197.6522581237853
 20
528.7116495312894
 30
0.0
 10
199.7348034151022
 20
529.9767018569808
 30
0.0
 10
200.815296833563
 20
530.5426499124964
 30
0.0
 10
202.4968660862016
 20
531.2884045047244
 30
0.0
 10
203.0675604393452
 20
531.5197389374435
 30
0.0
 10
204.230071139689
 20
531.9466035406695
 30
0.0
 10
204.8222803853721
 20
532.1420388579868
 30
0.0
 10
206.6034115617497
 20
532.664588409387
 30
0.0
 10
207.8058215248745
 20
532.9318036450217
 30
0.0
 10
210.2408134322369
 20
533.3032743543391
 30
0.0
 10
211.4733858587541
 20
533.4075799348286
 30
0.0
 10
213.346336449424
 20
533.434232669633
 30
0.0
 10
213.9773113199066
 20
533.4212199344369
 30
0.0
 10
215.2341911177253
 20
533.3502906083266
 30
0.0
 10
215.8584174525199
 20
533.2926848994977
 30
0.0
 10
217.7186074302242
 20
533.0541974387432
 30
0.0
 10
218.9421437345223
 20
532.8079688300726
 30
0.0
 10
220.7520603578544
 20
532.304971422618
 30
0.0
 10
221.3511195185226
 20
532.1149508535327
 30
0.0
 10
222.5404630901107
 20
531.6886935466346
 30
0.0
 10
223.1333544838601
 20
531.4512535764992
 30
0.0
 10
224.8776151835827
 20
530.6755732618374
 30
0.0
 10
225.9895549130475
 20
530.0777049603121
 30
0.0
 10
228.1140931581592
 20
528.7243688019622
 30
0.0
 10
229.1266974885781
 20
527.9689101763668
 30
0.0
 10
230.5683539826133
 20
526.7131688433666
 30
0.0
 10
231.0354499527334
 20
526.2741775327917
 30
0.0
 10
231.9271551115086
 20
525.370975766213
 30
0.0
 10
232.353990341613
 20
524.9049043680511
 30
0.0
 10
233.5788034988819
 20
523.46431065783
 30
0.0
 10
234.3213595446317
 20
522.4476150902807
 30
0.0
 10
234.9901364279999
 20
521.3747669885207
 30
0.0
  0
SPLINE
  5
374
330
1F
100
AcDbEntity
  8
0
  6
CONTINUOUS
 62
     7
100
AcDbSpline
210
0.0
220
0.0
230
1.0
 70
     8
 71
     3
 72
    18
 73
    14
 74
     0
 42
0.00000001
 43
0.00000001
 40
0.0
 40
0.0
 40
0.0
 40
0.0
 40
0.2499999999999998
 40
0.2499999999999998
 40
0.4999999999999996
 40
0.4999999999999996
 40
0.6249999999999999
 40
0.6249999999999999
 40
0.6874999999999996
 40
0.6874999999999996
 40
0.7499999999999993
 40
0.7499999999999993
 40
1.0
 40
1.0
 40
1.0
 40
1.0
 10
180.3157885699463
 20
472.9806578885546
 30
0.0
 10
179.9710264353039
 20
476.6790434728127
 30
0.0
 10
179.8715586400592
 20
480.3484407088591
 30
0.0
 10
180.1255045769114
 20
487.6331071019735
 30
0.0
 10
180.4791289540468
 20
491.2483528960834
 30
0.0
 10
181.3375222109396
 20
496.6314880199279
 30
0.0
 10
181.6784615402216
 20
498.4192257130325
 30
0.0
 10
182.2718416995032
 20
501.0908249056285
 30
0.0
 10
182.4834959090667
 20
501.9802488963635
 30
0.0
 10
182.9311163029435
 20
503.7443337731329
 30
0.0
 10
183.1673721398281
 20
504.6204018833085
 30
0.0
 10
184.4093623554642
 20
508.9715475413611
 30
0.0
 10
185.5965698736358
 20
512.359355746006
 30
0.0
 10
186.9637062871853
 20
515.6599850729139
 30
0.0
  0
SPLINE
  5
375
330
1F
100
AcDbEntity
  8
0
  6
CONTINUOUS
 62
     7
100
AcDbSpline
210
0.0
220
0.0
230
1.0
 70
     8
 71
     3
 72
     8
 73
     4
 74
     0
 42
0.00000001
 43
0.00000001
 40
0.0
 40
0.0
 40
0.0
 40
0.0
 40
1.0
 40
1.0
 40
1.0
 40
1.0
 10
179.9263387586109
 20
470.6598904789683
 30
0.0
 10
180.0391202633526
 20
471.4368214086047
 30
0.0
 10
180.1689736072283
 20
472.2104040107566
 30
0.0
 10
180.3157885699462
 20
472.9806578885546
 30
0.0
  0
ARC
  5
376
330
1F
100
AcDbEntity
  8
0
  6
CONTINUOUS
 62
     7
100
AcDbCircle
 10
578.0483907635
 20
412.8765728181
 30
0.0
 40
402.2935238498445
100
AcDbArc
 50
171.7417733139
 51
173.2751631558
  0
SPLINE
  5
377
330
1F
100
AcDbEntity
  8
0
  6
CONTINUOUS
 62
     7
100
AcDbSpline
210
0.0
220
0.0
230
1.0
 70
     8
 71
     3
 72
    14
 73
    10
 74
     0
 42
0.00000001
 43
0.00000001
 40
0.0
 40
0.0
 40
0.0
 40
0.0
 40
0.5000000000000006
 40
0.5000000000000006
 40
0.7500000000000001
 40
0.7500000000000001
 40
0.8750000000000001
 40
0.8750000000000001
 40
1.0
 40
1.0
 40
1.0
 40
1.0
 10
182.058730979485
 20
352.1857248966995
 30
0.0
 10
182.5084696688976
 20
347.286398744401
 30
0.0
 10
183.3771593897548
 20
342.5173966988947
 30
0.0
 10
185.2504785469481
 20
335.5424965571144
 30
0.0
 10
185.9705653641193
 20
333.2474845902019
 30
0.0
 10
187.1915479163295
 20
329.8492515809825
 30
0.0
 10
187.6220460272688
 20
328.7238971033897
 30
0.0
 10
188.5299452061447
 20
326.4879653829113
 30
0.0
 10
189.0079742024922
 20
325.376026014833
 30
0.0
 10
189.5079911000833
 20
324.2748111094065
 30
0.0
  0
SPLINE
  5
378
330
1F
100
AcDbEntity
  8
0
  6
CONTINUOUS
 62
     7
100
AcDbSpline
210
0.0
220
0.0
230
1.0
 70
     8
 71
     3
 72
    48
 73
    44
 74
     0
 42
0.00000001
 43
0.00000001
 40
0.0
 40
0.0
 40
0.0
 40
0.0
 40
0.0625
 40
0.0625
 40
0.0937500000000005
 40
0.0937500000000005
 40
0.125000000000001
 40
0.125000000000001
 40
0.2500000000000017
 40
0.2500000000000017
 40
0.2812500000000015
 40
0.2812500000000015
 40
0.3125000000000013
 40
0.3125000000000013
 40
0.3750000000000013
 40
0.3750000000000013
 40
0.4375000000000019
 40
0.4375000000000019
 40
0.468750000000002
 40
0.468750000000002
 40
0.5000000000000021
 40
0.5000000000000021
 40
0.5625000000000021
 40
0.5625000000000021
 40
0.5937500000000022
 40
0.5937500000000022
 40
0.6250000000000022
 40
0.6250000000000022
 40
0.6875000000000022
 40
0.6875000000000022
 40
0.7500000000000023
 40
0.7500000000000023
 40
0.7812500000000024
 40
0.7812500000000024
 40
0.8125000000000026
 40
0.8125000000000026
 40
0.8750000000000018
 40
0.8750000000000018
 40
0.9062500000000013
 40
0.9062500000000013
 40
0.937500000000001
 40
0.937500000000001
 40
1.0
 40
1.0
 40
1.0
 40
1.0
 10
189.5079911000833
 20
324.2748111094065
 30
0.0
 10
189.9399286166417
 20
323.3235311951907
 30
0.0
 10
190.4301124873741
 20
322.4019765221346
 30
0.0
 10
191.2527029072502
 20
321.0642223832999
 30
0.0
 10
191.5414964959863
 20
320.6257565455651
 30
0.0
 10
192.1488204957507
 20
319.7640087677137
 30
0.0
 10
192.4665023956623
 20
319.3421225749763
 30
0.0
 10
194.1080488734528
 20
317.2977873753109
 30
0.0
 10
195.602590125482
 20
315.8473894271681
 30
0.0
 10
197.6986296866923
 20
314.2669688543443
 30
0.0
 10
198.1309635131426
 20
313.9617078714861
 30
0.0
 10
199.0105545243931
 20
313.3813615713353
 30
0.0
 10
199.4575633229947
 20
313.1062616571296
 30
0.0
 10
200.8198742766637
 20
312.3254305243876
 30
0.0
 10
201.7563730733338
 20
311.8639848945631
 30
0.0
 10
203.6862264658593
 20
311.0598194737276
 30
0.0
 10
204.6795660586493
 20
310.7170686271182
 30
0.0
 10
206.2146650022763
 20
310.29703675526
 30
0.0
 10
206.733133924012
 20
310.173136226492
 30
0.0
 10
207.7697618039798
 20
309.9608028794647
 30
0.0
 10
208.2897936683757
 20
309.8718289590334
 30
0.0
 10
209.8550134134027
 20
309.6561256332285
 30
0.0
 10
210.905302447345
 20
309.5803859603086
 30
0.0
 10
212.4912375552723
 20
309.5714779066989
 30
0.0
 10
213.0216384375726
 20
309.5860144008772
 30
0.0
 10
214.0860739220746
 20
309.6512695959814
 30
0.0
 10
214.6222827558856
 20
309.7023032599206
 30
0.0
 10
216.2189519248544
 20
309.9097923929463
 30
0.0
 10
217.2642572112888
 20
310.119240607935
 30
0.0
 10
219.3171327901759
 20
310.678429589183
 30
0.0
 10
220.3247076281868
 20
311.0281532669869
 30
0.0
 10
221.8066042529469
 20
311.6623378885027
 30
0.0
 10
222.297047032771
 20
311.892794615809
 30
0.0
 10
223.2612828655676
 20
312.3886249544429
 30
0.0
 10
223.7319708579801
 20
312.6522679713113
 30
0.0
 10
225.1104855342404
 20
313.4893625036581
 30
0.0
 10
225.9849149146538
 20
314.1087704270039
 30
0.0
 10
227.229784497081
 20
315.1297692558786
 30
0.0
 10
227.6335738761955
 20
315.4854690506121
 30
0.0
 10
228.418359356469
 20
316.2282339813023
 30
0.0
 10
228.8008885579172
 20
316.617054262589
 30
0.0
 10
229.8990528331753
 20
317.8164137190918
 30
0.0
 10
230.5663051818098
 20
318.6592595161179
 30
0.0
 10
231.1712367102047
 20
319.5436883110686
 30
0.0
  0
SPLINE
  5
379
330
1F
100
AcDbEntity
  8
0
  6
CONTINUOUS
 62
     7
100
AcDbSpline
210
0.0
220
0.0
230
1.0
 70
     8
 71
     3
 72
    22
 73
    18
 74
     0
 42
0.00000001
 43
0.00000001
 40
0.0
 40
0.0
 40
0.0
 40
0.0
 40
0.1249999999999998
 40
0.1249999999999998
 40
0.1874999999999998
 40
0.1874999999999998
 40
0.2499999999999999
 40
0.2499999999999999
 40
0.4999999999999992
 40
0.4999999999999992
 40
0.5624999999999992
 40
0.5624999999999992
 40
0.6249999999999992
 40
0.6249999999999992
 40
0.7499999999999994
 40
0.7499999999999994
 40
1.0
 40
1.0
 40
1.0
 40
1.0
 10
231.1712367102047
 20
319.5436883110686
 30
0.0
 10
232.3498083792076
 20
321.2667969143599
 30
0.0
 10
233.451468793238
 20
323.0489158583065
 30
0.0
 10
234.9856899904699
 20
325.8128452178175
 30
0.0
 10
235.4778610584165
 20
326.7506239403986
 30
0.0
 10
236.4123310070235
 20
328.6368207381399
 30
0.0
 10
236.8559721210005
 20
329.5875065418384
 30
0.0
 10
238.9585010575135
 20
334.3781415747212
 30
0.0
 10
240.2732501728017
 20
338.3287784680884
 30
0.0
 10
241.4641495443718
 20
343.4127322576745
 30
0.0
 10
241.6795235026027
 20
344.4368635300971
 30
0.0
 10
242.0640987896465
 20
346.4999903075014
 30
0.0
 10
242.2335581151428
 20
347.5412907750048
 30
0.0
 10
242.6681212802207
 20
350.6618383904809
 30
0.0
 10
242.8609088497292
 20
352.7424422534454
 30
0.0
 10
243.156765470261
 20
358.9849872650036
 30
0.0
 10
242.9796434265852
 20
363.1476566323612
 30
0.0
 10
242.4213932666315
 20
367.3114036734291
 30
0.0
  0
ARC
  5
37A
330
1F
100
AcDbEntity
  8
0
  6
CONTINUOUS
 62
     7
100
AcDbCircle
 10
571.7637613889
 20
411.4575466464
 30
0.0
 40
332.287940717125
100
AcDbArc
 50
185.7813017545
 51
187.6346082084
  0
SPLINE
  5
37B
330
1F
100
AcDbEntity
  8
0
  6
CONTINUOUS
 62
     7
100
AcDbSpline
210
0.0
220
0.0
230
1.0
 70
     8
 71
     3
 72
    32
 73
    28
 74
     0
 42
0.00000001
 43
0.00000001
 40
0.0
 40
0.0
 40
0.0
 40
0.0
 40
0.1249999999999994
 40
0.1249999999999994
 40
0.1874999999999992
 40
0.1874999999999992
 40
0.2499999999999989
 40
0.2499999999999989
 40
0.3749999999999986
 40
0.3749999999999986
 40
0.4374999999999987
 40
0.4374999999999987
 40
0.4999999999999989
 40
0.4999999999999989
 40
0.562499999999999
 40
0.562499999999999
 40
0.6249999999999992
 40
0.6249999999999992
 40
0.7500000000000007
 40
0.7500000000000007
 40
0.8125000000000013
 40
0.8125000000000013
 40
0.8437500000000011
 40
0.8437500000000011
 40
0.8750000000000009
 40
0.8750000000000009
 40
1.0
 40
1.0
 40
1.0
 40
1.0
 10
241.1659596319672
 20
377.9856470761987
 30
0.0
 10
241.0224346133347
 20
379.402816362739
 30
0.0
 10
240.7303605643012
 20
380.7741544171603
 30
0.0
 10
240.0851323693065
 20
382.7672958023056
 30
0.0
 10
239.8352206605347
 20
383.4209344647189
 30
0.0
 10
239.2647753030217
 20
384.7064413785204
 30
0.0
 10
238.9433875340252
 20
385.33875079456
 30
0.0
 10
237.8962428872006
 20
387.1591263511717
 30
0.0
 10
237.0822062858304
 20
388.2869687369933
 30
0.0
 10
235.6906448252582
 20
389.8526863533095
 30
0.0
 10
235.1955159186406
 20
390.355496832507
 30
0.0
 10
234.1669306644161
 20
391.2989649002322
 30
0.0
 10
233.6321395219054
 20
391.7416324766133
 30
0.0
 10
232.5226504417714
 20
392.5703878247284
 30
0.0
 10
231.9479501106137
 20
392.9564721881829
 30
0.0
 10
230.7584486491292
 20
393.6717905462426
 30
0.0
 10
230.1413321369996
 20
394.002099936645
 30
0.0
 10
228.243333017515
 20
394.8973160493754
 30
0.0
 10
226.937693355459
 20
395.3586299443842
 30
0.0
 10
224.9204808049878
 20
395.8530630034481
 30
0.0
 10
224.238207730779
 20
395.9846924871948
 30
0.0
 10
223.1994965047377
 20
396.1306786416469
 30
0.0
 10
222.8499039622877
 20
396.1707900036496
 30
0.0
 10
222.151953582276
 20
396.2328534612896
 30
0.0
 10
221.8030855450264
 20
396.2549193084647
 30
0.0
 10
220.0592778518004
 20
396.3208283061952
 30
0.0
 10
218.6659173426702
 20
396.2328753439558
 30
0.0
 10
217.2743448857281
 20
395.9979023053721
 30
0.0
  0
ARC
  5
37C
330
1F
100
AcDbEntity
  8
0
  6
CONTINUOUS
 62
     7
100
AcDbCircle
 10
141.620982798
 20
844.0574621361
 30
0.0
 40
454.4015847766649
100
AcDbArc
 50
278.7841007068
 51
279.5838080201
  0
ARC
  5
37D
330
1F
100
AcDbEntity
  8
0
  6
CONTINUOUS
 62
     7
100
AcDbCircle
 10
141.1577166316
 20
-23.8236199211
 30
0.0
 40
424.5951184336716
100
AcDbArc
 50
80.5304746531
 51
82.4052805431
  0
SPLINE
  5
37E
330
1F
100
AcDbEntity
  8
0
  6
CONTINUOUS
 62
     7
100
AcDbSpline
210
0.0
220
0.0
230
1.0
 70
     8
 71
     3
 72
    32
 73
    28
 74
     0
 42
0.00000001
 43
0.00000001
 40
0.0
 40
0.0
 40
0.0
 40
0.0
 40
0.1249999999999999
 40
0.1249999999999999
 40
0.1562499999999997
 40
0.1562499999999997
 40
0.1874999999999996
 40
0.1874999999999996
 40
0.2499999999999992
 40
0.2499999999999992
 40
0.3124999999999988
 40
0.3124999999999988
 40
0.3749999999999986
 40
0.3749999999999986
 40
0.4999999999999983
 40
0.4999999999999983
 40
0.5624999999999986
 40
0.5624999999999986
 40
0.6249999999999987
 40
0.6249999999999987
 40
0.7499999999999992
 40
0.7499999999999992
 40
0.8749999999999997
 40
0.8749999999999997
 40
0.9374999999999998
 40
0.9374999999999998
 40
1.0
 40
1.0
 40
1.0
 40
1.0
 10
197.2743448857281
 20
397.0468332855903
 30
0.0
 10
195.9565400546471
 20
397.2225926120248
 30
0.0
 10
194.6407759821793
 20
397.2522125125524
 30
0.0
 10
192.9985835719378
 20
397.1100126638818
 30
0.0
 10
192.6702721654499
 20
397.0725090531972
 30
0.0
 10
192.0139084274205
 20
396.9790436383271
 30
0.0
 10
191.6848618361348
 20
396.9228669656567
 30
0.0
 10
190.7067502886533
 20
396.7277001414926
 30
0.0
 10
190.0671075489251
 20
396.5625365175322
 30
0.0
 10
188.8120405714502
 20
396.1639275467301
 30
0.0
 10
188.1966175182639
 20
395.9304788492656
 30
0.0
 10
186.9902454243397
 20
395.3945843622026
 30
0.0
 10
186.3980016786672
 20
395.0913887253701
 30
0.0
 10
184.6679115615785
 20
394.0780915234325
 30
0.0
 10
183.609926517213
 20
393.2861116152235
 30
0.0
 10
182.1624279682975
 20
391.9279100811174
 30
0.0
 10
181.7029541666863
 20
391.4460348901242
 30
0.0
 10
180.8347725260391
 20
390.4245665659422
 30
0.0
 10
180.4336983306702
 20
389.8940690993656
 30
0.0
 10
179.3259979757232
 20
388.2453983916292
 30
0.0
 10
178.7129565953055
 20
387.0687971646181
 30
0.0
 10
177.752643714065
 20
384.5663000505452
 30
0.0
 10
177.4219811838927
 20
383.2849999947815
 30
0.0
 10
177.1412033153733
 20
381.3197897139264
 30
0.0
 10
177.0837880703388
 20
380.656242763707
 30
0.0
 10
177.0441286722786
 20
379.3191771702138
 30
0.0
 10
177.0619322735012
 20
378.651824404478
 30
0.0
 10
177.1172012816068
 20
377.9856470761986
 30
0.0
  0
ARC
  5
37F
330
1F
100
AcDbEntity
  8
0
  6
CONTINUOUS
 62
     7
100
AcDbCircle
 10
582.6944837161
 20
411.6273585147
 30
0.0
 40
406.970141346791
100
AcDbArc
 50
184.7416997014
 51
186.251471201
  0
SPLINE
  5
380
330
1F
100
AcDbEntity
  8
0
  6
CONTINUOUS
 62
     7
100
AcDbSpline
210
0.0
220
0.0
230
1.0
 70
     8
 71
     3
 72
    10
 73
     6
 74
     0
 42
0.00000001
 43
0.00000001
 40
0.0
 40
0.0
 40
0.0
 40
0.0
 40
0.5
 40
0.5
 40
1.0
 40
1.0
 40
1.0
 40
1.0
 10
178.1443716460911
 20
367.3114036734291
 30
0.0
 10
178.431951011657
 20
364.6865501162131
 30
0.0
 10
178.9070185883811
 20
362.1150585720508
 30
0.0
 10
180.2140351725157
 20
357.0737610145635
 30
0.0
 10
181.0460544045913
 20
354.6039745777168
 30
0.0
 10
182.0587309794851
 20
352.1857248966995
 30
0.0
  0
SPLINE
  5
381
330
1F
100
AcDbEntity
  8
0
  6
CONTINUOUS
 62
     7
100
AcDbSpline
210
0.0
220
0.0
230
1.0
 70
     8
 71
     3
 72
    38
 73
    34
 74
     0
 42
0.00000001
 43
0.00000001
 40
0.0
 40
0.0
 40
0.0
 40
0.0
 40
0.125000000000001
 40
0.125000000000001
 40
0.1875000000000016
 40
0.1875000000000016
 40
0.2187500000000018
 40
0.2187500000000018
 40
0.250000000000002
 40
0.250000000000002
 40
0.3750000000000028
 40
0.3750000000000028
 40
0.4375000000000023
 40
0.4375000000000023
 40
0.5000000000000018
 40
0.5000000000000018
 40
0.5625000000000013
 40
0.5625000000000013
 40
0.5937500000000011
 40
0.5937500000000011
 40
0.6250000000000009
 40
0.6250000000000009
 40
0.75
 40
0.75
 40
0.7812500000000001
 40
0.7812500000000001
 40
0.8125000000000001
 40
0.8125000000000001
 40
0.8750000000000001
 40
0.8750000000000001
 40
0.9375
 40
0.9375
 40
1.0
 40
1.0
 40
1.0
 40
1.0
 10
20.27434488572816
 20
388.7034799183303
 30
0.0
 10
18.73957665719879
 20
388.2560809270687
 30
0.0
 10
17.18709015202635
 20
387.9846569481309
 30
0.0
 10
14.83340677076221
 20
387.826072102062
 30
0.0
 10
14.04464381158263
 20
387.8150524790305
 30
0.0
 10
12.85502033351729
 20
387.8630477969008
 30
0.0
 10
12.45658848185374
 20
387.8899548926602
 30
0.0
 10
11.66644639249323
 20
387.9648990898045
 30
0.0
 10
11.27378322527658
 20
388.0129307752102
 30
0.0
 10
9.322329142748497
 20
388.3051206715726
 30
0.0
 10
7.798663323384636
 20
388.703332073888
 30
0.0
 10
5.571520788403367
 20
389.5570957528375
 30
0.0
 10
4.835764266079262
 20
389.8869805789855
 30
0.0
 10
3.420097292893332
 20
390.6202808736115
 30
0.0
 10
2.736264707965674
 20
391.0247645878885
 30
0.0
 10
1.416820005938318
 20
391.9097987501823
 30
0.0
 10
0.7811994194556193
 20
392.3903356872782
 30
0.0
 10
-0.134389495613646
 20
393.1708827635507
 30
0.0
 10
-0.4332623512313116
 20
393.44104810083
 30
0.0
 10
-1.017853685517406
 20
394.002154290407
 30
0.0
 10
-1.303941897611155
 20
394.2936346787748
 30
0.0
 10
-2.679819482504925
 20
395.7827098320974
 30
0.0
 10
-3.625136241267285
 20
397.0890826277681
 30
0.0
 10
-4.603721266969035
 20
398.8726302019543
 30
0.0
 10
-4.789146754653001
 20
399.2369713762599
 30
0.0
 10
-5.13858693695457
 20
399.9815341363885
 30
0.0
 10
-5.302715000450986
 20
400.3623671930933
 30
0.0
 10
-5.754435903965016
 20
401.5106039461533
 30
0.0
 10
-6.004474680988525
 20
402.2895483200395
 30
0.0
 10
-6.403373269257495
 20
403.8740760427217
 30
0.0
 10
-6.552242490731275
 20
404.6796569069731
 30
0.0
 10
-6.74519383717978
 20
406.3184108991986
 30
0.0
 10
-6.78867633447422
 20
407.1533742650373
 30
0.0
 10
-6.776739736632536
 20
407.9856470761987
 30
0.0
  0
ARC
  5
382
330
1F
100
AcDbEntity
  8
0
  6
CONTINUOUS
 62
     7
100
AcDbCircle
 10
135.5355512977
 20
-7.9401534255
 30
0.0
 40
413.0512282875161
100
AcDbArc
 50
99.0354720343
 51
106.20340667
  0
ARC
  5
383
330
1F
100
AcDbEntity
  8
0
  6
CONTINUOUS
 62
     7
100
AcDbCircle
 10
139.7743448857
 20
411.9856470762
 30
0.0
 40
70.14092956327322
100
AcDbArc
 50
158.2422983228
 51
189.8508587116
  0
ARC
  5
384
330
1F
100
AcDbEntity
  8
0
  6
CONTINUOUS
 62
     7
100
AcDbCircle
 10
135.5203689593
 20
831.5935645271
 30
0.0
 40
398.2898388764525
100
AcDbArc
 50
253.180825955
 51
261.2062026783
  0
SPLINE
  5
385
330
1F
100
AcDbEntity
  8
0
  6
CONTINUOUS
 62
     7
100
AcDbSpline
210
0.0
220
0.0
230
1.0
 70
     8
 71
     3
 72
    36
 73
    32
 74
     0
 42
0.00000001
 43
0.00000001
 40
0.0
 40
0.0
 40
0.0
 40
0.0
 40
0.1249999999999987
 40
0.1249999999999987
 40
0.1874999999999979
 40
0.1874999999999979
 40
0.2499999999999972
 40
0.2499999999999972
 40
0.2812499999999964
 40
0.2812499999999964
 40
0.3124999999999957
 40
0.3124999999999957
 40
0.3749999999999941
 40
0.3749999999999941
 40
0.4374999999999924
 40
0.4374999999999924
 40
0.4687499999999914
 40
0.4687499999999914
 40
0.4999999999999904
 40
0.4999999999999904
 40
0.6249999999999915
 40
0.6249999999999915
 40
0.7499999999999925
 40
0.7499999999999925
 40
0.7812499999999932
 40
0.7812499999999932
 40
0.812499999999994
 40
0.812499999999994
 40
0.8749999999999953
 40
0.8749999999999953
 40
1.0
 40
1.0
 40
1.0
 40
1.0
 10
-7.330010834114608
 20
429.9856470761987
 30
0.0
 10
-7.44172269096996
 20
431.7096793352717
 30
0.0
 10
-7.324851059296089
 20
433.4126161078123
 30
0.0
 10
-6.81090007681609
 20
435.9357717488417
 30
0.0
 10
-6.58049873217098
 20
436.7746150176542
 30
0.0
 10
-6.018782744985518
 20
438.3911357323447
 30
0.0
 10
-5.686669846684145
 20
439.1751111321453
 30
0.0
 10
-5.113641562098898
 20
440.315611841804
 30
0.0
 10
-4.910117714976709
 20
440.6898504049227
 30
0.0
 10
-4.477933819378249
 20
441.4264214138036
 30
0.0
 10
-4.248410202785186
 20
441.7899886522357
 30
0.0
 10
-3.528487949664067
 20
442.8525133831184
 30
0.0
 10
-3.00857734407739
 20
443.5217623580445
 30
0.0
 10
-1.89357496759493
 20
444.7867362371208
 30
0.0
 10
-1.298461080647711
 20
445.3824394304046
 30
0.0
 10
-0.3501946199118422
 20
446.2216538574813
 30
0.0
 10
-0.023728281979718
 20
446.4931226214337
 30
0.0
 10
0.6414941997224255
 20
447.0128110944215
 30
0.0
 10
0.9801882717333232
 20
447.2611243728139
 30
0.0
 10
2.702993714631563
 20
448.447107738231
 30
0.0
 10
4.175080707855661
 20
449.2208488856214
 30
0.0
 10
7.293532119011736
 20
450.4275952094343
 30
0.0
 10
8.88814264002502
 20
450.8408977343258
 30
0.0
 10
10.92262640911015
 20
451.1368723639815
 30
0.0
 10
11.33161210407649
 20
451.1848830850981
 30
0.0
 10
12.15379412549286
 20
451.2583736377312
 30
0.0
 10
12.56813433847592
 20
451.2838781492214
 30
0.0
 10
13.80838265536718
 20
451.3257764682106
 30
0.0
 10
14.62957493621539
 20
451.3079201702498
 30
0.0
 10
17.0768567223846
 20
451.121959195484
 30
0.0
 10
18.68687206591717
 20
450.8232198471165
 30
0.0
 10
20.27434488572812
 20
450.3414813424217
 30
0.0
  0
ARC
  5
386
330
1F
100
AcDbEntity
  8
0
  6
CONTINUOUS
 62
     7
100
AcDbCircle
 10
-285.3131818308
 20
411.9878522512
 30
0.0
 40
278.5651909696294
100
AcDbArc
 50
359.1767910234
 51
3.7043982789
  0
ARC
  5
387
330
1F
100
AcDbEntity
  8
0
  6
CONTINUOUS
 62
     7
100
AcDbCircle
 10
245.2743448857
 20
367.3114036734
 30
0.0
 40
65.00000000000004
100
AcDbArc
 50
193.4562463632
 51
217.6584620062
  0
ARC
  5
388
330
1F
100
AcDbEntity
  8
0
  6
CONTINUOUS
 62
     7
100
AcDbCircle
 10
245.2743448857
 20
470.659890479
 30
0.0
 40
65.0
100
AcDbArc
 50
142.3415379938
 51
177.9538700709
  0
ARC
  5
389
330
1F
100
AcDbEntity
  8
0
  6
CONTINUOUS
 62
     7
100
AcDbCircle
 10
197.2743448857
 20
377.9856470762
 30
0.0
 40
17.0
100
AcDbArc
 50
90.0
 51
180.0
  0
ARC
  5
38A
330
1F
100
AcDbEntity
  8
0
  6
CONTINUOUS
 62
     7
100
AcDbCircle
 10
245.2743448857
 20
367.3114036734
 30
0.0
 40
65.0
100
AcDbArc
 50
180.0
 51
193.4562463632
  0
ARC
  5
38B
330
1F
100
AcDbEntity
  8
0
  6
CONTINUOUS
 62
     7
100
AcDbCircle
 10
197.2743448857
 20
459.9856470762
 30
0.0
 40
17.0
100
AcDbArc
 50
180.0
 51
270.0
  0
LINE
  5
38C
330
1F
100
AcDbEntity
  8
0
  6
CONTINUOUS
 62
     7
100
AcDbLine
 10
180.2743450049
 20
367.3114032982
 30
0.0
 11
180.2743450049
 21
377.9856452285
 31
0.0
  0
LINE
  5
38D
330
1F
100
AcDbEntity
  8
0
  6
CONTINUOUS
 62
     7
100
AcDbLine
 10
197.2743459288
 20
394.9856461523
 30
0.0
 11
211.013376737
 21
394.9856461523
 31
0.0
  0
LINE
  5
38E
330
1F
100
AcDbEntity
  8
0
  6
CONTINUOUS
 62
     7
100
AcDbLine
 10
180.2743450049
 20
470.6598894237
 30
0.0
 11
180.2743450049
 21
459.9856474934
 31
0.0
  0
LINE
  5
38F
330
1F
100
AcDbEntity
  8
0
  6
CONTINUOUS
 62
     7
100
AcDbLine
 10
197.2743459288
 20
442.9856465696
 30
0.0
 11
206.1294466499
 21
442.9856465696
 31
0.0
  0
ARC
  5
390
330
1F
100
AcDbEntity
  8
0
  6
CONTINUOUS
 62
     7
100
AcDbCircle
 10
20.2743448857
 20
429.9856470762
 30
0.0
 40
8.000000000000007
100
AcDbArc
 50
90.0
 51
180.0
  0
LINE
  5
391
330
1F
100
AcDbEntity
  8
0
  6
CONTINUOUS
 62
     7
100
AcDbLine
 10
74.6302753929
 20
437.9856476126
 30
0.0
 11
20.2743485812
 21
437.9856476126
 31
0.0
  0
LINE
  5
392
330
1F
100
AcDbEntity
  8
0
  6
CONTINUOUS
 62
     7
100
AcDbLine
 10
20.2743485812
 20
399.9856469719
 30
0.0
 11
70.6675425414
 21
399.9856469719
 31
0.0
  0
ARC
  5
393
330
1F
100
AcDbEntity
  8
0
  6
CONTINUOUS
 62
     7
100
AcDbCircle
 10
20.2743448857
 20
407.9856470762
 30
0.0
 40
8.000000000000057
100
AcDbArc
 50
180.0
 51
270.0
  0
LINE
  5
394
330
1F
100
AcDbEntity
  8
0
  6
CONTINUOUS
 62
     7
100
AcDbLine
 10
12.2743472699
 20
429.9856463013
 30
0.0
 11
12.2743472699
 21
407.9856468862
 31
0.0
  0
ARC
  5
395
330
1F
100
AcDbEntity
  8
0
  6
CONTINUOUS
 62
     7
100
AcDbCircle
 10
245.2743448857
 20
470.659890479
 30
0.0
 40
65.0
100
AcDbArc
 50
177.9538700709
 51
180.0
  0
ARC
  5
396
330
1F
100
AcDbEntity
  8
0
  6
CONTINUOUS
 62
     7
100
AcDbCircle
 10
217.2743448857
 20
377.9856470762
 30
0.0
 40
17.0
100
AcDbArc
 50
0.0
 51
90.0
  0
ARC
  5
397
330
1F
100
AcDbEntity
  8
0
  6
CONTINUOUS
 62
     7
100
AcDbCircle
 10
207.2743448857
 20
499.9856470762
 30
0.0
 40
16.99999999999996
100
AcDbArc
 50
37.6584620062
 51
142.3415379938
  0
ARC
  5
398
330
1F
100
AcDbEntity
  8
0
  6
CONTINUOUS
 62
     7
100
AcDbCircle
 10
169.2743448857
 20
470.659890479
 30
0.0
 40
65.0
100
AcDbArc
 50
0.0
 51
37.6584620062
  0
LINE
  5
399
330
1F
100
AcDbEntity
  8
0
  6
CONTINUOUS
 62
     7
100
AcDbLine
 10
234.2743426804
 20
459.9856474934
 30
0.0
 11
234.2743426804
 21
470.6598894237
 31
0.0
  0
ARC
  5
39A
330
1F
100
AcDbEntity
  8
0
  6
CONTINUOUS
 62
     7
100
AcDbCircle
 10
217.2743448857
 20
459.9856470762
 30
0.0
 40
17.0
100
AcDbArc
 50
270.0
 51
0.0
  0
LINE
  5
39B
330
1F
100
AcDbEntity
  8
0
  6
CONTINUOUS
 62
     7
100
AcDbLine
 10
206.1294466499
 20
442.9856465696
 30
0.0
 11
217.2743454818
 21
442.9856465696
 31
0.0
  0
LINE
  5
39C
330
1F
100
AcDbEntity
  8
0
  6
CONTINUOUS
 62
     7
100
AcDbLine
 10
211.013376737
 20
394.9856461523
 30
0.0
 11
217.2743454818
 21
394.9856461523
 31
0.0
  0
LINE
  5
39D
330
1F
100
AcDbEntity
  8
0
  6
CONTINUOUS
 62
     7
100
AcDbLine
 10
234.2743426804
 20
377.9856452285
 30
0.0
 11
234.2743426804
 21
367.3114032982
 31
0.0
  0
ARC
  5
39E
330
1F
100
AcDbEntity
  8
0
  6
CONTINUOUS
 62
     7
100
AcDbCircle
 10
169.2743448857
 20
367.3114036734
 30
0.0
 40
65.00000000000001
100
AcDbArc
 50
322.3415379938
 51
0.0
  0
ARC
  5
39F
330
1F
100
AcDbEntity
  8
0
  6
CONTINUOUS
 62
     7
100
AcDbCircle
 10
207.2743448857
 20
337.9856470762
 30
0.0
 40
17.0
100
AcDbArc
 50
217.6584620062
 51
322.3415379938
  0
ARC
  5
3A0
330
1F
100
AcDbEntity
  8
0
  6
CONTINUOUS
 62
     7
100
AcDbCircle
 10
139.7743448857
 20
290.9856470762
 30
0.0
 40
20.0
100
AcDbArc
 50
350.0655919206
 51
189.9344080794
  0
ARC
  5
3A1
330
1F
100
AcDbEntity
  8
0
  6
CONTINUOUS
 62
     7
100
AcDbCircle
 10
99.7743448857
 20
536.9856470762
 30
0.0
 40
17.49999999999999
100
AcDbArc
 50
174.8813212752
 51
40.6080219749
  0
ARC
  5
3A2
330
1F
100
AcDbEntity
  8
0
  6
CONTINUOUS
 62
     7
100
AcDbCircle
 10
139.7743448857
 20
290.9856470762
 30
0.0
 40
20.0
100
AcDbArc
 50
189.9344080794
 51
350.0655919206
  0
CIRCLE
  5
3A3
330
1F
100
AcDbEntity
  8
0
  6
CONTINUOUS
 62
     7
100
AcDbCircle
 10
139.7743448857
 20
290.9856470762
 30
0.0
 40
5.500000000000028
  0
ARC
  5
3A4
330
1F
100
AcDbEntity
  8
0
  6
CONTINUOUS
 62
     7
100
AcDbCircle
 10
99.7743448857
 20
536.9856470762
 30
0.0
 40
17.49999999999999
100
AcDbArc
 50
40.6080219749
 51
174.8813212752
  0
CIRCLE
  5
3A5
330
1F
100
AcDbEntity
  8
0
  6
CONTINUOUS
 62
     7
100
AcDbCircle
 10
139.7743448857
 20
411.9856470762
 30
0.0
 40
170.0000000000001
  0
SPLINE
  5
3A6
330
1F
100
AcDbEntity
  8
0
  6
CONTINUOUS
 62
     7
100
AcDbSpline
210
0.0
220
0.0
230
1.0
 70
    24
 71
     3
 72
    16
 73
    12
 74
     0
 42
0.00000001
 43
0.00000001
 40
0.0
 40
0.0
 40
0.0
 40
0.0
 40
0.2499999999999998
 40
0.2499999999999998
 40
0.4999999999999996
 40
0.4999999999999996
 40
0.7499999999999993
 40
0.7499999999999993
 40
0.8749999999999997
 40
0.8749999999999997
 40
1.0
 40
1.0
 40
1.0
 40
1.0
 10
309.7743448857282
 20
423.4417420214468
 30
0.0
 10
309.7743448857282
 20
422.5431605762105
 30
0.0
 10
309.7743448857282
 20
421.6276733359989
 30
0.0
 10
309.7743448857282
 20
419.7632011371205
 30
0.0
 10
309.7743448857282
 20
418.8123751438661
 30
0.0
 10
309.7743448857282
 20
416.889988651601
 30
0.0
 10
309.7743448857282
 20
415.9168638768714
 30
0.0
 10
309.7743448857282
 20
414.4488778795572
 30
0.0
 10
309.7743448857282
 20
413.9576432417346
 30
0.0
 10
309.7743448857282
 20
412.9727274679866
 30
0.0
 10
309.7743448857281
 20
412.4779992805746
 30
0.0
 10
309.7743448857282
 20
411.9856470761987
 30
0.0
  0
SPLINE
  5
3A7
330
1F
100
AcDbEntity
  8
0
  6
CONTINUOUS
 62
     7
100
AcDbSpline
210
0.0
220
0.0
230
1.0
 70
    24
 71
     3
 72
    16
 73
    12
 74
     0
 42
0.00000001
 43
0.00000001
 40
0.0
 40
0.0
 40
0.0
 40
0.0
 40
0.2500000000000004
 40
0.2500000000000004
 40
0.5000000000000006
 40
0.5000000000000006
 40
0.7500000000000007
 40
0.7500000000000007
 40
0.8750000000000003
 40
0.8750000000000003
 40
1.0
 40
1.0
 40
1.0
 40
1.0
 10
309.7743448857282
 20
400.5295521309504
 30
0.0
 10
309.7743448857282
 20
401.4283026737497
 30
0.0
 10
309.7743448857282
 20
402.3439653597084
 30
0.0
 10
309.7743448857282
 20
404.208801060272
 30
0.0
 10
309.7743448857281
 20
405.1601027617639
 30
0.0
 10
309.7743448857282
 20
407.081337494556
 30
0.0
 10
309.7743448857282
 20
408.0534480575561
 30
0.0
 10
309.7743448857282
 20
409.5225252658763
 30
0.0
 10
309.7743448857282
 20
410.0135629975443
 30
0.0
 10
309.7743448857282
 20
410.9983273519882
 30
0.0
 10
309.7743448857282
 20
411.493202478713
 30
0.0
 10
309.7743448857282
 20
411.9856470761987
 30
0.0
  0
SPLINE
  5
3A8
330
1F
100
AcDbEntity
  8
0
  6
CONTINUOUS
 62
     7
100
AcDbSpline
210
0.0
220
0.0
230
1.0
 70
    24
 71
     3
 72
    12
 73
     8
 74
     0
 42
0.00000001
 43
0.00000001
 40
0.0
 40
0.0
 40
0.0
 40
0.0
 40
0.5000000000000009
 40
0.5000000000000009
 40
0.7500000000000004
 40
0.7500000000000004
 40
1.0
 40
1.0
 40
1.0
 40
1.0
 10
151.0623277656725
 20
581.9856470761988
 30
0.0
 10
149.2731031769546
 20
581.9856470761988
 30
0.0
 10
147.4276104826465
 20
581.9856470761988
 30
0.0
 10
144.5954900410825
 20
581.9856470761987
 30
0.0
 10
143.6420970894041
 20
581.9856470761987
 30
0.0
 10
141.7184127406203
 20
581.9856470761987
 30
0.0
 10
140.7486662378006
 20
581.9856470761987
 30
0.0
 10
139.7743448857275
 20
581.9856470761987
 30
0.0
  0
SPLINE
  5
3A9
330
1F
100
AcDbEntity
  8
0
  6
CONTINUOUS
 62
     7
100
AcDbSpline
210
0.0
220
0.0
230
1.0
 70
    24
 71
     3
 72
    12
 73
     8
 74
     0
 42
0.00000001
 43
0.00000001
 40
0.0
 40
0.0
 40
0.0
 40
0.0
 40
0.5
 40
0.5
 40
0.75
 40
0.75
 40
1.0
 40
1.0
 40
1.0
 40
1.0
 10
-30.225655114272
 20
423.2736299561424
 30
0.0
 10
-30.22565511427197
 20
421.4844053674245
 30
0.0
 10
-30.22565511427192
 20
419.6389126731163
 30
0.0
 10
-30.22565511427194
 20
416.8067922315524
 30
0.0
 10
-30.22565511427197
 20
415.8533992798739
 30
0.0
 10
-30.225655114272
 20
413.9297149310901
 30
0.0
 10
-30.22565511427194
 20
412.9599684282693
 30
0.0
 10
-30.22565511427192
 20
411.9856470761974
 30
0.0
  0
SPLINE
  5
3AA
330
1F
100
AcDbEntity
  8
0
  6
CONTINUOUS
 62
     7
100
AcDbSpline
210
0.0
220
0.0
230
1.0
 70
    24
 71
     3
 72
    12
 73
     8
 74
     0
 42
0.00000001
 43
0.00000001
 40
0.0
 40
0.0
 40
0.0
 40
0.0
 40
0.499999999999999
 40
0.499999999999999
 40
0.7499999999999994
 40
0.7499999999999994
 40
1.0
 40
1.0
 40
1.0
 40
1.0
 10
128.486362005785
 20
241.9856470761985
 30
0.0
 10
130.2755865945033
 20
241.9856470761985
 30
0.0
 10
132.1210792888092
 20
241.9856470761985
 30
0.0
 10
134.9531997303738
 20
241.9856470761986
 30
0.0
 10
135.9065926820524
 20
241.9856470761986
 30
0.0
 10
137.8302770308367
 20
241.9856470761986
 30
0.0
 10
138.8000235336591
 20
241.9856470761987
 30
0.0
 10
139.7743448857299
 20
241.9856470761986
 30
0.0
  0
SPLINE
  5
3AB
330
1F
100
AcDbEntity
  8
0
  6
CONTINUOUS
 62
     7
100
AcDbSpline
210
0.0
220
0.0
230
1.0
 70
    24
 71
     3
 72
    14
 73
    10
 74
     0
 42
0.00000001
 43
0.00000001
 40
0.0
 40
0.0
 40
0.0
 40
0.0
 40
0.25
 40
0.25
 40
0.5
 40
0.5
 40
0.75
 40
0.75
 40
1.0
 40
1.0
 40
1.0
 40
1.0
 10
-30.22565511427183
 20
400.6976641962525
 30
0.0
 10
-30.22565511427186
 20
401.5923246264098
 30
0.0
 10
-30.22565511427189
 20
402.5000475603369
 30
0.0
 10
-30.22565511427189
 20
404.3418528799518
 30
0.0
 10
-30.22565511427189
 20
405.2761342483631
 30
0.0
 10
-30.22565511427189
 20
407.1643144987191
 30
0.0
 10
-30.22565511427192
 20
408.1177583274193
 30
0.0
 10
-30.22565511427194
 20
410.0415467797014
 30
0.0
 10
-30.22565511427172
 20
411.0121600203918
 30
0.0
 10
-30.22565511427192
 20
411.9856470761974
 30
0.0
  0
SPLINE
  5
3AC
330
1F
100
AcDbEntity
  8
0
  6
CONTINUOUS
 62
     7
100
AcDbSpline
210
0.0
220
0.0
230
1.0
 70
    24
 71
     3
 72
    14
 73
    10
 74
     0
 42
0.00000001
 43
0.00000001
 40
0.0
 40
0.0
 40
0.0
 40
0.0
 40
0.2500000000000002
 40
0.2500000000000002
 40
0.5000000000000001
 40
0.5000000000000001
 40
0.75
 40
0.75
 40
1.0
 40
1.0
 40
1.0
 40
1.0
 10
128.4863620057826
 20
581.9856470761987
 30
0.0
 10
129.3810224359398
 20
581.9856470761986
 30
0.0
 10
130.2887453698669
 20
581.9856470761987
 30
0.0
 10
132.1305506894818
 20
581.9856470761987
 30
0.0
 10
133.0648320578931
 20
581.9856470761987
 30
0.0
 10
134.9530123082492
 20
581.9856470761987
 30
0.0
 10
135.9064561369493
 20
581.9856470761987
 30
0.0
 10
137.8302445892315
 20
581.9856470761987
 30
0.0
 10
138.8008578299203
 20
581.9856470761985
 30
0.0
 10
139.7743448857275
 20
581.9856470761987
 30
0.0
  0
SPLINE
  5
3AD
330
1F
100
AcDbEntity
  8
0
  6
CONTINUOUS
 62
     7
100
AcDbSpline
210
0.0
220
0.0
230
1.0
 70
    24
 71
     3
 72
    14
 73
    10
 74
     0
 42
0.00000001
 43
0.00000001
 40
0.0
 40
0.0
 40
0.0
 40
0.0
 40
0.2500000000000002
 40
0.2500000000000002
 40
0.5000000000000001
 40
0.5000000000000001
 40
0.75
 40
0.75
 40
1.0
 40
1.0
 40
1.0
 40
1.0
 10
151.0623277656749
 20
241.9856470761987
 30
0.0
 10
150.1676673355178
 20
241.9856470761987
 30
0.0
 10
149.2599444015883
 20
241.9856470761987
 30
0.0
 10
147.4181390819738
 20
241.9856470761987
 30
0.0
 10
146.4838577135627
 20
241.9856470761987
 30
0.0
 10
144.595677463207
 20
241.9856470761987
 30
0.0
 10
143.6422336345071
 20
241.9856470761987
 30
0.0
 10
141.7184451822253
 20
241.9856470761987
 30
0.0
 10
140.7478319415347
 20
241.9856470761988
 30
0.0
 10
139.7743448857299
 20
241.9856470761986
 30
0.0
  0
SPLINE
  5
3AE
330
1F
100
AcDbEntity
  8
0
  6
CONTINUOUS
 62
     7
100
AcDbSpline
210
0.0
220
0.0
230
1.0
 70
    24
 71
     3
 72
     8
 73
     4
 74
     0
 42
0.00000001
 43
0.00000001
 40
0.0
 40
0.0
 40
0.0
 40
0.0
 40
1.0
 40
1.0
 40
1.0
 40
1.0
 10
309.7743448857282
 20
437.7832563749164
 30
0.0
 10
309.7743448857282
 20
433.008681872559
 30
0.0
 10
309.7743448857282
 20
428.2265200422264
 30
0.0
 10
309.7743448857282
 20
423.4417420214469
 30
0.0
  0
SPLINE
  5
3AF
330
1F
100
AcDbEntity
  8
0
  6
CONTINUOUS
 62
     7
100
AcDbSpline
210
0.0
220
0.0
230
1.0
 70
    24
 71
     3
 72
     8
 73
     4
 74
     0
 42
0.00000001
 43
0.00000001
 40
0.0
 40
0.0
 40
0.0
 40
0.0
 40
1.0
 40
1.0
 40
1.0
 40
1.0
 10
309.7743448857282
 20
400.5295521309499
 30
0.0
 10
309.7743448857282
 20
395.7447709139169
 30
0.0
 10
309.7743448857282
 20
390.9626214623703
 30
0.0
 10
309.7743448857282
 20
386.1880377774806
 30
0.0
  0
SPLINE
  5
3B0
330
1F
100
AcDbEntity
  8
0
  6
CONTINUOUS
 62
     7
100
AcDbSpline
210
0.0
220
0.0
230
1.0
 70
    24
 71
     3
 72
     8
 73
     4
 74
     0
 42
0.00000001
 43
0.00000001
 40
0.0
 40
0.0
 40
0.0
 40
0.0
 40
1.0
 40
1.0
 40
1.0
 40
1.0
 10
-30.225655114272
 20
423.2736299561448
 30
0.0
 10
-30.225655114272
 20
424.3995777668129
 30
0.0
 10
-30.22565511427203
 20
425.5333361840171
 30
0.0
 10
-30.22565511427203
 20
426.675820904488
 30
0.0
  0
SPLINE
  5
3B1
330
1F
100
AcDbEntity
  8
0
  6
CONTINUOUS
 62
     7
100
AcDbSpline
210
0.0
220
0.0
230
1.0
 70
    24
 71
     3
 72
     8
 73
     4
 74
     0
 42
0.00000001
 43
0.00000001
 40
0.0
 40
0.0
 40
0.0
 40
0.0
 40
1.0
 40
1.0
 40
1.0
 40
1.0
 10
151.0623277656748
 20
581.9856470761988
 30
0.0
 10
152.1882755763432
 20
581.9856470761988
 30
0.0
 10
153.3220339935477
 20
581.9856470761988
 30
0.0
 10
154.4645187140189
 20
581.9856470761988
 30
0.0
  0
SPLINE
  5
3B2
330
1F
100
AcDbEntity
  8
0
  6
CONTINUOUS
 62
     7
100
AcDbSpline
210
0.0
220
0.0
230
1.0
 70
    24
 71
     3
 72
     8
 73
     4
 74
     0
 42
0.00000001
 43
0.00000001
 40
0.0
 40
0.0
 40
0.0
 40
0.0
 40
1.0
 40
1.0
 40
1.0
 40
1.0
 10
125.0841710574365
 20
581.9856470761986
 30
0.0
 10
126.2266557779083
 20
581.9856470761986
 30
0.0
 10
127.3604141951111
 20
581.9856470761987
 30
0.0
 10
128.4863620057803
 20
581.9856470761987
 30
0.0
  0
SPLINE
  5
3B3
330
1F
100
AcDbEntity
  8
0
  6
CONTINUOUS
 62
     7
100
AcDbSpline
210
0.0
220
0.0
230
1.0
 70
    24
 71
     3
 72
     8
 73
     4
 74
     0
 42
0.00000001
 43
0.00000001
 40
0.0
 40
0.0
 40
0.0
 40
0.0
 40
1.0
 40
1.0
 40
1.0
 40
1.0
 10
128.4863620057827
 20
241.9856470761985
 30
0.0
 10
127.3604141951152
 20
241.9856470761985
 30
0.0
 10
126.2266557779091
 20
241.9856470761985
 30
0.0
 10
125.084171057439
 20
241.9856470761985
 30
0.0
  0
SPLINE
  5
3B4
330
1F
100
AcDbEntity
  8
0
  6
CONTINUOUS
 62
     7
100
AcDbSpline
210
0.0
220
0.0
230
1.0
 70
    24
 71
     3
 72
     8
 73
     4
 74
     0
 42
0.00000001
 43
0.00000001
 40
0.0
 40
0.0
 40
0.0
 40
0.0
 40
1.0
 40
1.0
 40
1.0
 40
1.0
 10
154.4645187140208
 20
241.9856470761988
 30
0.0
 10
153.3220339935498
 20
241.9856470761988
 30
0.0
 10
152.1882755763455
 20
241.9856470761987
 30
0.0
 10
151.0623277656772
 20
241.9856470761987
 30
0.0
  0
SPLINE
  5
3B5
330
1F
100
AcDbEntity
  8
0
  6
CONTINUOUS
 62
     7
100
AcDbSpline
210
0.0
220
0.0
230
1.0
 70
    24
 71
     3
 72
     8
 73
     4
 74
     0
 42
0.00000001
 43
0.00000001
 40
0.0
 40
0.0
 40
0.0
 40
0.0
 40
1.0
 40
1.0
 40
1.0
 40
1.0
 10
-30.22565511427183
 20
397.2954732479063
 30
0.0
 10
-30.22565511427183
 20
398.4379579683782
 30
0.0
 10
-30.22565511427183
 20
399.571716385581
 30
0.0
 10
-30.22565511427183
 20
400.6976641962502
 30
0.0
  0
LINE
  5
3B6
330
1F
100
AcDbEntity
  8
0
  6
CONTINUOUS
 62
     7
100
AcDbLine
 10
100.7712334637
 20
581.9856488643
 30
0.0
 11
125.0841710959
 21
581.9856488643
 31
0.0
  0
LINE
  5
3B7
330
1F
100
AcDbEntity
  8
0
  6
CONTINUOUS
 62
     7
100
AcDbLine
 10
154.4645186756
 20
581.9856488643
 30
0.0
 11
178.7774563078
 21
581.9856488643
 31
0.0
  0
LINE
  5
3B8
330
1F
100
AcDbEntity
  8
0
  6
CONTINUOUS
 62
     7
100
AcDbLine
 10
-30.2256569024
 20
426.6758208661
 30
0.0
 11
-30.2256569024
 21
450.9887584983
 31
0.0
  0
LINE
  5
3B9
330
1F
100
AcDbEntity
  8
0
  6
CONTINUOUS
 62
     7
100
AcDbLine
 10
-30.2256569024
 20
372.9825356541
 30
0.0
 11
-30.2256569024
 21
397.2954732863
 31
0.0
  0
LINE
  5
3BA
330
1F
100
AcDbEntity
  8
0
  6
CONTINUOUS
 62
     7
100
AcDbLine
 10
125.0841710959
 20
241.9856452881
 30
0.0
 11
100.7712334637
 21
241.9856452881
 31
0.0
  0
LINE
  5
3BB
330
1F
100
AcDbEntity
  8
0
  6
CONTINUOUS
 62
     7
100
AcDbLine
 10
178.7774563078
 20
241.9856452881
 30
0.0
 11
154.4645186756
 21
241.9856452881
 31
0.0
  0
SPLINE
  5
3BC
330
1F
100
AcDbEntity
  8
0
  6
CONTINUOUS
 62
     7
100
AcDbSpline
210
0.0
220
0.0
230
1.0
 70
    24
 71
     3
 72
     8
 73
     4
 74
     0
 42
0.00000001
 43
0.00000001
 40
0.0
 40
0.0
 40
0.0
 40
0.0
 40
1.0
 40
1.0
 40
1.0
 40
1.0
 10
309.7743448857282
 20
441.7210907664958
 30
0.0
 10
309.7743448857282
 20
440.3970022534314
 30
0.0
 10
309.7743448857282
 20
439.0846259126268
 30
0.0
 10
309.7743448857282
 20
437.7832563749164
 30
0.0
  0
SPLINE
  5
3BD
330
1F
100
AcDbEntity
  8
0
  6
CONTINUOUS
 62
     7
100
AcDbSpline
210
0.0
220
0.0
230
1.0
 70
    24
 71
     3
 72
     8
 73
     4
 74
     0
 42
0.00000001
 43
0.00000001
 40
0.0
 40
0.0
 40
0.0
 40
0.0
 40
1.0
 40
1.0
 40
1.0
 40
1.0
 10
309.7743448857282
 20
386.1880377774806
 30
0.0
 10
309.7743448857282
 20
384.8866682397702
 30
0.0
 10
309.7743448857282
 20
383.5742918989657
 30
0.0
 10
309.7743448857282
 20
382.2502033859014
 30
0.0
  0
LINE
  5
3BE
330
1F
100
AcDbEntity
  8
0
  6
CONTINUOUS
 62
     7
100
AcDbLine
 10
309.7743466739
 20
450.9887584983
 30
0.0
 11
309.7743466739
 21
441.7210911898
 31
0.0
  0
LINE
  5
3BF
330
1F
100
AcDbEntity
  8
0
  6
CONTINUOUS
 62
     7
100
AcDbLine
 10
309.7743466739
 20
382.2502029626
 30
0.0
 11
309.7743466739
 21
372.9825356541
 31
0.0
  0
LINE
  5
3C0
330
1F
100
AcDbEntity
  8
0
  6
CONTINUOUS
 62
     7
100
AcDbLine
 10
90.3662555162
 20
581.9856488643
 30
0.0
 11
100.7712334637
 21
581.9856488643
 31
0.0
  0
LINE
  5
3C1
330
1F
100
AcDbEntity
  8
0
  6
CONTINUOUS
 62
     7
100
AcDbLine
 10
178.7774563078
 20
581.9856488643
 30
0.0
 11
189.1824342553
 21
581.9856488643
 31
0.0
  0
LINE
  5
3C2
330
1F
100
AcDbEntity
  8
0
  6
CONTINUOUS
 62
     7
100
AcDbLine
 10
309.7743466739
 20
461.3937364457
 30
0.0
 11
309.7743466739
 21
450.9887584983
 31
0.0
  0
LINE
  5
3C3
330
1F
100
AcDbEntity
  8
0
  6
CONTINUOUS
 62
     7
100
AcDbLine
 10
-30.2256569024
 20
450.9887584983
 30
0.0
 11
-30.2256569024
 21
461.3937364457
 31
0.0
  0
LINE
  5
3C4
330
1F
100
AcDbEntity
  8
0
  6
CONTINUOUS
 62
     7
100
AcDbLine
 10
-30.2256569024
 20
362.5775577067
 30
0.0
 11
-30.2256569024
 21
372.9825356541
 31
0.0
  0
LINE
  5
3C5
330
1F
100
AcDbEntity
  8
0
  6
CONTINUOUS
 62
     7
100
AcDbLine
 10
309.7743466739
 20
372.9825356541
 30
0.0
 11
309.7743466739
 21
362.5775577067
 31
0.0
  0
LINE
  5
3C6
330
1F
100
AcDbEntity
  8
0
  6
CONTINUOUS
 62
     7
100
AcDbLine
 10
189.1824342553
 20
241.9856452881
 30
0.0
 11
178.7774563078
 21
241.9856452881
 31
0.0
  0
LINE
  5
3C7
330
1F
100
AcDbEntity
  8
0
  6
CONTINUOUS
 62
     7
100
AcDbLine
 10
100.7712334637
 20
241.9856452881
 30
0.0
 11
90.3662555162
 21
241.9856452881
 31
0.0
  0
LINE
  5
3C8
330
1F
100
AcDbEntity
  8
LAYER001
  6
HIDDEN
100
AcDbLine
 10
62.1713756085
 20
465.5152004344
 30
0.0
 11
49.4108143184
 21
452.5224263237
 31
0.0
  0
LINE
  5
3C9
330
1F
100
AcDbEntity
  8
LAYER001
  6
HIDDEN
100
AcDbLine
 10
-14.8000117806
 20
425.5856470762
 30
0.0
 11
-30.2256551143
 21
425.5856470762
 31
0.0
  0
LINE
  5
3CA
330
1F
100
AcDbEntity
  8
LAYER001
  6
HIDDEN
100
AcDbLine
 10
-30.2256551143
 20
425.5856470762
 30
0.0
 11
-30.2256551143
 21
398.3856470762
 31
0.0
  0
LINE
  5
3CB
330
1F
100
AcDbEntity
  8
LAYER001
  6
HIDDEN
100
AcDbLine
 10
-30.2256551143
 20
398.3856470762
 30
0.0
 11
-14.8000117806
 21
398.3856470762
 31
0.0
  0
LINE
  5
3CC
330
1F
100
AcDbEntity
  8
LAYER001
  6
HIDDEN
100
AcDbLine
 10
68.8167528728
 20
433.4633196074
 30
0.0
 11
81.5773141629
 21
446.456093718
 31
0.0
  0
CIRCLE
  5
3CD
330
1F
100
AcDbEntity
  8
LAYER001
  6
HIDDEN
100
AcDbCircle
 10
71.8743448857
 20
455.9856470762
 30
0.0
 40
13.60000000000003
  0
ARC
  5
3CE
330
1F
100
AcDbEntity
  8
LAYER001
  6
HIDDEN
100
AcDbCircle
 10
-14.8000117806
 20
515.5856470762
 30
0.0
 40
90.00000000000006
100
AcDbArc
 50
270.0
 51
315.5166109089
  0
ARC
  5
3CF
330
1F
100
AcDbEntity
  8
LAYER001
  6
HIDDEN
100
AcDbCircle
 10
-14.8000117806
 20
515.5856470762
 30
0.0
 40
117.2000000000001
100
AcDbArc
 50
270.0
 51
315.5166109089
  0
DIMENSION
  5
3D0
330
1F
100
AcDbEntity
  8
LAYER001
100
AcDbDimension
  2
*D10
 10
342.2297317056
 20
229.7856470762
 30
0.0
 11
342.2297317056
 21
408.2701109674
 31
0.0
 70
   160
  3
SLDDIMSTYLE2
100
AcDbAlignedDimension
 13
178.7743448857
 23
594.1856470762
 33
0.0
 14
178.7743448857
 24
229.7856470762
 34
0.0
 50
90.0
100
AcDbRotatedDimension
  0
DIMENSION
  5
3DB
330
1F
100
AcDbEntity
  8
LAYER001
100
AcDbDimension
  2
*D11
 10
336.6242363105
 20
411.9856470762
 30
0.0
 11
336.6242363105
 21
475.1990591487
 31
0.0
 70
   160
  3
SLDDIMSTYLE0
100
AcDbAlignedDimension
 13
115.2743448857
 23
536.9856470762
 33
0.0
 14
341.8076905303
 24
411.9856470762
 34
0.0
 50
90.0
100
AcDbRotatedDimension
  0
DIMENSION
  5
3E4
330
1F
100
AcDbEntity
  8
LAYER001
100
AcDbDimension
  2
*D12
 10
139.7743448857
 20
596.1451962603
 30
0.0
 11
120.6585006503
 21
596.1451962603
 31
0.0
 70
   160
  3
SLDDIMSTYLE0
100
AcDbAlignedDimension
 13
99.7743448857
 23
552.4856470762
 33
0.0
 14
139.7743448857
 24
597.7160513706
 34
0.0
100
AcDbRotatedDimension
  0
DIMENSION
  5
3ED
330
1F
100
AcDbEntity
  8
LAYER001
100
AcDbDimension
  2
*D13
 10
332.7743448857
 20
221.0602645008
 30
0.0
 11
141.9923062983
 21
221.0602645008
 31
0.0
 70
   160
  3
SLDDIMSTYLE0
100
AcDbAlignedDimension
 13
-53.2256551143
 23
394.4856470762
 33
0.0
 14
332.7743448857
 24
394.4856470762
 34
0.0
 50
0.0
100
AcDbRotatedDimension
  0
DIMENSION
  5
3F7
330
1F
100
AcDbEntity
  8
LAYER001
100
AcDbDimension
  2
*D14
 10
336.6242363105
 20
290.9856470762
 30
0.0
 11
336.6242363105
 21
352.4005041101
 31
0.0
 70
   160
  3
SLDDIMSTYLE0
100
AcDbAlignedDimension
 13
341.8076905303
 23
411.9856470762
 33
0.0
 14
156.2743448857
 24
290.9856470762
 34
0.0
 50
90.0
100
AcDbRotatedDimension
  0
DIMENSION
  5
400
330
1F
100
AcDbEntity
  8
LAYER001
100
AcDbDimension
  2
*D15
 10
316.7846293038
 20
225.02318911
 30
0.0
 11
141.9923062983
 21
225.02318911
 31
0.0
 70
   160
  3
SLDDIMSTYLE2
100
AcDbAlignedDimension
 13
-37.2359395323
 23
411.9856470762
 33
0.0
 14
316.7846293038
 24
411.9856470762
 34
0.0
100
AcDbRotatedDimension
  0
INSERT
  5
40F
102
{ACAD_REACTORS
330
411
102
}
330
1F
100
AcDbEntity
  8
LAYER001
100
AcDbBlockReference
  2
SW_NOTE_0
 10
39.4091711372
 20
530.0360321474
 30
0.0
  0
LEADER
  5
411
330
1F
100
AcDbEntity
  8
LAYER001
100
AcDbLeader
  3
SLDDIMSTYLE3
 73
     2
 76
     3
 10
95.9371128131
 20
535.8562002997
 30
0.0
 10
70.4083062866
 20
530.0360321474
 30
0.0
 10
39.4091711372
 20
530.0360321474
 30
0.0
340
40F
1001
ACAD
1000
DSTYLE
1002
{
1070
     6
1000
OPEN30
1002
}
  0
INSERT
  5
417
102
{ACAD_REACTORS
330
418
102
}
330
1F
100
AcDbEntity
  8
LAYER001
100
AcDbBlockReference
  2
SW_NOTE_1
 10
68.9249038098
 20
274.9113812495
 30
0.0
  0
LEADER
  5
418
330
1F
100
AcDbEntity
  8
LAYER001
100
AcDbLeader
  3
SLDDIMSTYLE3
 73
     2
 76
     3
 10
130.4501948928
 20
285.1495330514
 30
0.0
 10
107.5863832577
 20
274.9113812495
 30
0.0
 10
68.9249038098
 20
274.9113812495
 30
0.0
340
417
1001
ACAD
1000
DSTYLE
1002
{
1070
     6
1000
OPEN30
1002
}
  0
INSERT
  5
41E
102
{ACAD_REACTORS
330
41F
102
}
330
1F
100
AcDbEntity
  8
LAYER001
100
AcDbBlockReference
  2
SW_NOTE_2
 10
367.0324379655
 20
424.4158744627
 30
0.0
  0
LEADER
  5
41F
330
1F
100
AcDbEntity
  8
LAYER001
100
AcDbLeader
  3
SLDDIMSTYLE3
 73
     2
 76
     3
 10
332.7743448857
 20
415.1581015755
 30
0.0
 10
344.0917397791
 20
424.4158744627
 30
0.0
 10
367.0324379655
 20
424.4158744627
 30
0.0
340
41E
1001
ACAD
1000
DSTYLE
1002
{
1070
     6
1000
OPEN30
1002
}
  0
INSERT
  5
425
102
{ACAD_REACTORS
330
426
102
}
330
1F
100
AcDbEntity
  8
LAYER001
100
AcDbBlockReference
  2
SW_NOTE_3
 10
-91.0555574551
 20
403.7371057138
 30
0.0
  0
LEADER
  5
426
330
1F
100
AcDbEntity
  8
LAYER001
100
AcDbLeader
  3
SLDDIMSTYLE3
 73
     2
 76
     3
 10
-53.2256551143
 20
411.7275846826
 30
0.0
 10
-68.1148592686
 20
403.7371057138
 30
0.0
 10
-91.0555574551
 20
403.7371057138
 30
0.0
340
425
1001
ACAD
1000
DSTYLE
1002
{
1070
     6
1000
OPEN30
1002
}
  0
MTEXT
  5
427
330
1F
100
AcDbEntity
  8
LAYER001
100
AcDbMText
 10
155.8557443105
 20
599.7367047891
 30
0.0
 40
3.5
 41
0.0
 71
     1
 72
     1
  1
予備ﾌﾗﾝｼﾞ
  7
SLDTEXTSTYLE0
  0
LEADER
  5
428
330
1F
100
AcDbEntity
  8
LAYER001
100
AcDbLeader
  3
SLDDIMSTYLE3
 76
     3
 10
149.216437509
 20
588.9067704315
 30
0.0
 10
155.346756067
 20
595.2137629726
 30
0.0
 10
174.2036023011
 20
595.2137629726
 30
0.0
1001
ACAD
1000
DSTYLE
1002
{
1070
     6
1000
OPEN30
1002
}
  0
MTEXT
  5
429
330
1F
100
AcDbEntity
  8
LAYER001
100
AcDbMText
 10
-64.2926144294
 20
372.4032296345
 30
0.0
 40
3.5
 41
0.0
 71
     1
 72
     1
  1
8-M8
  7
SLDTEXTSTYLE0
  0
LEADER
  5
42A
330
1F
100
AcDbEntity
  8
LAYER001
100
AcDbLeader
  3
SLDDIMSTYLE3
 76
     3
 10
-47.2256551143
 20
379.4508149663
 30
0.0
 10
-54.6613670509
 20
367.8838904129
 30
0.0
 10
-64.2988150648
 20
367.8838904129
 30
0.0
1001
ACAD
1000
DSTYLE
1002
{
1070
     6
1000
OPEN30
1002
}
  0
INSERT
  5
456
330
1F
100
AcDbEntity
  8
LAYER001
100
AcDbBlockReference
  2
SW_CENTERMARKSYMBOL_1
 10
8.9595903662
 20
542.8004015957
 30
0.0
  0
INSERT
  5
462
330
1F
100
AcDbEntity
  8
LAYER001
100
AcDbBlockReference
  2
SW_CENTERMARKSYMBOL_2
 10
99.7743448857
 20
536.9856470762
 30
0.0
  0
INSERT
  5
46E
330
1F
100
AcDbEntity
  8
LAYER001
100
AcDbBlockReference
  2
SW_CENTERMARKSYMBOL_3
 10
71.8743448857
 20
455.9856470762
 30
0.0
  0
INSERT
  5
47A
330
1F
100
AcDbEntity
  8
LAYER001
100
AcDbBlockReference
  2
SW_CENTERMARKSYMBOL_4
 10
139.7743448857
 20
290.9856470762
 30
0.0
  0
ENDSEC
  0
SECTION
  2
OBJECTS
  0
DICTIONARY
  5
C
330
0
100
AcDbDictionary
  3
ACAD_GROUP
350
D
  3
ACAD_MLINESTYLE
350
17
  0
DICTIONARY
  5
D
102
{ACAD_REACTORS
330
C
102
}
330
C
100
AcDbDictionary
  0
DICTIONARY
  5
17
102
{ACAD_REACTORS
330
C
102
}
330
C
100
AcDbDictionary
  3
STANDARD
350
18
  0
MLINESTYLE
  5
18
102
{ACAD_REACTORS
330
17
102
}
330
17
100
AcDbMlineStyle
  2
Standard
 70
     0
  3

 62
   256
 51
90.0
 52
90.0
 71
     2
 49
0.5
 62
   256
  6
BYLAYER
 49
-0.5
 62
   256
  6
BYLAYER
  0
ENDSEC
  0
EOF
