  0
SECTION
  2
HEADER
  9
$ACADVER
  1
AC1015
  9
$ACADMAINTVER
 70
     6
  9
$DWGCODEPAGE
  3
DOS932
  9
$INSBASE
 10
0.0
 20
0.0
 30
0.0
  9
$EXTMIN
 10
0.0
 20
0.0
 30
0.0
  9
$EXTMAX
 10
420.0
 20
297.0
 30
0.0
  9
$LIMMIN
 10
0.0
 20
0.0
  9
$LIMMAX
 10
420.0
 20
297.0
  9
$ORTHOMODE
 70
     0
  9
$REGENMODE
 70
     1
  9
$FILLMODE
 70
     1
  9
$QTEXTMODE
 70
     0
  9
$MIRRTEXT
 70
     1
  9
$LTSCALE
 40
1.0
  9
$ATTMODE
 70
     1
  9
$TEXTSIZE
 40
3.5
  9
$TRACEWID
 40
1.0
  9
$TEXTSTYLE
  7
Standard
  9
$CLAYER
  8
0
  9
$CELTYPE
  6
ByLayer
  9
$CECOLOR
 62
   256
  9
$CELTSCALE
 40
1.0
  9
$DISPSILH
 70
     0
  9
$DIMSCALE
 40
1.0
  9
$DIMASZ
 40
2.0
  9
$DIMEXO
 40
1.0
  9
$DIMDLI
 40
3.75
  9
$DIMRND
 40
0.0
  9
$DIMDLE
 40
0.0
  9
$DIMEXE
 40
1.0
  9
$DIMTP
 40
0.0
  9
$DIMTM
 40
0.0
  9
$DIMTXT
 40
4.2333333333
  9
$DIMCEN
 40
2.5
  9
$DIMTSZ
 40
0.0
  9
$DIMTOL
 70
     0
  9
$DIMLIM
 70
     0
  9
$DIMTIH
 70
     1
  9
$DIMTOH
 70
     1
  9
$DIMSE1
 70
     0
  9
$DIMSE2
 70
     0
  9
$DIMTAD
 70
     1
  9
$DIMZIN
 70
     0
  9
$DIMBLK
  1

  9
$DIMASO
 70
     1
  9
$DIMSHO
 70
     1
  9
$DIMPOST
  1

  9
$DIMAPOST
  1

  9
$DIMALT
 70
     0
  9
$DIMALTD
 70
     3
  9
$DIMALTF
 40
0.0393700787
  9
$DIMLFAC
 40
1.0
  9
$DIMTOFL
 70
     1
  9
$DIMTVP
 40
0.0
  9
$DIMTIX
 70
     0
  9
$DIMSOXD
 70
     0
  9
$DIMSAH
 70
     0
  9
$DIMBLK1
  1

  9
$DIMBLK2
  1

  9
$DIMSTYLE
  2
ISO-25
  9
$DIMCLRD
 70
     0
  9
$DIMCLRE
 70
     0
  9
$DIMCLRT
 70
     0
  9
$DIMTFAC
 40
1.0
  9
$DIMGAP
 40
1.524
  9
$DIMJUST
 70
     0
  9
$DIMSD1
 70
     0
  9
$DIMSD2
 70
     0
  9
$DIMTOLJ
 70
     0
  9
$DIMTZIN
 70
     0
  9
$DIMALTZ
 70
     0
  9
$DIMALTTZ
 70
     0
  9
$DIMUPT
 70
     0
  9
$DIMDEC
 70
     3
  9
$DIMTDEC
 70
     3
  9
$DIMALTU
 70
     2
  9
$DIMALTTD
 70
     3
  9
$DIMTXSTY
  7
Standard
  9
$DIMAUNIT
 70
     0
  9
$DIMADEC
 70
     0
  9
$DIMALTRND
 40
0.0
  9
$DIMAZIN
 70
     0
  9
$DIMDSEP
 70
    44
  9
$DIMATFIT
 70
     3
  9
$DIMFRAC
 70
     0
  9
$DIMLDRBLK
  1

  9
$DIMLUNIT
 70
     2
  9
$DIMLWD
 70
    -2
  9
$DIMLWE
 70
    -2
  9
$DIMTMOVE
 70
     0
  9
$LUNITS
 70
     2
  9
$LUPREC
 70
     3
  9
$SKETCHINC
 40
1.0
  9
$FILLETRAD
 40
10.0
  9
$AUNITS
 70
     0
  9
$AUPREC
 70
     0
  9
$MENU
  1
.
  9
$ELEVATION
 40
0.0
  9
$PELEVATION
 40
0.0
  9
$THICKNESS
 40
0.0
  9
$LIMCHECK
 70
     0
  9
$CHAMFERA
 40
10.0
  9
$CHAMFERB
 40
10.0
  9
$CHAMFERC
 40
20.0
  9
$CHAMFERD
 40
0.0
  9
$SKPOLY
 70
     0
  9
$TDCREATE
 40
2456626.433793762
  9
$TDUCREATE
 40
2456626.058793762
  9
$TDUPDATE
 40
2456626.433795023
  9
$TDUUPDATE
 40
2456626.058795023
  9
$TDINDWG
 40
0.0000000116
  9
$TDUSRTIMER
 40
0.0000000116
  9
$USRTIMER
 70
     1
  9
$ANGBASE
 50
0.0
  9
$ANGDIR
 70
     0
  9
$PDMODE
 70
     0
  9
$PDSIZE
 40
-1.0
  9
$PLINEWID
 40
0.0
  9
$SPLFRAME
 70
     0
  9
$SPLINETYPE
 70
     6
  9
$SPLINESEGS
 70
     8
  9
$HANDSEED
  5
247
  9
$SURFTAB1
 70
     6
  9
$SURFTAB2
 70
     6
  9
$SURFTYPE
 70
     6
  9
$SURFU
 70
     6
  9
$SURFV
 70
     6
  9
$UCSBASE
  2

  9
$UCSNAME
  2

  9
$UCSORG
 10
0.0
 20
0.0
 30
0.0
  9
$UCSXDIR
 10
1.0
 20
0.0
 30
0.0
  9
$UCSYDIR
 10
0.0
 20
1.0
 30
0.0
  9
$UCSORTHOREF
  2

  9
$UCSORTHOVIEW
 70
     0
  9
$UCSORGTOP
 10
0.0
 20
0.0
 30
0.0
  9
$UCSORGBOTTOM
 10
0.0
 20
0.0
 30
0.0
  9
$UCSORGLEFT
 10
0.0
 20
0.0
 30
0.0
  9
$UCSORGRIGHT
 10
0.0
 20
0.0
 30
0.0
  9
$UCSORGFRONT
 10
0.0
 20
0.0
 30
0.0
  9
$UCSORGBACK
 10
0.0
 20
0.0
 30
0.0
  9
$PUCSBASE
  2

  9
$PUCSNAME
  2

  9
$PUCSORG
 10
0.0
 20
0.0
 30
0.0
  9
$PUCSXDIR
 10
1.0
 20
0.0
 30
0.0
  9
$PUCSYDIR
 10
0.0
 20
1.0
 30
0.0
  9
$PUCSORTHOREF
  2

  9
$PUCSORTHOVIEW
 70
     0
  9
$PUCSORGTOP
 10
0.0
 20
0.0
 30
0.0
  9
$PUCSORGBOTTOM
 10
0.0
 20
0.0
 30
0.0
  9
$PUCSORGLEFT
 10
0.0
 20
0.0
 30
0.0
  9
$PUCSORGRIGHT
 10
0.0
 20
0.0
 30
0.0
  9
$PUCSORGFRONT
 10
0.0
 20
0.0
 30
0.0
  9
$PUCSORGBACK
 10
0.0
 20
0.0
 30
0.0
  9
$USERI1
 70
     0
  9
$USERI2
 70
     0
  9
$USERI3
 70
     0
  9
$USERI4
 70
     0
  9
$USERI5
 70
     0
  9
$USERR1
 40
0.0
  9
$USERR2
 40
0.0
  9
$USERR3
 40
0.0
  9
$USERR4
 40
0.0
  9
$USERR5
 40
0.0
  9
$WORLDVIEW
 70
     1
  9
$SHADEDGE
 70
     3
  9
$SHADEDIF
 70
    70
  9
$TILEMODE
 70
     1
  9
$MAXACTVP
 70
    64
  9
$PINSBASE
 10
0.0
 20
0.0
 30
0.0
  9
$PLIMCHECK
 70
     0
  9
$PEXTMIN
 10
1.0000000000E+20
 20
1.0000000000E+20
 30
1.0000000000E+20
  9
$PEXTMAX
 10
-1.0000000000E+20
 20
-1.0000000000E+20
 30
-1.0000000000E+20
  9
$PLIMMIN
 10
0.0
 20
0.0
  9
$PLIMMAX
 10
420.0
 20
297.0
  9
$UNITMODE
 70
     0
  9
$VISRETAIN
 70
     1
  9
$PLINEGEN
 70
     0
  9
$PSLTSCALE
 70
     1
  9
$TREEDEPTH
 70
  3020
  9
$CMLSTYLE
  2
Standard
  9
$CMLJUST
 70
     0
  9
$CMLSCALE
 40
20.0
  9
$PROXYGRAPHICS
 70
     1
  9
$MEASUREMENT
 70
     1
  9
$CELWEIGHT
370
    -1
  9
$ENDCAPS
280
     0
  9
$JOINSTYLE
280
     0
  9
$LWDISPLAY
290
     1
  9
$INSUNITS
 70
     4
  9
$HYPERLINKBASE
  1

  9
$STYLESHEET
  1

  9
$XEDIT
290
     1
  9
$CEPSNTYPE
380
     0
  9
$PSTYLEMODE
290
     1
  9
$FINGERPRINTGUID
  2
{B537867E-AEB9-4DDB-910F-DB0015B7C50D}
  9
$VERSIONGUID
  2
{FAEB1C32-E019-11D5-929B-00C0DF256EC4}
  9
$EXTNAMES
290
     1
  9
$PSVPSCALE
 40
0.0
  9
$OLESTARTUP
290
     0
  0
ENDSEC
  0
SECTION
  2
CLASSES
  0
CLASS
  1
ACDBDICTIONARYWDFLT
  2
AcDbDictionaryWithDefault
  3
ObjectDBX Classes
 90
        0
280
     0
281
     0
  0
CLASS
  1
VISUALSTYLE
  2
AcDbVisualStyle
  3
ObjectDBX Classes
 90
     4095
280
     0
281
     0
  0
CLASS
  1
MATERIAL
  2
AcDbMaterial
  3
ObjectDBX Classes
 90
     1153
280
     0
281
     0
  0
CLASS
  1
ACDBPLACEHOLDER
  2
AcDbPlaceHolder
  3
ObjectDBX Classes
 90
        0
280
     0
281
     0
  0
CLASS
  1
LAYOUT
  2
AcDbLayout
  3
ObjectDBX Classes
 90
        0
280
     0
281
     0
  0
ENDSEC
  0
SECTION
  2
TABLES
  0
TABLE
  2
VPORT
  5
8
330
0
100
AcDbSymbolTable
 70
     1
  0
VPORT
  5
29
330
8
100
AcDbSymbolTableRecord
100
AcDbViewportTableRecord
  2
*Active
 70
     0
 10
0.0
 20
0.0
 11
1.0
 21
1.0
 12
210.0
 22
148.5
 13
0.0
 23
0.0
 14
10.0
 24
10.0
 15
10.0
 25
10.0
 16
0.0
 26
0.0
 36
1.0
 17
0.0
 27
0.0
 37
0.0
 40
297.0
 41
1.4141414141
 42
50.0
 43
0.0
 44
0.0
 50
0.0
 51
0.0
 71
     0
 72
  2000
 73
     1
 74
     3
 75
     0
 76
     0
 77
     0
 78
     0
281
     0
 65
     1
110
0.0
120
0.0
130
0.0
111
1.0
121
0.0
131
0.0
112
0.0
122
1.0
132
0.0
 79
     0
146
0.0
  0
ENDTAB
  0
TABLE
  2
LTYPE
  5
5
330
0
100
AcDbSymbolTable
 70
     6
  0
LTYPE
  5
14
330
5
100
AcDbSymbolTableRecord
100
AcDbLinetypeTableRecord
  2
ByBlock
 70
     0
  3

 72
    65
 73
     0
 40
0.0
  0
LTYPE
  5
15
330
5
100
AcDbSymbolTableRecord
100
AcDbLinetypeTableRecord
  2
ByLayer
 70
     0
  3

 72
    65
 73
     0
 40
0.0
  0
LTYPE
  5
16
330
5
100
AcDbSymbolTableRecord
100
AcDbLinetypeTableRecord
  2
Continuous
 70
     0
  3
Solid line
 72
    65
 73
     0
 40
0.0
  0
LTYPE
  5
3F
330
5
100
AcDbSymbolTableRecord
100
AcDbLinetypeTableRecord
  2
HIDDEN
 70
     0
  3
Hidden __ __ __ __ __ __ __ __ __ __ __ __ __ __
 72
    65
 73
     2
 40
1.905
 49
1.27
 74
     0
 49
-0.635
 74
     0
  0
LTYPE
  5
40
330
5
100
AcDbSymbolTableRecord
100
AcDbLinetypeTableRecord
  2
PHANTOM
 70
     0
  3
Phantom ______  __  __  ______  __  __  ______
 72
    65
 73
     6
 40
12.7
 49
6.35
 74
     0
 49
-1.27
 74
     0
 49
1.27
 74
     0
 49
-1.27
 74
     0
 49
1.27
 74
     0
 49
-1.27
 74
     0
  0
LTYPE
  5
41
330
5
100
AcDbSymbolTableRecord
100
AcDbLinetypeTableRecord
  2
CENTER
 70
     0
  3
Center ____ _ ____ _ ____ _ ____ _ ____ _ ____
 72
    65
 73
     4
 40
10.16
 49
6.35
 74
     0
 49
-1.27
 74
     0
 49
1.27
 74
     0
 49
-1.27
 74
     0
  0
LTYPE
  5
42
330
5
100
AcDbSymbolTableRecord
100
AcDbLinetypeTableRecord
  2
CENTERX2
 70
     0
  3
Center (2x) ________  __  ________  __  _____
 72
    65
 73
     4
 40
20.32
 49
12.7
 74
     0
 49
-2.54
 74
     0
 49
2.54
 74
     0
 49
-2.54
 74
     0
  0
LTYPE
  5
43
330
5
100
AcDbSymbolTableRecord
100
AcDbLinetypeTableRecord
  2
DOT2
 70
     0
  3
Dot (.5x) ........................................
 72
    65
 73
     2
 40
0.635
 49
0.0
 74
     0
 49
-0.635
 74
     0
  0
ENDTAB
  0
TABLE
  2
LAYER
  5
2
330
0
100
AcDbSymbolTable
 70
     2
  0
LAYER
  5
10
330
2
100
AcDbSymbolTableRecord
100
AcDbLayerTableRecord
  2
0
 70
     0
 62
     7
  6
Continuous
370
    -3
390
F
  0
LAYER
  5
44
330
2
100
AcDbSymbolTableRecord
100
AcDbLayerTableRecord
  2
SLD-0
 70
     0
 62
     3
  6
Continuous
370
    -3
390
F
  0
ENDTAB
  0
TABLE
  2
STYLE
  5
3
330
0
100
AcDbSymbolTable
 70
     2
  0
STYLE
  5
11
330
3
100
AcDbSymbolTableRecord
100
AcDbTextStyleTableRecord
  2
Standard
 70
     0
 40
0.0
 41
1.0
 50
0.0
 71
     0
 42
3.5
  3
txt
  4
bigfont
  0
STYLE
  5
172
330
3
100
AcDbSymbolTableRecord
100
AcDbTextStyleTableRecord
  2
SLDTEXTSTYLE0
 70
     0
 40
0.0
 41
0.7
 50
0.0
 71
     0
 42
0.2
  3
TXT
  4
bigfont
  0
ENDTAB
  0
TABLE
  2
VIEW
  5
6
330
0
100
AcDbSymbolTable
 70
     0
  0
ENDTAB
  0
TABLE
  2
UCS
  5
7
330
0
100
AcDbSymbolTable
 70
     0
  0
ENDTAB
  0
TABLE
  2
APPID
  5
9
330
0
100
AcDbSymbolTable
 70
     1
  0
APPID
  5
12
330
9
100
AcDbSymbolTableRecord
100
AcDbRegAppTableRecord
  2
ACAD
 70
     0
  0
ENDTAB
  0
TABLE
  2
DIMSTYLE
  5
A
330
0
100
AcDbSymbolTable
 70
     2
100
AcDbDimStyleTable
  0
DIMSTYLE
105
27
330
A
100
AcDbSymbolTableRecord
100
AcDbDimStyleTableRecord
  2
ISO-25
 70
     0
 41
2.5
 42
0.625
 43
3.75
 44
1.25
 73
     0
 74
     0
 77
     1
 78
     8
140
2.5
141
2.5
143
0.0393700787
147
0.625
171
     3
172
     1
178
     0
271
     2
272
     2
274
     3
278
    44
283
     0
284
     8
340
11
  0
DIMSTYLE
105
173
102
{ACAD_REACTORS
330
171
330
183
102
}
330
A
100
AcDbSymbolTableRecord
100
AcDbDimStyleTableRecord
  2
SLDDIMSTYLE0
 70
     0
 41
2.0
 44
0.0
 45
0.000000001
 73
     0
 74
     0
 77
     3
 78
    12
 79
     3
140
3.6380208333
147
0.9095052083
173
     1
178
     0
271
     0
272
     0
276
     2
284
    12
340
172
341
174
343
174
344
174
  0
ENDTAB
  0
TABLE
  2
BLOCK_RECORD
  5
1
330
0
100
AcDbSymbolTable
 70
     4
  0
BLOCK_RECORD
  5
1F
330
1
100
AcDbSymbolTableRecord
100
AcDbBlockTableRecord
  2
*Model_Space
340
22
  0
BLOCK_RECORD
  5
1B
330
1
100
AcDbSymbolTableRecord
100
AcDbBlockTableRecord
  2
*Paper_Space
340
1E
  0
BLOCK_RECORD
  5
23
330
1
100
AcDbSymbolTableRecord
100
AcDbBlockTableRecord
  2
*Paper_Space0
340
26
  0
BLOCK_RECORD
  5
174
330
1
100
AcDbSymbolTableRecord
100
AcDbBlockTableRecord
  2
_OPEN30
340
0
102
{BLKREFS
331
17D
331
17E
331
187
331
188
102
}
  0
BLOCK_RECORD
  5
17A
330
1
100
AcDbSymbolTableRecord
100
AcDbBlockTableRecord
  2
_D
340
0
  0
BLOCK_RECORD
  5
184
330
1
100
AcDbSymbolTableRecord
100
AcDbBlockTableRecord
  2
_D_1
340
0
  0
ENDTAB
  0
ENDSEC
  0
SECTION
  2
BLOCKS
  0
BLOCK
  5
20
330
1F
100
AcDbEntity
  8
0
100
AcDbBlockBegin
  2
*Model_Space
 70
     0
 10
0.0
 20
0.0
 30
0.0
  3
*Model_Space
  1

  0
ENDBLK
  5
21
330
1F
100
AcDbEntity
  8
0
100
AcDbBlockEnd
  0
BLOCK
  5
1C
330
1B
100
AcDbEntity
 67
     1
  8
0
100
AcDbBlockBegin
  2
*Paper_Space
 70
     0
 10
0.0
 20
0.0
 30
0.0
  3
*Paper_Space
  1

  0
ENDBLK
  5
1D
330
1B
100
AcDbEntity
 67
     1
  8
0
100
AcDbBlockEnd
  0
BLOCK
  5
24
330
23
100
AcDbEntity
  8
0
100
AcDbBlockBegin
  2
*Paper_Space0
 70
     0
 10
0.0
 20
0.0
 30
0.0
  3
*Paper_Space0
  1

  0
ENDBLK
  5
25
330
23
100
AcDbEntity
  8
0
100
AcDbBlockEnd
  0
BLOCK
  5
175
330
174
100
AcDbEntity
  8
0
100
AcDbBlockBegin
  2
_OPEN30
 70
     0
 10
0.0
 20
0.0
 30
0.0
  3
_OPEN30
  1

  0
LINE
  5
177
330
174
100
AcDbEntity
  8
0
  6
ByBlock
 62
     0
370
    -2
100
AcDbLine
 10
-1.0
 20
0.267949
 30
0.0
 11
0.0
 21
0.0
 31
0.0
  0
LINE
  5
178
330
174
100
AcDbEntity
  8
0
  6
ByBlock
 62
     0
370
    -2
100
AcDbLine
 10
0.0
 20
0.0
 30
0.0
 11
-1.0
 21
-0.267949
 31
0.0
  0
LINE
  5
179
330
174
100
AcDbEntity
  8
0
  6
ByBlock
 62
     0
370
    -2
100
AcDbLine
 10
0.0
 20
0.0
 30
0.0
 11
-1.0
 21
0.0
 31
0.0
  0
ENDBLK
  5
176
330
174
100
AcDbEntity
  8
0
100
AcDbBlockEnd
  0
BLOCK
  5
17B
330
17A
100
AcDbEntity
  8
0
100
AcDbBlockBegin
  2
_D
 70
     0
 10
0.0
 20
0.0
 30
0.0
  3
_D
  1

  0
INSERT
  5
17D
330
17A
100
AcDbEntity
  8
SLD-0
 62
     7
100
AcDbBlockReference
  2
_OPEN30
 10
695.2406024328
 20
629.1158199757
 30
0.1
 41
2.0
 42
2.0
 50
90.0
  0
INSERT
  5
17E
330
17A
100
AcDbEntity
  8
SLD-0
 62
     7
100
AcDbBlockReference
  2
_OPEN30
 10
695.2406024328
 20
65.1372989153
 30
0.1
 41
2.0
 42
2.0
 50
270.0
  0
LINE
  5
17F
330
17A
100
AcDbEntity
  8
SLD-0
 62
     7
100
AcDbLine
 10
433.9357823707
 20
629.1158199757
 30
0.0
 11
696.2406024328
 21
629.1158199757
 31
0.0
  0
LINE
  5
180
330
17A
100
AcDbEntity
  8
SLD-0
 62
     7
100
AcDbLine
 10
604.9944151944
 20
65.1372989153
 30
0.0
 11
696.2406024328
 21
65.1372989153
 31
0.0
  0
LINE
  5
181
330
17A
100
AcDbEntity
  8
SLD-0
 62
     7
100
AcDbLine
 10
695.2406024328
 20
629.1158199757
 30
0.0
 11
695.2406024328
 21
65.1372989153
 31
0.0
  0
MTEXT
  5
182
330
17A
100
AcDbEntity
  8
SLD-0
 62
     7
100
AcDbMText
 10
691.1478124754
 20
358.6595961938
 30
0.0
 40
3.175
 41
0.0
 71
     1
 72
     1
  1
564
  7
SLDTEXTSTYLE0
 11
-7.044195017643634E-15
 21
1.0
 31
0.0
 73
     1
 44
1.0
  0
ENDBLK
  5
17C
330
17A
100
AcDbEntity
  8
0
100
AcDbBlockEnd
  0
BLOCK
  5
185
330
184
100
AcDbEntity
  8
0
100
AcDbBlockBegin
  2
_D_1
 70
     0
 10
0.0
 20
0.0
 30
0.0
  3
_D_1
  1

  0
INSERT
  5
187
330
184
100
AcDbEntity
  8
SLD-0
 62
     7
100
AcDbBlockReference
  2
_OPEN30
 10
215.8357823707
 20
639.2092115509
 30
0.1
 41
2.0
 42
2.0
 50
180.0
  0
INSERT
  5
188
330
184
100
AcDbEntity
  8
SLD-0
 62
     7
100
AcDbBlockReference
  2
_OPEN30
 10
634.0357823707
 20
639.2092115509
 30
0.1
 41
2.0
 42
2.0
 50
0.0
  0
LINE
  5
189
330
184
100
AcDbEntity
  8
SLD-0
 62
     7
100
AcDbLine
 10
215.8357823707
 20
295.1371534607
 30
0.0
 11
215.8357823707
 21
640.2092115509
 31
0.0
  0
LINE
  5
18A
330
184
100
AcDbEntity
  8
SLD-0
 62
     7
100
AcDbLine
 10
634.0357823707
 20
295.1371534607
 30
0.0
 11
634.0357823707
 21
640.2092115509
 31
0.0
  0
LINE
  5
18B
330
184
100
AcDbEntity
  8
SLD-0
 62
     7
100
AcDbLine
 10
215.8357823707
 20
639.2092115509
 30
0.0
 11
634.0357823707
 21
639.2092115509
 31
0.0
  0
MTEXT
  5
18C
330
184
100
AcDbEntity
  8
SLD-0
 62
     7
100
AcDbMText
 10
418.9160611408
 20
643.3020015665
 30
0.0
 40
3.175
 41
0.0
 71
     1
 72
     1
  1
%%c
  7
SLDTEXTSTYLE0
 73
     1
 44
1.0
  0
MTEXT
  5
18D
330
184
100
AcDbEntity
  8
SLD-0
 62
     7
100
AcDbMText
 10
422.9254401262
 20
643.3020015083
 30
0.0
 40
3.175
 41
0.0
 71
     1
 72
     1
  1
418
  7
SLDTEXTSTYLE0
 73
     1
 44
1.0
  0
ENDBLK
  5
186
330
184
100
AcDbEntity
  8
0
100
AcDbBlockEnd
  0
ENDSEC
  0
SECTION
  2
ENTITIES
  0
LINE
  5
45
330
1F
100
AcDbEntity
  8
0
  6
Continuous
 62
     7
370
    15
100
AcDbLine
 10
250.544527588
 20
314.6176173424
 30
0.0
 11
246.834809003
 21
314.1190244888
 31
0.0
  0
LINE
  5
46
330
1F
100
AcDbEntity
  8
0
  6
Continuous
 62
     7
370
    15
100
AcDbLine
 10
246.834809003
 20
301.1555804943
 30
0.0
 11
250.544527588
 21
300.6569876408
 31
0.0
  0
LINE
  5
47
330
1F
100
AcDbEntity
  8
0
  6
Continuous
 62
     7
370
    15
100
AcDbLine
 10
262.5656370498
 20
84.6266544496
 30
0.0
 11
262.5656370498
 21
85.7266544437
 31
0.0
  0
LINE
  5
48
330
1F
100
AcDbEntity
  8
0
  6
Continuous
 62
     7
370
    15
100
AcDbLine
 10
254.5656357385
 20
85.7266544437
 30
0.0
 11
254.5656357385
 21
84.6266544496
 31
0.0
  0
ARC
  5
49
330
1F
100
AcDbEntity
  8
0
  6
Continuous
 62
     7
370
    15
100
AcDbCircle
 10
260.5656381043
 20
85.7266546482
 30
0.0
 40
2.0
100
AcDbArc
 50
0.0
 51
90.0
  0
ARC
  5
4A
330
1F
100
AcDbEntity
  8
0
  6
Continuous
 62
     7
370
    15
100
AcDbCircle
 10
256.5656381043
 20
85.7266546482
 30
0.0
 40
2.00000000000004
100
AcDbArc
 50
120.4320528999
 51
180.0
  0
LINE
  5
4B
330
1F
100
AcDbEntity
  8
0
  6
Continuous
 62
     7
370
    15
100
AcDbLine
 10
260.5656329966
 20
82.0979869997
 30
0.0
 11
260.5656329966
 21
84.6266544496
 31
0.0
  0
LINE
  5
4C
330
1F
100
AcDbEntity
  8
0
  6
Continuous
 62
     7
370
    15
100
AcDbLine
 10
256.5656397916
 20
84.6266544496
 30
0.0
 11
256.5656397916
 21
82.0187696328
 31
0.0
  0
LINE
  5
4D
330
1F
100
AcDbEntity
  8
0
  6
Continuous
 62
     7
370
    15
100
AcDbLine
 10
166.9357959605
 20
459.3532963728
 30
0.0
 11
166.9357959605
 21
480.6373103594
 31
0.0
  0
LINE
  5
4E
330
1F
100
AcDbEntity
  8
0
  6
Continuous
 62
     7
370
    15
100
AcDbLine
 10
166.9357959605
 20
380.6372865175
 30
0.0
 11
166.9357959605
 21
413.9203413462
 31
0.0
  0
LINE
  5
4F
330
1F
100
AcDbEntity
  8
0
  6
Continuous
 62
     7
370
    15
100
AcDbLine
 10
106.9357935763
 20
480.6373103594
 30
0.0
 11
106.9357935763
 21
380.6372865175
 31
0.0
  0
ARC
  5
50
330
1F
100
AcDbEntity
  8
0
  6
Continuous
 62
     7
370
    15
100
AcDbCircle
 10
116.9357823707
 20
480.6372989153
 30
0.0
 40
10.00000000000001
100
AcDbArc
 50
90.0
 51
180.0
  0
ARC
  5
51
330
1F
100
AcDbEntity
  8
0
  6
Continuous
 62
     7
370
    15
100
AcDbCircle
 10
156.9357823707
 20
480.6372989153
 30
0.0
 40
10.00000000000003
100
AcDbArc
 50
0.0
 51
90.0
  0
ARC
  5
52
330
1F
100
AcDbEntity
  8
0
  6
Continuous
 62
     7
370
    15
100
AcDbCircle
 10
196.4357823707
 20
462.7089712249
 30
0.0
 40
3.000000000000039
100
AcDbArc
 50
180.0
 51
271.0
  0
ARC
  5
53
330
1F
100
AcDbEntity
  8
0
  6
Continuous
 62
     7
370
    15
100
AcDbCircle
 10
196.4357823707
 20
410.5656266057
 30
0.0
 40
3.000000000000028
100
AcDbArc
 50
89.0
 51
180.0
  0
LINE
  5
54
330
1F
100
AcDbEntity
  8
0
  6
Continuous
 62
     7
370
    15
100
AcDbLine
 10
223.8852326251
 20
460.1876421904
 30
0.0
 11
196.488136468
 21
459.7094341253
 31
0.0
  0
LINE
  5
55
330
1F
100
AcDbEntity
  8
0
  6
Continuous
 62
     7
370
    15
100
AcDbLine
 10
196.488136468
 20
413.565157268
 30
0.0
 11
222.5421462632
 21
413.1104036306
 31
0.0
  0
ARC
  5
56
330
1F
100
AcDbEntity
  8
0
  6
Continuous
 62
     7
370
    15
100
AcDbCircle
 10
165.4357823707
 20
459.6372989153
 30
0.0
 40
3.00000000000003
100
AcDbArc
 50
315.5643534413
 51
0.0
  0
ARC
  5
57
330
1F
100
AcDbEntity
  8
0
  6
Continuous
 62
     7
370
    15
100
AcDbCircle
 10
165.4357823707
 20
413.6372989153
 30
0.0
 40
3.000000000000005
100
AcDbArc
 50
0.0
 51
44.4463876758
  0
SPLINE
  5
58
330
1F
100
AcDbEntity
  8
0
  6
Continuous
 62
     7
370
    15
100
AcDbSpline
210
0.0
220
0.0
230
1.0
 70
     8
 71
     3
 72
    16
 73
    12
 74
     0
 42
0.00000001
 43
0.00000001
 12
1.0
 22
0.0
 32
0.0
 13
1.0
 23
0.0
 33
0.0
 40
0.0
 40
0.0
 40
0.0
 40
0.0
 40
0.0398774921286013
 40
0.1740397231222069
 40
0.3007655663309826
 40
0.4283787878441542
 40
0.5521561889222236
 40
0.6724099572532467
 40
0.7900872033157809
 40
0.9069909438683545
 40
1.0
 40
1.0
 40
1.0
 40
1.0
 10
167.664403138248
 20
457.5663491224383
 30
0.0
 10
167.6416485267862
 20
457.5895047574778
 30
0.0
 10
167.5423392155137
 20
457.6905642799272
 30
0.0
 10
167.4016732996245
 20
457.8868676879336
 30
0.0
 10
167.2452222600472
 20
458.1443483126044
 30
0.0
 10
167.1267523440397
 20
458.4007107158823
 30
0.0
 10
167.0405547982396
 20
458.647249097292
 30
0.0
 10
166.9840135037225
 20
458.8745904258403
 30
0.0
 10
166.9514444008877
 20
459.0762745228039
 30
0.0
 10
166.9368074357459
 20
459.2415618743487
 30
0.0
 10
166.9360652199884
 20
459.3243795641621
 30
0.0
 10
166.9357363558689
 20
459.3610747789477
 30
0.0
  0
SPLINE
  5
59
330
1F
100
AcDbEntity
  8
0
  6
Continuous
 62
     7
370
    15
100
AcDbSpline
210
0.0
220
0.0
230
1.0
 70
     8
 71
     3
 72
    16
 73
    12
 74
     0
 42
0.00000001
 43
0.00000001
 12
1.0
 22
0.0
 32
0.0
 13
1.0
 23
0.0
 33
0.0
 40
0.0
 40
0.0
 40
0.0
 40
0.0
 40
0.0199058407549549
 40
0.1426342365526149
 40
0.2646555402300669
 40
0.3875460348882213
 40
0.5131853740758926
 40
0.6423986980477377
 40
0.774948288107549
 40
0.909973551149486
 40
1.0
 40
1.0
 40
1.0
 40
1.0
 10
166.9364218092838
 20
413.9168246721362
 30
0.0
 10
166.9362941237757
 20
413.9235809916658
 30
0.0
 10
166.9353792001012
 20
413.9719930376516
 30
0.0
 10
166.9417824642927
 20
414.092729915156
 30
0.0
 10
166.9628821001687
 20
414.2787464249965
 30
0.0
 10
167.0051864419137
 20
414.4939698360544
 30
0.0
 10
167.0737247651938
 20
414.7305618604105
 30
0.0
 10
167.1735857500657
 20
414.9837581675019
 30
0.0
 10
167.3099708697917
 20
415.2434259262905
 30
0.0
 10
167.4579348562247
 20
415.473879925943
 30
0.0
 10
167.5751606987148
 20
415.6059847194359
 30
0.0
 10
167.6220540381351
 20
415.6588300203417
 30
0.0
  0
LINE
  5
5A
330
1F
100
AcDbEntity
  8
0
  6
Continuous
 62
     7
370
    15
100
AcDbLine
 10
190.4357765294
 20
481.6372974848
 30
0.0
 11
171.4357678271
 21
481.6372974848
 31
0.0
  0
ARC
  5
5B
330
1F
100
AcDbEntity
  8
0
  6
Continuous
 62
     7
370
    15
100
AcDbCircle
 10
190.4357823707
 20
478.6372989153
 30
0.0
 40
3.0
100
AcDbArc
 50
0.0
 51
90.0
  0
ARC
  5
5C
330
1F
100
AcDbEntity
  8
0
  6
Continuous
 62
     7
370
    15
100
AcDbCircle
 10
171.4357823707
 20
478.6372989153
 30
0.0
 40
3.0
100
AcDbArc
 50
90.0
 51
180.0
  0
LINE
  5
5D
330
1F
100
AcDbEntity
  8
0
  6
Continuous
 62
     7
370
    15
100
AcDbLine
 10
171.4357678271
 20
391.6372939085
 30
0.0
 11
190.4357765294
 21
391.6372939085
 31
0.0
  0
ARC
  5
5E
330
1F
100
AcDbEntity
  8
0
  6
Continuous
 62
     7
370
    15
100
AcDbCircle
 10
171.4357823707
 20
394.6372989153
 30
0.0
 40
3.0
100
AcDbArc
 50
180.0
 51
270.0
  0
ARC
  5
5F
330
1F
100
AcDbEntity
  8
0
  6
Continuous
 62
     7
370
    15
100
AcDbCircle
 10
190.4357823707
 20
394.6372989153
 30
0.0
 40
3.0
100
AcDbArc
 50
270.0
 51
0.0
  0
LINE
  5
60
330
1F
100
AcDbEntity
  8
0
  6
Continuous
 62
     7
370
    15
100
AcDbLine
 10
634.0419445611
 20
294.1371484732
 30
0.0
 11
633.6475853301
 21
316.7296930288
 31
0.0
  0
ARC
  5
61
330
1F
100
AcDbEntity
  8
0
  6
Continuous
 62
     7
370
    15
100
AcDbCircle
 10
632.6477401212
 20
316.7122333522
 30
0.0
 40
1.00000000000048
100
AcDbArc
 50
1.0
 51
45.0
  0
LINE
  5
62
330
1F
100
AcDbEntity
  8
0
  6
Continuous
 62
     7
370
    15
100
AcDbLine
 10
633.3548520184
 20
317.4193336701
 30
0.0
 11
631.9262329913
 21
318.8479675984
 31
0.0
  0
ARC
  5
63
330
1F
100
AcDbEntity
  8
0
  6
Continuous
 62
     7
370
    15
100
AcDbCircle
 10
632.6333330517
 20
319.5550675464
 30
0.0
 40
0.9999999999996061
100
AcDbArc
 50
181.0
 51
225.0
  0
LINE
  5
64
330
1F
100
AcDbEntity
  8
0
  6
Continuous
 62
     7
370
    15
100
AcDbLine
 10
631.6334847785
 20
319.5376082396
 30
0.0
 11
630.680451212
 21
374.1371615862
 31
0.0
  0
LINE
  5
65
330
1F
100
AcDbEntity
  8
0
  6
Continuous
 62
     7
370
    15
100
AcDbLine
 10
630.680451212
 20
374.1371615862
 30
0.0
 11
621.5090845204
 21
549.1371437048
 31
0.0
  0
LINE
  5
66
330
1F
100
AcDbEntity
  8
0
  6
Continuous
 62
     7
370
    15
100
AcDbLine
 10
228.3624802209
 20
549.1371437048
 30
0.0
 11
224.0017448045
 21
465.9292682146
 31
0.0
  0
LINE
  5
67
330
1F
100
AcDbEntity
  8
0
  6
Continuous
 62
     7
370
    15
100
AcDbLine
 10
621.5090845204
 20
549.1371437048
 30
0.0
 11
620.5623988486
 21
603.3725722765
 31
0.0
  0
LINE
  5
68
330
1F
100
AcDbEntity
  8
0
  6
Continuous
 62
     7
370
    15
100
AcDbLine
 10
229.3091658927
 20
603.3725722765
 30
0.0
 11
228.3624802209
 21
549.1371437048
 31
0.0
  0
ARC
  5
69
330
1F
100
AcDbEntity
  8
0
  6
Continuous
 62
     7
370
    15
100
AcDbCircle
 10
605.5646877342
 20
603.1107619582
 30
0.0
 40
15.00000000000042
100
AcDbArc
 50
1.0
 51
83.0134913609
  0
ARC
  5
6A
330
1F
100
AcDbEntity
  8
0
  6
Continuous
 62
     7
370
    15
100
AcDbCircle
 10
244.3068770071
 20
603.1107619582
 30
0.0
 40
15.00000000000042
100
AcDbArc
 50
96.9865086391
 51
179.0
  0
ARC
  5
6B
330
1F
100
AcDbEntity
  8
0
  6
Continuous
 62
     7
370
    15
100
AcDbCircle
 10
424.9357823707
 20
-870.8628465393
 30
0.0
 40
1500.0
100
AcDbArc
 50
90.3055789394
 51
96.9865086391
  0
ARC
  5
6C
330
1F
100
AcDbEntity
  8
0
  6
Continuous
 62
     7
370
    15
100
AcDbCircle
 10
424.9357823707
 20
-870.8628465393
 30
0.0
 40
1500.0
100
AcDbArc
 50
83.0134913609
 51
89.6944210606
  0
LINE
  5
6D
330
1F
100
AcDbEntity
  8
0
  6
Continuous
 62
     7
370
    15
100
AcDbLine
 10
251.9784365273
 20
317.1371503805
 30
0.0
 11
251.2524072505
 21
317.1371503805
 31
0.0
  0
SPLINE
  5
6E
330
1F
100
AcDbEntity
  8
0
  6
Continuous
 62
     7
370
    15
100
AcDbSpline
210
0.0
220
0.0
230
1.0
 70
     8
 71
     3
 72
     9
 73
     5
 74
     0
 42
0.00000001
 43
0.00000001
 12
1.0
 22
0.0
 32
0.0
 13
1.0
 23
0.0
 33
0.0
 40
0.0
 40
0.0
 40
0.0
 40
0.0
 40
0.3905031904800894
 40
1.0
 40
1.0
 40
1.0
 40
1.0
 10
223.9455972290912
 20
439.0751405691241
 30
0.0
 10
223.4883051581145
 20
430.6225268665695
 30
0.0
 10
222.3172722904585
 20
408.9770860388957
 30
0.0
 10
221.1533780732919
 20
387.3312455702043
 30
0.0
 10
220.4439882613102
 20
374.1381748651599
 30
0.0
  0
LINE
  5
6F
330
1F
100
AcDbEntity
  8
0
  6
Continuous
 62
     7
370
    15
100
AcDbLine
 10
220.4445694066
 20
374.1378470396
 30
0.0
 11
219.4653246976
 21
319.5380254721
 31
0.0
  0
SPLINE
  5
70
330
1F
100
AcDbEntity
  8
0
  6
Continuous
 62
     7
370
    15
100
AcDbSpline
210
0.0
220
0.0
230
1.0
 70
     8
 71
     3
 72
    12
 73
     8
 74
     0
 42
0.00000001
 43
0.00000001
 12
1.0
 22
0.0
 32
0.0
 13
1.0
 23
0.0
 33
0.0
 40
0.0
 40
0.0
 40
0.0
 40
0.0
 40
0.2010737799389793
 40
0.4501058372838081
 40
0.7086043125001533
 40
0.9740205162247203
 40
1.0
 40
1.0
 40
1.0
 40
1.0
 10
219.4579784251133
 20
319.539396378908
 30
0.0
 10
219.4556873240344
 20
319.4875396465069
 30
0.0
 10
219.4505586694195
 20
319.3714577885775
 30
0.0
 10
219.3973753879085
 20
319.1954262166959
 30
0.0
 10
219.304328998536
 20
319.0233586899183
 30
0.0
 10
219.222094715957
 20
318.9093203232751
 30
0.0
 10
219.166355189556
 20
318.8637433426001
 30
0.0
 10
219.1613857127109
 20
318.8596799110506
 30
0.0
  0
SPLINE
  5
71
330
1F
100
AcDbEntity
  8
0
  6
Continuous
 62
     7
370
    15
100
AcDbSpline
210
0.0
220
0.0
230
1.0
 70
     8
 71
     3
 72
     9
 73
     5
 74
     0
 42
0.00000001
 43
0.00000001
 12
1.0
 22
0.0
 32
0.0
 13
1.0
 23
0.0
 33
0.0
 40
0.0
 40
0.0
 40
0.0
 40
0.0
 40
0.6999995036291325
 40
1.0
 40
1.0
 40
1.0
 40
1.0
 10
219.1616837359348
 20
318.8574447368716
 30
0.0
 10
218.81908655103
 20
318.5241702221901
 30
0.0
 10
218.3296616541141
 20
318.0480634350373
 30
0.0
 10
217.8407210050465
 20
317.5714403444592
 30
0.0
 10
217.6940385676304
 20
317.428453180704
 30
0.0
  0
LINE
  5
72
330
1F
100
AcDbEntity
  8
0
  6
Continuous
 62
     7
370
    15
100
AcDbLine
 10
217.3917089082
 20
316.7301549648
 30
0.0
 11
216.9867549516
 21
294.1373719906
 31
0.0
  0
ARC
  5
73
330
1F
100
AcDbEntity
  8
0
  6
Continuous
 62
     7
370
    15
100
AcDbCircle
 10
218.3915015173
 20
316.7122333522
 30
0.0
 40
1.000000000000014
100
AcDbArc
 50
134.2394018607
 51
178.9730970113
  0
SPLINE
  5
74
330
1F
100
AcDbEntity
  8
0
  6
Continuous
 62
     7
370
    15
100
AcDbSpline
210
0.0
220
0.0
230
1.0
 70
     8
 71
     3
 72
    30
 73
    26
 74
     0
 42
0.00000001
 43
0.00000001
 12
1.0
 22
0.0
 32
0.0
 13
1.0
 23
0.0
 33
0.0
 40
0.0
 40
0.0
 40
0.0
 40
0.0
 40
0.0444716302510214
 40
0.0899914653466797
 40
0.1355310696413473
 40
0.1810134335814176
 40
0.2263782657574686
 40
0.2715665050756566
 40
0.3165207451370313
 40
0.3611873226577765
 40
0.4055200185223369
 40
0.4496551195329727
 40
0.4936899009797753
 40
0.5379054424908547
 40
0.5822445785937308
 40
0.6266537228459164
 40
0.6710713932747763
 40
0.7154257172970069
 40
0.7596621961317306
 40
0.8037307671106585
 40
0.847580952363286
 40
0.8911730399201164
 40
0.9345809382326244
 40
0.9781982710039108
 40
1.0
 40
1.0
 40
1.0
 40
1.0
 10
223.8928322173038
 20
461.1776753400896
 30
0.0
 10
223.8907958370952
 20
460.9313511234189
 30
0.0
 10
223.8866750788064
 20
460.4328967811012
 30
0.0
 10
223.8814778187888
 20
459.6430199609008
 30
0.0
 10
223.8765037771445
 20
458.8198243320821
 30
0.0
 10
223.8715285141647
 20
457.9681151729396
 30
0.0
 10
223.866205978205
 20
457.0911095128077
 30
0.0
 10
223.8601329356605
 20
456.1909601398009
 30
0.0
 10
223.8530372818966
 20
455.2701852896774
 30
0.0
 10
223.8445357276215
 20
454.3312474872188
 30
0.0
 10
223.8343644064812
 20
453.3753120955836
 30
0.0
 10
223.8219947129755
 20
452.4024894132398
 30
0.0
 10
223.807176225401
 20
451.4107207668039
 30
0.0
 10
223.7897199044251
 20
450.3991114372289
 30
0.0
 10
223.7694014923472
 20
449.3677643269486
 30
0.0
 10
223.7460583164749
 20
448.3193766876067
 30
0.0
 10
223.7195598384486
 20
447.2568639007514
 30
0.0
 10
223.6897031872491
 20
446.1832218433806
 30
0.0
 10
223.6564117107948
 20
445.1014109541994
 30
0.0
 10
223.6195801424963
 20
444.0142675253761
 30
0.0
 10
223.5790885818813
 20
442.9245613360649
 30
0.0
 10
223.5348379797459
 20
441.8340575065527
 30
0.0
 10
223.4864571825389
 20
440.7407921869346
 30
0.0
 10
223.4435382212502
 20
439.8275431062157
 30
0.0
 10
223.415357994334
 20
439.2778524481914
 30
0.0
 10
223.4059665776172
 20
439.094661090288
 30
0.0
  0
LINE
  5
75
330
1F
100
AcDbEntity
  8
0
  6
Continuous
 62
     7
370
    15
100
AcDbLine
 10
215.835789261
 20
294.1371484732
 30
0.0
 11
215.9405146218
 21
288.137151215
 31
0.0
  0
LINE
  5
76
330
1F
100
AcDbEntity
  8
0
  6
Continuous
 62
     7
370
    15
100
AcDbLine
 10
633.9310501195
 20
288.137151215
 30
0.0
 11
634.0357754804
 21
294.1371484732
 31
0.0
  0
ARC
  5
77
330
1F
100
AcDbEntity
  8
0
  6
Continuous
 62
     7
370
    15
100
AcDbCircle
 10
180.1219196828
 20
270.3318623946
 30
0.0
 40
40.0
100
AcDbArc
 50
1.0
 51
26.4318020975
  0
ARC
  5
78
330
1F
100
AcDbEntity
  8
0
  6
Continuous
 62
     7
370
    15
100
AcDbCircle
 10
669.7496450585
 20
270.3318623946
 30
0.0
 40
40.00000000000009
100
AcDbArc
 50
153.5681979025
 51
179.0
  0
LINE
  5
79
330
1F
100
AcDbEntity
  8
0
  6
Continuous
 62
     7
370
    15
100
AcDbLine
 10
220.1158348895
 20
271.0299625134
 30
0.0
 11
220.2900294639
 21
261.0498949026
 31
0.0
  0
LINE
  5
7A
330
1F
100
AcDbEntity
  8
0
  6
Continuous
 62
     7
370
    15
100
AcDbLine
 10
629.5815352775
 20
261.0498949026
 30
0.0
 11
629.7557298518
 21
271.0299625134
 31
0.0
  0
ARC
  5
7B
330
1F
100
AcDbEntity
  8
0
  6
Continuous
 62
     7
370
    15
100
AcDbCircle
 10
624.5822960551
 20
261.1371534607
 30
0.0
 40
5.000000000000066
100
AcDbArc
 50
331.6935716211
 51
359.0
  0
ARC
  5
7C
330
1F
100
AcDbEntity
  8
0
  6
Continuous
 62
     7
370
    15
100
AcDbCircle
 10
225.2892686862
 20
261.1371534607
 30
0.0
 40
5.000000000000009
100
AcDbArc
 50
181.0
 51
208.3064283789
  0
LINE
  5
7D
330
1F
100
AcDbEntity
  8
0
  6
Continuous
 62
     7
370
    15
100
AcDbLine
 10
220.8871487952
 20
258.7662174439
 30
0.0
 11
230.0987784244
 21
241.6629626488
 31
0.0
  0
LINE
  5
7E
330
1F
100
AcDbEntity
  8
0
  6
Continuous
 62
     7
370
    15
100
AcDbLine
 10
619.772786317
 20
241.6629626488
 30
0.0
 11
628.9844159461
 21
258.7662174439
 31
0.0
  0
ARC
  5
7F
330
1F
100
AcDbEntity
  8
0
  6
Continuous
 62
     7
370
    15
100
AcDbCircle
 10
618.8923648822
 20
242.1371534607
 30
0.0
 40
1.0
100
AcDbArc
 50
270.0
 51
331.6935716211
  0
ARC
  5
80
330
1F
100
AcDbEntity
  8
0
  6
Continuous
 62
     7
370
    15
100
AcDbCircle
 10
230.9791998591
 20
242.1371534607
 30
0.0
 40
1.000000000000009
100
AcDbArc
 50
208.3064283789
 51
270.0
  0
LINE
  5
81
330
1F
100
AcDbEntity
  8
0
  6
Continuous
 62
     7
370
    15
100
AcDbLine
 10
623.635778246
 20
178.6869972085
 30
0.0
 11
621.6357890941
 21
178.6869972085
 31
0.0
  0
LINE
  5
82
330
1F
100
AcDbEntity
  8
0
  6
Continuous
 62
     7
370
    15
100
AcDbLine
 10
621.6357890941
 20
162.6869945859
 30
0.0
 11
623.635778246
 21
162.6869945859
 31
0.0
  0
LINE
  5
83
330
1F
100
AcDbEntity
  8
0
  6
Continuous
 62
     7
370
    15
100
AcDbLine
 10
612.5255469657
 20
145.6186643874
 30
0.0
 11
617.2357891179
 21
145.6186643874
 31
0.0
  0
SPLINE
  5
84
330
1F
100
AcDbEntity
  8
0
  6
Continuous
 62
     7
370
    15
100
AcDbSpline
210
0.0
220
0.0
230
1.0
 70
     8
 71
     3
 72
    26
 73
    22
 74
     0
 42
0.00000001
 43
0.00000001
 12
1.0
 22
0.0
 32
0.0
 13
1.0
 23
0.0
 33
0.0
 40
0.0
 40
0.0
 40
0.0
 40
0.0
 40
0.0397527720184791
 40
0.0956116888824816
 40
0.1478557594870868
 40
0.1969567185451259
 40
0.2430482984188869
 40
0.2860182066594215
 40
0.3261082295089762
 40
0.365375397470911
 40
0.4070793995890967
 40
0.4541528462574732
 40
0.5326778897029778
 40
0.6401484454058425
 40
0.719068004075923
 40
0.7865998763348641
 40
0.8457022436346859
 40
0.8976807769772741
 40
0.9444749852420558
 40
0.9886166441215837
 40
1.0
 40
1.0
 40
1.0
 40
1.0
 10
621.6263566590229
 20
181.3992618655298
 30
0.0
 10
621.6214683328834
 20
181.4440221749858
 30
0.0
 10
621.6097111372397
 20
181.5516777814928
 30
0.0
 10
621.5499595661489
 20
181.7092352212025
 30
0.0
 10
621.4626471502739
 20
181.8630411702031
 30
0.0
 10
621.3575526461335
 20
181.9898279785367
 30
0.0
 10
621.2444440017206
 20
182.0898705773724
 30
0.0
 10
621.1313081179666
 20
182.1643351710814
 30
0.0
 10
621.0263188091749
 20
182.2163636216572
 30
0.0
 10
620.9325035728592
 20
182.2513970459709
 30
0.0
 10
620.856017593233
 20
182.2733718268649
 30
0.0
 10
620.7660499336099
 20
182.2934706805327
 30
0.0
 10
620.6594520717359
 20
182.3095074710046
 30
0.0
 10
620.5402458151924
 20
182.3207231898259
 30
0.0
 10
620.4005748357457
 20
182.3292849716373
 30
0.0
 10
620.265195304037
 20
182.3353111128045
 30
0.0
 10
620.1226215690347
 20
182.3398242216387
 30
0.0
 10
619.9747987398085
 20
182.343016534917
 30
0.0
 10
619.8239289725532
 20
182.3449067770437
 30
0.0
 10
619.7069731553269
 20
182.3456895830245
 30
0.0
 10
619.6437291912861
 20
182.3454893905232
 30
0.0
 10
619.6307633496205
 20
182.3454483484362
 30
0.0
  0
LINE
  5
85
330
1F
100
AcDbEntity
  8
0
  6
Continuous
 62
     7
370
    15
100
AcDbLine
 10
619.6357850409
 20
182.3456122612
 30
0.0
 11
619.2357782699
 21
182.3456122612
 31
0.0
  0
LINE
  5
86
330
1F
100
AcDbEntity
  8
0
  6
Continuous
 62
     7
370
    15
100
AcDbLine
 10
617.2357891179
 20
195.6559329366
 30
0.0
 11
612.5259641982
 21
195.6559329366
 31
0.0
  0
ARC
  5
87
330
1F
100
AcDbEntity
  8
0
  6
Continuous
 62
     7
370
    15
100
AcDbCircle
 10
617.2357823707
 20
146.618666151
 30
0.0
 40
1.000000000000028
100
AcDbArc
 50
270.0
 51
0.0
  0
ARC
  5
88
330
1F
100
AcDbEntity
  8
0
  6
Continuous
 62
     7
370
    15
100
AcDbCircle
 10
617.2357823707
 20
194.6559316796
 30
0.0
 40
1.0
100
AcDbArc
 50
0.0
 51
90.0
  0
ARC
  5
89
330
1F
100
AcDbEntity
  8
0
  6
Continuous
 62
     7
370
    15
100
AcDbCircle
 10
632.2357823707
 20
191.1372989153
 30
0.0
 40
1.0
100
AcDbArc
 50
0.0
 51
90.0
  0
ARC
  5
8A
330
1F
100
AcDbEntity
  8
0
  6
Continuous
 62
     7
370
    15
100
AcDbCircle
 10
632.2357823707
 20
150.1372989153
 30
0.0
 40
1.0
100
AcDbArc
 50
270.0
 51
0.0
  0
LINE
  5
8B
330
1F
100
AcDbEntity
  8
0
  6
Continuous
 62
     7
370
    15
100
AcDbLine
 10
619.2357782699
 20
149.1372979318
 30
0.0
 11
632.2357897139
 21
149.1372979318
 31
0.0
  0
LINE
  5
8C
330
1F
100
AcDbEntity
  8
0
  6
Continuous
 62
     7
370
    15
100
AcDbLine
 10
632.2357897139
 20
192.1372993921
 30
0.0
 11
619.2357782699
 21
192.1372993921
 31
0.0
  0
ARC
  5
8D
330
1F
100
AcDbEntity
  8
0
  6
Continuous
 62
     7
370
    15
100
AcDbCircle
 10
619.2357823707
 20
148.1372989153
 30
0.0
 40
1.0
100
AcDbArc
 50
90.0
 51
180.0
  0
ARC
  5
8E
330
1F
100
AcDbEntity
  8
0
  6
Continuous
 62
     7
370
    15
100
AcDbCircle
 10
619.2357823707
 20
193.1372989153
 30
0.0
 40
1.0
100
AcDbArc
 50
180.0
 51
270.0
  0
LINE
  5
8F
330
1F
100
AcDbEntity
  8
0
  6
Continuous
 62
     7
370
    15
100
AcDbLine
 10
237.5357840634
 20
92.6372989153
 30
0.0
 11
237.5357840634
 21
82.0074931791
 31
0.0
  0
LINE
  5
90
330
1F
100
AcDbEntity
  8
0
  6
Continuous
 62
     7
370
    15
100
AcDbLine
 10
612.3357806779
 20
82.0057134216
 30
0.0
 11
612.3357806779
 21
92.6372989153
 31
0.0
  0
SPLINE
  5
91
330
1F
100
AcDbEntity
  8
0
  6
Continuous
 62
     7
370
    15
100
AcDbSpline
210
0.0
220
0.0
230
1.0
 70
     8
 71
     3
 72
    36
 73
    32
 74
     0
 42
0.00000001
 43
0.00000001
 12
1.0
 22
0.0
 32
0.0
 13
1.0
 23
0.0
 33
0.0
 40
0.0
 40
0.0
 40
0.0
 40
0.0
 40
0.0453012469886314
 40
0.0906778850962106
 40
0.1353292550085283
 40
0.1792736147574205
 40
0.2225171074839948
 40
0.2650546987131172
 40
0.3068714894830492
 40
0.3479391609344739
 40
0.3882181338094062
 40
0.4276548221915937
 40
0.4661763037964354
 40
0.5036862853871013
 40
0.5400592127056738
 40
0.5751133934932819
 40
0.6085787524814205
 40
0.6399818437422579
 40
0.6684536439585526
 40
0.6928002976595588
 40
0.7127625214982123
 40
0.729702568629734
 40
0.7455252139693129
 40
0.7621350082456643
 40
0.7811747506826671
 40
0.8061796838980777
 40
0.8439343672704221
 40
0.884012830174064
 40
0.9222268632999309
 40
0.9625822130330495
 40
1.0
 40
1.0
 40
1.0
 40
1.0
 10
629.981571850864
 20
76.46431616297706
 30
0.0
 10
629.9778598750687
 20
76.61368231458071
 30
0.0
 10
629.9704297459435
 20
76.91266319552147
 30
0.0
 10
629.9081350651993
 20
77.3552585026992
 30
0.0
 10
629.81073536501
 20
77.78638971812235
 30
0.0
 10
629.6773599793706
 20
78.20056979306017
 30
0.0
 10
629.5117271292762
 20
78.59528892104589
 30
0.0
 10
629.3164723948372
 20
78.9683210173846
 30
0.0
 10
629.094670211092
 20
79.31769514080611
 30
0.0
 10
628.8495354710117
 20
79.64178667963002
 30
0.0
 10
628.5843990053813
 20
79.93925079922425
 30
0.0
 10
628.3027561879994
 20
80.20907798318461
 30
0.0
 10
628.0082787667875
 20
80.45059864087068
 30
0.0
 10
627.7048431582921
 20
80.66350514032789
 30
0.0
 10
627.3965890722533
 20
80.84778095906026
 30
0.0
 10
627.0881920266643
 20
81.00380330817963
 30
0.0
 10
626.7853504481467
 20
81.1321239890359
 30
0.0
 10
626.4960323548712
 20
81.23351185395916
 30
0.0
 10
626.2314230465082
 20
81.30917089893197
 30
0.0
 10
626.0026168734108
 20
81.36214120807045
 30
0.0
 10
625.814167884585
 20
81.39760262702939
 30
0.0
 10
625.6611680092557
 20
81.42129981872115
 30
0.0
 10
625.5325952954181
 20
81.43790497741705
 30
0.0
 10
625.4175524232246
 20
81.45039691589889
 30
0.0
 10
625.3016877793143
 20
81.46105722663765
 30
0.0
 10
625.1634991523852
 20
81.47179495149776
 30
0.0
 10
624.9948340996808
 20
81.48282043913746
 30
0.0
 10
624.7830270965187
 20
81.49478157149798
 30
0.0
 10
624.5353471508898
 20
81.5071807184753
 30
0.0
 10
624.2654148203334
 20
81.51958480330462
 30
0.0
 10
624.0601529101348
 20
81.52814880554531
 30
0.0
 10
623.9613984204212
 20
81.53226907155259
 30
0.0
  0
LINE
  5
92
330
1F
100
AcDbEntity
  8
0
  6
Continuous
 62
     7
370
    15
100
AcDbLine
 10
629.9820933915
 20
65.1372990643
 30
0.0
 11
629.9820933915
 21
76.4642044043
 31
0.0
  0
LINE
  5
93
330
1F
100
AcDbEntity
  8
0
  6
Continuous
 62
     7
370
    15
100
AcDbLine
 10
219.8894713498
 20
76.4642435198
 30
0.0
 11
219.8894713498
 21
65.1372990643
 31
0.0
  0
SPLINE
  5
94
330
1F
100
AcDbEntity
  8
0
  6
Continuous
 62
     7
370
    15
100
AcDbSpline
210
0.0
220
0.0
230
1.0
 70
     8
 71
     3
 72
    35
 73
    31
 74
     0
 42
0.00000001
 43
0.00000001
 12
1.0
 22
0.0
 32
0.0
 13
1.0
 23
0.0
 33
0.0
 40
0.0
 40
0.0
 40
0.0
 40
0.0
 40
0.0254259570584399
 40
0.0629552974211914
 40
0.1013034648799499
 40
0.1413210452679483
 40
0.1846376391964193
 40
0.2118821195278163
 40
0.2392347423723799
 40
0.2568756135424619
 40
0.2745139455700076
 40
0.2935107946828474
 40
0.3166997527765791
 40
0.3460358681495517
 40
0.3802061161343096
 40
0.4165833827288863
 40
0.4549970766281679
 40
0.4951090379224799
 40
0.5364056494929708
 40
0.5784996802958267
 40
0.621135601464709
 40
0.664146086150948
 40
0.707424181405771
 40
0.7508959534987713
 40
0.7945125149063581
 40
0.8382368941531095
 40
0.8820432489700518
 40
0.9307588768925591
 40
0.9786868412690876
 40
1.0
 40
1.0
 40
1.0
 40
1.0
 10
225.9125356055179
 20
81.53228862932666
 30
0.0
 10
225.8439230275529
 20
81.52947780886983
 30
0.0
 10
225.6740365905274
 20
81.52251814802197
 30
0.0
 10
225.4305868596925
 20
81.51158819828436
 30
0.0
 10
225.1774679498637
 20
81.49939243496657
 30
0.0
 10
224.9434864473029
 20
81.48680139957348
 30
0.0
 10
224.7577008863693
 20
81.4752575124832
 30
0.0
 10
224.597297774969
 20
81.46338383016032
 30
0.0
 10
224.4633770550417
 20
81.45155508199147
 30
0.0
 10
224.3199675002429
 20
81.43573061257258
 30
0.0
 10
224.1742197289179
 20
81.41624142978854
 30
0.0
 10
223.9963147800621
 20
81.38707042588617
 30
0.0
 10
223.7735056178574
 20
81.34176148837963
 30
0.0
 10
223.5003660263058
 20
81.27183632346745
 30
0.0
 10
223.1886273930155
 20
81.17112666407239
 30
0.0
 10
222.8559278847565
 20
81.0375687046882
 30
0.0
 10
222.5159427455398
 20
80.87106122871678
 30
0.0
 10
222.175679597675
 20
80.67038143106365
 30
0.0
 10
221.8426013455699
 20
80.4359492024343
 30
0.0
 10
221.5235004027441
 20
80.16951200443462
 30
0.0
 10
221.2237335539702
 20
79.87332340567637
 30
0.0
 10
220.9475448524914
 20
79.5498421374925
 30
0.0
 10
220.6982840801562
 20
79.20175936676272
 30
0.0
 10
220.4787678801319
 20
78.83185657180792
 30
0.0
 10
220.2911635608959
 20
78.44312440287027
 30
0.0
 10
220.1375785221426
 20
78.03860971838749
 30
0.0
 10
220.0143073853788
 20
77.60615386222003
 30
0.0
 10
219.9309566027039
 20
77.15049611682694
 30
0.0
 10
219.8900396203344
 20
76.76273358255182
 30
0.0
 10
219.8939006280708
 20
76.53448574563282
 30
0.0
 10
219.8950890875736
 20
76.46422861865504
 30
0.0
  0
SPLINE
  5
95
330
1F
100
AcDbEntity
  8
0
  6
Continuous
 62
     7
370
    15
100
AcDbSpline
210
0.0
220
0.0
230
1.0
 70
     8
 71
     3
 72
     9
 73
     5
 74
     0
 42
0.00000001
 43
0.00000001
 12
1.0
 22
0.0
 32
0.0
 13
1.0
 23
0.0
 33
0.0
 40
0.0
 40
0.0
 40
0.0
 40
0.0
 40
0.9279296991279375
 40
1.0
 40
1.0
 40
1.0
 40
1.0
 10
623.9615772343556
 20
81.52870303741439
 30
0.0
 10
616.8357411063483
 20
81.82217921540774
 30
0.0
 10
609.1564566360873
 20
82.13844905596702
 30
0.0
 10
601.477021654455
 20
82.45089006833817
 30
0.0
 10
600.9235624648014
 20
82.47340778610452
 30
0.0
  0
SPLINE
  5
96
330
1F
100
AcDbEntity
  8
0
  6
Continuous
 62
     7
370
    15
100
AcDbSpline
210
0.0
220
0.0
230
1.0
 70
     8
 71
     3
 72
     9
 73
     5
 74
     0
 42
0.00000001
 43
0.00000001
 12
1.0
 22
0.0
 32
0.0
 13
1.0
 23
0.0
 33
0.0
 40
0.0
 40
0.0
 40
0.0
 40
0.0
 40
0.3043578182486194
 40
1.0
 40
1.0
 40
1.0
 40
1.0
 10
248.9480767823139
 20
82.47238146862729
 30
0.0
 10
246.6149510666891
 20
82.37774026348276
 30
0.0
 10
238.9492182491442
 20
82.06678651276562
 30
0.0
 10
231.2836863527026
 20
81.75217981340887
 30
0.0
 10
225.9512190199772
 20
81.53332612267478
 30
0.0
  0
SPLINE
  5
97
330
1F
100
AcDbEntity
  8
0
  6
Continuous
 62
     7
370
    15
100
AcDbSpline
210
0.0
220
0.0
230
1.0
 70
     8
 71
     3
 72
    23
 73
    19
 74
     0
 42
0.00000001
 43
0.00000001
 12
1.0
 22
0.0
 32
0.0
 13
1.0
 23
0.0
 33
0.0
 40
0.0
 40
0.0
 40
0.0
 40
0.0
 40
0.0091140804928954
 40
0.0699667311824033
 40
0.131774939785211
 40
0.1937659928213328
 40
0.2548928014684192
 40
0.3144438759838039
 40
0.3723134219234874
 40
0.4337984517955723
 40
0.5005583836953578
 40
0.5693939082833133
 40
0.6404382689202947
 40
0.7139097642446576
 40
0.7902990897500434
 40
0.8707565966868315
 40
0.9673393706987272
 40
0.9999999999999999
 40
0.9999999999999999
 40
0.9999999999999999
 40
0.9999999999999999
 10
251.8608663655201
 20
85.5231995766495
 30
0.0
 10
251.8552929249043
 20
85.50283706163997
 30
0.0
 10
251.8125068839395
 20
85.34651864696514
 30
0.0
 10
251.7105580270081
 20
85.06939845524603
 30
0.0
 10
251.5557069768502
 20
84.6972484614416
 30
0.0
 10
251.3814812951778
 20
84.35172377661016
 30
0.0
 10
251.1968793742627
 20
84.03854283431667
 30
0.0
 10
251.0076157612932
 20
83.76336676308676
 30
0.0
 10
250.8154388413951
 20
83.52290636396081
 30
0.0
 10
250.6079889684223
 20
83.29899738342334
 30
0.0
 10
250.3884760180698
 20
83.09686907310437
 30
0.0
 10
250.1610603265686
 20
82.92041681059936
 30
0.0
 10
249.9335709164797
 20
82.77426385125614
 30
0.0
 10
249.7087652850239
 20
82.65822698335457
 30
0.0
 10
249.491129376927
 20
82.5715175866466
 30
0.0
 10
249.2625543768644
 20
82.50948912493428
 30
0.0
 10
249.0817728653747
 20
82.47702951548568
 30
0.0
 10
248.974487995981
 20
82.47666165548301
 30
0.0
 10
248.9473764277378
 20
82.47656869492276
 30
0.0
  0
SPLINE
  5
98
330
1F
100
AcDbEntity
  8
0
  6
Continuous
 62
     7
370
    15
100
AcDbSpline
210
0.0
220
0.0
230
1.0
 70
     8
 71
     3
 72
    10
 73
     6
 74
     0
 42
0.00000001
 43
0.00000001
 12
1.0
 22
0.0
 32
0.0
 13
1.0
 23
0.0
 33
0.0
 40
0.0
 40
0.0
 40
0.0
 40
0.0
 40
0.4860734266234643
 40
0.9722503987300167
 40
1.0
 40
1.0
 40
1.0
 40
1.0
 10
600.9281222201267
 20
82.48159411153539
 30
0.0
 10
600.8505482286488
 20
82.48705175500676
 30
0.0
 10
600.6953837205426
 20
82.49796820456045
 30
0.0
 10
600.5304991929867
 20
82.5304114226032
 30
0.0
 10
600.4403429405925
 20
82.56271698423402
 30
0.0
 10
600.4354749298969
 20
82.56446133157952
 30
0.0
  0
SPLINE
  5
99
330
1F
100
AcDbEntity
  8
0
  6
Continuous
 62
     7
370
    15
100
AcDbSpline
210
0.0
220
0.0
230
1.0
 70
     8
 71
     3
 72
    21
 73
    17
 74
     0
 42
0.00000001
 43
0.00000001
 12
1.0
 22
0.0
 32
0.0
 13
1.0
 23
0.0
 33
0.0
 40
0.0
 40
0.0
 40
0.0
 40
0.0
 40
0.0399767241107692
 40
0.0922400133355411
 40
0.1480228316019578
 40
0.2069447720334004
 40
0.3466736962025482
 40
0.4434391452673093
 40
0.5302872015860205
 40
0.5835728536412335
 40
0.6491739287149
 40
0.7123008517001342
 40
0.8047095798961313
 40
0.8922555089259627
 40
0.9855004993359247
 40
1.0
 40
1.0
 40
1.0
 40
1.0
 10
600.4424337721745
 20
82.56047527096017
 30
0.0
 10
600.4109970994363
 20
82.57046527729356
 30
0.0
 10
600.3384619135974
 20
82.59351564817597
 30
0.0
 10
600.2684053151985
 20
82.62620081543697
 30
0.0
 10
600.2272793054731
 20
82.64883698519316
 30
0.0
 10
600.193942354485
 20
82.67296531561868
 30
0.0
 10
600.1624017878869
 20
82.7014503122539
 30
0.0
 10
600.1278481748117
 20
82.74627395839146
 30
0.0
 10
600.0899755797282
 20
82.81085282203654
 30
0.0
 10
600.0547581855856
 20
82.88568359244047
 30
0.0
 10
600.0144020048701
 20
82.98978780949246
 30
0.0
 10
599.9726200187604
 20
83.12571095261696
 30
0.0
 10
599.932966457003
 20
83.2981162983028
 30
0.0
 10
599.9034994973277
 20
83.52878178854878
 30
0.0
 10
599.8888207341255
 20
83.71093347896985
 30
0.0
 10
599.8922925282626
 20
83.82997577313361
 30
0.0
 10
599.8927597380558
 20
83.84599565318568
 30
0.0
  0
LINE
  5
9A
330
1F
100
AcDbEntity
  8
0
  6
Continuous
 62
     7
370
    15
100
AcDbLine
 10
235.235774932
 20
241.1371602749
 30
0.0
 11
235.235774932
 21
92.6372989153
 31
0.0
  0
LINE
  5
9B
330
1F
100
AcDbEntity
  8
0
  6
Continuous
 62
     7
370
    15
100
AcDbLine
 10
614.6357898093
 20
206.0814484095
 30
0.0
 11
614.6357898093
 21
241.1371602749
 31
0.0
  0
LINE
  5
9C
330
1F
100
AcDbEntity
  8
0
  6
Continuous
 62
     7
370
    15
100
AcDbLine
 10
614.6357898093
 20
92.6372989153
 30
0.0
 11
614.6357898093
 21
135.1931489145
 31
0.0
  0
SPLINE
  5
9D
330
1F
100
AcDbEntity
  8
0
  6
Continuous
 62
     7
370
    15
100
AcDbSpline
210
0.0
220
0.0
230
1.0
 70
     8
 71
     3
 72
     9
 73
     5
 74
     0
 42
0.00000001
 43
0.00000001
 12
1.0
 22
0.0
 32
0.0
 13
1.0
 23
0.0
 33
0.0
 40
0.0
 40
0.0
 40
0.0
 40
0.0
 40
0.1222598844832849
 40
1.0
 40
1.0
 40
1.0
 40
1.0
 10
611.6303150034825
 20
181.1514108513926
 30
0.0
 10
611.6303685506409
 20
181.2022047942696
 30
0.0
 10
611.6308065287949
 20
181.6176635777591
 30
0.0
 10
611.6334571622903
 20
182.0299607749257
 30
0.0
 10
611.6357837296406
 20
182.3918505643938
 30
0.0
  0
SPLINE
  5
9E
330
1F
100
AcDbEntity
  8
0
  6
Continuous
 62
     7
370
    15
100
AcDbSpline
210
0.0
220
0.0
230
1.0
 70
     8
 71
     3
 72
    13
 73
     9
 74
     0
 42
0.00000001
 43
0.00000001
 12
1.0
 22
0.0
 32
0.0
 13
1.0
 23
0.0
 33
0.0
 40
0.0
 40
0.0
 40
0.0
 40
0.0
 40
0.1643682416033037
 40
0.4000740826475064
 40
0.6004651303605385
 40
0.8066431738637105
 40
0.9756639070789376
 40
1.0
 40
1.0
 40
1.0
 40
1.0
 10
611.680785236446
 20
186.6979359721277
 30
0.0
 10
611.6880900476427
 20
187.0581659507391
 30
0.0
 10
611.7058700373163
 20
187.9349696253983
 30
0.0
 10
611.7630765289279
 20
189.2393740231409
 30
0.0
 10
611.8503150569204
 20
190.6263175376748
 30
0.0
 10
611.9664265182496
 20
191.8523615304401
 30
0.0
 10
612.0635186391901
 20
192.6990805577984
 30
0.0
 10
612.1251450087277
 20
193.0983777841149
 30
0.0
 10
612.1329013682285
 20
193.1486337517832
 30
0.0
  0
SPLINE
  5
9F
330
1F
100
AcDbEntity
  8
0
  6
Continuous
 62
     7
370
    15
100
AcDbSpline
210
0.0
220
0.0
230
1.0
 70
     8
 71
     3
 72
    16
 73
    12
 74
     0
 42
0.00000001
 43
0.00000001
 12
1.0
 22
0.0
 32
0.0
 13
1.0
 23
0.0
 33
0.0
 40
0.0
 40
0.0
 40
0.0
 40
0.0
 40
0.0479739232011782
 40
0.1391323313129147
 40
0.2388676650835803
 40
0.3493734161469867
 40
0.4735546420292338
 40
0.5958227205403709
 40
0.7809159030207978
 40
0.9670900870046095
 40
1.0
 40
1.0
 40
1.0
 40
1.0
 10
612.1412013150135
 20
148.1192915772532
 30
0.0
 10
612.1142695789127
 20
148.3068169341443
 30
0.0
 10
612.036163078965
 20
148.8506715606493
 30
0.0
 10
611.9332835474861
 20
149.8069019829456
 30
0.0
 10
611.8282558259717
 20
151.0247883673314
 30
0.0
 10
611.7457986829346
 20
152.387439347147
 30
0.0
 10
611.6925149764211
 20
153.8460878099578
 30
0.0
 10
611.6522474887375
 20
155.6293687384079
 30
0.0
 10
611.6326147124254
 20
157.6664376995394
 30
0.0
 10
611.6317298116496
 20
159.3418468396002
 30
0.0
 10
611.6330778393734
 20
160.2633568583224
 30
0.0
 10
611.63328033456
 20
160.4017823075388
 30
0.0
  0
SPLINE
  5
A0
330
1F
100
AcDbEntity
  8
0
  6
Continuous
 62
     7
370
    15
100
AcDbSpline
210
0.0
220
0.0
230
1.0
 70
     8
 71
     3
 72
    17
 73
    13
 74
     0
 42
0.00000001
 43
0.00000001
 12
1.0
 22
0.0
 32
0.0
 13
1.0
 23
0.0
 33
0.0
 40
0.0
 40
0.0
 40
0.0
 40
0.0
 40
0.0857157017245343
 40
0.1832235217329504
 40
0.2876089854523747
 40
0.4006854167134108
 40
0.510019653718684
 40
0.6243779872744029
 40
0.7416330995418331
 40
0.8620793663246483
 40
0.9860139952420606
 40
1.0
 40
1.0
 40
1.0
 40
1.0
 10
612.1289227581898
 20
193.1514798735712
 30
0.0
 10
612.1589704495523
 20
193.3594144353765
 30
0.0
 10
612.2231995665122
 20
193.8038896241393
 30
0.0
 10
612.3268640662385
 20
194.4675754390542
 30
0.0
 10
612.4417600083444
 20
195.1691737601666
 30
0.0
 10
612.562097829782
 20
195.8718989704241
 30
0.0
 10
612.6847669366482
 20
196.5611305649024
 30
0.0
 10
612.8080778483553
 20
197.227612211513
 30
0.0
 10
612.9337336088252
 20
197.8832875958433
 30
0.0
 10
613.0600582703892
 20
198.5199598599175
 30
0.0
 10
613.1492283021736
 20
198.9597154912581
 30
0.0
 10
613.1949631917903
 20
199.1780351624239
 30
0.0
 10
613.1996009922901
 20
199.2001741265391
 30
0.0
  0
SPLINE
  5
A1
330
1F
100
AcDbEntity
  8
0
  6
Continuous
 62
     7
370
    15
100
AcDbSpline
210
0.0
220
0.0
230
1.0
 70
     8
 71
     3
 72
    18
 73
    14
 74
     0
 42
0.00000001
 43
0.00000001
 12
1.0
 22
0.0
 32
0.0
 13
1.0
 23
0.0
 33
0.0
 40
0.0
 40
0.0
 40
0.0
 40
0.0
 40
0.0081310627805551
 40
0.1348701349743567
 40
0.2632853073593524
 40
0.3869490548422925
 40
0.5064950620658207
 40
0.622433629578477
 40
0.7042359237280735
 40
0.801083415300666
 40
0.8998881223395465
 40
0.9949590576767359
 40
1.0
 40
1.0
 40
1.0
 40
1.0
 10
613.1997202015797
 20
142.073551479492
 30
0.0
 10
613.1970202693421
 20
142.0864201527059
 30
0.0
 10
613.1522364280269
 20
142.2998731465068
 30
0.0
 10
613.0613559583779
 20
142.7481271046981
 30
0.0
 10
612.9289498825012
 20
143.414757143047
 30
0.0
 10
612.7961408022508
 20
144.108966669217
 30
0.0
 10
612.6662168711767
 20
144.8143091783085
 30
0.0
 10
612.5503755156794
 20
145.4697040671485
 30
0.0
 10
612.4430262007389
 20
146.1017850909879
 30
0.0
 10
612.3402591217792
 20
146.7248575961621
 30
0.0
 10
612.2348191552082
 20
147.3942499433369
 30
0.0
 10
612.1632226015575
 20
147.8612947271095
 30
0.0
 10
612.1287227798409
 20
148.1089308478425
 30
0.0
 10
612.1269856072346
 20
148.1214000915621
 30
0.0
  0
SPLINE
  5
A2
330
1F
100
AcDbEntity
  8
0
  6
Continuous
 62
     7
370
    15
100
AcDbSpline
210
0.0
220
0.0
230
1.0
 70
     8
 71
     3
 72
    25
 73
    21
 74
     0
 42
0.00000001
 43
0.00000001
 12
1.0
 22
0.0
 32
0.0
 13
1.0
 23
0.0
 33
0.0
 40
0.0
 40
0.0
 40
0.0
 40
0.0
 40
0.00703786446432
 40
0.0431123507034953
 40
0.0749700365285453
 40
0.1004541777920893
 40
0.1190632926080218
 40
0.1332238815002962
 40
0.145487014202923
 40
0.1579973738458942
 40
0.1722837910283888
 40
0.1904254974650288
 40
0.2154220524934345
 40
0.2521225148711581
 40
0.3100909109801773
 40
0.415536857519111
 40
0.6012360244893908
 40
0.7628226063194502
 40
0.918580420534249
 40
1.0
 40
1.0
 40
1.0
 40
1.0
 10
614.6336738444248
 20
135.1945980524157
 30
0.0
 10
614.6340932837993
 20
135.2150185599559
 30
0.0
 10
614.6366626736337
 20
135.3401099263896
 30
0.0
 10
614.6251408995034
 20
135.5574511133884
 30
0.0
 10
614.6026550748217
 20
135.8268125641542
 30
0.0
 10
614.5744997016934
 20
136.0432549738906
 30
0.0
 10
614.5484930200175
 20
136.2045815899818
 30
0.0
 10
614.5270974703991
 20
136.3205406382445
 30
0.0
 10
614.5099540576658
 20
136.405687507196
 30
0.0
 10
614.4962442756884
 20
136.4697467709774
 30
0.0
 10
614.4850466336211
 20
136.5197933677937
 30
0.0
 10
614.4754601205739
 20
136.5611811807908
 30
0.0
 10
614.4667703617243
 20
136.5978222688124
 30
0.0
 10
614.4580094465188
 20
136.6338018944598
 30
0.0
 10
614.4471617369967
 20
136.6776327136436
 30
0.0
 10
614.4289713168843
 20
136.7498202550947
 30
0.0
 10
614.4021552812155
 20
136.8544609995942
 30
0.0
 10
614.3641152059221
 20
137.0033780525521
 30
0.0
 10
614.3278475920032
 20
137.1458015241783
 30
0.0
 10
614.3002774565065
 20
137.2557749112846
 30
0.0
 10
614.2908130265156
 20
137.2935271894072
 30
0.0
  0
LINE
  5
A3
330
1F
100
AcDbEntity
  8
0
  6
Continuous
 62
     7
370
    15
100
AcDbLine
 10
613.2265124894
 20
141.9447979962
 30
0.0
 11
613.1993029691
 21
142.0755109822
 31
0.0
  0
SPLINE
  5
A4
330
1F
100
AcDbEntity
  8
0
  6
Continuous
 62
     7
370
    15
100
AcDbSpline
210
0.0
220
0.0
230
1.0
 70
     8
 71
     3
 72
    24
 73
    20
 74
     0
 42
0.00000001
 43
0.00000001
 12
1.0
 22
0.0
 32
0.0
 13
1.0
 23
0.0
 33
0.0
 40
0.0
 40
0.0
 40
0.0
 40
0.0
 40
0.0249404807622761
 40
0.0671056299084075
 40
0.1202158029108546
 40
0.1799900935828165
 40
0.2427144188739067
 40
0.3065430669975336
 40
0.3707041984676636
 40
0.4348104636731845
 40
0.4986854381836589
 40
0.5622367545055198
 40
0.6305276947057009
 40
0.6957316092766889
 40
0.7600101319073361
 40
0.8233298227442178
 40
0.8855978416056615
 40
0.9467900111102447
 40
1.0
 40
1.0
 40
1.0
 40
1.0
 10
614.428827581493
 20
136.7446093892191
 30
0.0
 10
614.4285900554438
 20
136.7455223838026
 30
0.0
 10
614.4279509605002
 20
136.7479789153031
 30
0.0
 10
614.4186546186656
 20
136.7838203046027
 30
0.0
 10
614.400584898438
 20
136.8546347378376
 30
0.0
 10
614.3711354037868
 20
136.9710293330905
 30
0.0
 10
614.3307934807951
 20
137.1321701020137
 30
0.0
 10
614.2799868207609
 20
137.3368079823699
 30
0.0
 10
614.2194229168726
 20
137.5830054706037
 30
0.0
 10
614.1495727717449
 20
137.8692038282757
 30
0.0
 10
614.0707109912533
 20
138.1952346110277
 30
0.0
 10
613.9815406031337
 20
138.5663680156547
 30
0.0
 10
613.8843847735621
 20
138.9765162096048
 30
0.0
 10
613.7786947688978
 20
139.4299398927875
 30
0.0
 10
613.6685620096505
 20
139.9111120075387
 30
0.0
 10
613.5534933992479
 20
140.4237308244105
 30
0.0
 10
613.4342323505862
 20
140.9668811172507
 30
0.0
 10
613.3159992093049
 20
141.51543638403
 30
0.0
 10
613.236267878513
 20
141.897420382601
 30
0.0
 10
613.1991837597767
 20
142.075086299095
 30
0.0
  0
SPLINE
  5
A5
330
1F
100
AcDbEntity
  8
0
  6
Continuous
 62
     7
370
    15
100
AcDbSpline
210
0.0
220
0.0
230
1.0
 70
     8
 71
     3
 72
    13
 73
     9
 74
     0
 42
0.00000001
 43
0.00000001
 12
1.0
 22
0.0
 32
0.0
 13
1.0
 23
0.0
 33
0.0
 40
0.0
 40
0.0
 40
0.0
 40
0.0
 40
0.0912797442064317
 40
0.3174133950284989
 40
0.5426233588814199
 40
0.7644409674554706
 40
0.929367671022039
 40
1.0
 40
1.0
 40
1.0
 40
1.0
 10
614.2964307642857
 20
204.003690097246
 30
0.0
 10
614.3038059433248
 20
204.0334982014909
 30
0.0
 10
614.3294521656952
 20
204.1371519929209
 30
0.0
 10
614.3631853128219
 20
204.2719449840475
 30
0.0
 10
614.3976253501784
 20
204.4083830235869
 30
0.0
 10
614.4184293964342
 20
204.4899295032383
 30
0.0
 10
614.4284615706054
 20
204.528553188045
 30
0.0
 10
614.4286055849009
 20
204.529132500033
 30
0.0
 10
614.4286487675587
 20
204.5293062066172
 30
0.0
  0
SPLINE
  5
A6
330
1F
100
AcDbEntity
  8
0
  6
Continuous
 62
     7
370
    15
100
AcDbSpline
210
0.0
220
0.0
230
1.0
 70
     8
 71
     3
 72
    34
 73
    30
 74
     0
 42
0.00000001
 43
0.00000001
 12
1.0
 22
0.0
 32
0.0
 13
1.0
 23
0.0
 33
0.0
 40
0.0
 40
0.0
 40
0.0
 40
0.0
 40
0.0314591474441083
 40
0.0844190225220731
 40
0.1386517125826613
 40
0.1944789338199376
 40
0.2464001036470011
 40
0.3013257376375351
 40
0.356819246466318
 40
0.4128613941063177
 40
0.4694175737098006
 40
0.5264579111765016
 40
0.5839685274698063
 40
0.6419743576873684
 40
0.7005951540755867
 40
0.7602080365662663
 40
0.8220666342938642
 40
0.8925189214358671
 40
0.9148187471633157
 40
0.9299139913565259
 40
0.9375740054209373
 40
0.9429622582525891
 40
0.948017870927354
 40
0.953028451825044
 40
0.9590424322855404
 40
0.9673833683542803
 40
0.9791702501472803
 40
0.9925578802536839
 40
1.0
 40
1.0
 40
1.0
 40
1.0
 10
613.1993178702274
 20
199.1992055510615
 30
0.0
 10
613.2241907596185
 20
199.3194146924153
 30
0.0
 10
613.2909358935557
 20
199.6419898108075
 30
0.0
 10
613.3958763374004
 20
200.1317368757855
 30
0.0
 10
613.5150668905774
 20
200.6775787527928
 30
0.0
 10
613.6282303917462
 20
201.1841164815215
 30
0.0
 10
613.7361825900892
 20
201.6600260874472
 30
0.0
 10
613.8368586075657
 20
202.0971829853966
 30
0.0
 10
613.9327363703246
 20
202.5073650823384
 30
0.0
 10
614.0217809065996
 20
202.8827282193812
 30
0.0
 10
614.1035533084334
 20
203.2224872258607
 30
0.0
 10
614.1775624359569
 20
203.5258168704691
 30
0.0
 10
614.2433963873207
 20
203.7921532234549
 30
0.0
 10
614.3007484583088
 20
204.0212607938215
 30
0.0
 10
614.3494020936005
 20
204.2135957989858
 30
0.0
 10
614.3895661139103
 20
204.3708596400072
 30
0.0
 10
614.4230236242673
 20
204.5015790406426
 30
0.0
 10
614.4448010602293
 20
204.5871710006636
 30
0.0
 10
614.4616096608532
 20
204.6554587361149
 30
0.0
 10
614.4726038758471
 20
204.7011225229945
 30
0.0
 10
614.4853120956635
 20
204.7558791096064
 30
0.0
 10
614.4981990275154
 20
204.8136787476675
 30
0.0
 10
614.5139774383812
 20
204.8881044760876
 30
0.0
 10
614.5342264882893
 20
204.9910139446035
 30
0.0
 10
614.5591946863386
 20
205.1326586380122
 30
0.0
 10
614.5891195010882
 20
205.3340553285389
 30
0.0
 10
614.6168954638741
 20
205.5973562437386
 30
0.0
 10
614.6342394970588
 20
205.8555610260207
 30
0.0
 10
614.6327578127167
 20
206.0209057518429
 30
0.0
 10
614.632228431789
 20
206.0799806450937
 30
0.0
  0
LINE
  5
A7
330
1F
100
AcDbEntity
  8
0
  6
Continuous
 62
     7
370
    15
100
AcDbLine
 10
351.0886151768
 20
108.3191487079
 30
0.0
 11
357.9290155745
 21
108.3191487079
 31
0.0
  0
LINE
  5
A8
330
1F
100
AcDbEntity
  8
0
  6
Continuous
 62
     7
370
    15
100
AcDbLine
 10
351.0886151768
 20
108.3191487079
 30
0.0
 11
365.0477845646
 21
117.2257664686
 31
0.0
  0
LINE
  5
A9
330
1F
100
AcDbEntity
  8
0
  6
Continuous
 62
     7
370
    15
100
AcDbLine
 10
365.0477845646
 20
117.2257664686
 30
0.0
 11
371.8881886877
 21
117.2257664686
 31
0.0
  0
LINE
  5
AA
330
1F
100
AcDbEntity
  8
0
  6
Continuous
 62
     7
370
    15
100
AcDbLine
 10
357.9290155745
 20
108.3191487079
 30
0.0
 11
371.8881886877
 21
117.2257664686
 31
0.0
  0
LINE
  5
AB
330
1F
100
AcDbEntity
  8
0
  6
Continuous
 62
     7
370
    15
100
AcDbLine
 10
365.0477845646
 20
117.2257664686
 30
0.0
 11
364.9910260416
 21
120.8855214601
 31
0.0
  0
LINE
  5
AC
330
1F
100
AcDbEntity
  8
0
  6
Continuous
 62
     7
370
    15
100
AcDbLine
 10
336.8608449078
 20
116.7306828385
 30
0.0
 11
351.0886151768
 21
108.3191487079
 31
0.0
  0
LINE
  5
AD
330
1F
100
AcDbEntity
  8
0
  6
Continuous
 62
     7
370
    15
100
AcDbLine
 10
336.8040863849
 20
120.39043783
 30
0.0
 11
336.8608449078
 21
116.7306828385
 31
0.0
  0
LINE
  5
AE
330
1F
100
AcDbEntity
  8
0
  6
Continuous
 62
     7
370
    15
100
AcDbLine
 10
336.8040863849
 20
120.39043783
 30
0.0
 11
340.2431328274
 21
120.4508434122
 31
0.0
  0
LINE
  5
AF
330
1F
100
AcDbEntity
  8
0
  6
Continuous
 62
     7
370
    15
100
AcDbLine
 10
340.2431328274
 20
120.4508434122
 30
0.0
 11
350.9990815497
 21
114.091866005
 31
0.0
  0
LINE
  5
B0
330
1F
100
AcDbEntity
  8
0
  6
Continuous
 62
     7
370
    15
100
AcDbLine
 10
350.9990815497
 20
114.091866005
 30
0.0
 11
361.5519795991
 21
120.8251177405
 31
0.0
  0
LINE
  5
B1
330
1F
100
AcDbEntity
  8
0
  6
Continuous
 62
     7
370
    15
100
AcDbLine
 10
361.5519795991
 20
120.8251177405
 30
0.0
 11
364.9910260416
 21
120.8855214601
 31
0.0
  0
LINE
  5
B2
330
1F
100
AcDbEntity
  8
0
  6
Continuous
 62
     7
370
    15
100
AcDbLine
 10
364.7791874088
 20
134.5439164971
 30
0.0
 11
371.6195915318
 21
134.5439164971
 31
0.0
  0
LINE
  5
B3
330
1F
100
AcDbEntity
  8
0
  6
Continuous
 62
     7
370
    15
100
AcDbLine
 10
371.8881886877
 20
117.2257664686
 30
0.0
 11
371.6195915318
 21
134.5439164971
 31
0.0
  0
LINE
  5
B4
330
1F
100
AcDbEntity
  8
0
  6
Continuous
 62
     7
370
    15
100
AcDbLine
 10
366.7011242784
 20
120.8855214601
 30
0.0
 11
364.9910260416
 21
120.8855214601
 31
0.0
  0
LINE
  5
B5
330
1F
100
AcDbEntity
  8
0
  6
Continuous
 62
     7
370
    15
100
AcDbLine
 10
366.7011242784
 20
120.8855214601
 30
0.0
 11
366.5460516191
 21
130.8841577803
 31
0.0
  0
LINE
  5
B6
330
1F
100
AcDbEntity
  8
0
  6
Continuous
 62
     7
370
    15
100
AcDbLine
 10
366.5460516191
 20
130.8841577803
 30
0.0
 11
364.8359496571
 21
130.8841577803
 31
0.0
  0
LINE
  5
B7
330
1F
100
AcDbEntity
  8
0
  6
Continuous
 62
     7
370
    15
100
AcDbLine
 10
364.8359496571
 20
130.8841577803
 30
0.0
 11
364.7791874088
 21
134.5439164971
 31
0.0
  0
LINE
  5
B8
330
1F
100
AcDbEntity
  8
0
  6
Continuous
 62
     7
370
    15
100
AcDbLine
 10
336.5922514773
 20
134.0488328671
 30
0.0
 11
336.6490100003
 21
130.3890778755
 31
0.0
  0
LINE
  5
B9
330
1F
100
AcDbEntity
  8
0
  6
Continuous
 62
     7
370
    15
100
AcDbLine
 10
350.5514208651
 20
142.9554469024
 30
0.0
 11
336.5922514773
 21
134.0488328671
 31
0.0
  0
LINE
  5
BA
330
1F
100
AcDbEntity
  8
0
  6
Continuous
 62
     7
370
    15
100
AcDbLine
 10
364.7791874088
 20
134.5439164971
 30
0.0
 11
350.5514208651
 21
142.9554469024
 31
0.0
  0
LINE
  5
BB
330
1F
100
AcDbEntity
  8
0
  6
Continuous
 62
     7
370
    15
100
AcDbLine
 10
364.8359496571
 20
130.8841577803
 30
0.0
 11
361.3969032145
 21
130.8237559234
 31
0.0
  0
LINE
  5
BC
330
1F
100
AcDbEntity
  8
0
  6
Continuous
 62
     7
370
    15
100
AcDbLine
 10
361.3969032145
 20
130.8237559234
 30
0.0
 11
350.6409544922
 21
137.1827333306
 31
0.0
  0
LINE
  5
BD
330
1F
100
AcDbEntity
  8
0
  6
Continuous
 62
     7
370
    15
100
AcDbLine
 10
350.6409544922
 20
137.1827333306
 30
0.0
 11
340.0880564428
 21
130.4494797324
 31
0.0
  0
LINE
  5
BE
330
1F
100
AcDbEntity
  8
0
  6
Continuous
 62
     7
370
    15
100
AcDbLine
 10
340.0880564428
 20
130.4494797324
 30
0.0
 11
336.6490100003
 21
130.3890778755
 31
0.0
  0
LINE
  5
BF
330
1F
100
AcDbEntity
  8
0
  6
Continuous
 62
     7
370
    15
100
AcDbLine
 10
366.5460516191
 20
130.8841577803
 30
0.0
 11
363.1070051766
 21
130.8237559234
 31
0.0
  0
LINE
  5
C0
330
1F
100
AcDbEntity
  8
0
  6
Continuous
 62
     7
370
    15
100
AcDbLine
 10
363.1070051766
 20
130.8237559234
 30
0.0
 11
361.3969032145
 21
130.8237559234
 31
0.0
  0
LINE
  5
C1
330
1F
100
AcDbEntity
  8
0
  6
Continuous
 62
     7
370
    15
100
AcDbLine
 10
350.5514208651
 20
142.9554469024
 30
0.0
 11
357.3918212629
 21
142.9554469024
 31
0.0
  0
LINE
  5
C2
330
1F
100
AcDbEntity
  8
0
  6
Continuous
 62
     7
370
    15
100
AcDbLine
 10
371.6195915318
 20
134.5439164971
 30
0.0
 11
357.3918212629
 21
142.9554469024
 31
0.0
  0
LINE
  5
C3
330
1F
100
AcDbEntity
  8
0
  6
Continuous
 62
     7
370
    15
100
AcDbLine
 10
341.7981584049
 20
130.4494797324
 30
0.0
 11
338.3591119624
 21
130.3890778755
 31
0.0
  0
LINE
  5
C4
330
1F
100
AcDbEntity
  8
0
  6
Continuous
 62
     7
370
    15
100
AcDbLine
 10
351.5285868622
 20
136.6579591369
 30
0.0
 11
341.7981584049
 21
130.4494797324
 31
0.0
  0
LINE
  5
C5
330
1F
100
AcDbEntity
  8
0
  6
Continuous
 62
     7
370
    15
100
AcDbLine
 10
341.9532347895
 20
120.4508434122
 30
0.0
 11
351.8215511418
 21
114.6166401987
 31
0.0
  0
LINE
  5
C6
330
1F
100
AcDbEntity
  8
0
  6
Continuous
 62
     7
370
    15
100
AcDbLine
 10
338.3591119624
 20
130.3890778755
 30
0.0
 11
338.5137189604
 21
120.4204673951
 31
0.0
  0
LINE
  5
C7
330
1F
100
AcDbEntity
  8
0
  6
Continuous
 62
     7
370
    15
100
AcDbLine
 10
341.9532347895
 20
120.4508434122
 30
0.0
 11
340.2431328274
 21
120.4508434122
 31
0.0
  0
LINE
  5
C8
330
1F
100
AcDbEntity
  8
0
  6
Continuous
 62
     7
370
    15
100
AcDbLine
 10
341.7981584049
 20
130.4494797324
 30
0.0
 11
340.0880564428
 21
130.4494797324
 31
0.0
  0
LINE
  5
C9
330
1F
100
AcDbEntity
  8
0
  6
Continuous
 62
     7
370
    15
100
AcDbLine
 10
338.3591119624
 20
130.3890778755
 30
0.0
 11
336.6490100003
 21
130.3890778755
 31
0.0
  0
LWPOLYLINE
  5
CA
330
1F
100
AcDbEntity
  8
0
  6
Continuous
 62
     7
370
    15
100
AcDbPolyline
 90
       75
 70
   128
 43
0.0
 10
245.0746987439
 20
302.2485508656
 10
245.3375701285
 20
301.9597216581
 10
245.613182006
 20
301.7117961382
 10
245.8995823241
 20
301.5065624451
 10
246.1946700192
 20
301.3454957937
 10
246.4963291264
 20
301.2297584747
 10
246.8023840762
 20
301.1601998543
 10
247.110659299
 20
301.1372967695
 10
247.4188898183
 20
301.1612429356
 10
247.7248851634
 20
301.2318297361
 10
248.0264250613
 20
301.3485803341
 10
248.3213339425
 20
301.5106453632
 10
248.6075107432
 20
301.7168476318
 10
248.8828693009
 20
301.9656970238
 10
249.1454277612
 20
302.2554203009
 10
249.3933085776
 20
302.5839163994
 10
249.624723611
 20
302.9488309359
 10
249.83798903
 20
303.3475115036
 10
250.0315998174
 20
303.7771119808
 10
250.2041254617
 20
304.2345180248
 10
250.3543291665
 20
304.7164513802
 10
250.4811529494
 20
305.2194251751
 10
250.5836580373
 20
305.7398184275
 10
250.6611142732
 20
306.2738760447
 10
250.7129703141
 20
306.8177684282
 10
250.7388387299
 20
307.3675616716
 10
250.7385556079
 20
307.919292066
 10
250.7121060468
 20
308.4689959025
 10
250.6596688605
 20
309.0127094721
 10
250.5816463805
 20
309.5465137695
 10
250.4785899497
 20
310.066549394
 10
250.3512446261
 20
310.5690910553
 10
250.2005193807
 20
311.0505177712
 10
250.0275168992
 20
311.5073426699
 10
249.833459077
 20
311.936287496
 10
249.6197764254
 20
312.334252808
 10
249.3879739619
 20
312.6983775829
 10
249.1397504188
 20
313.0260392164
 10
248.8768790341
 20
313.314883325
 10
248.6012522555
 20
313.562808845
 10
248.3148668385
 20
313.7680425381
 10
248.0197791434
 20
313.9291091894
 10
247.7181200362
 20
314.0448316073
 10
247.4120501853
 20
314.1144051289
 10
247.1037898637
 20
314.1372933125
 10
246.7955593444
 20
314.1133620476
 10
246.4895639993
 20
314.0427603458
 10
246.1880241013
 20
313.9260097479
 10
245.8931152202
 20
313.7639596199
 10
245.6069384194
 20
313.5577573513
 10
245.3315798617
 20
313.3088930582
 10
245.0690065003
 20
313.0191697811
 10
244.8211256839
 20
312.6906736826
 10
244.5897255517
 20
312.3257740473
 10
244.3764452315
 20
311.9270785784
 10
244.1828493453
 20
311.4974781012
 10
244.010323701
 20
311.0400720572
 10
243.8601199962
 20
310.558153603
 10
243.7332962132
 20
310.0551798081
 10
243.6307911254
 20
309.5347865557
 10
243.5533348895
 20
309.0007140373
 10
243.5014788485
 20
308.4568365549
 10
243.4755955316
 20
307.9070433115
 10
243.4758935548
 20
307.355298016
 10
243.5023431159
 20
306.8055941795
 10
243.5547803021
 20
306.2618955111
 10
243.6328027821
 20
305.7280912136
 10
243.735859213
 20
305.208040688
 10
243.8632045365
 20
304.7054990267
 10
244.013929782
 20
304.224087212
 10
244.1869322635
 20
303.7672474121
 10
244.3809751845
 20
303.3383174872
 10
244.5946727372
 20
302.940337274
 10
244.8264602996
 20
302.5762124991
 10
245.0746987439
 20
302.2485508656
  0
LWPOLYLINE
  5
CB
330
1F
100
AcDbEntity
  8
0
  6
Continuous
 62
     7
370
    15
100
AcDbPolyline
 90
       42
 70
   128
 43
0.0
 10
250.544527588
 20
300.6569876408
 10
250.7803682662
 20
300.6380482649
 10
251.1037681676
 20
300.6534709667
 10
251.4253650285
 20
300.7165773844
 10
251.7429385758
 20
300.8269800877
 10
252.0543281413
 20
300.983889315
 10
252.35741776
 20
301.1862470841
 10
252.6501212693
 20
301.4326824879
 10
252.9304419137
 20
301.7214967941
 10
253.1964723445
 20
302.0507230496
 10
253.44639462
 20
302.4181111788
 10
253.6784951068
 20
302.8211428856
 10
253.8911942817
 20
303.2570912575
 10
254.0830318309
 20
303.7229462599
 10
254.2527113534
 20
304.2155488466
 10
254.3990556575
 20
304.7315164541
 10
254.5210663653
 20
305.2673473095
 10
254.6179388143
 20
305.8193608259
 10
254.6889726497
 20
306.3837870096
 10
254.7337059356
 20
306.956781361
 10
254.7518257476
 20
307.5344248747
 10
254.7431979752
 20
308.112768743
 10
254.7079120255
 20
308.6878641581
 10
254.6461765147
 20
309.2557772135
 10
254.5584384776
 20
309.8126485085
 10
254.4452790595
 20
310.3546484446
 10
254.3074731208
 20
310.878096435
 10
254.1459594346
 20
311.3794012999
 10
253.9618704892
 20
311.8551357721
 10
253.7564281798
 20
312.3020662998
 10
253.5310481168
 20
312.7171381449
 10
253.2872800208
 20
313.0974902844
 10
253.0267630196
 20
313.4405597185
 10
252.751315055
 20
313.7439920639
 10
252.4627838708
 20
314.005701158
 10
252.1631513215
 20
314.2238988613
 10
251.8544737674
 20
314.397109959
 10
251.5388522721
 20
314.5241423582
 10
251.218432603
 20
314.6041466927
 10
250.8954201318
 20
314.6365418171
 10
250.5720202304
 20
314.6211340164
 10
250.544527588
 20
314.6176173424
  0
LINE
  5
CC
330
1F
100
AcDbEntity
  8
0
  6
Continuous
 62
     7
370
    15
100
AcDbLine
 10
262.5656370498
 20
84.6266544496
 30
0.0
 11
254.5656357385
 21
84.6266544496
 31
0.0
  0
LINE
  5
CD
330
1F
100
AcDbEntity
  8
0
  6
Continuous
 62
     7
370
    15
100
AcDbLine
 10
256.5656397916
 20
87.7266547715
 30
0.0
 11
256.5678153611
 21
87.7266547715
 31
0.0
  0
SPLINE
  5
CE
330
1F
100
AcDbEntity
  8
0
  6
Continuous
 62
     7
370
    15
100
AcDbSpline
210
0.0
220
0.0
230
1.0
 70
     8
 71
     3
 72
    12
 73
     8
 74
     0
 42
0.00000001
 43
0.00000001
 12
1.0
 22
0.0
 32
0.0
 13
1.0
 23
0.0
 33
0.0
 40
0.0
 40
0.0
 40
0.0
 40
0.0
 40
0.2031256262561867
 40
0.412180390564315
 40
0.6142469076867848
 40
0.8225122891761636
 40
1.0
 40
1.0
 40
1.0
 40
1.0
 10
256.5678153611103
 20
87.7266547714804
 30
0.0
 10
256.4570247401077
 20
87.72115736139624
 30
0.0
 10
256.2322095738612
 20
87.7100020745064
 30
0.0
 10
255.9062426726883
 20
87.61917935522068
 30
0.0
 10
255.5978008540275
 20
87.4734755476464
 30
0.0
 10
255.3294102810038
 20
87.28566025140272
 30
0.0
 10
255.1818073218722
 20
87.12851954565947
 30
0.0
 10
255.1138941622654
 20
87.0562180017565
 30
0.0
  0
SPLINE
  5
CF
330
1F
100
AcDbEntity
  8
0
  6
Continuous
 62
     7
370
    15
100
AcDbSpline
210
0.0
220
0.0
230
1.0
 70
     8
 71
     3
 72
     9
 73
     5
 74
     0
 42
0.00000001
 43
0.00000001
 12
1.0
 22
0.0
 32
0.0
 13
1.0
 23
0.0
 33
0.0
 40
0.0
 40
0.0
 40
0.0
 40
0.0
 40
0.493715929455231
 40
1.0
 40
1.0
 40
1.0
 40
1.0
 10
255.1138941622654
 20
87.0562180017565
 30
0.0
 10
255.1624357239496
 20
87.07572269568698
 30
0.0
 10
255.2607545319688
 20
87.11522859931864
 30
0.0
 10
255.3590912402873
 20
87.07605232525711
 30
0.0
 10
255.4088775492588
 20
87.0562180017565
 30
0.0
  0
SPLINE
  5
D0
330
1F
100
AcDbEntity
  8
0
  6
Continuous
 62
     7
370
    15
100
AcDbSpline
210
0.0
220
0.0
230
1.0
 70
     8
 71
     3
 72
    12
 73
     8
 74
     0
 42
0.00000001
 43
0.00000001
 12
1.0
 22
0.0
 32
0.0
 13
1.0
 23
0.0
 33
0.0
 40
0.0
 40
0.0
 40
0.0
 40
0.0
 40
0.1958643006702799
 40
0.3974658841185224
 40
0.5933115701258933
 40
0.7946941141900484
 40
1.0
 40
1.0
 40
1.0
 40
1.0
 10
255.4088775492588
 20
87.0562180017565
 30
0.0
 10
255.4841775347327
 20
87.13571290595112
 30
0.0
 10
255.6369832027288
 20
87.29703128949772
 30
0.0
 10
255.9101586877003
 20
87.48282298851373
 30
0.0
 10
256.209238169355
 20
87.6214173611229
 30
0.0
 10
256.5289773311778
 20
87.70996703443323
 30
0.0
 10
256.7508115940601
 20
87.72105653216866
 30
0.0
 10
256.8627987481037
 20
87.7266547714804
 30
0.0
  0
LINE
  5
D1
330
1F
100
AcDbEntity
  8
0
  6
Continuous
 62
     7
370
    15
100
AcDbLine
 10
256.8627987481
 20
87.7266547715
 30
0.0
 11
258.6590890265
 21
87.7266547715
 31
0.0
  0
SPLINE
  5
D2
330
1F
100
AcDbEntity
  8
0
  6
Continuous
 62
     7
370
    15
100
AcDbSpline
210
0.0
220
0.0
230
1.0
 70
     8
 71
     3
 72
    12
 73
     8
 74
     0
 42
0.00000001
 43
0.00000001
 12
1.0
 22
0.0
 32
0.0
 13
1.0
 23
0.0
 33
0.0
 40
0.0
 40
0.0
 40
0.0
 40
0.0
 40
0.2031309524677574
 40
0.4121843681229558
 40
0.6142481623887832
 40
0.8225123779854195
 40
1.0
 40
1.0
 40
1.0
 40
1.0
 10
258.6590890265384
 20
87.7266547714804
 30
0.0
 10
258.6932967945748
 20
87.72115760493165
 30
0.0
 10
258.7627096884826
 20
87.71000299706493
 30
0.0
 10
258.8633223064278
 20
87.6191799566397
 30
0.0
 10
258.9585510097908
 20
87.4734747707508
 30
0.0
 10
259.0413933288288
 20
87.28565967391106
 30
0.0
 10
259.0869608898477
 20
87.12851949996619
 30
0.0
 10
259.1079269028583
 20
87.0562180017565
 30
0.0
  0
SPLINE
  5
D3
330
1F
100
AcDbEntity
  8
0
  6
Continuous
 62
     7
370
    15
100
AcDbSpline
210
0.0
220
0.0
230
1.0
 70
     8
 71
     3
 72
     9
 73
     5
 74
     0
 42
0.00000001
 43
0.00000001
 12
1.0
 22
0.0
 32
0.0
 13
1.0
 23
0.0
 33
0.0
 40
0.0
 40
0.0
 40
0.0
 40
0.0
 40
0.4937148236919823
 40
1.0
 40
1.0
 40
1.0
 40
1.0
 10
259.1079269028583
 20
87.0562180017565
 30
0.0
 10
259.2651579601125
 20
87.07572266740571
 30
0.0
 10
259.5836232961912
 20
87.1152286022353
 30
0.0
 10
259.9021624237395
 20
87.07605235499678
 30
0.0
 10
260.0634340620914
 20
87.0562180017565
 30
0.0
  0
SPLINE
  5
D4
330
1F
100
AcDbEntity
  8
0
  6
Continuous
 62
     7
370
    15
100
AcDbSpline
210
0.0
220
0.0
230
1.0
 70
     8
 71
     3
 72
    12
 73
     8
 74
     0
 42
0.00000001
 43
0.00000001
 12
1.0
 22
0.0
 32
0.0
 13
1.0
 23
0.0
 33
0.0
 40
0.0
 40
0.0
 40
0.0
 40
0.0
 40
0.1958644267791253
 40
0.3974696089280751
 40
0.5933142465229425
 40
0.7946994093391583
 40
1.0
 40
1.0
 40
1.0
 40
1.0
 10
260.0634340620914
 20
87.0562180017565
 30
0.0
 10
260.0401883345546
 20
87.13571326191888
 30
0.0
 10
259.9930155508836
 20
87.29703377574555
 30
0.0
 10
259.9086745696893
 20
87.4828202267775
 30
0.0
 10
259.8163663612153
 20
87.62141908249038
 30
0.0
 10
259.7176414025244
 20
87.70996551361581
 30
0.0
 10
259.6491643490431
 20
87.72105609345415
 30
0.0
 10
259.6145961857715
 20
87.7266547714804
 30
0.0
  0
LINE
  5
D5
330
1F
100
AcDbEntity
  8
0
  6
Continuous
 62
     7
370
    15
100
AcDbLine
 10
259.6145961858
 20
87.7266547715
 30
0.0
 11
260.5656329966
 21
87.7266547715
 31
0.0
  0
LINE
  5
D6
330
1F
100
AcDbEntity
  8
0
  6
Continuous
 62
     7
370
    15
100
AcDbLine
 10
259.1908816672
 20
87.7266547715
 30
0.0
 11
259.1908816672
 21
87.0631349345
 31
0.0
  0
LINE
  5
D7
330
1F
100
AcDbEntity
  8
0
  6
Continuous
 62
     7
370
    15
100
AcDbLine
 10
259.6145961858
 20
87.7266547715
 30
0.0
 11
259.1908816672
 21
87.7266547715
 31
0.0
  0
LINE
  5
D8
330
1F
100
AcDbEntity
  8
0
  6
Continuous
 62
     7
370
    15
100
AcDbLine
 10
256.8627987481
 20
87.7266547715
 30
0.0
 11
256.5678153611
 21
87.7266547715
 31
0.0
  0
LINE
  5
D9
330
1F
100
AcDbEntity
  8
0
  6
Continuous
 62
     7
370
    15
100
AcDbLine
 10
258.8959131814
 20
87.7266547715
 30
0.0
 11
258.8959131814
 21
87.5590711904
 31
0.0
  0
LINE
  5
DA
330
1F
100
AcDbEntity
  8
0
  6
Continuous
 62
     7
370
    15
100
AcDbLine
 10
258.8959131814
 20
87.7266547715
 30
0.0
 11
258.6590890265
 21
87.7266547715
 31
0.0
  0
LINE
  5
DB
330
1F
100
AcDbEntity
  8
0
  6
Continuous
 62
     7
370
    15
100
AcDbLine
 10
259.1908816672
 20
87.7266547715
 30
0.0
 11
258.8959131814
 21
87.7266547715
 31
0.0
  0
LINE
  5
DC
330
1F
100
AcDbEntity
  8
0
  6
Continuous
 62
     7
370
    15
100
AcDbLine
 10
193.4357826091
 20
473.3614309763
 30
0.0
 11
193.4357826091
 21
399.913160417
 31
0.0
  0
LINE
  5
DD
330
1F
100
AcDbEntity
  8
0
  6
Continuous
 62
     7
370
    15
100
AcDbLine
 10
168.4357766486
 20
399.913160417
 30
0.0
 11
168.4357766486
 21
473.3614309763
 31
0.0
  0
LINE
  5
DE
330
1F
100
AcDbEntity
  8
0
  6
Continuous
 62
     7
370
    15
100
AcDbLine
 10
166.9260804034
 20
459.3609555697
 30
0.0
 11
166.9259015895
 21
459.3532963728
 31
0.0
  0
LINE
  5
DF
330
1F
100
AcDbEntity
  8
0
  6
Continuous
 62
     7
370
    15
100
AcDbLine
 10
106.9357935763
 20
380.6372865175
 30
0.0
 11
166.9357959605
 21
380.6372865175
 31
0.0
  0
LINE
  5
E0
330
1F
100
AcDbEntity
  8
0
  6
Continuous
 62
     7
370
    15
100
AcDbLine
 10
116.9357840396
 20
490.6373008226
 30
0.0
 11
156.9357756949
 21
490.6373008226
 31
0.0
  0
SPLINE
  5
E1
330
1F
100
AcDbEntity
  8
0
  6
Continuous
 62
     7
370
    15
100
AcDbSpline
210
0.0
220
0.0
230
1.0
 70
     8
 71
     3
 72
    17
 73
    13
 74
     0
 42
0.00000001
 43
0.00000001
 12
1.0
 22
0.0
 32
0.0
 13
1.0
 23
0.0
 33
0.0
 40
0.0
 40
0.0
 40
0.0
 40
0.0
 40
0.0012596050982183
 40
0.1615051283223196
 40
0.306030987484974
 40
0.4505276496382116
 40
0.5490884268208808
 40
0.6477201041643503
 40
0.7462435254770903
 40
0.8441174291522918
 40
0.9419771864259808
 40
1.0
 40
1.0
 40
1.0
 40
1.0
 10
165.4357854700962
 20
453.0546053384875
 30
0.0
 10
165.4371167472871
 20
453.0575361862523
 30
0.0
 10
165.6078115895538
 20
453.4333261421812
 30
0.0
 10
165.9212756918885
 20
454.1186645565073
 30
0.0
 10
166.3436944047285
 20
455.036557142913
 30
0.0
 10
166.6705086612286
 20
455.7423916127814
 30
0.0
 10
166.9252997894846
 20
456.2888838824064
 30
0.0
 10
167.1207578474506
 20
456.7014556759231
 30
0.0
 10
167.2894442648793
 20
457.0465926677627
 30
0.0
 10
167.4278932201527
 20
457.3103851978948
 30
0.0
 10
167.5268478776989
 20
457.4799694007973
 30
0.0
 10
167.5667137537115
 20
457.5179856124979
 30
0.0
 10
167.5815526820103
 20
457.5321360563372
 30
0.0
  0
SPLINE
  5
E2
330
1F
100
AcDbEntity
  8
0
  6
Continuous
 62
     7
370
    15
100
AcDbSpline
210
0.0
220
0.0
230
1.0
 70
     8
 71
     3
 72
    16
 73
    12
 74
     0
 42
0.00000001
 43
0.00000001
 12
1.0
 22
0.0
 32
0.0
 13
1.0
 23
0.0
 33
0.0
 40
0.0
 40
0.0
 40
0.0
 40
0.0
 40
0.052881321326654
 40
0.1533145801061265
 40
0.2537637986555163
 40
0.3979913730147321
 40
0.5422673278058818
 40
0.6903603126231758
 40
0.8384849044166017
 40
0.9987403171654707
 40
1.0
 40
1.0
 40
1.0
 40
1.0
 10
167.5816718912998
 20
415.7420381044482
 30
0.0
 10
167.568300769944
 20
415.7544580204694
 30
0.0
 10
167.5295349485766
 20
415.7904660883842
 30
0.0
 10
167.4313630779473
 20
415.9577741061204
 30
0.0
 10
167.2694467440745
 20
416.2658986666096
 30
0.0
 10
167.0381469461668
 20
416.7446294743714
 30
0.0
 10
166.7234207157405
 20
417.4179996255933
 30
0.0
 10
166.3536672580008
 20
418.2164212602186
 30
0.0
 10
165.9249524518606
 20
419.1478779599548
 30
0.0
 10
165.607811589576
 20
419.8412652651041
 30
0.0
 10
165.4371167472873
 20
420.2170552071548
 30
0.0
 10
165.4357854700961
 20
420.2199860548114
 30
0.0
  0
LINE
  5
E3
330
1F
100
AcDbEntity
  8
0
  6
Continuous
 62
     7
370
    15
100
AcDbLine
 10
193.4357826091
 20
478.6373063063
 30
0.0
 11
193.4357826091
 21
473.3614309763
 31
0.0
  0
LINE
  5
E4
330
1F
100
AcDbEntity
  8
0
  6
Continuous
 62
     7
370
    15
100
AcDbLine
 10
168.4357766486
 20
473.3614309763
 30
0.0
 11
168.4357766486
 21
478.6373063063
 31
0.0
  0
LINE
  5
E5
330
1F
100
AcDbEntity
  8
0
  6
Continuous
 62
     7
370
    15
100
AcDbLine
 10
168.4357766486
 20
394.637285087
 30
0.0
 11
168.4357766486
 21
399.913160417
 31
0.0
  0
LINE
  5
E6
330
1F
100
AcDbEntity
  8
0
  6
Continuous
 62
     7
370
    15
100
AcDbLine
 10
193.4357826091
 20
399.913160417
 30
0.0
 11
193.4357826091
 21
394.637285087
 31
0.0
  0
LINE
  5
E7
330
1F
100
AcDbEntity
  8
0
  6
Continuous
 62
     7
370
    15
100
AcDbLine
 10
255.8221016503
 20
310.1371510958
 30
0.0
 11
255.5904332972
 21
294.1371484732
 31
0.0
  0
SPLINE
  5
E8
330
1F
100
AcDbEntity
  8
0
  6
Continuous
 62
     7
370
    15
100
AcDbSpline
210
0.0
220
0.0
230
1.0
 70
     8
 71
     3
 72
    18
 73
    14
 74
     0
 42
0.00000001
 43
0.00000001
 12
1.0
 22
0.0
 32
0.0
 13
1.0
 23
0.0
 33
0.0
 40
0.0
 40
0.0
 40
0.0
 40
0.0
 40
0.0914606416526672
 40
0.1832113682724013
 40
0.274671972917391
 40
0.3661546594054519
 40
0.457930137896196
 40
0.5494126484221331
 40
0.6408853047262555
 40
0.7326487765623598
 40
0.8241217323872867
 40
0.912060986631991
 40
1.0
 40
1.0
 40
1.0
 40
1.0
 10
253.2328609801212
 20
316.7296930288409
 30
0.0
 10
253.3703256002451
 20
316.6333835737944
 30
0.0
 10
253.6456908359011
 20
316.4404591997929
 30
0.0
 10
254.0328572065076
 20
316.0498077238016
 30
0.0
 10
254.3949967811705
 20
315.5914224965384
 30
0.0
 10
254.7244323543937
 20
315.0607982028437
 30
0.0
 10
255.0181168482646
 20
314.4692339282541
 30
0.0
 10
255.2720195143675
 20
313.8233734977657
 30
0.0
 10
255.4807878506155
 20
313.1298748059683
 30
0.0
 10
255.6434729835947
 20
312.3992377990966
 30
0.0
 10
255.7550018493205
 20
311.6499295049748
 30
0.0
 10
255.8190401127084
 20
310.8928597929058
 30
0.0
 10
255.8210811387181
 20
310.3890537648244
 30
0.0
 10
255.8221016503254
 20
310.1371510957812
 30
0.0
  0
LINE
  5
E9
330
1F
100
AcDbEntity
  8
0
  6
Continuous
 62
     7
370
    15
100
AcDbLine
 10
634.0419445611
 20
294.1371484732
 30
0.0
 11
255.5904332972
 21
294.1371484732
 31
0.0
  0
SPLINE
  5
EA
330
1F
100
AcDbEntity
  8
0
  6
Continuous
 62
     7
370
    15
100
AcDbSpline
210
0.0
220
0.0
230
1.0
 70
     8
 71
     3
 72
    10
 73
     6
 74
     0
 42
0.00000001
 43
0.00000001
 12
1.0
 22
0.0
 32
0.0
 13
1.0
 23
0.0
 33
0.0
 40
0.0
 40
0.0
 40
0.0
 40
0.0
 40
0.2630762562847698
 40
0.690817260926062
 40
1.0
 40
1.0
 40
1.0
 40
1.0
 10
251.9782577134052
 20
317.1203716730212
 30
0.0
 10
252.096468874077
 20
317.1212385213445
 30
0.0
 10
252.4068819511805
 20
317.1235147958849
 30
0.0
 10
252.7999935938932
 20
316.9839447162413
 30
0.0
 10
253.1049245545932
 20
316.8048385655696
 30
0.0
 10
253.2328609801212
 20
316.7296930288409
 30
0.0
  0
LINE
  5
EB
330
1F
100
AcDbEntity
  8
0
  6
Continuous
 62
     7
370
    15
100
AcDbLine
 10
252.5110636331
 20
301.3324721789
 30
0.0
 11
252.4211500264
 21
295.11970124
 31
0.0
  0
SPLINE
  5
EC
330
1F
100
AcDbEntity
  8
0
  6
Continuous
 62
     7
370
    15
100
AcDbSpline
210
0.0
220
0.0
230
1.0
 70
     8
 71
     3
 72
    13
 73
     9
 74
     0
 42
0.00000001
 43
0.00000001
 12
1.0
 22
0.0
 32
0.0
 13
1.0
 23
0.0
 33
0.0
 40
0.0
 40
0.0
 40
0.0
 40
0.0
 40
0.1179695085565627
 40
0.3188620514504952
 40
0.5138451291955576
 40
0.7089781014150776
 40
0.9039594803134261
 40
1.0
 40
1.0
 40
1.0
 40
1.0
 10
224.0033690310398
 20
465.9291788076495
 30
0.0
 10
223.9957826232413
 20
465.7878347810888
 30
0.0
 10
223.9752771758305
 20
465.4057932957859
 30
0.0
 10
223.9510650891287
 20
464.6894897563487
 30
0.0
 10
223.9284646099887
 20
463.7960750024835
 30
0.0
 10
223.9119380743642
 20
462.8229342398038
 30
0.0
 10
223.90118361356
 20
461.9632522541782
 30
0.0
 10
223.8966522121816
 20
461.3992405470275
 30
0.0
 10
223.8951567984501
 20
461.2131103014086
 30
0.0
  0
LINE
  5
ED
330
1F
100
AcDbEntity
  8
0
  6
Continuous
 62
     7
370
    15
100
AcDbLine
 10
220.4467896796
 20
374.1371615862
 30
0.0
 11
220.4468194819
 21
374.1371615862
 31
0.0
  0
LINE
  5
EE
330
1F
100
AcDbEntity
  8
0
  6
Continuous
 62
     7
370
    15
100
AcDbLine
 10
432.7887995593
 20
629.115818355
 30
0.0
 11
432.9357827506
 21
629.115818355
 31
0.0
  0
LINE
  5
EF
330
1F
100
AcDbEntity
  8
0
  6
Continuous
 62
     7
370
    15
100
AcDbLine
 10
416.9357819907
 20
629.115818355
 30
0.0
 11
432.7887995593
 21
629.115818355
 31
0.0
  0
LWPOLYLINE
  5
F0
330
1F
100
AcDbEntity
  8
0
  6
Continuous
 62
     7
370
    15
100
AcDbPolyline
 90
       32
 70
   128
 43
0.0
 10
255.1667634822
 20
310.1371510958
 10
255.1533971406
 20
310.715211842
 10
255.1133726216
 20
311.2893088793
 10
255.0469879485
 20
311.8555530047
 10
254.9546752549
 20
312.410055015
 10
254.8370752908
 20
312.9490151142
 10
254.6949778176
 20
313.4687825178
 10
254.5293812133
 20
313.9657958483
 10
254.3413881637
 20
314.4366427397
 10
254.1322950698
 20
314.8781194424
 10
253.9035324431
 20
315.2872159218
 10
253.6566500045
 20
315.6611307596
 10
253.3933613873
 20
315.9973158573
 10
253.1154398299
 20
316.2934764361
 10
252.8247926808
 20
316.5475710367
 10
252.5234017945
 20
316.7578711247
 10
252.2133235312
 20
316.9229610895
 10
251.896688757
 20
317.0416786408
 10
251.5756581403
 20
317.113248918
 10
251.2524072505
 20
317.1371503805
 10
250.9291712619
 20
317.113248918
 10
250.608125744
 20
317.0416786408
 10
250.2914909697
 20
316.9229610895
 10
249.9814276076
 20
316.7578711247
 10
249.6800367213
 20
316.5475710367
 10
249.3893895722
 20
316.2934764361
 10
249.1114680148
 20
315.9973158573
 10
248.8481644965
 20
315.6611307596
 10
248.601296959
 20
315.2872159218
 10
248.3725343324
 20
314.8781194424
 10
248.1634412385
 20
314.4366427397
 10
248.1009904719
 20
314.2891957497
  0
LINE
  5
F1
330
1F
100
AcDbEntity
  8
0
  6
Continuous
 62
     7
370
    15
100
AcDbLine
 10
255.1667634822
 20
294.1371484732
 30
0.0
 11
255.1667634822
 21
310.1371510958
 31
0.0
  0
LINE
  5
F2
330
1F
100
AcDbEntity
  8
0
  6
Continuous
 62
     7
370
    15
100
AcDbLine
 10
255.1667634822
 20
294.1371484732
 30
0.0
 11
255.5904332972
 21
294.1371484732
 31
0.0
  0
LINE
  5
F3
330
1F
100
AcDbEntity
  8
0
  6
Continuous
 62
     7
370
    15
100
AcDbLine
 10
247.33806592
 20
301.0879441237
 30
0.0
 11
247.33806592
 21
294.1371484732
 31
0.0
  0
LINE
  5
F4
330
1F
100
AcDbEntity
  8
0
  6
Continuous
 62
     7
370
    15
100
AcDbLine
 10
252.9299948789
 20
301.7209752535
 30
0.0
 11
252.9299948789
 21
294.1371484732
 31
0.0
  0
LINE
  5
F5
330
1F
100
AcDbEntity
  8
0
  6
Continuous
 62
     7
370
    15
100
AcDbLine
 10
249.5748345233
 20
294.1371484732
 30
0.0
 11
249.5748345233
 21
300.7873131966
 31
0.0
  0
LINE
  5
F6
330
1F
100
AcDbEntity
  8
0
  6
Continuous
 62
     7
370
    15
100
AcDbLine
 10
247.33806592
 20
294.1371484732
 30
0.0
 11
249.5748345233
 21
294.1371484732
 31
0.0
  0
LINE
  5
F7
330
1F
100
AcDbEntity
  8
0
  6
Continuous
 62
     7
370
    15
100
AcDbLine
 10
252.9299948789
 20
294.1371484732
 30
0.0
 11
255.1667634822
 21
294.1371484732
 31
0.0
  0
LINE
  5
F8
330
1F
100
AcDbEntity
  8
0
  6
Continuous
 62
     7
370
    15
100
AcDbLine
 10
247.33806592
 20
294.1371484732
 30
0.0
 11
216.9922832824
 21
294.1371484732
 31
0.0
  0
SPLINE
  5
F9
330
1F
100
AcDbEntity
  8
0
  6
Continuous
 62
     7
370
    15
100
AcDbSpline
210
0.0
220
0.0
230
1.0
 70
     8
 71
     3
 72
    12
 73
     8
 74
     0
 42
0.00000001
 43
0.00000001
 12
1.0
 22
0.0
 32
0.0
 13
1.0
 23
0.0
 33
0.0
 40
0.0
 40
0.0
 40
0.0
 40
0.0
 40
0.2171311948648151
 40
0.4342694073812322
 40
0.6513855589471556
 40
0.8684820130077694
 40
1.0
 40
1.0
 40
1.0
 40
1.0
 10
251.5921537257114
 20
294.1371484731769
 30
0.0
 10
251.6853743791564
 20
294.1482071293334
 30
0.0
 10
251.8718186989257
 20
294.1703247990609
 30
0.0
 10
252.1202922600681
 20
294.3427610463243
 30
0.0
 10
252.3078449264286
 20
294.5965525919181
 30
0.0
 10
252.4050816119834
 20
294.8722239324778
 30
0.0
 10
252.416748562571
 20
295.0519121980221
 30
0.0
 10
252.4211500264088
 20
295.1197012399767
 30
0.0
  0
LINE
  5
FA
330
1F
100
AcDbEntity
  8
0
  6
Continuous
 62
     7
370
    15
100
AcDbLine
 10
249.9242965556
 20
294.1371484732
 30
0.0
 11
249.5748345233
 21
294.1371484732
 31
0.0
  0
SPLINE
  5
FB
330
1F
100
AcDbEntity
  8
0
  6
Continuous
 62
     7
370
    15
100
AcDbSpline
210
0.0
220
0.0
230
1.0
 70
     8
 71
     3
 72
     9
 73
     5
 74
     0
 42
0.00000001
 43
0.00000001
 12
1.0
 22
0.0
 32
0.0
 13
1.0
 23
0.0
 33
0.0
 40
0.0
 40
0.0
 40
0.0
 40
0.0
 40
0.0388390688590901
 40
1.0
 40
1.0
 40
1.0
 40
1.0
 10
223.9560876465717
 20
439.1894920801257
 30
0.0
 10
223.9558412300103
 20
439.1880119500059
 30
0.0
 10
223.9494966762248
 20
439.1499026398915
 30
0.0
 10
223.9491799293118
 20
439.1116901283572
 30
0.0
 10
223.9488754845539
 20
439.0749617551897
 30
0.0
  0
LINE
  5
FC
330
1F
100
AcDbEntity
  8
0
  6
Continuous
 62
     7
370
    15
100
AcDbLine
 10
220.4467896796
 20
374.1371615862
 30
0.0
 11
220.4531822778
 21
374.137698028
 31
0.0
  0
SPLINE
  5
FD
330
1F
100
AcDbEntity
  8
0
  6
Continuous
 62
     7
370
    15
100
AcDbSpline
210
0.0
220
0.0
230
1.0
 70
     8
 71
     3
 72
    14
 73
    10
 74
     0
 42
0.00000001
 43
0.00000001
 12
1.0
 22
0.0
 32
0.0
 13
1.0
 23
0.0
 33
0.0
 40
0.0
 40
0.0
 40
0.0
 40
0.0
 40
0.0042361431773403
 40
0.2004656673623894
 40
0.4015407751200566
 40
0.5624989996801282
 40
0.7275171848109626
 40
0.9615969223792282
 40
1.0
 40
1.0
 40
1.0
 40
1.0
 10
223.415399012653
 20
439.1894920801257
 30
0.0
 10
223.4151942787871
 20
439.1879821216854
 30
0.0
 10
223.4055057226338
 20
439.11652683471
 30
0.0
 10
223.4006955109705
 20
438.9730505699706
 30
0.0
 10
223.4380263926632
 20
438.7767469453303
 30
0.0
 10
223.5123335916085
 20
438.5979951808432
 30
0.0
 10
223.636261882471
 20
438.424249902807
 30
0.0
 10
223.7661008274502
 20
438.2935634353769
 30
0.0
 10
223.8838904288693
 20
438.2472086719835
 30
0.0
 10
223.9004914141575
 20
438.2406755422686
 30
0.0
  0
LINE
  5
FE
330
1F
100
AcDbEntity
  8
0
  6
Continuous
 62
     7
370
    15
100
AcDbLine
 10
252.9299948789
 20
294.1371484732
 30
0.0
 11
249.9242965556
 21
294.1371484732
 31
0.0
  0
LINE
  5
FF
330
1F
100
AcDbEntity
  8
0
  6
Continuous
 62
     7
370
    15
100
AcDbLine
 10
216.9922832824
 20
294.1371484732
 30
0.0
 11
215.835789261
 21
294.1371484732
 31
0.0
  0
LINE
  5
100
330
1F
100
AcDbEntity
  8
0
  6
Continuous
 62
     7
370
    15
100
AcDbLine
 10
618.892366109
 20
241.1371602749
 30
0.0
 11
230.9791986323
 21
241.1371602749
 31
0.0
  0
LINE
  5
101
330
1F
100
AcDbEntity
  8
0
  6
Continuous
 62
     7
370
    15
100
AcDbLine
 10
383.4357839502
 20
174.3900760149
 30
0.0
 11
383.4357839502
 21
166.8845250343
 31
0.0
  0
LINE
  5
102
330
1F
100
AcDbEntity
  8
0
  6
Continuous
 62
     7
370
    15
100
AcDbLine
 10
389.9357822216
 20
178.1428515052
 30
0.0
 11
383.4357839502
 21
174.3900760149
 31
0.0
  0
LINE
  5
103
330
1F
100
AcDbEntity
  8
0
  6
Continuous
 62
     7
370
    15
100
AcDbLine
 10
396.4357823558
 20
174.3900760149
 30
0.0
 11
389.9357822216
 21
178.1428515052
 31
0.0
  0
LINE
  5
104
330
1F
100
AcDbEntity
  8
0
  6
Continuous
 62
     7
370
    15
100
AcDbLine
 10
396.4357823558
 20
166.8845250343
 30
0.0
 11
396.4357823558
 21
174.3900760149
 31
0.0
  0
LINE
  5
105
330
1F
100
AcDbEntity
  8
0
  6
Continuous
 62
     7
370
    15
100
AcDbLine
 10
389.9357822216
 20
163.1317420935
 30
0.0
 11
396.4357823558
 21
166.8845250343
 31
0.0
  0
LINE
  5
106
330
1F
100
AcDbEntity
  8
0
  6
Continuous
 62
     7
370
    15
100
AcDbLine
 10
383.4357839502
 20
166.8845250343
 30
0.0
 11
389.9357822216
 21
163.1317420935
 31
0.0
  0
LINE
  5
107
330
1F
100
AcDbEntity
  8
0
  6
Continuous
 62
     7
370
    15
100
AcDbLine
 10
453.4357823856
 20
174.3900760149
 30
0.0
 11
453.4357823856
 21
166.8845250343
 31
0.0
  0
LINE
  5
108
330
1F
100
AcDbEntity
  8
0
  6
Continuous
 62
     7
370
    15
100
AcDbLine
 10
459.9357825197
 20
178.1428515052
 30
0.0
 11
453.4357823856
 21
174.3900760149
 31
0.0
  0
LINE
  5
109
330
1F
100
AcDbEntity
  8
0
  6
Continuous
 62
     7
370
    15
100
AcDbLine
 10
466.4357807911
 20
174.3900760149
 30
0.0
 11
459.9357825197
 21
178.1428515052
 31
0.0
  0
LINE
  5
10A
330
1F
100
AcDbEntity
  8
0
  6
Continuous
 62
     7
370
    15
100
AcDbLine
 10
466.4357807911
 20
166.8845250343
 30
0.0
 11
466.4357807911
 21
174.3900760149
 31
0.0
  0
LINE
  5
10B
330
1F
100
AcDbEntity
  8
0
  6
Continuous
 62
     7
370
    15
100
AcDbLine
 10
453.4357823856
 20
166.8845250343
 30
0.0
 11
459.9357825197
 21
163.1317420935
 31
0.0
  0
LINE
  5
10C
330
1F
100
AcDbEntity
  8
0
  6
Continuous
 62
     7
370
    15
100
AcDbLine
 10
459.9357825197
 20
163.1317420935
 30
0.0
 11
466.4357807911
 21
166.8845250343
 31
0.0
  0
LINE
  5
10D
330
1F
100
AcDbEntity
  8
0
  6
Continuous
 62
     7
370
    15
100
AcDbLine
 10
623.635778246
 20
171.8224643802
 30
0.0
 11
623.635778246
 21
178.6869972085
 31
0.0
  0
LINE
  5
10E
330
1F
100
AcDbEntity
  8
0
  6
Continuous
 62
     7
370
    15
100
AcDbLine
 10
623.635778246
 20
162.6869945859
 30
0.0
 11
623.635778246
 21
171.8224643802
 31
0.0
  0
LINE
  5
10F
330
1F
100
AcDbEntity
  8
0
  6
Continuous
 62
     7
370
    15
100
AcDbLine
 10
630.6357775308
 20
167.8450836872
 30
0.0
 11
623.635778246
 21
167.8450836872
 31
0.0
  0
LINE
  5
110
330
1F
100
AcDbEntity
  8
0
  6
Continuous
 62
     7
370
    15
100
AcDbLine
 10
630.6357775308
 20
163.207730565
 30
0.0
 11
623.635778246
 21
163.207730565
 31
0.0
  0
LINE
  5
111
330
1F
100
AcDbEntity
  8
0
  6
Continuous
 62
     7
370
    15
100
AcDbLine
 10
630.6357775308
 20
167.8450836872
 30
0.0
 11
630.6357775308
 21
163.207730565
 31
0.0
  0
LINE
  5
112
330
1F
100
AcDbEntity
  8
0
  6
Continuous
 62
     7
370
    15
100
AcDbLine
 10
630.6357775308
 20
175.2746461963
 30
0.0
 11
623.635778246
 21
175.2746461963
 31
0.0
  0
LINE
  5
113
330
1F
100
AcDbEntity
  8
0
  6
Continuous
 62
     7
370
    15
100
AcDbLine
 10
630.6357775308
 20
175.2746461963
 30
0.0
 11
630.6357775308
 21
167.8450836872
 31
0.0
  0
LINE
  5
114
330
1F
100
AcDbEntity
  8
0
  6
Continuous
 62
     7
370
    15
100
AcDbLine
 10
630.6357775308
 20
178.0668704843
 30
0.0
 11
623.635778246
 21
178.0668704843
 31
0.0
  0
LINE
  5
115
330
1F
100
AcDbEntity
  8
0
  6
Continuous
 62
     7
370
    15
100
AcDbLine
 10
630.6357775308
 20
178.0668704843
 30
0.0
 11
630.6357775308
 21
175.2746461963
 31
0.0
  0
ARC
  5
116
330
1F
100
AcDbEntity
  8
0
  6
Continuous
 62
     7
370
    15
100
AcDbCircle
 10
424.9357823707
 20
123.7886751647
 30
0.0
 40
71.84862375062595
100
AcDbArc
 50
52.9573025771
 51
55.4435251253
  0
SPLINE
  5
117
330
1F
100
AcDbEntity
  8
0
  6
Continuous
 62
     7
370
    15
100
AcDbSpline
210
0.0
220
0.0
230
1.0
 70
     8
 71
     3
 72
    13
 73
     9
 74
     0
 42
0.00000001
 43
0.00000001
 12
1.0
 22
0.0
 32
0.0
 13
1.0
 23
0.0
 33
0.0
 40
0.0
 40
0.0
 40
0.0
 40
0.0
 40
0.0146096056520009
 40
0.1417756657287183
 40
0.3564618188413927
 40
0.5710198038576946
 40
0.7855099669379928
 40
1.0
 40
1.0
 40
1.0
 40
1.0
 10
467.6453527487197
 20
180.3167223071192
 30
0.0
 10
467.6497089462422
 20
180.322973643229
 30
0.0
 10
467.6919826953427
 20
180.383638342864
 30
0.0
 10
467.798205246051
 20
180.5359531897434
 30
0.0
 10
467.9551520162009
 20
180.7608816976432
 30
0.0
 10
468.1003973820713
 20
180.9688489589333
 30
0.0
 10
468.1991190804914
 20
181.110129099136
 30
0.0
 10
468.2117812993217
 20
181.12824266937
 30
0.0
 10
468.218112406818
 20
181.137299451742
 30
0.0
  0
SPLINE
  5
118
330
1F
100
AcDbEntity
  8
0
  6
Continuous
 62
     7
370
    15
100
AcDbSpline
210
0.0
220
0.0
230
1.0
 70
     8
 71
     3
 72
    13
 73
     9
 74
     0
 42
0.00000001
 43
0.00000001
 12
1.0
 22
0.0
 32
0.0
 13
1.0
 23
0.0
 33
0.0
 40
0.0
 40
0.0
 40
0.0
 40
0.0
 40
0.014605756391932
 40
0.1417723132212461
 40
0.3564593049688831
 40
0.5710181281194806
 40
0.7855091290691398
 40
1.0
 40
1.0
 40
1.0
 40
1.0
 10
382.2262119925895
 20
160.9578712915514
 30
0.0
 10
382.221855729104
 20
160.951622485145
 30
0.0
 10
382.1795711986243
 20
160.8909677874115
 30
0.0
 10
382.0733666872844
 20
160.7386428459806
 30
0.0
 10
381.9164103991816
 20
160.5137209730006
 30
0.0
 10
381.7711679791099
 20
160.3057516582082
 30
0.0
 10
381.6724455058705
 20
160.1644720581283
 30
0.0
 10
381.6597833903385
 20
160.1463584158856
 30
0.0
 10
381.6534523344913
 20
160.1373015975092
 30
0.0
  0
ARC
  5
119
330
1F
100
AcDbEntity
  8
0
  6
Continuous
 62
     7
370
    15
100
AcDbCircle
 10
388.4357823707
 20
170.6372989153
 30
0.0
 40
12.50000000000011
100
AcDbArc
 50
122.8598803789
 51
237.1401196211
  0
SPLINE
  5
11A
330
1F
100
AcDbEntity
  8
0
  6
Continuous
 62
     7
370
    15
100
AcDbSpline
210
0.0
220
0.0
230
1.0
 70
     8
 71
     3
 72
    13
 73
     9
 74
     0
 42
0.00000001
 43
0.00000001
 12
1.0
 22
0.0
 32
0.0
 13
1.0
 23
0.0
 33
0.0
 40
0.0
 40
0.0
 40
0.0
 40
0.0
 40
0.0146096056520009
 40
0.1417756657287183
 40
0.3564618188413927
 40
0.5710198038576946
 40
0.7855099669379928
 40
1.0
 40
1.0
 40
1.0
 40
1.0
 10
382.2262119925895
 20
180.3167223071192
 30
0.0
 10
382.2218557950671
 20
180.322973643229
 30
0.0
 10
382.1795820459666
 20
180.383638342864
 30
0.0
 10
382.0733594952583
 20
180.5359531897434
 30
0.0
 10
381.9164127251084
 20
180.7608816976432
 30
0.0
 10
381.771167359238
 20
180.9688489589333
 30
0.0
 10
381.6724456608179
 20
181.110129099136
 30
0.0
 10
381.6597834419876
 20
181.12824266937
 30
0.0
 10
381.6534523344913
 20
181.137299451742
 30
0.0
  0
ARC
  5
11B
330
1F
100
AcDbEntity
  8
0
  6
Continuous
 62
     7
370
    15
100
AcDbCircle
 10
424.9357823707
 20
123.7886751647
 30
0.0
 40
71.84862375062589
100
AcDbArc
 50
124.5564748747
 51
127.0426974229
  0
ARC
  5
11C
330
1F
100
AcDbEntity
  8
0
  6
Continuous
 62
     7
370
    15
100
AcDbCircle
 10
461.4357823707
 20
170.6372989153
 30
0.0
 40
12.50000000000002
100
AcDbArc
 50
302.8598803789
 51
57.1401196211
  0
SPLINE
  5
11D
330
1F
100
AcDbEntity
  8
0
  6
Continuous
 62
     7
370
    15
100
AcDbSpline
210
0.0
220
0.0
230
1.0
 70
     8
 71
     3
 72
    13
 73
     9
 74
     0
 42
0.00000001
 43
0.00000001
 12
1.0
 22
0.0
 32
0.0
 13
1.0
 23
0.0
 33
0.0
 40
0.0
 40
0.0
 40
0.0
 40
0.0
 40
0.014605756391932
 40
0.1417723132212461
 40
0.3564593049688831
 40
0.5710181281194806
 40
0.7855091290691398
 40
1.0
 40
1.0
 40
1.0
 40
1.0
 10
467.6453527487197
 20
160.9578712915514
 30
0.0
 10
467.6497090122053
 20
160.951622485145
 30
0.0
 10
467.6919935426851
 20
160.8909677874115
 30
0.0
 10
467.7981980540249
 20
160.7386428459806
 30
0.0
 10
467.9551543421277
 20
160.5137209730006
 30
0.0
 10
468.1003967621994
 20
160.3057516582082
 30
0.0
 10
468.1991192354388
 20
160.1644720581283
 30
0.0
 10
468.2117813509709
 20
160.1463584158856
 30
0.0
 10
468.218112406818
 20
160.1373015975092
 30
0.0
  0
ARC
  5
11E
330
1F
100
AcDbEntity
  8
0
  6
Continuous
 62
     7
370
    15
100
AcDbCircle
 10
424.9357823707
 20
217.4859226659
 30
0.0
 40
71.84862375062599
100
AcDbArc
 50
304.5564748747
 51
307.0426974229
  0
ARC
  5
11F
330
1F
100
AcDbEntity
  8
0
  6
Continuous
 62
     7
370
    15
100
AcDbCircle
 10
424.9357823707
 20
217.4859226659
 30
0.0
 40
71.84862375062593
100
AcDbArc
 50
232.9573025771
 51
235.4435251253
  0
ARC
  5
120
330
1F
100
AcDbEntity
  8
0
  6
Continuous
 62
     7
370
    15
100
AcDbCircle
 10
424.9357823707
 20
123.7886751647
 30
0.0
 40
71.84862375062595
100
AcDbArc
 50
55.4435251253
 51
124.5564748747
  0
ARC
  5
121
330
1F
100
AcDbEntity
  8
0
  6
Continuous
 62
     7
370
    15
100
AcDbCircle
 10
424.9357823707
 20
217.4859226659
 30
0.0
 40
71.84862375062595
100
AcDbArc
 50
235.4435251253
 51
304.5564748747
  0
SPLINE
  5
122
330
1F
100
AcDbEntity
  8
0
  6
Continuous
 62
     7
370
    15
100
AcDbSpline
210
0.0
220
0.0
230
1.0
 70
     8
 71
     3
 72
    10
 73
     6
 74
     0
 42
0.00000001
 43
0.00000001
 12
1.0
 22
0.0
 32
0.0
 13
1.0
 23
0.0
 33
0.0
 40
0.0
 40
0.0
 40
0.0
 40
0.0
 40
0.3881910484803945
 40
0.7804327481075153
 40
1.0
 40
1.0
 40
1.0
 40
1.0
 10
618.3602754450718
 20
161.3620727395151
 30
0.0
 10
618.3694490657605
 20
161.3618475541269
 30
0.0
 10
618.3878920309764
 20
161.3613948336119
 30
0.0
 10
618.4113775980288
 20
161.3569434305474
 30
0.0
 10
618.4215932094498
 20
161.3510408095108
 30
0.0
 10
618.4252594090382
 20
161.3489224647616
 30
0.0
  0
LINE
  5
123
330
1F
100
AcDbEntity
  8
0
  6
Continuous
 62
     7
370
    15
100
AcDbLine
 10
618.3602754451
 20
161.3620727395
 30
0.0
 11
611.6357837296
 21
161.3620727395
 31
0.0
  0
LINE
  5
124
330
1F
100
AcDbEntity
  8
0
  6
Continuous
 62
     7
370
    15
100
AcDbLine
 10
618.3602754451
 20
182.3537184929
 30
0.0
 11
611.6357837296
 21
182.3537184929
 31
0.0
  0
SPLINE
  5
125
330
1F
100
AcDbEntity
  8
0
  6
Continuous
 62
     7
370
    15
100
AcDbSpline
210
0.0
220
0.0
230
1.0
 70
     8
 71
     3
 72
    10
 73
     6
 74
     0
 42
0.00000001
 43
0.00000001
 12
1.0
 22
0.0
 32
0.0
 13
1.0
 23
0.0
 33
0.0
 40
0.0
 40
0.0
 40
0.0
 40
0.0
 40
0.2542760348634923
 40
0.5813077262395452
 40
1.0
 40
1.0
 40
1.0
 40
1.0
 10
618.4252594090382
 20
182.365766081724
 30
0.0
 10
618.42094049701
 20
182.3635476660218
 30
0.0
 10
618.4110669085203
 20
182.3584760823455
 30
0.0
 10
618.3878536459441
 20
182.3543905817536
 30
0.0
 10
618.3701918128136
 20
182.353960157693
 30
0.0
 10
618.3602754450718
 20
182.3537184928988
 30
0.0
  0
LINE
  5
126
330
1F
100
AcDbEntity
  8
0
  6
Continuous
 62
     7
370
    15
100
AcDbLine
 10
611.6357837296
 20
161.3620727395
 30
0.0
 11
611.6357837296
 21
182.3537184929
 31
0.0
  0
LINE
  5
127
330
1F
100
AcDbEntity
  8
0
  6
Continuous
 62
     7
370
    15
100
AcDbLine
 10
621.6357890941
 20
181.288970921
 30
0.0
 11
621.6357890941
 21
162.296524558
 31
0.0
  0
LINE
  5
128
330
1F
100
AcDbEntity
  8
0
  6
Continuous
 62
     7
370
    15
100
AcDbLine
 10
611.6357837296
 20
157.2205632066
 30
0.0
 11
611.6357837296
 21
161.3620727395
 31
0.0
  0
SPLINE
  5
129
330
1F
100
AcDbEntity
  8
0
  6
Continuous
 62
     7
370
    15
100
AcDbSpline
210
0.0
220
0.0
230
1.0
 70
     8
 71
     3
 72
    10
 73
     6
 74
     0
 42
0.00000001
 43
0.00000001
 12
1.0
 22
0.0
 32
0.0
 13
1.0
 23
0.0
 33
0.0
 40
0.0
 40
0.0
 40
0.0
 40
0.0
 40
0.4959582359035316
 40
0.9680284093891973
 40
1.0
 40
1.0
 40
1.0
 40
1.0
 10
618.4252594090382
 20
161.3489224647616
 30
0.0
 10
618.4969892740852
 20
161.3073265296482
 30
0.0
 10
618.636994101388
 20
161.2261381472607
 30
0.0
 10
618.763553241894
 20
161.2338319925208
 30
0.0
 10
618.8183343226985
 20
161.2549078423025
 30
0.0
 10
618.8218091107289
 20
161.2562446927164
 30
0.0
  0
SPLINE
  5
12A
330
1F
100
AcDbEntity
  8
0
  6
Continuous
 62
     7
370
    15
100
AcDbSpline
210
0.0
220
0.0
230
1.0
 70
     8
 71
     3
 72
    11
 73
     7
 74
     0
 42
0.00000001
 43
0.00000001
 12
1.0
 22
0.0
 32
0.0
 13
1.0
 23
0.0
 33
0.0
 40
0.0
 40
0.0
 40
0.0
 40
0.0
 40
0.1691945917545321
 40
0.3939271478485603
 40
0.6948432906303926
 40
1.0
 40
1.0
 40
1.0
 40
1.0
 10
618.8218091107289
 20
161.2562446927164
 30
0.0
 10
618.7395996366511
 20
161.2053909689016
 30
0.0
 10
618.5481955065678
 20
161.0869908346411
 30
0.0
 10
618.379268213906
 20
160.8530995109675
 30
0.0
 10
618.25633113244
 20
160.5750737075018
 30
0.0
 10
618.242659758272
 20
160.3756012190202
 30
0.0
 10
618.2357762432972
 20
160.2751671408747
 30
0.0
  0
LINE
  5
12B
330
1F
100
AcDbEntity
  8
0
  6
Continuous
 62
     7
370
    15
100
AcDbLine
 10
621.6357890941
 20
181.288970921
 30
0.0
 11
621.6296498156
 21
181.3995449876
 31
0.0
  0
SPLINE
  5
12C
330
1F
100
AcDbEntity
  8
0
  6
Continuous
 62
     7
370
    15
100
AcDbSpline
210
0.0
220
0.0
230
1.0
 70
     8
 71
     3
 72
    10
 73
     6
 74
     0
 42
0.00000001
 43
0.00000001
 12
1.0
 22
0.0
 32
0.0
 13
1.0
 23
0.0
 33
0.0
 40
0.0
 40
0.0
 40
0.0
 40
0.0
 40
0.5447834029039559
 40
0.9680214531752089
 40
1.0
 40
1.0
 40
1.0
 40
1.0
 10
618.4252594090382
 20
182.365766081724
 30
0.0
 10
618.5041344643438
 20
182.4054252224689
 30
0.0
 10
618.6442869455855
 20
182.4758952456946
 30
0.0
 10
618.7688679776057
 20
182.453095334058
 30
0.0
 10
618.818334157159
 20
182.428944823912
 30
0.0
 10
618.8218091107289
 20
182.4272482728098
 30
0.0
  0
SPLINE
  5
12D
330
1F
100
AcDbEntity
  8
0
  6
Continuous
 62
     7
370
    15
100
AcDbSpline
210
0.0
220
0.0
230
1.0
 70
     8
 71
     3
 72
    10
 73
     6
 74
     0
 42
0.00000001
 43
0.00000001
 12
1.0
 22
0.0
 32
0.0
 13
1.0
 23
0.0
 33
0.0
 40
0.0
 40
0.0
 40
0.0
 40
0.0
 40
0.537749971168962
 40
0.7874496183719876
 40
1.0
 40
1.0
 40
1.0
 40
1.0
 10
618.8218091107289
 20
182.4272482728098
 30
0.0
 10
618.8791079899959
 20
182.4060526171267
 30
0.0
 10
618.9630131188311
 20
182.3750149381427
 30
0.0
 10
619.1182673723907
 20
182.3488783446169
 30
0.0
 10
619.1987643829126
 20
182.3463705204201
 30
0.0
 10
619.2357782698551
 20
182.3452173804377
 30
0.0
  0
LINE
  5
12E
330
1F
100
AcDbEntity
  8
0
  6
Continuous
 62
     7
370
    15
100
AcDbLine
 10
611.6357837296
 20
182.3537184929
 30
0.0
 11
611.6357837296
 21
185.8079864716
 31
0.0
  0
SPLINE
  5
12F
330
1F
100
AcDbEntity
  8
0
  6
Continuous
 62
     7
370
    15
100
AcDbSpline
210
0.0
220
0.0
230
1.0
 70
     8
 71
     3
 72
    13
 73
     9
 74
     0
 42
0.00000001
 43
0.00000001
 12
1.0
 22
0.0
 32
0.0
 13
1.0
 23
0.0
 33
0.0
 40
0.0
 40
0.0
 40
0.0
 40
0.0
 40
0.3569433936588614
 40
0.5488185059016434
 40
0.7423491136361863
 40
0.8482119742537647
 40
0.9554607440174587
 40
1.0
 40
1.0
 40
1.0
 40
1.0
 10
618.2357762432972
 20
183.2660197352503
 30
0.0
 10
618.2450979515592
 20
183.1660499530327
 30
0.0
 10
618.259430549085
 20
183.0123413608956
 30
0.0
 10
618.3662203799564
 20
182.7996927761121
 30
0.0
 10
618.4756698071575
 20
182.6589554636396
 30
0.0
 10
618.6078378529845
 20
182.5452865558553
 30
0.0
 10
618.7148405167486
 20
182.4754253454784
 30
0.0
 10
618.7975419709435
 20
182.4381778336594
 30
0.0
 10
618.8218091107289
 20
182.4272482728098
 30
0.0
  0
LINE
  5
130
330
1F
100
AcDbEntity
  8
0
  6
Continuous
 62
     7
370
    15
100
AcDbLine
 10
618.2357762433
 20
160.2751671409
 30
0.0
 11
618.2357762433
 21
146.6186664139
 31
0.0
  0
LINE
  5
131
330
1F
100
AcDbEntity
  8
0
  6
Continuous
 62
     7
370
    15
100
AcDbLine
 10
621.6357890941
 20
162.296524558
 30
0.0
 11
621.6357890941
 21
161.7472305035
 31
0.0
  0
LINE
  5
132
330
1F
100
AcDbEntity
  8
0
  6
Continuous
 62
     7
370
    15
100
AcDbLine
 10
618.2357762433
 20
194.65593091
 30
0.0
 11
618.2357762433
 21
183.2660197353
 31
0.0
  0
LINE
  5
133
330
1F
100
AcDbEntity
  8
0
  6
Continuous
 62
     7
370
    15
100
AcDbLine
 10
633.2357768393
 20
191.1372973656
 30
0.0
 11
633.2357768393
 21
150.1372999584
 31
0.0
  0
LINE
  5
134
330
1F
100
AcDbEntity
  8
0
  6
Continuous
 62
     7
370
    15
100
AcDbLine
 10
621.6357890941
 20
161.7472305035
 30
0.0
 11
621.6357890941
 21
161.6035311555
 31
0.0
  0
LINE
  5
135
330
1F
100
AcDbEntity
  8
0
  6
Continuous
 62
     7
370
    15
100
AcDbLine
 10
489.9357799865
 20
65.1372990643
 30
0.0
 11
569.9797217227
 21
65.1372990643
 31
0.0
  0
LINE
  5
136
330
1F
100
AcDbEntity
  8
0
  6
Continuous
 62
     7
370
    15
100
AcDbLine
 10
489.9357799865
 20
75.1372988408
 30
0.0
 11
489.9357799865
 21
65.1372990643
 31
0.0
  0
SPLINE
  5
137
330
1F
100
AcDbEntity
  8
0
  6
Continuous
 62
     7
370
    15
100
AcDbSpline
210
0.0
220
0.0
230
1.0
 70
     8
 71
     3
 72
    25
 73
    21
 74
     0
 42
0.00000001
 43
0.00000001
 12
1.0
 22
0.0
 32
0.0
 13
1.0
 23
0.0
 33
0.0
 40
0.0
 40
0.0
 40
0.0
 40
0.0
 40
0.0562653847525464
 40
0.112732499500926
 40
0.1692022987623973
 40
0.2254712335994171
 40
0.2817380169087303
 40
0.3382068614366215
 40
0.3946713776230473
 40
0.4509323191439297
 40
0.5070273880029543
 40
0.5633395532164616
 40
0.6196401970709802
 40
0.6757194682480757
 40
0.729503933065196
 40
0.7835038339606829
 40
0.8374937281684165
 40
0.891264642095681
 40
0.9456326272673334
 40
0.9999999999999999
 40
0.9999999999999999
 40
0.9999999999999999
 40
0.9999999999999999
 10
472.4357817746082
 20
92.6372989153002
 30
0.0
 10
472.9457772087614
 20
92.62409112694192
 30
0.0
 10
473.9675965792145
 20
92.59762819593998
 30
0.0
 10
475.4857863279058
 20
92.38841117511248
 30
0.0
 10
476.9795850581796
 20
92.05945959429101
 30
0.0
 10
478.436559374534
 20
91.60030917530332
 30
0.0
 10
479.8471044494812
 20
91.01385383378252
 30
0.0
 10
481.204245151074
 20
90.3056001464872
 30
0.0
 10
482.4974333955368
 20
89.48163481148713
 30
0.0
 10
483.7143701336726
 20
88.54800153247405
 30
0.0
 10
484.8452547009773
 20
87.50665962511933
 30
0.0
 10
485.884876396936
 20
86.36617104974987
 30
0.0
 10
486.8252255585912
 20
85.13490225155674
 30
0.0
 10
487.6448003622265
 20
83.8396858252421
 30
0.0
 10
488.3385498384574
 20
82.48956028376992
 30
0.0
 10
488.9095181474539
 20
81.09792143624045
 30
0.0
 10
489.3632666809218
 20
79.65831030399406
 30
0.0
 10
489.6908205333165
 20
78.17746219338595
 30
0.0
 10
489.8968154078364
 20
76.6666907703955
 30
0.0
 10
489.9227918423611
 20
75.6470942364093
 30
0.0
 10
489.9357799864688
 20
75.1372988407944
 30
0.0
  0
SPLINE
  5
138
330
1F
100
AcDbEntity
  8
0
  6
Continuous
 62
     7
370
    15
100
AcDbSpline
210
0.0
220
0.0
230
1.0
 70
     8
 71
     3
 72
    27
 73
    23
 74
     0
 42
0.00000001
 43
0.00000001
 12
1.0
 22
0.0
 32
0.0
 13
1.0
 23
0.0
 33
0.0
 40
0.0
 40
0.0
 40
0.0
 40
0.0
 40
0.0257371008974125
 40
0.075150340127236
 40
0.1247389749239606
 40
0.1743324200644337
 40
0.2237522393303965
 40
0.273384276461798
 40
0.3231791383795135
 40
0.3729821846730587
 40
0.4226252588182792
 40
0.4745540173060844
 40
0.5266504210657098
 40
0.578753336024806
 40
0.6306911598941547
 40
0.6854520650155441
 40
0.7403979724092168
 40
0.7953453669818856
 40
0.8501082484542982
 40
0.9000493442499686
 40
0.9500603161835499
 40
0.9999999999999999
 40
0.9999999999999999
 40
0.9999999999999999
 40
0.9999999999999999
 10
359.9357847548404
 20
75.1372988407944
 30
0.0
 10
359.9387691782315
 20
75.37857866715902
 30
0.0
 10
359.9474834632558
 20
76.08309706219579
 30
0.0
 10
360.0470706937321
 20
77.2495101281811
 30
0.0
 10
360.2695462990059
 20
78.62353759991281
 30
0.0
 10
360.5993521905462
 20
79.97329040700374
 30
0.0
 10
361.0329926577549
 20
81.28980525323986
 30
0.0
 10
361.5708629289167
 20
82.56433980512767
 30
0.0
 10
362.2064017754686
 20
83.79138582998819
 30
0.0
 10
362.9326389652413
 20
84.96109066752206
 30
0.0
 10
363.7564446048133
 20
86.08223596916604
 30
0.0
 10
364.6793092632607
 20
87.14440812686824
 30
0.0
 10
365.6975872144206
 20
88.14055961151523
 30
0.0
 10
366.7891562600421
 20
89.04914709384015
 30
0.0
 10
367.9671266619698
 20
89.87878092156076
 30
0.0
 10
369.2309113930436
 20
90.61747632427425
 30
0.0
 10
370.5753293878262
 20
91.25754225392019
 30
0.0
 10
371.967772946135
 20
91.78219432291857
 30
0.0
 10
373.3562509018747
 20
92.1755880624055
 30
0.0
 10
374.7293302148021
 20
92.442796300581
 30
0.0
 10
376.0770216833737
 20
92.60650221434629
 30
0.0
 10
376.9830779487016
 20
92.62703823063784
 30
0.0
 10
377.4357829667011
 20
92.6372989153002
 30
0.0
  0
LINE
  5
139
330
1F
100
AcDbEntity
  8
0
  6
Continuous
 62
     7
370
    15
100
AcDbLine
 10
359.9357847548
 20
65.1372990643
 30
0.0
 11
359.9357847548
 21
75.1372988408
 31
0.0
  0
LINE
  5
13A
330
1F
100
AcDbEntity
  8
0
  6
Continuous
 62
     7
370
    15
100
AcDbLine
 10
279.8918430186
 20
65.1372990643
 30
0.0
 11
359.9357847548
 21
65.1372990643
 31
0.0
  0
SPLINE
  5
13B
330
1F
100
AcDbEntity
  8
0
  6
Continuous
 62
     7
370
    15
100
AcDbSpline
210
0.0
220
0.0
230
1.0
 70
     8
 71
     3
 72
    10
 73
     6
 74
     0
 42
0.00000001
 43
0.00000001
 12
1.0
 22
0.0
 32
0.0
 13
1.0
 23
0.0
 33
0.0
 40
0.0
 40
0.0
 40
0.0
 40
0.0
 40
0.4238939402767296
 40
0.994513402177623
 40
1.0
 40
1.0
 40
1.0
 40
1.0
 10
251.870701131908
 20
85.52036090544208
 30
0.0
 10
251.9579171651638
 20
85.8115360257612
 30
0.0
 10
252.1625379575749
 20
86.49467284849798
 30
0.0
 10
252.4016147474721
 20
87.1161704130311
 30
0.0
 10
252.5413973682411
 20
87.46860811786821
 30
0.0
 10
252.5427286005894
 20
87.47196459001644
 30
0.0
  0
LINE
  5
13C
330
1F
100
AcDbEntity
  8
0
  6
Continuous
 62
     7
370
    15
100
AcDbLine
 10
489.9357799865
 20
65.1372990643
 30
0.0
 11
449.3455496109
 21
65.1372990643
 31
0.0
  0
LINE
  5
13D
330
1F
100
AcDbEntity
  8
0
  6
Continuous
 62
     7
370
    15
100
AcDbLine
 10
449.3455496109
 20
65.1372990643
 30
0.0
 11
449.3455496109
 21
75.4486362522
 31
0.0
  0
SPLINE
  5
13E
330
1F
100
AcDbEntity
  8
0
  6
Continuous
 62
     7
370
    15
100
AcDbSpline
210
0.0
220
0.0
230
1.0
 70
     8
 71
     3
 72
    17
 73
    13
 74
     0
 42
0.00000001
 43
0.00000001
 12
1.0
 22
0.0
 32
0.0
 13
1.0
 23
0.0
 33
0.0
 40
0.0
 40
0.0
 40
0.0
 40
0.0
 40
0.1109995079959346
 40
0.2219945198895302
 40
0.333060509131819
 40
0.4441136792047993
 40
0.5537385318497031
 40
0.6633485522684376
 40
0.7700708927884512
 40
0.8767850666393135
 40
0.9383924468274522
 40
1.0
 40
1.0
 40
1.0
 40
1.0
 10
444.2850966430584
 20
80.41335298470004
 30
0.0
 10
444.5758257678983
 20
80.39890855640242
 30
0.0
 10
445.1572722414189
 20
80.37002028488749
 30
0.0
 10
446.0051200455255
 20
80.14377089452923
 30
0.0
 10
446.8030399288793
 20
79.7850176236738
 30
0.0
 10
447.5268245894472
 20
79.29652439149287
 30
0.0
 10
448.1517215027851
 20
78.69151588369355
 30
0.0
 10
448.6592543723904
 20
77.99771762737406
 30
0.0
 10
449.0344604341951
 20
77.23172783571076
 30
0.0
 10
449.238656780558
 20
76.53432099333163
 30
0.0
 10
449.3314213029955
 20
75.93516825834412
 30
0.0
 10
449.3408401705511
 20
75.61081373936979
 30
0.0
 10
449.3455496109405
 20
75.44863625219806
 30
0.0
  0
LINE
  5
13F
330
1F
100
AcDbEntity
  8
0
  6
Continuous
 62
     7
370
    15
100
AcDbLine
 10
444.2850966431
 20
80.4133529847
 30
0.0
 11
405.5864680983
 21
80.4133529847
 31
0.0
  0
SPLINE
  5
140
330
1F
100
AcDbEntity
  8
0
  6
Continuous
 62
     7
370
    15
100
AcDbSpline
210
0.0
220
0.0
230
1.0
 70
     8
 71
     3
 72
    17
 73
    13
 74
     0
 42
0.00000001
 43
0.00000001
 12
1.0
 22
0.0
 32
0.0
 13
1.0
 23
0.0
 33
0.0
 40
0.0
 40
0.0
 40
0.0
 40
0.0
 40
0.103988470631499
 40
0.2079784219399372
 40
0.3119237572255359
 40
0.4158791276976893
 40
0.5207671165494427
 40
0.6256674593289663
 40
0.7331873057051457
 40
0.8407167523186201
 40
0.9203579645926867
 40
1.0
 40
1.0
 40
1.0
 40
1.0
 10
400.5260151303688
 20
75.44863625219806
 30
0.0
 10
400.5396057877028
 20
75.72256405956618
 30
0.0
 10
400.5667872958861
 20
76.27042357472119
 30
0.0
 10
400.778788027921
 20
77.069082184538
 30
0.0
 10
401.1133897423118
 20
77.8205146644429
 30
0.0
 10
401.5689575629601
 20
78.50846124090893
 30
0.0
 10
402.1341517491209
 20
79.11118280492046
 30
0.0
 10
402.7957411301602
 20
79.62016357558804
 30
0.0
 10
403.5387807405806
 20
80.01492528606823
 30
0.0
 10
404.2726483179986
 20
80.26095118302152
 30
0.0
 10
404.9608878372147
 20
80.39124091542772
 30
0.0
 10
405.3779406261664
 20
80.40598226954948
 30
0.0
 10
405.5864680982509
 20
80.41335298470004
 30
0.0
  0
LINE
  5
141
330
1F
100
AcDbEntity
  8
0
  6
Continuous
 62
     7
370
    15
100
AcDbLine
 10
400.5260151304
 20
75.4486362522
 30
0.0
 11
400.5260151304
 21
65.1372990643
 31
0.0
  0
LINE
  5
142
330
1F
100
AcDbEntity
  8
0
  6
Continuous
 62
     7
370
    15
100
AcDbLine
 10
400.5260151304
 20
65.1372990643
 30
0.0
 11
359.9357847548
 21
65.1372990643
 31
0.0
  0
LINE
  5
143
330
1F
100
AcDbEntity
  8
0
  6
Continuous
 62
     7
370
    15
100
AcDbLine
 10
613.8564143754
 20
65.1372990643
 30
0.0
 11
603.9944086648
 21
65.1372990643
 31
0.0
  0
LINE
  5
144
330
1F
100
AcDbEntity
  8
0
  6
Continuous
 62
     7
370
    15
100
AcDbLine
 10
245.8771560765
 20
65.1372990643
 30
0.0
 11
236.0151503659
 21
65.1372990643
 31
0.0
  0
SPLINE
  5
145
330
1F
100
AcDbEntity
  8
0
  6
Continuous
 62
     7
370
    15
100
AcDbSpline
210
0.0
220
0.0
230
1.0
 70
     8
 71
     3
 72
    18
 73
    14
 74
     0
 42
0.00000001
 43
0.00000001
 12
1.0
 22
0.0
 32
0.0
 13
1.0
 23
0.0
 33
0.0
 40
0.0
 40
0.0
 40
0.0
 40
0.0
 40
0.0973783434310125
 40
0.1947820695870167
 40
0.2920857312514175
 40
0.3893811527780965
 40
0.4875299723053506
 40
0.5856722308020194
 40
0.6820334367156394
 40
0.7784012899250917
 40
0.8755267236276744
 40
0.9726417777331201
 40
1.0
 40
1.0
 40
1.0
 40
1.0
 10
260.9578911639133
 20
82.15408428362353
 30
0.0
 10
260.9105826546252
 20
82.14823648972747
 30
0.0
 10
260.8159533045712
 20
82.13653937764425
 30
0.0
 10
260.5941661819158
 20
82.1008056882428
 30
0.0
 10
260.3196913600102
 20
82.06380742860247
 30
0.0
 10
259.9946998832807
 20
82.03052616505185
 30
0.0
 10
259.6271474472507
 20
82.00869017304774
 30
0.0
 10
259.2306635658262
 20
81.99930431516006
 30
0.0
 10
258.8176180720707
 20
82.0030993049109
 30
0.0
 10
258.3992625956033
 20
82.01423769149896
 30
0.0
 10
257.9848967139573
 20
82.0270144094758
 30
0.0
 10
257.6799620633157
 20
82.03181381447999
 30
0.0
 10
257.5176350624816
 20
82.02959193849901
 30
0.0
 10
257.4819568968692
 20
82.02910358807786
 30
0.0
  0
LINE
  5
146
330
1F
100
AcDbEntity
  8
0
  6
Continuous
 62
     7
370
    15
100
AcDbLine
 10
603.9944086648
 20
65.1372990643
 30
0.0
 11
575.8612696505
 21
65.1372990643
 31
0.0
  0
LINE
  5
147
330
1F
100
AcDbEntity
  8
0
  6
Continuous
 62
     7
370
    15
100
AcDbLine
 10
274.0102950908
 20
65.1372990643
 30
0.0
 11
245.8771560765
 21
65.1372990643
 31
0.0
  0
SPLINE
  5
148
330
1F
100
AcDbEntity
  8
0
  6
Continuous
 62
     7
370
    15
100
AcDbSpline
210
0.0
220
0.0
230
1.0
 70
     8
 71
     3
 72
     9
 73
     5
 74
     0
 42
0.00000001
 43
0.00000001
 12
1.0
 22
0.0
 32
0.0
 13
1.0
 23
0.0
 33
0.0
 40
0.0
 40
0.0
 40
0.0
 40
0.0
 40
0.4934254585525149
 40
1.0
 40
1.0
 40
1.0
 40
1.0
 10
611.4917491055409
 20
81.45115273794873
 30
0.0
 10
611.7230018824976
 20
81.43140654388775
 30
0.0
 10
612.191669992236
 20
81.39138794793021
 30
0.0
 10
612.6384068013798
 20
81.2227344575177
 30
0.0
 10
612.8647122956196
 20
81.13729889294846
 30
0.0
  0
LINE
  5
149
330
1F
100
AcDbEntity
  8
0
  6
Continuous
 62
     7
370
    15
100
AcDbLine
 10
612.8647122956
 20
81.1372988929
 30
0.0
 11
624.8647217132
 21
81.1372988929
 31
0.0
  0
SPLINE
  5
14A
330
1F
100
AcDbEntity
  8
0
  6
Continuous
 62
     7
370
    15
100
AcDbSpline
210
0.0
220
0.0
230
1.0
 70
     8
 71
     3
 72
     9
 73
     5
 74
     0
 42
0.00000001
 43
0.00000001
 12
1.0
 22
0.0
 32
0.0
 13
1.0
 23
0.0
 33
0.0
 40
0.0
 40
0.0
 40
0.0
 40
0.0
 40
0.4934153914085074
 40
1.0
 40
1.0
 40
1.0
 40
1.0
 10
624.8647217131535
 20
81.13729889294846
 30
0.0
 10
624.6443992652388
 20
81.22077997502814
 30
0.0
 10
624.1978739809635
 20
81.389970242566
 30
0.0
 10
623.7291778619251
 20
81.43058030524276
 30
0.0
 10
623.4917436219135
 20
81.45115273794873
 30
0.0
  0
LINE
  5
14B
330
1F
100
AcDbEntity
  8
0
  6
Continuous
 62
     7
370
    15
100
AcDbLine
 10
629.1637365199
 20
65.1372990643
 30
0.0
 11
613.8564143754
 21
65.1372990643
 31
0.0
  0
SPLINE
  5
14C
330
1F
100
AcDbEntity
  8
0
  6
Continuous
 62
     7
370
    15
100
AcDbSpline
210
0.0
220
0.0
230
1.0
 70
     8
 71
     3
 72
     9
 73
     5
 74
     0
 42
0.00000001
 43
0.00000001
 12
1.0
 22
0.0
 32
0.0
 13
1.0
 23
0.0
 33
0.0
 40
0.0
 40
0.0
 40
0.0
 40
0.0
 40
0.4934216793759987
 40
1.0
 40
1.0
 40
1.0
 40
1.0
 10
226.3798211193958
 20
81.45115273794873
 30
0.0
 10
226.1485687206302
 20
81.43140619349981
 30
0.0
 10
225.6798977877721
 20
81.39138658091628
 30
0.0
 10
225.2331538313495
 20
81.22273442092597
 30
0.0
 10
225.0068430281559
 20
81.13729889294846
 30
0.0
  0
LINE
  5
14D
330
1F
100
AcDbEntity
  8
0
  6
Continuous
 62
     7
370
    15
100
AcDbLine
 10
225.0068430282
 20
81.1372988929
 30
0.0
 11
237.0068524457
 21
81.1372988929
 31
0.0
  0
SPLINE
  5
14E
330
1F
100
AcDbEntity
  8
0
  6
Continuous
 62
     7
370
    15
100
AcDbSpline
210
0.0
220
0.0
230
1.0
 70
     8
 71
     3
 72
     9
 73
     5
 74
     0
 42
0.00000001
 43
0.00000001
 12
1.0
 22
0.0
 32
0.0
 13
1.0
 23
0.0
 33
0.0
 40
0.0
 40
0.0
 40
0.0
 40
0.0
 40
0.4934192922390331
 40
1.0
 40
1.0
 40
1.0
 40
1.0
 10
237.0068524456898
 20
81.13729889294846
 30
0.0
 10
237.2271751896732
 20
81.2207799391259
 30
0.0
 10
237.6736975438837
 20
81.38996879633214
 30
0.0
 10
238.1423867340793
 20
81.43057992410074
 30
0.0
 10
238.3798156357685
 20
81.45115273794873
 30
0.0
  0
LINE
  5
14F
330
1F
100
AcDbEntity
  8
0
  6
Continuous
 62
     7
370
    15
100
AcDbLine
 10
236.0151503659
 20
65.1372990643
 30
0.0
 11
220.7078282214
 21
65.1372990643
 31
0.0
  0
LINE
  5
150
330
1F
100
AcDbEntity
  8
0
  6
Continuous
 62
     7
370
    15
100
AcDbLine
 10
623.4917436219
 20
81.4511527379
 30
0.0
 11
610.636049924
 21
81.9496301075
 31
0.0
  0
SPLINE
  5
151
330
1F
100
AcDbEntity
  8
0
  6
Continuous
 62
     7
370
    15
100
AcDbSpline
210
0.0
220
0.0
230
1.0
 70
     8
 71
     3
 72
    35
 73
    31
 74
     0
 42
0.00000001
 43
0.00000001
 12
1.0
 22
0.0
 32
0.0
 13
1.0
 23
0.0
 33
0.0
 40
0.0
 40
0.0
 40
0.0
 40
0.0
 40
0.0357816444586591
 40
0.0716776606965368
 40
0.1074594865269239
 40
0.1432435030097353
 40
0.1791420737646102
 40
0.2149261673244623
 40
0.2507022558101051
 40
0.2865923539311029
 40
0.3223684568781788
 40
0.3581244984773989
 40
0.3939946429042136
 40
0.42975095690882
 40
0.4654863632042334
 40
0.5013361880920966
 40
0.5370717992355589
 40
0.5727971133852146
 40
0.6086362227741886
 40
0.6443614729175124
 40
0.6800915181621877
 40
0.715935368906721
 40
0.7516655120827678
 40
0.7874133599877512
 40
0.8232748854927812
 40
0.859022815862338
 40
0.8947919476510316
 40
0.9306749560417049
 40
0.9664442455711212
 40
1.0
 40
1.0
 40
1.0
 40
1.0
 10
610.6360499239842
 20
81.94963010749562
 30
0.0
 10
610.2392989423593
 20
81.9647520384219
 30
0.0
 10
609.4445288116912
 20
81.99504423573173
 30
0.0
 10
608.1723716954604
 20
82.04025030028312
 30
0.0
 10
606.8612924860253
 20
82.08459291735204
 30
0.0
 10
605.5198287858349
 20
82.12746952287448
 30
0.0
 10
604.167922206673
 20
82.16833817113101
 30
0.0
 10
602.8214903119115
 20
82.20666681258749
 30
0.0
 10
601.4986034322037
 20
82.24180964339328
 30
0.0
 10
600.2152098626507
 20
82.27337892582115
 30
0.0
 10
598.9869268438013
 20
82.30093681143651
 30
0.0
 10
597.8319303541957
 20
82.32392109951492
 30
0.0
 10
596.7622712160218
 20
82.34215739361561
 30
0.0
 10
595.7908378665778
 20
82.35538773858991
 30
0.0
 10
594.9339849434537
 20
82.36321720652218
 30
0.0
 10
594.1984491344074
 20
82.3657291377206
 30
0.0
 10
593.5930414630327
 20
82.36289238331402
 30
0.0
 10
593.130387044285
 20
82.35454390366203
 30
0.0
 10
592.8113178435368
 20
82.34101711087688
 30
0.0
 10
592.6395944543625
 20
82.3225058073686
 30
0.0
 10
592.622830520258
 20
82.29910319433614
 30
0.0
 10
592.7558167947102
 20
82.27133762622613
 30
0.0
 10
593.036954731395
 20
82.23958493739336
 30
0.0
 10
593.4679976407484
 20
82.20417630131949
 30
0.0
 10
594.038250459759
 20
82.16573541724547
 30
0.0
 10
594.7410084023593
 20
82.12477202290496
 30
0.0
 10
595.571489826177
 20
82.08177470040734
 30
0.0
 10
596.5163979751087
 20
82.03739542727368
 30
0.0
 10
597.5364648247111
 20
81.9930971508726
 30
0.0
 10
598.2774113054024
 20
81.96380738310171
 30
0.0
 10
598.6360554076115
 20
81.94963010749562
 30
0.0
  0
LINE
  5
152
330
1F
100
AcDbEntity
  8
0
  6
Continuous
 62
     7
370
    15
100
AcDbLine
 10
598.6360554076
 20
81.9496301075
 30
0.0
 11
611.4917491055
 21
81.4511527379
 31
0.0
  0
LINE
  5
153
330
1F
100
AcDbEntity
  8
0
  6
Continuous
 62
     7
370
    15
100
AcDbLine
 10
238.3798156358
 20
81.4511527379
 30
0.0
 11
251.2355093337
 21
81.9496301075
 31
0.0
  0
SPLINE
  5
154
330
1F
100
AcDbEntity
  8
0
  6
Continuous
 62
     7
370
    15
100
AcDbSpline
210
0.0
220
0.0
230
1.0
 70
     8
 71
     3
 72
    14
 73
    10
 74
     0
 42
0.00000001
 43
0.00000001
 12
1.0
 22
0.0
 32
0.0
 13
1.0
 23
0.0
 33
0.0
 40
0.0
 40
0.0
 40
0.0
 40
0.0
 40
0.1570060038609543
 40
0.3145121602061525
 40
0.4715178633445075
 40
0.6285411789393541
 40
0.7860653416590517
 40
0.9430882339222195
 40
1.0
 40
1.0
 40
1.0
 40
1.0
 10
251.2355093336979
 20
81.94963010749562
 30
0.0
 10
251.6172703067692
 20
81.96475115354701
 30
0.0
 10
252.3820083764635
 20
81.99504141469156
 30
0.0
 10
253.4183663757583
 20
82.04024931944409
 30
0.0
 10
254.3576774294422
 20
82.08457834547761
 30
0.0
 10
255.1800478249598
 20
82.12750040133399
 30
0.0
 10
255.8687986956012
 20
82.16819509918716
 30
0.0
 10
256.3349978688475
 20
82.19890504953692
 30
0.0
 10
256.5171760203365
 20
82.21464900789205
 30
0.0
 10
256.565639791576
 20
82.2188372795914
 30
0.0
  0
SPLINE
  5
155
330
1F
100
AcDbEntity
  8
0
  6
Continuous
 62
     7
370
    15
100
AcDbSpline
210
0.0
220
0.0
230
1.0
 70
     8
 71
     3
 72
    23
 73
    19
 74
     0
 42
0.00000001
 43
0.00000001
 12
1.0
 22
0.0
 32
0.0
 13
1.0
 23
0.0
 33
0.0
 40
0.0
 40
0.0
 40
0.0
 40
0.0
 40
0.0470690702569111
 40
0.1109813595470837
 40
0.1746904572117132
 40
0.2383812178372282
 40
0.3022740933944557
 40
0.3659648481350733
 40
0.4296636921486191
 40
0.493565955602634
 40
0.5572648515834145
 40
0.6209957104803885
 40
0.6849295660652903
 40
0.7486600911274927
 40
0.8124286956695639
 40
0.8764005235392567
 40
0.9401695289204834
 40
1.0
 40
1.0
 40
1.0
 40
1.0
 10
256.565639791576
 20
82.35653611621602
 30
0.0
 10
256.4551132323559
 20
82.35870321003574
 30
0.0
 10
256.1945092361149
 20
82.3638128715835
 30
0.0
 10
255.6210392912772
 20
82.36561544505128
 30
0.0
 10
254.8816550290731
 20
82.36292405007129
 30
0.0
 10
254.0127964930232
 20
82.35453630835099
 30
0.0
 10
253.0361627710645
 20
82.34102154448803
 30
0.0
 10
251.9617169201285
 20
82.32250641688677
 30
0.0
 10
250.8004765257335
 20
82.29910771066623
 30
0.0
 10
249.5701319814221
 20
82.27134097080408
 30
0.0
 10
248.2853574740738
 20
82.23958995778008
 30
0.0
 10
246.9610507996704
 20
82.20418036849314
 30
0.0
 10
245.6153495678731
 20
82.16574170916469
 30
0.0
 10
244.2645253539466
 20
82.1247773686099
 30
0.0
 10
242.9256841173845
 20
82.08178024930596
 30
0.0
 10
241.617103886935
 20
82.03740104235091
 30
0.0
 10
240.3744545787319
 20
81.99310093723349
 30
0.0
 10
239.6070097851313
 20
81.96380925466495
 30
0.0
 10
239.2355148173252
 20
81.94963010749562
 30
0.0
  0
LINE
  5
156
330
1F
100
AcDbEntity
  8
0
  6
Continuous
 62
     7
370
    15
100
AcDbLine
 10
239.2355148173
 20
81.9496301075
 30
0.0
 11
226.3798211194
 21
81.4511527379
 31
0.0
  0
SPLINE
  5
157
330
1F
100
AcDbEntity
  8
0
  6
Continuous
 62
     7
370
    15
100
AcDbSpline
210
0.0
220
0.0
230
1.0
 70
     8
 71
     3
 72
     9
 73
     5
 74
     0
 42
0.00000001
 43
0.00000001
 12
1.0
 22
0.0
 32
0.0
 13
1.0
 23
0.0
 33
0.0
 40
0.0
 40
0.0
 40
0.0
 40
0.0
 40
0.6639512415991434
 40
1.0
 40
1.0
 40
1.0
 40
1.0
 10
260.9578911639133
 20
82.15408428362353
 30
0.0
 10
260.9995339797342
 20
82.15833030963276
 30
0.0
 10
261.0622536693917
 20
82.16472539671626
 30
0.0
 10
261.0582201393316
 20
82.16941682697477
 30
0.0
 10
261.0568646765628
 20
82.17099337628825
 30
0.0
  0
SPLINE
  5
158
330
1F
100
AcDbEntity
  8
0
  6
Continuous
 62
     7
370
    15
100
AcDbSpline
210
0.0
220
0.0
230
1.0
 70
     8
 71
     3
 72
    11
 73
     7
 74
     0
 42
0.00000001
 43
0.00000001
 12
1.0
 22
0.0
 32
0.0
 13
1.0
 23
0.0
 33
0.0
 40
0.0
 40
0.0
 40
0.0
 40
0.0
 40
0.2972629043571151
 40
0.5943526191147738
 40
0.891449260785358
 40
1.0
 40
1.0
 40
1.0
 40
1.0
 10
261.0593084669986
 20
82.17445975891097
 30
0.0
 10
261.0430557694949
 20
82.17674340749493
 30
0.0
 10
261.0105598435404
 20
82.18130937417662
 30
0.0
 10
260.8678363239536
 20
82.18511909675985
 30
0.0
 10
260.7232087235709
 20
82.18702372954495
 30
0.0
 10
260.5988983100953
 20
82.18642312968217
 30
0.0
 10
260.5656329966465
 20
82.18626240989907
 30
0.0
  0
SPLINE
  5
159
330
1F
100
AcDbEntity
  8
0
  6
Continuous
 62
     7
370
    15
100
AcDbSpline
210
0.0
220
0.0
230
1.0
 70
     8
 71
     3
 72
    18
 73
    14
 74
     0
 42
0.00000001
 43
0.00000001
 12
1.0
 22
0.0
 32
0.0
 13
1.0
 23
0.0
 33
0.0
 40
0.0
 40
0.0
 40
0.0
 40
0.0
 40
0.0798434603655738
 40
0.1755951669076211
 40
0.2713200260208601
 40
0.3670451813750061
 40
0.4627202316511211
 40
0.5583955408552104
 40
0.6540197940822102
 40
0.7496468549898075
 40
0.8452437630598745
 40
0.9408443086919334
 40
1.0
 40
1.0
 40
1.0
 40
1.0
 10
256.565639791576
 20
82.07592210522635
 30
0.0
 10
256.4978163073185
 20
82.07221955851158
 30
0.0
 10
256.3486559880646
 20
82.06407675877087
 30
0.0
 10
256.191086903215
 20
82.05268330405097
 30
0.0
 10
256.0870257018059
 20
82.04198417693547
 30
0.0
 10
256.0536332232679
 20
82.0329894828975
 30
0.0
 10
256.0925835963018
 20
82.02599134462186
 30
0.0
 10
256.2004648052271
 20
82.02110607946761
 30
0.0
 10
256.3767887668333
 20
82.01855703337851
 30
0.0
 10
256.6138295797427
 20
82.01830655997067
 30
0.0
 10
256.9077261392874
 20
82.02049855826138
 30
0.0
 10
257.2031379801949
 20
82.02428310732301
 30
0.0
 10
257.4048516793122
 20
82.02777052136284
 30
0.0
 10
257.4819568968692
 20
82.02910358807786
 30
0.0
  0
LINE
  5
15A
330
1F
100
AcDbEntity
  8
0
  6
Continuous
 62
     7
370
    15
100
AcDbLine
 10
575.8612696505
 20
65.1372990643
 30
0.0
 11
569.9797217227
 21
65.1372990643
 31
0.0
  0
LINE
  5
15B
330
1F
100
AcDbEntity
  8
0
  6
Continuous
 62
     7
370
    15
100
AcDbLine
 10
279.8918430186
 20
65.1372990643
 30
0.0
 11
274.0102950908
 21
65.1372990643
 31
0.0
  0
LINE
  5
15C
330
1F
100
AcDbEntity
  8
0
  6
Continuous
 62
     7
370
    15
100
AcDbLine
 10
623.9613984204
 20
81.5322811787
 30
0.0
 11
623.9089761353
 21
81.5336306652
 31
0.0
  0
LINE
  5
15D
330
1F
100
AcDbEntity
  8
0
  6
Continuous
 62
     7
370
    15
100
AcDbLine
 10
629.9820933915
 20
65.1372990643
 30
0.0
 11
629.1637365199
 21
65.1372990643
 31
0.0
  0
LINE
  5
15E
330
1F
100
AcDbEntity
  8
0
  6
Continuous
 62
     7
370
    15
100
AcDbLine
 10
220.7078282214
 20
65.1372990643
 30
0.0
 11
219.8894713498
 21
65.1372990643
 31
0.0
  0
LINE
  5
15F
330
1F
100
AcDbEntity
  8
0
  6
Continuous
 62
     7
370
    15
100
AcDbLine
 10
225.9125356055
 20
81.5323761736
 30
0.0
 11
225.962588606
 21
81.5336306652
 31
0.0
  0
LINE
  5
160
330
1F
100
AcDbEntity
  8
0
  6
Continuous
 62
     7
370
    15
100
AcDbLine
 10
445.3066867269
 20
65.1372990643
 30
0.0
 11
449.3455496109
 21
65.1372990643
 31
0.0
  0
LINE
  5
161
330
1F
100
AcDbEntity
  8
0
  6
Continuous
 62
     7
370
    15
100
AcDbLine
 10
400.5260151304
 20
65.1372990643
 30
0.0
 11
404.5648780144
 21
65.1372990643
 31
0.0
  0
SPLINE
  5
162
330
1F
100
AcDbEntity
  8
0
  6
Continuous
 62
     7
370
    15
100
AcDbSpline
210
0.0
220
0.0
230
1.0
 70
     8
 71
     3
 72
    35
 73
    31
 74
     0
 42
0.00000001
 43
0.00000001
 12
1.0
 22
0.0
 32
0.0
 13
1.0
 23
0.0
 33
0.0
 40
0.0
 40
0.0
 40
0.0
 40
0.0
 40
0.0357822864073612
 40
0.071679115865329
 40
0.1074614365962071
 40
0.1432457725041081
 40
0.179144466403177
 40
0.2149286946231367
 40
0.2507050601887809
 40
0.2865956752016451
 40
0.3223720434130124
 40
0.3581283551213675
 40
0.3939988539028943
 40
0.4297550488912507
 40
0.4654904894238766
 40
0.5013399677547548
 40
0.5370754022591588
 40
0.5728000236496397
 40
0.6086385410862034
 40
0.6443631888810909
 40
0.6800928327499716
 40
0.7159363358998234
 40
0.7516659083905167
 40
0.7874139101072335
 40
0.8232756616889736
 40
0.859023391340471
 40
0.8947928955217724
 40
0.9306765560364856
 40
0.9664459643426959
 40
1.0
 40
1.0
 40
1.0
 40
1.0
 10
439.2357822931686
 20
79.6434369941686
 30
0.0
 10
439.2179441410348
 20
79.66145182080587
 30
0.0
 10
439.1822107348721
 20
79.69753914153
 30
0.0
 10
438.9010888613216
 20
79.75147984069902
 30
0.0
 10
438.458716904163
 20
79.8044481897402
 30
0.0
 10
437.8376606676408
 20
79.85573700881687
 30
0.0
 10
437.0564594089281
 20
79.90468026652032
 30
0.0
 10
436.1233578024164
 20
79.95063721058865
 30
0.0
 10
435.0454520348755
 20
79.99282512844435
 30
0.0
 10
433.8414678382405
 20
80.03076029367124
 30
0.0
 10
432.5260938225816
 20
80.06390961654958
 30
0.0
 10
431.112624763135
 20
80.09157606676204
 30
0.0
 10
429.6225473917901
 20
80.11354440512875
 30
0.0
 10
428.0738421567627
 20
80.12949097223299
 30
0.0
 10
426.484813726481
 20
80.13892869757339
 30
0.0
 10
424.8770940480807
 20
80.14195835355254
 30
0.0
 10
423.2699174794552
 20
80.13853767399581
 30
0.0
 10
421.6844678382304
 20
80.12846892904268
 30
0.0
 10
420.1400925868805
 20
80.11216780724145
 30
0.0
 10
418.6551626502899
 20
80.08986804793788
 30
0.0
 10
417.2513822410552
 20
80.06169939290552
 30
0.0
 10
415.9437054251395
 20
80.02830246334119
 30
0.0
 10
414.7476917226329
 20
79.99014973100877
 30
0.0
 10
413.683241904509
 20
79.9476470541417
 30
0.0
 10
412.7591688461121
 20
79.90156024144868
 30
0.0
 10
411.9868879783805
 20
79.85250089131496
 30
0.0
 10
411.3810883993056
 20
79.80107857172725
 30
0.0
 10
410.9477240898943
 20
79.74806564591708
 30
0.0
 10
410.6825567833365
 20
79.69521577526557
 30
0.0
 10
410.6510381456635
 20
79.66032491826647
 30
0.0
 10
410.6357824481407
 20
79.6434369941686
 30
0.0
  0
LINE
  5
163
330
1F
100
AcDbEntity
  8
0
  6
Continuous
 62
     7
370
    15
100
AcDbLine
 10
410.6357824481
 20
78.8372990747
 30
0.0
 11
439.2357822932
 21
78.8372990747
 31
0.0
  0
LINE
  5
164
330
1F
100
AcDbEntity
  8
0
  6
Continuous
 62
     7
370
    15
100
AcDbLine
 10
410.6357824481
 20
78.8372990747
 30
0.0
 11
410.6357824481
 21
79.6434369942
 31
0.0
  0
LINE
  5
165
330
1F
100
AcDbEntity
  8
0
  6
Continuous
 62
     7
370
    15
100
AcDbLine
 10
439.2357822932
 20
78.8372990747
 30
0.0
 11
439.2357822932
 21
79.6434369942
 31
0.0
  0
LINE
  5
166
330
1F
100
AcDbEntity
  8
0
  6
Continuous
 62
     7
370
    15
100
AcDbLine
 10
445.3066867269
 20
65.1372990643
 30
0.0
 11
440.6863563187
 21
65.1372990643
 31
0.0
  0
LINE
  5
167
330
1F
100
AcDbEntity
  8
0
  6
Continuous
 62
     7
370
    15
100
AcDbLine
 10
409.1852084226
 20
65.1372990643
 30
0.0
 11
404.5648780144
 21
65.1372990643
 31
0.0
  0
LINE
  5
168
330
1F
100
AcDbEntity
  8
0
  6
Continuous
 62
     7
370
    15
100
AcDbLine
 10
409.1852084226
 20
65.1372990643
 30
0.0
 11
440.6863563187
 21
65.1372990643
 31
0.0
  0
LINE
  5
169
330
1F
100
AcDbEntity
  8
0
  6
Continuous
 62
     7
370
    15
100
AcDbLine
 10
235.235774932
 20
92.6372989153
 30
0.0
 11
614.6357898093
 21
92.6372989153
 31
0.0
  0
LINE
  5
16A
330
1F
100
AcDbEntity
  8
0
  6
Continuous
 62
     7
370
    15
100
AcDbLine
 10
614.6332566119
 20
206.0799806451
 30
0.0
 11
614.6336440421
 21
206.0814484095
 31
0.0
  0
SPLINE
  5
16B
330
1F
100
AcDbEntity
  8
0
  6
Continuous
 62
     7
370
    15
100
AcDbSpline
210
0.0
220
0.0
230
1.0
 70
     8
 71
     3
 72
     9
 73
     5
 74
     0
 42
0.00000001
 43
0.00000001
 12
1.0
 22
0.0
 32
0.0
 13
1.0
 23
0.0
 33
0.0
 40
0.0
 40
0.0
 40
0.0
 40
0.0
 40
0.0848683768737316
 40
0.9999999999999999
 40
0.9999999999999999
 40
0.9999999999999999
 40
0.9999999999999999
 10
611.6385553456226
 20
157.935640129957
 30
0.0
 10
611.6385859022716
 20
157.9090965312075
 30
0.0
 10
611.6389459497954
 20
157.596334584681
 30
0.0
 10
611.6410606565936
 20
157.2968800307223
 30
0.0
 10
611.6429958916584
 20
157.0228396987055
 30
0.0
  0
LINE
  5
16C
330
1F
100
AcDbEntity
  8
SLD-0
 62
     7
370
     0
100
AcDbLine
 10
424.9357823707
 20
15.7365196389
 30
0.0
 11
424.9357823707
 21
666.3583279642
 31
0.0
  0
LINE
  5
16D
330
1F
100
AcDbEntity
  8
SLD-0
 62
     7
370
     0
100
AcDbLine
 10
135.4357823707
 20
535.4309854891
 30
0.0
 11
135.4357823707
 21
374.5121747139
 31
0.0
  0
LINE
  5
16E
330
1F
100
AcDbEntity
  8
SLD-0
 62
     7
370
     0
100
AcDbLine
 10
593.5481756328
 20
170.6372989153
 30
0.0
 11
662.1843652742
 21
170.6372989153
 31
0.0
  0
LINE
  5
16F
330
1F
100
AcDbEntity
  8
SLD-0
 62
     7
370
     0
100
AcDbLine
 10
106.9357823707
 20
452.1736165269
 30
0.0
 11
106.9357823707
 21
467.1729441359
 31
0.0
  0
LINE
  5
170
330
1F
100
AcDbEntity
  8
SLD-0
 62
     7
370
     0
100
AcDbLine
 10
62.9611508885
 20
437.1372989153
 30
0.0
 11
365.3924677844
 21
437.1372989153
 31
0.0
  0
DIMENSION
  5
171
330
1F
100
AcDbEntity
  8
SLD-0
 62
     7
100
AcDbDimension
  2
_D
 10
695.2406024328
 20
65.1372989153
 30
0.0
 11
695.2406024328
 21
361.8260943697
 31
0.0
 70
   160
  1
<>
 71
     2
 42
-1.0
  3
SLDDIMSTYLE0
100
AcDbAlignedDimension
 13
432.9357823707
 23
629.1158199757
 33
0.0
 14
603.9944151944
 24
65.1372989153
 34
0.0
 50
90.0
100
AcDbRotatedDimension
  0
DIMENSION
  5
183
330
1F
100
AcDbEntity
  8
SLD-0
 62
     7
100
AcDbDimension
  2
_D_1
 10
634.0357823707
 20
639.2092115509
 30
0.0
 11
424.0872488094
 21
639.2092115509
 31
0.0
 70
   160
  1
%%c<>
 71
     2
 42
-1.0
  3
SLDDIMSTYLE0
100
AcDbAlignedDimension
 13
215.8357823707
 23
294.1371534607
 33
0.0
 14
634.0357823707
 24
294.1371534607
 34
0.0
100
AcDbRotatedDimension
  0
LINE
  5
18E
330
1F
100
AcDbEntity
  8
0
  6
Continuous
 62
     7
370
    15
100
AcDbLine
 10
602.9480193234
 20
1054.4589087758
 30
0.0
 11
606.3990984536
 21
1057.3897958192
 31
0.0
  0
LINE
  5
18F
330
1F
100
AcDbEntity
  8
0
  6
Continuous
 62
     7
370
    15
100
AcDbLine
 10
599.1295818664
 20
1068.1672841701
 30
0.0
 11
595.1193217612
 21
1066.0654381308
 31
0.0
  0
ARC
  5
190
330
1F
100
AcDbEntity
  8
0
  6
Continuous
 62
     7
370
    15
100
AcDbCircle
 10
585.6654417498
 20
1051.2451894769
 30
0.0
 40
21.6250000000001
100
AcDbArc
 50
16.5076754749
 51
51.4923245251
  0
LINE
  5
191
330
1F
100
AcDbEntity
  8
0
  6
Continuous
 62
     7
370
    15
100
AcDbLine
 10
595.9581081248
 20
1064.8218840751
 30
0.0
 11
595.5435876227
 21
1064.5422861371
 31
0.0
  0
LINE
  5
192
330
1F
100
AcDbEntity
  8
0
  6
Continuous
 62
     7
370
    15
100
AcDbLine
 10
601.6947124577
 20
1055.422872344
 30
0.0
 11
602.1092329598
 21
1055.702470282
 31
0.0
  0
LINE
  5
193
330
1F
100
AcDbEntity
  8
0
  6
Continuous
 62
     7
370
    15
100
AcDbLine
 10
246.9235454179
 20
831.2044218573
 30
0.0
 11
243.4724662877
 21
828.2735348138
 31
0.0
  0
LINE
  5
194
330
1F
100
AcDbEntity
  8
0
  6
Continuous
 62
     7
370
    15
100
AcDbLine
 10
250.741982875
 20
817.496046463
 30
0.0
 11
254.7522429801
 21
819.5978925023
 31
0.0
  0
ARC
  5
195
330
1F
100
AcDbEntity
  8
0
  6
Continuous
 62
     7
370
    15
100
AcDbCircle
 10
264.2061229914
 20
834.4181411563
 30
0.0
 40
21.62499999999996
100
AcDbArc
 50
196.5076754749
 51
231.4923245251
  0
LINE
  5
196
330
1F
100
AcDbEntity
  8
0
  6
Continuous
 62
     7
370
    15
100
AcDbLine
 10
253.9134566165
 20
820.8414465579
 30
0.0
 11
254.3279771186
 21
821.121044496
 31
0.0
  0
LINE
  5
197
330
1F
100
AcDbEntity
  8
0
  6
Continuous
 62
     7
370
    15
100
AcDbLine
 10
248.1768522836
 20
830.2404582891
 30
0.0
 11
247.7623317815
 21
829.960860351
 31
0.0
  0
ARC
  5
198
330
1F
100
AcDbEntity
  8
0
  6
Continuous
 62
     7
370
    15
100
AcDbCircle
 10
171.4357823707
 20
979.8316653165
 30
0.0
 40
3.0
100
AcDbArc
 50
90.0
 51
180.0
  0
ARC
  5
199
330
1F
100
AcDbEntity
  8
0
  6
Continuous
 62
     7
370
    15
100
AcDbCircle
 10
190.4357823707
 20
979.8316653165
 30
0.0
 40
3.0
100
AcDbArc
 50
0.0
 51
90.0
  0
LINE
  5
19A
330
1F
100
AcDbEntity
  8
0
  6
Continuous
 62
     7
370
    15
100
AcDbLine
 10
190.4357765294
 20
982.8316644225
 30
0.0
 11
171.4357678271
 21
982.8316644225
 31
0.0
  0
ARC
  5
19B
330
1F
100
AcDbEntity
  8
0
  6
Continuous
 62
     7
370
    15
100
AcDbCircle
 10
190.4357823707
 20
925.8316653165
 30
0.0
 40
3.0
100
AcDbArc
 50
270.0
 51
0.0
  0
ARC
  5
19C
330
1F
100
AcDbEntity
  8
0
  6
Continuous
 62
     7
370
    15
100
AcDbCircle
 10
171.4357823707
 20
925.8316653165
 30
0.0
 40
3.0
100
AcDbArc
 50
180.0
 51
270.0
  0
LINE
  5
19D
330
1F
100
AcDbEntity
  8
0
  6
Continuous
 62
     7
370
    15
100
AcDbLine
 10
171.4357678271
 20
922.8316657636
 30
0.0
 11
190.4357765294
 21
922.8316657636
 31
0.0
  0
ARC
  5
19E
330
1F
100
AcDbEntity
  8
0
  6
Continuous
 62
     7
370
    15
100
AcDbCircle
 10
196.4357823707
 20
978.9033376261
 30
0.0
 40
3.000000000000028
100
AcDbArc
 50
180.0
 51
271.0
  0
ARC
  5
19F
330
1F
100
AcDbEntity
  8
0
  6
Continuous
 62
     7
370
    15
100
AcDbCircle
 10
196.4357823707
 20
926.759993007
 30
0.0
 40
3.000000000000039
100
AcDbArc
 50
89.0
 51
180.0
  0
LINE
  5
1A0
330
1F
100
AcDbEntity
  8
0
  6
Continuous
 62
     7
370
    15
100
AcDbLine
 10
197.0751081086
 20
975.9140387568
 30
0.0
 11
196.488136468
 21
975.9037942085
 31
0.0
  0
LINE
  5
1A1
330
1F
100
AcDbEntity
  8
0
  6
Continuous
 62
     7
370
    15
100
AcDbLine
 10
196.488136468
 20
929.7595359775
 30
0.0
 11
223.8417957402
 21
929.2820757645
 31
0.0
  0
SPLINE
  5
1A2
330
1F
100
AcDbEntity
  8
0
  6
Continuous
 62
     7
370
    15
100
AcDbSpline
210
0.0
220
0.0
230
1.0
 70
     8
 71
     3
 72
    16
 73
    12
 74
     0
 42
0.00000001
 43
0.00000001
 12
1.0
 22
0.0
 32
0.0
 13
1.0
 23
0.0
 33
0.0
 40
0.0
 40
0.0
 40
0.0
 40
0.0
 40
0.0186361534959126
 40
0.075903314779212
 40
0.1904132643307996
 40
0.2955747134765755
 40
0.451790359574009
 40
0.6418018991645068
 40
0.7995537222055914
 40
0.9591331377933383
 40
0.9999999999999999
 40
0.9999999999999999
 40
0.9999999999999999
 40
0.9999999999999999
 10
154.8597459174076
 20
932.2733916732726
 30
0.0
 10
154.8674186342749
 20
932.2788644926833
 30
0.0
 10
154.8986688943522
 20
932.3011547756297
 30
0.0
 10
155.0014207434033
 20
932.3706692085892
 30
0.0
 10
155.1472614362806
 20
932.4579213992164
 30
0.0
 10
155.3574816379169
 20
932.5653999947086
 30
0.0
 10
155.6184587381638
 20
932.6724892291987
 30
0.0
 10
155.9218736652442
 20
932.7610457083479
 30
0.0
 10
156.2346285242595
 20
932.8137061228344
 30
0.0
 10
156.4583550205354
 20
932.8358204916295
 30
0.0
 10
156.583581369294
 20
932.8311345218207
 30
0.0
 10
156.6091124392429
 20
932.8301791492162
 30
0.0
  0
SPLINE
  5
1A3
330
1F
100
AcDbEntity
  8
0
  6
Continuous
 62
     7
370
    15
100
AcDbSpline
210
0.0
220
0.0
230
1.0
 70
     8
 71
     3
 72
    22
 73
    18
 74
     0
 42
0.00000001
 43
0.00000001
 12
1.0
 22
0.0
 32
0.0
 13
1.0
 23
0.0
 33
0.0
 40
0.0
 40
0.0
 40
0.0
 40
0.0
 40
0.0024419439319331
 40
0.1125518934962837
 40
0.2194233864466394
 40
0.3228364697637435
 40
0.4224509594103891
 40
0.5178541666529936
 40
0.6084418561614928
 40
0.6934400528233982
 40
0.7717944714921071
 40
0.8421629557295062
 40
0.9027443939879517
 40
0.9509208717584305
 40
0.9815407459687062
 40
0.9979436845803716
 40
1.0
 40
1.0
 40
1.0
 40
1.0
 10
163.5581497527042
 20
972.8323277476487
 30
0.0
 10
163.5558947560818
 20
972.8322124380534
 30
0.0
 10
163.4519594706082
 20
972.8268976914194
 30
0.0
 10
163.2487657289456
 20
972.8452265680769
 30
0.0
 10
162.9556291238355
 20
972.8877300850364
 30
0.0
 10
162.6776060630862
 20
972.9596908244758
 30
0.0
 10
162.4175530347912
 20
973.0529114177768
 30
0.0
 10
162.1777444047696
 20
973.1643615595046
 30
0.0
 10
161.9601745720654
 20
973.2892089899902
 30
0.0
 10
161.766450783123
 20
973.422326615008
 30
0.0
 10
161.5979958785352
 20
973.5579365413782
 30
0.0
 10
161.4557501304922
 20
973.6895042960372
 30
0.0
 10
161.3413560454485
 20
973.808931380369
 30
0.0
 10
161.2565405810096
 20
973.9069782935393
 30
0.0
 10
161.2026231132556
 20
973.9739221285812
 30
0.0
 10
161.1747925245485
 20
974.0102175785335
 30
0.0
 10
161.1678795192929
 20
974.0193116313908
 30
0.0
 10
161.1671094275394
 20
974.0203246864734
 30
0.0
  0
ARC
  5
1A4
330
1F
100
AcDbEntity
  8
0
  6
Continuous
 62
     7
370
    15
100
AcDbCircle
 10
165.4357823707
 20
975.8316653165
 30
0.0
 40
3.0
100
AcDbArc
 50
270.0
 51
0.0
  0
ARC
  5
1A5
330
1F
100
AcDbEntity
  8
0
  6
Continuous
 62
     7
370
    15
100
AcDbCircle
 10
165.4357823707
 20
929.8316653165
 30
0.0
 40
3.0
100
AcDbArc
 50
0.0
 51
90.0
  0
LINE
  5
1A6
330
1F
100
AcDbEntity
  8
0
  6
Continuous
 62
     7
370
    15
100
AcDbLine
 10
240.6852040864
 20
1023.431852499
 30
0.0
 11
216.993728695
 21
1022.1902355942
 31
0.0
  0
SPLINE
  5
1A7
330
1F
100
AcDbEntity
  8
0
  6
Continuous
 62
     7
370
    15
100
AcDbSpline
210
0.0
220
0.0
230
1.0
 70
     8
 71
     3
 72
    22
 73
    18
 74
     0
 42
0.00000001
 43
0.00000001
 12
1.0
 22
0.0
 32
0.0
 13
1.0
 23
0.0
 33
0.0
 40
0.0
 40
0.0
 40
0.0
 40
0.0
 40
0.0468680957639863
 40
0.1183363188852649
 40
0.1902204485527973
 40
0.2623867940158753
 40
0.3347432730768097
 40
0.4135414048189748
 40
0.4901928305909874
 40
0.564724975543177
 40
0.6373060120124097
 40
0.7080331570980608
 40
0.7769509543256828
 40
0.844048863801776
 40
0.9092745707890558
 40
0.9725272458406192
 40
1.0
 40
1.0
 40
1.0
 40
1.0
 10
200.0070009804645
 20
978.9088778588233
 30
0.0
 10
200.0069699080741
 20
978.8363024570253
 30
0.0
 10
200.0068914540159
 20
978.6530582745938
 30
0.0
 10
199.9651171232171
 20
978.3606174507019
 30
0.0
 10
199.8867496041835
 20
978.0360412184501
 30
0.0
 10
199.7708463675921
 20
977.7210318553089
 30
0.0
 10
199.6160780313523
 20
977.411326635909
 30
0.0
 10
199.4222139792649
 20
977.1158554068562
 30
0.0
 10
199.1921788203196
 20
976.8432630365883
 30
0.0
 10
198.9389374624051
 20
976.6060215012564
 30
0.0
 10
198.6677902013921
 20
976.4046027302221
 30
0.0
 10
198.3835667816704
 20
976.2387942139995
 30
0.0
 10
198.0909003618739
 20
976.1082425017062
 30
0.0
 10
197.7942763069826
 20
976.0113349463522
 30
0.0
 10
197.4979192440259
 20
975.9488107911259
 30
0.0
 10
197.2578350824677
 20
975.9177318713043
 30
0.0
 10
197.1173962594127
 20
975.9171846839596
 30
0.0
 10
197.0748696900287
 20
975.9170189890323
 30
0.0
  0
ARC
  5
1A8
330
1F
100
AcDbEntity
  8
0
  6
Continuous
 62
     7
370
    15
100
AcDbCircle
 10
217.9357823707
 20
1003.4484265222
 30
0.0
 40
18.0
100
AcDbArc
 50
180.0
 51
184.8986788268
  0
ARC
  5
1A9
330
1F
100
AcDbEntity
  8
0
  6
Continuous
 62
     7
370
    15
100
AcDbCircle
 10
217.9357823707
 20
1004.2149041109
 30
0.0
 40
18.0
100
AcDbArc
 50
93.0
 51
180.0
  0
LINE
  5
1AA
330
1F
100
AcDbEntity
  8
0
  6
Continuous
 62
     7
370
    15
100
AcDbLine
 10
199.9994162894
 20
1001.9114390406
 30
0.0
 11
200.0100855208
 21
1001.6551278922
 31
0.0
  0
LINE
  5
1AB
330
1F
100
AcDbEntity
  8
0
  6
Continuous
 62
     7
370
    15
100
AcDbLine
 10
200.0107560731
 20
1001.6554706189
 30
0.0
 11
200.0107560731
 21
978.9090231451
 31
0.0
  0
LINE
  5
1AC
330
1F
100
AcDbEntity
  8
0
  6
Continuous
 62
     7
370
    15
100
AcDbLine
 10
156.6093806601
 20
932.83166554
 30
0.0
 11
165.4357854701
 21
932.83166554
 31
0.0
  0
LINE
  5
1AD
330
1F
100
AcDbEntity
  8
0
  6
Continuous
 62
     7
370
    15
100
AcDbLine
 10
165.4357854701
 20
972.831664646
 30
0.0
 11
163.5581497527
 21
972.831664646
 31
0.0
  0
SPLINE
  5
1AE
330
1F
100
AcDbEntity
  8
0
  6
Continuous
 62
     7
370
    15
100
AcDbSpline
210
0.0
220
0.0
230
1.0
 70
     8
 71
     3
 72
    11
 73
     7
 74
     0
 42
0.00000001
 43
0.00000001
 12
1.0
 22
0.0
 32
0.0
 13
1.0
 23
0.0
 33
0.0
 40
0.0
 40
0.0
 40
0.0
 40
0.0
 40
0.3031514512324109
 40
0.6420165385965204
 40
0.9838344387207545
 40
1.0
 40
1.0
 40
1.0
 40
1.0
 10
228.6575381136814
 20
986.9239814969955
 30
0.0
 10
228.5910598154616
 20
986.6789693717475
 30
0.0
 10
228.450271550252
 20
986.1600807570751
 30
0.0
 10
228.2449568133016
 20
985.4007959575143
 30
0.0
 10
228.102087663429
 20
984.8716942321214
 30
0.0
 10
228.0324070419646
 20
984.6140807631217
 30
0.0
 10
228.0292604542652
 20
984.6024476382194
 30
0.0
  0
SPLINE
  5
1AF
330
1F
100
AcDbEntity
  8
0
  6
Continuous
 62
     7
370
    15
100
AcDbSpline
210
0.0
220
0.0
230
1.0
 70
     8
 71
     3
 72
    34
 73
    30
 74
     0
 42
0.00000001
 43
0.00000001
 12
1.0
 22
0.0
 32
0.0
 13
1.0
 23
0.0
 33
0.0
 40
0.0
 40
0.0
 40
0.0
 40
0.0
 40
0.0058544578942538
 40
0.0292759543697514
 40
0.0559183464780702
 40
0.0856683168933627
 40
0.1180929926218788
 40
0.1526009797309916
 40
0.1886309304159716
 40
0.2255313829159451
 40
0.2636293028424497
 40
0.3026091312375369
 40
0.3422455130084953
 40
0.3823629366645037
 40
0.4228214172155123
 40
0.4635053655134564
 40
0.504317563547196
 40
0.5451717470450854
 40
0.5859681890228772
 40
0.6267294763917293
 40
0.6672731885140083
 40
0.7084711141097185
 40
0.7500059023238669
 40
0.7918070771427442
 40
0.8338019463874982
 40
0.8759116637456977
 40
0.9180582554984923
 40
0.960138386819244
 40
1.0
 40
1.0
 40
1.0
 40
1.0
 10
244.8199782944599
 20
1034.499369600719
 30
0.0
 10
244.8199780529526
 20
1034.500251713376
 30
0.0
 10
244.8199768452647
 20
1034.504662828862
 30
0.0
 10
244.8185856942328
 20
1034.477436007779
 30
0.0
 10
244.8103131940049
 20
1034.41694152506
 30
0.0
 10
244.7913288741138
 20
1034.312884086234
 30
0.0
 10
244.7583427586837
 20
1034.166975705503
 30
0.0
 10
244.7088157644171
 20
1033.977020993012
 30
0.0
 10
244.6410957557381
 20
1033.743036678929
 30
0.0
 10
244.5548269783286
 20
1033.466417684411
 30
0.0
 10
244.4498545779067
 20
1033.148025527635
 30
0.0
 10
244.3257450443643
 20
1032.787572784009
 30
0.0
 10
244.1829717810313
 20
1032.38666115354
 30
0.0
 10
244.0221399117436
 20
1031.946788893692
 30
0.0
 10
243.8439310665948
 20
1031.469525034079
 30
0.0
 10
243.6490430931222
 20
1030.956364365823
 30
0.0
 10
243.4383860436486
 20
1030.408939026629
 30
0.0
 10
243.2127934571561
 20
1029.828938409214
 30
0.0
 10
242.9731498978728
 20
1029.217918824688
 30
0.0
 10
242.7203993091022
 20
1028.577238026556
 30
0.0
 10
242.4542746615466
 20
1027.904939881262
 30
0.0
 10
242.1746225947439
 20
1027.199827277126
 30
0.0
 10
241.8809497473985
 20
1026.459588698933
 30
0.0
 10
241.5748160760807
 20
1025.687485031112
 30
0.0
 10
241.2575069660496
 20
1024.885566019477
 30
0.0
 10
240.9302639349273
 20
1024.056177498548
 30
0.0
 10
240.5943823423063
 20
1023.20131686013
 30
0.0
 10
240.2575339135124
 20
1022.340289789526
 30
0.0
 10
240.0296498095458
 20
1021.753296003384
 30
0.0
 10
239.9187926627079
 20
1021.467745343154
 30
0.0
  0
SPLINE
  5
1B0
330
1F
100
AcDbEntity
  8
0
  6
Continuous
 62
     7
370
    15
100
AcDbSpline
210
0.0
220
0.0
230
1.0
 70
     8
 71
     3
 72
    35
 73
    31
 74
     0
 42
0.00000001
 43
0.00000001
 12
1.0
 22
0.0
 32
0.0
 13
1.0
 23
0.0
 33
0.0
 40
0.0
 40
0.0
 40
0.0
 40
0.0
 40
0.0360173525233795
 40
0.0755972838447381
 40
0.1150768882876971
 40
0.1542559485802407
 40
0.1931293917163588
 40
0.2320621769702179
 40
0.2711428190708237
 40
0.3103134661542267
 40
0.3495160704924379
 40
0.3886705861843104
 40
0.4277142541498586
 40
0.4665850243969578
 40
0.5052213861021009
 40
0.5435648093629126
 40
0.581557216862176
 40
0.6190165550555006
 40
0.6567601531973821
 40
0.6945269654805574
 40
0.732199653035305
 40
0.7696613984142201
 40
0.8067637438097164
 40
0.8433083593278603
 40
0.87902190247269
 40
0.9135233282388748
 40
0.9422706336352659
 40
0.968366488731467
 40
0.9914444346392315
 40
1.0
 40
1.0
 40
1.0
 40
1.0
 10
223.9602897740284
 20
940.8803512732742
 30
0.0
 10
223.9548678516879
 20
940.5738900003486
 30
0.0
 10
223.9434877092443
 20
939.9306544981906
 30
0.0
 10
223.9295197748478
 20
938.9769544074521
 30
0.0
 10
223.917280462619
 20
938.0175461028264
 30
0.0
 10
223.9072703243044
 20
937.0879891655778
 30
0.0
 10
223.899063767218
 20
936.1878762910844
 30
0.0
 10
223.8921670167796
 20
935.3146056048739
 30
0.0
 10
223.8863361787855
 20
934.466409328603
 30
0.0
 10
223.881087445061
 20
933.64469560201
 30
0.0
 10
223.8762006108132
 20
932.8521338399581
 30
0.0
 10
223.8712532667014
 20
932.0911701335476
 30
0.0
 10
223.865915253244
 20
931.3642309947915
 30
0.0
 10
223.8598814924043
 20
930.6734010002423
 30
0.0
 10
223.8528301853732
 20
930.02059259859
 30
0.0
 10
223.8443911587699
 20
929.4075980437971
 30
0.0
 10
223.8344144528655
 20
928.8366460606077
 30
0.0
 10
223.8223289338642
 20
928.3056985978674
 30
0.0
 10
223.8079541597224
 20
927.8125810254919
 30
0.0
 10
223.791127063354
 20
927.3564875842733
 30
0.0
 10
223.7717842417651
 20
926.9401800673054
 30
0.0
 10
223.7499714251229
 20
926.5657205508115
 30
0.0
 10
223.7258191277685
 20
926.235141674392
 30
0.0
 10
223.6997098814617
 20
925.9506494630288
 30
0.0
 10
223.6722880397305
 20
925.7144866262332
 30
0.0
 10
223.6460054526209
 20
925.5368005152536
 30
0.0
 10
223.6226180379863
 20
925.4132430604021
 30
0.0
 10
223.6057919835026
 20
925.3414185688783
 30
0.0
 10
223.5951074170515
 20
925.3079294304135
 30
0.0
 10
223.596373829511
 20
925.3112590867543
 30
0.0
 10
223.5967163420597
 20
925.3121596220193
 30
0.0
  0
SPLINE
  5
1B1
330
1F
100
AcDbEntity
  8
0
  6
Continuous
 62
     7
370
    15
100
AcDbSpline
210
0.0
220
0.0
230
1.0
 70
     8
 71
     3
 72
    13
 73
     9
 74
     0
 42
0.00000001
 43
0.00000001
 12
1.0
 22
0.0
 32
0.0
 13
1.0
 23
0.0
 33
0.0
 40
0.0
 40
0.0
 40
0.0
 40
0.0
 40
0.0649101666525993
 40
0.2528895798789776
 40
0.4410828029886986
 40
0.6292237177026596
 40
0.817057181358821
 40
0.9999999999999999
 40
0.9999999999999999
 40
0.9999999999999999
 40
0.9999999999999999
 10
226.7192993737141
 20
977.8622500988898
 30
0.0
 10
226.7086585939235
 20
977.7739410645873
 30
0.0
 10
226.6672021862513
 20
977.4298896511348
 30
0.0
 10
226.5910573889504
 20
976.7989184450153
 30
0.0
 10
226.4914635308957
 20
975.9707361973788
 30
0.0
 10
226.3888961214231
 20
975.1124855972665
 30
0.0
 10
226.2853138998216
 20
974.2381790302142
 30
0.0
 10
226.2152113400526
 20
973.6369538796803
 30
0.0
 10
226.1806223965564
 20
973.3403064701018
 30
0.0
  0
ARC
  5
1B2
330
1F
100
AcDbEntity
  8
0
  6
Continuous
 62
     7
370
    15
100
AcDbCircle
 10
424.9357823707
 20
942.8316653165
 30
0.0
 40
201.2886309144202
100
AcDbArc
 50
168.0264240647
 51
169.973715732
  0
ARC
  5
1B3
330
1F
100
AcDbEntity
  8
0
  6
Continuous
 62
     7
370
    15
100
AcDbCircle
 10
424.9357823707
 20
942.8316653165
 30
0.0
 40
202.3367865000811
100
AcDbArc
 50
151.3790041107
 51
152.8704500285
  0
ARC
  5
1B4
330
1F
100
AcDbEntity
  8
0
  6
Continuous
 62
     7
370
    15
100
AcDbCircle
 10
424.9357823707
 20
942.8316653165
 30
0.0
 40
202.336786500081
100
AcDbArc
 50
185.129912082
 51
186.6212419373
  0
SPLINE
  5
1B5
330
1F
100
AcDbEntity
  8
0
  6
Continuous
 62
     7
370
    15
100
AcDbSpline
210
0.0
220
0.0
230
1.0
 70
     8
 71
     3
 72
    12
 73
     8
 74
     0
 42
0.00000001
 43
0.00000001
 12
1.0
 22
0.0
 32
0.0
 13
1.0
 23
0.0
 33
0.0
 40
0.0
 40
0.0
 40
0.0
 40
0.0
 40
0.2351341428657919
 40
0.5215315529048882
 40
0.7535083518037946
 40
0.9406793736974411
 40
0.9999999999999999
 40
0.9999999999999999
 40
0.9999999999999999
 40
0.9999999999999999
 10
312.1047933078685
 20
1118.580624500221
 30
0.0
 10
312.0617136113072
 20
1118.555603100674
 30
0.0
 10
311.9661621070787
 20
1118.500105208267
 30
0.0
 10
311.8654537760799
 20
1118.443696962908
 30
0.0
 10
311.8004185556117
 20
1118.408383791907
 30
0.0
 10
311.7707759210496
 20
1118.393619770366
 30
0.0
 10
311.7735326998394
 20
1118.394888998225
 30
0.0
 10
311.7741961456218
 20
1118.395194450324
 30
0.0
  0
SPLINE
  5
1B6
330
1F
100
AcDbEntity
  8
0
  6
Continuous
 62
     7
370
    15
100
AcDbSpline
210
0.0
220
0.0
230
1.0
 70
     8
 71
     3
 72
    12
 73
     8
 74
     0
 42
0.00000001
 43
0.00000001
 12
1.0
 22
0.0
 32
0.0
 13
1.0
 23
0.0
 33
0.0
 40
0.0
 40
0.0
 40
0.0
 40
0.0
 40
0.0623569963536261
 40
0.2421270402521513
 40
0.4678367540609538
 40
0.7339102030433597
 40
0.9999999999999999
 40
0.9999999999999999
 40
0.9999999999999999
 40
0.9999999999999999
 10
323.0515812016407
 20
1125.171259084648
 30
0.0
 10
323.0520593915026
 20
1125.171622184347
 30
0.0
 10
323.0539161630393
 20
1125.173032070335
 30
0.0
 10
323.0315567821759
 20
1125.157045934323
 30
0.0
 10
322.9813776496132
 20
1125.123612693037
 30
0.0
 10
322.8981355595582
 20
1125.069708382217
 30
0.0
 10
322.8165531605474
 20
1125.018676920671
 30
0.0
 10
322.7757607079425
 20
1124.993160406059
 30
0.0
  0
ARC
  5
1B7
330
1F
100
AcDbEntity
  8
0
  6
Continuous
 62
     7
370
    15
100
AcDbCircle
 10
632.2357823707
 20
963.3316653165
 30
0.0
 40
1.000000000000062
100
AcDbArc
 50
0.0
 51
43.654987755
  0
ARC
  5
1B8
330
1F
100
AcDbEntity
  8
0
  6
Continuous
 62
     7
370
    15
100
AcDbCircle
 10
632.2357823707
 20
922.3316653165
 30
0.0
 40
1.00000000000007
100
AcDbArc
 50
316.345012245
 51
0.0
  0
LINE
  5
1B9
330
1F
100
AcDbEntity
  8
0
  6
Continuous
 62
     7
370
    15
100
AcDbLine
 10
364.7791874088
 20
734.1195494327
 30
0.0
 11
367.557132659
 21
741.7518943939
 31
0.0
  0
LINE
  5
1BA
330
1F
100
AcDbEntity
  8
0
  6
Continuous
 62
     7
370
    15
100
AcDbLine
 10
364.7791874088
 20
734.1195494327
 30
0.0
 11
350.5514208651
 21
739.2980307731
 31
0.0
  0
LINE
  5
1BB
330
1F
100
AcDbEntity
  8
0
  6
Continuous
 62
     7
370
    15
100
AcDbLine
 10
350.5514208651
 20
739.2980307731
 30
0.0
 11
353.1487305141
 21
746.4340925607
 31
0.0
  0
LINE
  5
1BC
330
1F
100
AcDbEntity
  8
0
  6
Continuous
 62
     7
370
    15
100
AcDbLine
 10
336.5922514773
 20
744.3787604961
 30
0.0
 11
339.3772188998
 21
752.0304173622
 31
0.0
  0
LINE
  5
1BD
330
1F
100
AcDbEntity
  8
0
  6
Continuous
 62
     7
370
    15
100
AcDbLine
 10
350.5514208651
 20
739.2980307731
 30
0.0
 11
336.5922514773
 21
744.3787604961
 31
0.0
  0
LINE
  5
1BE
330
1F
100
AcDbEntity
  8
0
  6
Continuous
 62
     7
370
    15
100
AcDbLine
 10
365.0477845646
 20
734.0217829141
 30
0.0
 11
367.8327594376
 21
741.6734397802
 31
0.0
  0
LINE
  5
1BF
330
1F
100
AcDbEntity
  8
0
  6
Continuous
 62
     7
370
    15
100
AcDbLine
 10
365.0477845646
 20
734.0217829141
 30
0.0
 11
364.9910260416
 21
734.0424508247
 31
0.0
  0
LINE
  5
1C0
330
1F
100
AcDbEntity
  8
0
  6
Continuous
 62
     7
370
    15
100
AcDbLine
 10
366.7011242784
 20
738.7409061584
 30
0.0
 11
364.9910260416
 21
734.0424508247
 31
0.0
  0
LINE
  5
1C1
330
1F
100
AcDbEntity
  8
0
  6
Continuous
 62
     7
370
    15
100
AcDbLine
 10
366.5460516191
 20
738.797351757
 30
0.0
 11
364.8359496571
 21
734.0988964233
 31
0.0
  0
LINE
  5
1C2
330
1F
100
AcDbEntity
  8
0
  6
Continuous
 62
     7
370
    15
100
AcDbLine
 10
366.7011242784
 20
738.7409061584
 30
0.0
 11
366.5460516191
 21
738.797351757
 31
0.0
  0
LINE
  5
1C3
330
1F
100
AcDbEntity
  8
0
  6
Continuous
 62
     7
370
    15
100
AcDbLine
 10
364.8359496571
 20
734.0988964233
 30
0.0
 11
364.7791874088
 21
734.1195494327
 31
0.0
  0
LINE
  5
1C4
330
1F
100
AcDbEntity
  8
0
  6
Continuous
 62
     7
370
    15
100
AcDbLine
 10
364.8359496571
 20
734.0988964233
 30
0.0
 11
364.9910260416
 21
734.0424508247
 31
0.0
  0
LWPOLYLINE
  5
1C5
330
1F
100
AcDbEntity
  8
0
  6
Continuous
 62
     7
370
    15
100
AcDbPolyline
 90
       27
 70
   128
 43
0.0
 10
600.7318143226
 20
1065.7918900642
 10
600.9946857072
 20
1065.4021650943
 10
601.2703124858
 20
1064.9935380015
 10
601.5566979028
 20
1064.568951765
 10
601.8517855979
 20
1064.1314685735
 10
602.1534447051
 20
1063.684232572
 10
602.459514556
 20
1063.2304773125
 10
602.7677748776
 20
1062.7734586987
 10
603.0760053969
 20
1062.3164773378
 10
603.382000742
 20
1061.862833837
 10
603.68354064
 20
1061.4157766494
 10
603.9784495212
 20
1060.9785467777
 10
604.2646263219
 20
1060.5542809162
 10
604.5399848796
 20
1060.1460412535
 10
604.802558241
 20
1059.7567707691
 10
605.0504390574
 20
1059.3892708811
 10
605.2818391896
 20
1059.0461939964
 10
605.4951195098
 20
1058.730006257
 10
605.688715396
 20
1058.4429875407
 10
605.8612410403
 20
1058.1872091088
 10
606.0114447452
 20
1057.9645038042
 10
606.1382685281
 20
1057.7764958534
 10
606.2407736159
 20
1057.6245189104
 10
606.3182298518
 20
1057.509675661
 10
606.3700858928
 20
1057.4328005704
 10
606.3959692098
 20
1057.3944375309
 10
606.3990984536
 20
1057.3897958192
  0
LWPOLYLINE
  5
1C6
330
1F
100
AcDbEntity
  8
0
  6
Continuous
 62
     7
370
    15
100
AcDbPolyline
 90
       13
 70
   128
 43
0.0
 10
599.1295818664
 20
1068.1672841701
 10
599.1330091334
 20
1068.1622177753
 10
599.1594586945
 20
1068.122997919
 10
599.2118958808
 20
1068.0452585611
 10
599.2899183608
 20
1067.9295957479
 10
599.3929747916
 20
1067.776799241
 10
599.5203201152
 20
1067.5880015287
 10
599.6710453607
 20
1067.364551166
 10
599.8440478421
 20
1067.1080500278
 10
600.0381056643
 20
1066.8203607592
 10
600.2517883159
 20
1066.5035546216
 10
600.4835907794
 20
1066.1599040422
 10
600.7318143226
 20
1065.7918900642
  0
LWPOLYLINE
  5
1C7
330
1F
100
AcDbEntity
  8
0
  6
Continuous
 62
     7
370
    15
100
AcDbPolyline
 90
       28
 70
   128
 43
0.0
 10
596.8448017217
 20
1063.5073185358
 10
597.1202496863
 20
1063.0989373121
 10
597.4087808705
 20
1062.6711771283
 10
597.7084134198
 20
1062.2269586119
 10
598.0170909739
 20
1061.7693215999
 10
598.3327124692
 20
1061.3013878855
 10
598.6531321383
 20
1060.8263537678
 10
598.9761446095
 20
1060.3474677
 10
599.2995445109
 20
1059.8679930362
 10
599.6211413718
 20
1059.3912229332
 10
599.9387149192
 20
1058.920390943
 10
600.2501044846
 20
1058.4587306175
 10
600.5531941033
 20
1058.0093861017
 10
600.8458976127
 20
1057.5754344854
 10
601.1262331582
 20
1057.1598336491
 10
601.392263589
 20
1056.7654297146
 10
601.6421709634
 20
1056.394904891
 10
601.8742863513
 20
1056.0507998261
 10
602.086970625
 20
1055.7354689035
 10
602.2788230754
 20
1055.4510504398
 10
602.4484876967
 20
1055.1995039377
 10
602.5948320008
 20
1054.9825355801
 10
602.7168576098
 20
1054.8016354832
 10
602.8137151576
 20
1054.6580329928
 10
602.884748993
 20
1054.552719036
 10
602.9294822789
 20
1054.4864014182
 10
602.9476020909
 20
1054.4595420751
 10
602.9480193234
 20
1054.4589087758
  0
LWPOLYLINE
  5
1C8
330
1F
100
AcDbEntity
  8
0
  6
Continuous
 62
     7
370
    15
100
AcDbPolyline
 90
       13
 70
   128
 43
0.0
 10
595.1193217612
 20
1066.0654381308
 10
595.1283667661
 20
1066.0520345363
 10
595.1636527158
 20
1065.9997091088
 10
595.2253882266
 20
1065.9081861767
 10
595.3131262637
 20
1065.7780990395
 10
595.4262856818
 20
1065.6103343162
 10
595.5640916205
 20
1065.4060319457
 10
595.7256053067
 20
1065.1666000876
 10
595.9096942521
 20
1064.893655518
 10
596.1151365615
 20
1064.5890757832
 10
596.3405166245
 20
1064.2549470457
 10
596.5842847205
 20
1063.8935342822
 10
596.8448017217
 20
1063.5073185358
  0
LWPOLYLINE
  5
1C9
330
1F
100
AcDbEntity
  8
0
  6
Continuous
 62
     7
370
    15
100
AcDbPolyline
 90
       39
 70
   128
 43
0.0
 10
250.741982875
 20
817.496046463
 10
250.7385556079
 20
817.5011128578
 10
250.7121060468
 20
817.540332714
 10
250.6596688605
 20
817.618072072
 10
250.5816463805
 20
817.7337348852
 10
250.4785899497
 20
817.886531392
 10
250.3512446261
 20
818.0753291044
 10
250.2005193807
 20
818.2987794671
 10
250.0275168992
 20
818.5552806053
 10
249.833459077
 20
818.8429698739
 10
249.6197764254
 20
819.1597760114
 10
249.3879739619
 20
819.5034265909
 10
249.1397504188
 20
819.8714405689
 10
248.8768790341
 20
820.2611655387
 10
248.6012522555
 20
820.6697926316
 10
248.3148668385
 20
821.094378868
 10
248.0197791434
 20
821.5318620595
 10
247.7181200362
 20
821.979098061
 10
247.4120501853
 20
822.4328533205
 10
247.1037898637
 20
822.8898719344
 10
246.7955593444
 20
823.3468532953
 10
246.4895639993
 20
823.8004967961
 10
246.1880241013
 20
824.2475539836
 10
245.8931152202
 20
824.6847838554
 10
245.6069384194
 20
825.1090497169
 10
245.3315798617
 20
825.5172893795
 10
245.0690065003
 20
825.906559864
 10
244.8211256839
 20
826.2740597519
 10
244.5897255517
 20
826.6171366367
 10
244.3764452315
 20
826.9333243761
 10
244.1828493453
 20
827.2203430924
 10
244.010323701
 20
827.4761215243
 10
243.8601199962
 20
827.6988268289
 10
243.7332962132
 20
827.8868347797
 10
243.6307911254
 20
828.0388117227
 10
243.5533348895
 20
828.153654972
 10
243.5014788485
 20
828.2305300626
 10
243.4755955316
 20
828.2688931021
 10
243.4724662877
 20
828.2735348138
  0
LWPOLYLINE
  5
1CA
330
1F
100
AcDbEntity
  8
0
  6
Continuous
 62
     7
370
    15
100
AcDbPolyline
 90
       40
 70
   128
 43
0.0
 10
254.7522429801
 20
819.5978925023
 10
254.7431979752
 20
819.6112960967
 10
254.7079120255
 20
819.6636215243
 10
254.6461765147
 20
819.7551444563
 10
254.5584384776
 20
819.8852315936
 10
254.4452790595
 20
820.0529963169
 10
254.3074731208
 20
820.2572986874
 10
254.1459594346
 20
820.4967305455
 10
253.9618704892
 20
820.7696751151
 10
253.7564281798
 20
821.0742548499
 10
253.5310481168
 20
821.4083835873
 10
253.2872800208
 20
821.7697963509
 10
253.0267630196
 20
822.1560120973
 10
252.751315055
 20
822.564393321
 10
252.4627838708
 20
822.9921535048
 10
252.1631513215
 20
823.4363720211
 10
251.8544737674
 20
823.8940090331
 10
251.5388522721
 20
824.3619427475
 10
251.218432603
 20
824.8369768652
 10
250.8954201318
 20
825.3158629331
 10
250.5720202304
 20
825.7953375968
 10
250.2504233695
 20
826.2721076998
 10
249.9328498221
 20
826.7429396901
 10
249.6214602567
 20
827.2046000156
 10
249.318370638
 20
827.6539445314
 10
249.0256671287
 20
828.0878961477
 10
248.7453315831
 20
828.503496984
 10
248.4793011523
 20
828.8979009184
 10
248.2293937779
 20
829.2684257421
 10
247.99727839
 20
829.612530807
 10
247.7845941163
 20
829.9278617296
 10
247.5927416659
 20
830.2122801933
 10
247.4230770446
 20
830.4638266954
 10
247.2767327405
 20
830.680795053
 10
247.1547071315
 20
830.8616951498
 10
247.0578495837
 20
831.0052976403
 10
246.9868157483
 20
831.110611597
 10
246.9420824624
 20
831.1769292149
 10
246.9239626504
 20
831.203788558
 10
246.9235454179
 20
831.2044218573
  0
CIRCLE
  5
1CB
330
1F
100
AcDbEntity
  8
0
  6
Continuous
 62
     7
370
    15
100
AcDbCircle
 10
136.9357823707
 20
956.3316653165
 30
0.0
 40
30.00000000000004
  0
LINE
  5
1CC
330
1F
100
AcDbEntity
  8
0
  6
Continuous
 62
     7
370
    15
100
AcDbLine
 10
168.4357766486
 20
940.5213206
 30
0.0
 11
168.4357766486
 21
965.1420098189
 31
0.0
  0
LINE
  5
1CD
330
1F
100
AcDbEntity
  8
0
  6
Continuous
 62
     7
370
    15
100
AcDbLine
 10
193.4357826091
 20
965.1420098189
 30
0.0
 11
193.4357826091
 21
940.5213206
 31
0.0
  0
LINE
  5
1CE
330
1F
100
AcDbEntity
  8
0
  6
Continuous
 62
     7
370
    15
100
AcDbLine
 10
168.4357766486
 20
965.1420098189
 30
0.0
 11
168.4357766486
 21
979.8316657934
 31
0.0
  0
LINE
  5
1CF
330
1F
100
AcDbEntity
  8
0
  6
Continuous
 62
     7
370
    15
100
AcDbLine
 10
193.4357826091
 20
979.8316657934
 30
0.0
 11
193.4357826091
 21
965.1420098189
 31
0.0
  0
LINE
  5
1D0
330
1F
100
AcDbEntity
  8
0
  6
Continuous
 62
     7
370
    15
100
AcDbLine
 10
193.4357826091
 20
940.5213206
 30
0.0
 11
193.4357826091
 21
925.8316643927
 31
0.0
  0
LINE
  5
1D1
330
1F
100
AcDbEntity
  8
0
  6
Continuous
 62
     7
370
    15
100
AcDbLine
 10
168.4357766486
 20
925.8316643927
 30
0.0
 11
168.4357766486
 21
940.5213206
 31
0.0
  0
LINE
  5
1D2
330
1F
100
AcDbEntity
  8
0
  6
Continuous
 62
     7
370
    15
100
AcDbLine
 10
197.0752422191
 20
975.9058058652
 30
0.0
 11
197.075048504
 21
975.9059362504
 31
0.0
  0
SPLINE
  5
1D3
330
1F
100
AcDbEntity
  8
0
  6
Continuous
 62
     7
370
    15
100
AcDbSpline
210
0.0
220
0.0
230
1.0
 70
     8
 71
     3
 72
    31
 73
    27
 74
     0
 42
0.00000001
 43
0.00000001
 12
1.0
 22
0.0
 32
0.0
 13
1.0
 23
0.0
 33
0.0
 40
0.0
 40
0.0
 40
0.0
 40
0.0
 40
0.0004581778628411
 40
0.0587470427336896
 40
0.111886540339452
 40
0.1651783767696628
 40
0.2183916579615708
 40
0.2714232601346802
 40
0.3074299625199123
 40
0.3435481534077068
 40
0.3796380202309559
 40
0.4156059840049867
 40
0.4516062412207233
 40
0.487745461845053
 40
0.5239017144669543
 40
0.5599251872548072
 40
0.6043835620732975
 40
0.6483537985335084
 40
0.692483335864288
 40
0.736712292230942
 40
0.7809253154041544
 40
0.8249658508957911
 40
0.8830921597419404
 40
0.9413071220601658
 40
0.9994279355590925
 40
1.0
 40
1.0
 40
1.0
 40
1.0
 10
165.4357854700962
 20
941.4092264295799
 30
0.0
 10
165.4371167446409
 20
941.4134379816765
 30
0.0
 10
165.6078112476116
 20
941.9534383855683
 30
0.0
 10
165.9231244596164
 20
943.0042350638382
 30
0.0
 10
166.3476746487163
 20
944.6168813438875
 30
0.0
 10
166.7156122955949
 20
946.2433687463055
 30
0.0
 10
167.0342790127376
 20
947.9320615078506
 30
0.0
 10
167.267722330483
 20
949.4915153256313
 30
0.0
 10
167.4301183281616
 20
950.8976066143111
 30
0.0
 10
167.54095497009
 20
952.1325793710187
 30
0.0
 10
167.6218188061877
 20
953.3797325365464
 30
0.0
 10
167.6719210922307
 20
954.6305425443222
 30
0.0
 10
167.6901863514389
 20
955.8766108379708
 30
0.0
 10
167.678598333452
 20
957.1091876217424
 30
0.0
 10
167.638528981004
 20
958.3181580346859
 30
0.0
 10
167.5657946929698
 20
959.5854199467722
 30
0.0
 10
167.454892842961
 20
960.8882060393685
 30
0.0
 10
167.3017007844913
 20
962.2142214002946
 30
0.0
 10
167.1184205449918
 20
963.4733372199138
 30
0.0
 10
166.9101581758744
 20
964.6681519374207
 30
0.0
 10
166.6822394755642
 20
965.7949503770716
 30
0.0
 10
166.4132577480287
 20
966.9652744557085
 30
0.0
 10
166.1036840639384
 20
968.1523635869986
 30
0.0
 10
165.7641213826602
 20
969.3194182144671
 30
0.0
 10
165.5428010018445
 20
970.0136105081442
 30
0.0
 10
165.4368184548234
 20
970.3378995870972
 30
0.0
 10
165.4357854700962
 20
970.341060349649
 30
0.0
  0
SPLINE
  5
1D4
330
1F
100
AcDbEntity
  8
0
  6
Continuous
 62
     7
370
    15
100
AcDbSpline
210
0.0
220
0.0
230
1.0
 70
     8
 71
     3
 72
    15
 73
    11
 74
     0
 42
0.00000001
 43
0.00000001
 12
1.0
 22
0.0
 32
0.0
 13
1.0
 23
0.0
 33
0.0
 40
0.0
 40
0.0
 40
0.0
 40
0.0
 40
0.1150948807622918
 40
0.2354306713713835
 40
0.3825726583335847
 40
0.5302689970329257
 40
0.6782217767711312
 40
0.8260433145384964
 40
0.9732941202276939
 40
1.0
 40
1.0
 40
1.0
 40
1.0
 10
161.1390058375278
 20
974.0574788692651
 30
0.0
 10
161.1436459225228
 20
974.0511821622583
 30
0.0
 10
161.1531373813815
 20
974.038302024165
 30
0.0
 10
161.2333867268763
 20
973.9279661492332
 30
0.0
 10
161.377789377696
 20
973.7286364032719
 30
0.0
 10
161.5986879236474
 20
973.4157841223971
 30
0.0
 10
161.8754396332864
 20
973.0109865244095
 30
0.0
 10
162.203405365025
 20
972.5065205679626
 30
0.0
 10
162.4645995134439
 20
972.0967537284531
 30
0.0
 10
162.6223657936707
 20
971.8279825456045
 30
0.0
 10
162.6465861178318
 20
971.786720717257
 30
0.0
  0
SPLINE
  5
1D5
330
1F
100
AcDbEntity
  8
0
  6
Continuous
 62
     7
370
    15
100
AcDbSpline
210
0.0
220
0.0
230
1.0
 70
     8
 71
     3
 72
    14
 73
    10
 74
     0
 42
0.00000001
 43
0.00000001
 12
1.0
 22
0.0
 32
0.0
 13
1.0
 23
0.0
 33
0.0
 40
0.0
 40
0.0
 40
0.0
 40
0.0
 40
0.0153386167412653
 40
0.2158762979679476
 40
0.4170382843164552
 40
0.6180246915288873
 40
0.8183168997989789
 40
0.9779043693365754
 40
1.0
 40
1.0
 40
1.0
 40
1.0
 10
156.0538951731602
 20
933.2133196684775
 30
0.0
 10
156.041748458929
 20
933.2029858274004
 30
0.0
 10
155.8707951229844
 20
933.0575469398442
 30
0.0
 10
155.6058664053521
 20
932.84915202573
 30
0.0
 10
155.2649927289199
 20
932.5800362540042
 30
0.0
 10
155.0114201278293
 20
932.3879377953297
 30
0.0
 10
154.8685738099745
 20
932.2813598722364
 30
0.0
 10
154.8122032255458
 20
932.2394195964857
 30
0.0
 10
154.8181887930262
 20
932.2438886838419
 30
0.0
 10
154.8189167357365
 20
932.244432197815
 30
0.0
  0
LINE
  5
1D6
330
1F
100
AcDbEntity
  8
0
  6
Continuous
 62
     7
370
    15
100
AcDbLine
 10
199.9357883311
 20
1003.4484267625
 30
0.0
 11
199.9357883311
 21
1004.2149052414
 31
0.0
  0
CIRCLE
  5
1D7
330
1F
100
AcDbEntity
  8
0
  6
Continuous
 62
     7
370
    15
100
AcDbCircle
 10
424.9357823707
 20
942.8316653165
 30
0.0
 40
196.5733031249457
  0
SPLINE
  5
1D8
330
1F
100
AcDbEntity
  8
0
  6
Continuous
 62
     7
370
    15
100
AcDbSpline
210
0.0
220
0.0
230
1.0
 70
     8
 71
     3
 72
    24
 73
    20
 74
     0
 42
0.00000001
 43
0.00000001
 12
1.0
 22
0.0
 32
0.0
 13
1.0
 23
0.0
 33
0.0
 40
0.0
 40
0.0
 40
0.0
 40
0.0
 40
0.0211078041894732
 40
0.0814206457736707
 40
0.1416642935693789
 40
0.2017032830552542
 40
0.2617502738024076
 40
0.3219986369539123
 40
0.3823169224700571
 40
0.4425680991988454
 40
0.502617262442161
 40
0.5721173830521922
 40
0.6417204104330063
 40
0.7112219668257788
 40
0.7725212939043852
 40
0.834028334621358
 40
0.89560586838473
 40
0.9571137161435946
 40
1.0
 40
1.0
 40
1.0
 40
1.0
 10
226.1865977621952
 20
973.3668622019944
 30
0.0
 10
226.1638660191643
 20
973.1725049958212
 30
0.0
 10
226.0761812377197
 20
972.4227970159982
 30
0.0
 10
225.9199547958458
 20
971.037710384126
 30
0.0
 10
225.7216182592304
 20
969.2234116565567
 30
0.0
 10
225.5258294861809
 20
967.344800685525
 30
0.0
 10
225.3357492950282
 20
965.4132775095513
 30
0.0
 10
225.1528480786588
 20
963.4342071558422
 30
0.0
 10
224.9787804194879
 20
961.4180102882474
 30
0.0
 10
224.8156596673275
 20
959.377820852282
 30
0.0
 10
224.6574000493982
 20
957.2155643824115
 30
0.0
 10
224.5081749488728
 20
954.9365844951673
 30
0.0
 10
224.3707441326445
 20
952.5528195095409
 30
0.0
 10
224.2571822795871
 20
950.2788288023206
 30
0.0
 10
224.1658067010372
 20
948.1243001867246
 30
0.0
 10
224.0927761928274
 20
946.0915250263138
 30
0.0
 10
224.0334551116584
 20
944.1011837597146
 30
0.0
 10
223.9898690591584
 20
942.3493736241721
 30
0.0
 10
223.9704872241169
 20
941.2929466784548
 30
0.0
 10
223.9625249482075
 20
940.8589546027837
 30
0.0
  0
SPLINE
  5
1D9
330
1F
100
AcDbEntity
  8
0
  6
Continuous
 62
     7
370
    15
100
AcDbSpline
210
0.0
220
0.0
230
1.0
 70
     8
 71
     3
 72
    26
 73
    22
 74
     0
 42
0.00000001
 43
0.00000001
 12
1.0
 22
0.0
 32
0.0
 13
1.0
 23
0.0
 33
0.0
 40
0.0
 40
0.0
 40
0.0
 40
0.0
 40
0.0345765094292636
 40
0.0887314059415455
 40
0.1429489134692593
 40
0.1971045480268922
 40
0.2510774619838353
 40
0.3051055552383306
 40
0.3593191522953343
 40
0.413594348186099
 40
0.4678051223650037
 40
0.5218305390069864
 40
0.5754759736034126
 40
0.6293071940286704
 40
0.6832004363032799
 40
0.7370293564945273
 40
0.7906727319486857
 40
0.8492153501692131
 40
0.9080028635575549
 40
0.9668731560959435
 40
1.0
 40
1.0
 40
1.0
 40
1.0
 10
239.9299983359257
 20
1021.489113608306
 30
0.0
 10
239.7916244406493
 20
1021.132212968517
 30
0.0
 10
239.4365246785231
 20
1020.216322496267
 30
0.0
 10
238.8442669245342
 20
1018.662395323889
 30
0.0
 10
238.161743209105
 20
1016.847546264178
 30
0.0
 10
237.4716027363513
 20
1014.980028485287
 30
0.0
 10
236.779351074275
 20
1013.071070031178
 30
0.0
 10
236.0885143734089
 20
1011.12403676031
 30
0.0
 10
235.4016532372976
 20
1009.145861585603
 30
0.0
 10
234.7224879437558
 20
1007.146831305357
 30
0.0
 10
234.0558938291919
 20
1005.140293439668
 30
0.0
 10
233.40703079808
 20
1003.14058386122
 30
0.0
 10
232.7785233681578
 20
1001.154173234839
 30
0.0
 10
232.1706318854348
 20
999.1874071182098
 30
0.0
 10
231.5836693303214
 20
997.2454722158559
 30
0.0
 10
231.0205173139961
 20
995.3418792914314
 30
0.0
 10
230.4669782488219
 20
993.4307232677498
 30
0.0
 10
229.9264327016333
 20
991.5238189820178
 30
0.0
 10
229.4027065660858
 20
989.641320379015
 30
0.0
 10
228.9767904216276
 20
988.0896141594532
 30
0.0
 10
228.7384453560075
 20
987.2108813323374
 30
0.0
 10
228.6526207304874
 20
986.8944622966704
 30
0.0
  0
LINE
  5
1DA
330
1F
100
AcDbEntity
  8
0
  6
Continuous
 62
     7
370
    15
100
AcDbLine
 10
243.8392019191
 20
1040.4784549144
 30
0.0
 11
243.8390206146
 21
1040.4781186647
 31
0.0
  0
ARC
  5
1DB
330
1F
100
AcDbEntity
  8
0
  6
Continuous
 62
     7
370
    15
100
AcDbCircle
 10
424.9357823707
 20
942.8316653165
 30
0.0
 40
205.7446644994776
100
AcDbArc
 50
186.3334269043
 51
151.6665730957
  0
LINE
  5
1DC
330
1F
100
AcDbEntity
  8
0
  6
Continuous
 62
     7
370
    15
100
AcDbLine
 10
220.4467835045
 20
920.1354913504
 30
0.0
 11
220.4468256495
 21
920.1351116334
 31
0.0
  0
SPLINE
  5
1DD
330
1F
100
AcDbEntity
  8
0
  6
Continuous
 62
     7
370
    15
100
AcDbSpline
210
0.0
220
0.0
230
1.0
 70
     8
 71
     3
 72
    13
 73
     9
 74
     0
 42
0.00000001
 43
0.00000001
 12
1.0
 22
0.0
 32
0.0
 13
1.0
 23
0.0
 33
0.0
 40
0.0
 40
0.0
 40
0.0
 40
0.0
 40
0.005824031285525
 40
0.2755351664902854
 40
0.5519065912664743
 40
0.7731373174206545
 40
0.9999541777099985
 40
1.0
 40
1.0
 40
1.0
 40
1.0
 10
244.8857222176472
 20
1035.144157746738
 30
0.0
 10
244.8849761285328
 20
1035.142874349545
 30
0.0
 10
244.8496786209691
 20
1035.082156774057
 30
0.0
 10
244.7928439767059
 20
1034.952653104231
 30
0.0
 10
244.7527887204932
 20
1034.75649217035
 30
0.0
 10
244.7571099905344
 20
1034.562140647002
 30
0.0
 10
244.7770971216073
 20
1034.435042636427
 30
0.0
 10
244.8016896024245
 20
1034.373564063774
 30
0.0
 10
244.801694569675
 20
1034.373551646179
 30
0.0
  0
SPLINE
  5
1DE
330
1F
100
AcDbEntity
  8
0
  6
Continuous
 62
     7
370
    15
100
AcDbSpline
210
0.0
220
0.0
230
1.0
 70
     8
 71
     3
 72
     9
 73
     5
 74
     0
 42
0.00000001
 43
0.00000001
 12
1.0
 22
0.0
 32
0.0
 13
1.0
 23
0.0
 33
0.0
 40
0.0
 40
0.0
 40
0.0
 40
0.0
 40
0.0890408188848908
 40
1.0
 40
1.0
 40
1.0
 40
1.0
 10
228.0232254839817
 20
984.5690466854034
 30
0.0
 10
228.0233035472684
 20
984.5700326788834
 30
0.0
 10
228.0241802607548
 20
984.5811061785703
 30
0.0
 10
228.031228840021
 20
984.5907574489789
 30
0.0
 10
228.0376498080173
 20
984.5995493623672
 30
0.0
  0
SPLINE
  5
1DF
330
1F
100
AcDbEntity
  8
0
  6
Continuous
 62
     7
370
    15
100
AcDbSpline
210
0.0
220
0.0
230
1.0
 70
     8
 71
     3
 72
     9
 73
     5
 74
     0
 42
0.00000001
 43
0.00000001
 12
1.0
 22
0.0
 32
0.0
 13
1.0
 23
0.0
 33
0.0
 40
0.0
 40
0.0
 40
0.0
 40
0.0
 40
0.0823724784483225
 40
1.0
 40
1.0
 40
1.0
 40
1.0
 10
226.7265413380543
 20
977.8981805238185
 30
0.0
 10
226.7262479989996
 20
977.8972367210857
 30
0.0
 10
226.7226868696006
 20
977.8857789775465
 30
0.0
 10
226.7258391705982
 20
977.8732508186645
 30
0.0
 10
226.7287318087498
 20
977.8617546352801
 30
0.0
  0
SPLINE
  5
1E0
330
1F
100
AcDbEntity
  8
0
  6
Continuous
 62
     7
370
    15
100
AcDbSpline
210
0.0
220
0.0
230
1.0
 70
     8
 71
     3
 72
    12
 73
     8
 74
     0
 42
0.00000001
 43
0.00000001
 12
1.0
 22
0.0
 32
0.0
 13
1.0
 23
0.0
 33
0.0
 40
0.0
 40
0.0
 40
0.0
 40
0.0
 40
0.0058244256605675
 40
0.2790204691726021
 40
0.5520932609079106
 40
0.7763356328182556
 40
1.0
 40
1.0
 40
1.0
 40
1.0
 10
223.415399012653
 20
924.6889520826993
 30
0.0
 10
223.4151942879733
 20
924.6904215401416
 30
0.0
 10
223.4053869044677
 20
924.7608162415086
 30
0.0
 10
223.4006321018762
 20
924.902415235343
 30
0.0
 10
223.4389597721803
 20
925.0990655728067
 30
0.0
 10
223.5113550560437
 20
925.2795207941427
 30
0.0
 10
223.5878159910874
 20
925.3830164225944
 30
0.0
 10
223.6259971238056
 20
925.4346974584518
 30
0.0
  0
SPLINE
  5
1E1
330
1F
100
AcDbEntity
  8
0
  6
Continuous
 62
     7
370
    15
100
AcDbSpline
210
0.0
220
0.0
230
1.0
 70
     8
 71
     3
 72
    14
 73
    10
 74
     0
 42
0.00000001
 43
0.00000001
 12
1.0
 22
0.0
 32
0.0
 13
1.0
 23
0.0
 33
0.0
 40
0.0
 40
0.0
 40
0.0
 40
0.0
 40
0.1800212383924413
 40
0.3600432655562618
 40
0.5400676873417853
 40
0.7201107155139181
 40
0.9001828482463444
 40
0.9822647571979002
 40
1.0
 40
1.0
 40
1.0
 40
1.0
 10
243.8390199519077
 20
1040.478117803043
 30
0.0
 10
243.7954503628491
 20
1040.373890277388
 30
0.0
 10
243.7083109938297
 20
1040.1654347694
 30
0.0
 10
243.7180356383483
 20
1039.820229812507
 30
0.0
 10
243.8335453769625
 20
1039.499600231784
 30
0.0
 10
244.0505300015388
 20
1039.234692418187
 30
0.0
 10
244.2900680113136
 20
1039.089295102118
 30
0.0
 10
244.4566028629521
 20
1039.037055331186
 30
0.0
 10
244.5173463187771
 20
1039.024573966132
 30
0.0
 10
244.5281390524784
 20
1039.02235631079
 30
0.0
  0
SPLINE
  5
1E2
330
1F
100
AcDbEntity
  8
0
  6
Continuous
 62
     7
370
    15
100
AcDbSpline
210
0.0
220
0.0
230
1.0
 70
     8
 71
     3
 72
     9
 73
     5
 74
     0
 42
0.00000001
 43
0.00000001
 12
1.0
 22
0.0
 32
0.0
 13
1.0
 23
0.0
 33
0.0
 40
0.0
 40
0.0
 40
0.0
 40
0.0
 40
0.0831714915682107
 40
1.0
 40
1.0
 40
1.0
 40
1.0
 10
247.35025506982
 20
1039.800733366912
 30
0.0
 10
247.3494591862418
 20
1039.799450103346
 30
0.0
 10
247.3398899989735
 20
1039.784020975626
 30
0.0
 10
247.3329758334196
 20
1039.767202609719
 30
0.0
 10
247.3266367293278
 20
1039.75178305239
 30
0.0
  0
LWPOLYLINE
  5
1E3
330
1F
100
AcDbEntity
  8
0
  6
Continuous
 62
     7
370
    15
100
AcDbPolyline
 90
        3
 70
   128
 43
0.0
 10
246.7122469521
 20
1038.5978147778
 10
246.2958787061
 20
1038.6787429842
 10
244.5281390525
 20
1039.0223563108
  0
SPLINE
  5
1E4
330
1F
100
AcDbEntity
  8
0
  6
Continuous
 62
     7
370
    15
100
AcDbSpline
210
0.0
220
0.0
230
1.0
 70
     8
 71
     3
 72
     9
 73
     5
 74
     0
 42
0.00000001
 43
0.00000001
 12
1.0
 22
0.0
 32
0.0
 13
1.0
 23
0.0
 33
0.0
 40
0.0
 40
0.0
 40
0.0
 40
0.0
 40
0.0845108996305973
 40
1.0
 40
1.0
 40
1.0
 40
1.0
 10
223.9560876465717
 20
919.4482174161134
 30
0.0
 10
223.9558376771896
 20
919.4497069163598
 30
0.0
 10
223.9528798411797
 20
919.4673318647737
 30
0.0
 10
223.9526874760577
 20
919.4852155075436
 30
0.0
 10
223.9525113678852
 20
919.5015877875743
 30
0.0
  0
SPLINE
  5
1E5
330
1F
100
AcDbEntity
  8
0
  6
Continuous
 62
     7
370
    15
100
AcDbSpline
210
0.0
220
0.0
230
1.0
 70
     8
 71
     3
 72
    14
 73
    10
 74
     0
 42
0.00000001
 43
0.00000001
 12
1.0
 22
0.0
 32
0.0
 13
1.0
 23
0.0
 33
0.0
 40
0.0
 40
0.0
 40
0.0
 40
0.0
 40
0.1800222646487765
 40
0.3600460993477266
 40
0.5400678558790424
 40
0.7201097719780517
 40
0.9001836127857926
 40
0.9822652134507348
 40
1.0
 40
1.0
 40
1.0
 40
1.0
 10
220.4467896796146
 20
920.1354906353412
 30
0.0
 10
220.4454266256051
 20
920.2484527003733
 30
0.0
 10
220.4427005056981
 20
920.4743778156271
 30
0.0
 10
220.5810749988539
 20
920.7907882868847
 30
0.0
 10
220.8082582420739
 20
921.0448149965493
 30
0.0
 10
221.1086850261472
 20
921.2091539226932
 30
0.0
 10
221.3852468399585
 20
921.2542087797195
 30
0.0
 10
221.5592290181706
 20
921.2402813763114
 30
0.0
 10
221.6202225030881
 20
921.2290865763263
 30
0.0
 10
221.6310594654957
 20
921.2270975503383
 30
0.0
  0
LWPOLYLINE
  5
1E6
330
1F
100
AcDbEntity
  8
0
  6
Continuous
 62
     7
370
    15
100
AcDbPolyline
 90
        3
 70
   128
 43
0.0
 10
221.6310594655
 20
921.2270975503
 10
223.3987991191
 20
920.8834842238
 10
223.8228414632
 20
920.8010584506
  0
ARC
  5
1E7
330
1F
100
AcDbEntity
  8
0
  6
Continuous
 62
     7
370
    15
100
AcDbCircle
 10
220.4608771794
 20
920.4358801372
 30
0.0
 40
0.999962553140479
100
AcDbArc
 50
79.0068638554
 51
186.2507640121
  0
LINE
  5
1E8
330
1F
100
AcDbEntity
  8
0
  6
Continuous
 62
     7
370
    15
100
AcDbLine
 10
220.6515614367
 20
921.4174934122
 30
0.0
 11
221.6310594655
 21
921.2270975503
 31
0.0
  0
ARC
  5
1E9
330
1F
100
AcDbEntity
  8
0
  6
Continuous
 62
     7
370
    15
100
AcDbCircle
 10
243.7395571975
 20
1040.1943262937
 30
0.0
 40
0.9999647129935717
100
AcDbArc
 50
151.7494170077
 51
258.9933508845
  0
LINE
  5
1EA
330
1F
100
AcDbEntity
  8
0
  6
Continuous
 62
     7
370
    15
100
AcDbLine
 10
244.5281390525
 20
1039.0223563108
 30
0.0
 11
243.5486410237
 21
1039.2127558979
 31
0.0
  0
SPLINE
  5
1EB
330
1F
100
AcDbEntity
  8
0
  6
Continuous
 62
     7
370
    15
100
AcDbSpline
210
0.0
220
0.0
230
1.0
 70
     8
 71
     3
 72
    12
 73
     8
 74
     0
 42
0.00000001
 43
0.00000001
 12
1.0
 22
0.0
 32
0.0
 13
1.0
 23
0.0
 33
0.0
 40
0.0
 40
0.0
 40
0.0
 40
0.0
 40
0.1356390393155644
 40
0.3486094758859954
 40
0.5681277859214461
 40
0.7810187427953588
 40
0.9999999999999999
 40
0.9999999999999999
 40
0.9999999999999999
 40
0.9999999999999999
 10
243.5486410237232
 20
1039.212755897945
 30
0.0
 10
243.5451273952967
 20
1039.213437514569
 30
0.0
 10
243.5360969261162
 20
1039.21518935545
 30
0.0
 10
243.4725164966116
 20
1039.227552316623
 30
0.0
 10
243.3483381015189
 20
1039.251691774396
 30
0.0
 10
243.1746348976157
 20
1039.285456014295
 30
0.0
 10
243.0235432914334
 20
1039.314824029416
 30
0.0
 10
242.9469321347156
 20
1039.329715112155
 30
0.0
  0
SPLINE
  5
1EC
330
1F
100
AcDbEntity
  8
0
  6
Continuous
 62
     7
370
    15
100
AcDbSpline
210
0.0
220
0.0
230
1.0
 70
     8
 71
     3
 72
    12
 73
     8
 74
     0
 42
0.00000001
 43
0.00000001
 12
1.0
 22
0.0
 32
0.0
 13
1.0
 23
0.0
 33
0.0
 40
0.0
 40
0.0
 40
0.0
 40
0.0
 40
0.1574029491854635
 40
0.3650845335849118
 40
0.5785043076132019
 40
0.7861984803694396
 40
1.0
 40
1.0
 40
1.0
 40
1.0
 10
220.0498525477329
 20
921.534454489058
 30
0.0
 10
220.1055854354774
 20
921.5236213321479
 30
0.0
 10
220.2348537588019
 20
921.4984946235423
 30
0.0
 10
220.4017702967362
 20
921.466047299777
 30
0.0
 10
220.5386754646568
 20
921.4394358690555
 30
0.0
 10
220.6295027526384
 20
921.421780824804
 30
0.0
 10
220.6441378559458
 20
921.4189362885635
 30
0.0
 10
220.6515614367405
 20
921.4174934122024
 30
0.0
  0
LINE
  5
1ED
330
1F
100
AcDbEntity
  8
0
  6
Continuous
 62
     7
370
    15
100
AcDbLine
 10
242.9469321347
 20
1039.3297151122
 30
0.0
 11
241.4793912745
 21
1039.6149754915
 31
0.0
  0
LINE
  5
1EE
330
1F
100
AcDbEntity
  8
0
  6
Continuous
 62
     7
370
    15
100
AcDbLine
 10
218.5823116876
 20
921.8197148684
 30
0.0
 11
220.0498525477
 21
921.5344544891
 31
0.0
  0
SPLINE
  5
1EF
330
1F
100
AcDbEntity
  8
0
  6
Continuous
 62
     7
370
    15
100
AcDbSpline
210
0.0
220
0.0
230
1.0
 70
     8
 71
     3
 72
    12
 73
     8
 74
     0
 42
0.00000001
 43
0.00000001
 12
1.0
 22
0.0
 32
0.0
 13
1.0
 23
0.0
 33
0.0
 40
0.0
 40
0.0
 40
0.0
 40
0.0
 40
0.2089838580345245
 40
0.4225109268645404
 40
0.6314997519269507
 40
0.8453925783676491
 40
1.0
 40
1.0
 40
1.0
 40
1.0
 10
596.6387037611881
 20
1061.485469380325
 30
0.0
 10
596.8098697594637
 20
1061.21530999595
 30
0.0
 10
597.1559228243235
 20
1060.669118089231
 30
0.0
 10
597.6685699180935
 20
1059.799893774706
 30
0.0
 10
598.2475635611479
 20
1058.959088451306
 30
0.0
 10
598.8110840612147
 20
1058.234889936115
 30
0.0
 10
599.1348759971679
 20
1057.775914190269
 30
0.0
 10
599.2707256651798
 20
1057.583347001975
 30
0.0
  0
SPLINE
  5
1F0
330
1F
100
AcDbEntity
  8
0
  6
Continuous
 62
     7
370
    15
100
AcDbSpline
210
0.0
220
0.0
230
1.0
 70
     8
 71
     3
 72
    12
 73
     8
 74
     0
 42
0.00000001
 43
0.00000001
 12
1.0
 22
0.0
 32
0.0
 13
1.0
 23
0.0
 33
0.0
 40
0.0
 40
0.0
 40
0.0
 40
0.0
 40
0.2089846094103791
 40
0.422510410387571
 40
0.6315013950216976
 40
0.8453932187641059
 40
1.0
 40
1.0
 40
1.0
 40
1.0
 10
250.6008390761295
 20
828.0799836310802
 30
0.0
 10
250.7872122472875
 20
827.8200802936186
 30
0.0
 10
251.1640084393773
 20
827.2946259738878
 30
0.0
 10
251.7779007240403
 20
826.4936893260668
 30
0.0
 10
252.3405729167303
 20
825.6418749491429
 30
0.0
 10
252.800931482063
 20
824.8480924766158
 30
0.0
 10
253.1052017527925
 20
824.3759519146499
 30
0.0
 10
253.2328609801212
 20
824.1778612527308
 30
0.0
  0
SPLINE
  5
1F1
330
1F
100
AcDbEntity
  8
0
  6
Continuous
 62
     7
370
    15
100
AcDbSpline
210
0.0
220
0.0
230
1.0
 70
     8
 71
     3
 72
    21
 73
    17
 74
     0
 42
0.00000001
 43
0.00000001
 12
1.0
 22
0.0
 32
0.0
 13
1.0
 23
0.0
 33
0.0
 40
0.0
 40
0.0
 40
0.0
 40
0.0
 40
0.0676712750626484
 40
0.1353404768724872
 40
0.2049767432403883
 40
0.274612980539169
 40
0.3422882961522046
 40
0.4099651205947191
 40
0.4796068924784193
 40
0.549247835658749
 40
0.6169293525659116
 40
0.6846114740199766
 40
0.7542581582382821
 40
0.8239044545744645
 40
0.9114362302153796
 40
1.0
 40
1.0
 40
1.0
 40
1.0
 10
594.049463090984
 20
1065.343812147087
 30
0.0
 10
594.0494076846109
 20
1065.338129580283
 30
0.0
 10
594.0492968735623
 20
1065.326764620773
 30
0.0
 10
594.0852510390844
 20
1065.259727697009
 30
0.0
 10
594.1486850193695
 20
1065.154797930091
 30
0.0
 10
594.2413773114397
 20
1065.009525163199
 30
0.0
 10
594.3606895191753
 20
1064.827743232913
 30
0.0
 10
594.5060046583243
 20
1064.609955672844
 30
0.0
 10
594.6784624485074
 20
1064.354314272959
 30
0.0
 10
594.8753263057844
 20
1064.06449314594
 30
0.0
 10
595.0928306959069
 20
1063.745696647276
 30
0.0
 10
595.3306370976486
 20
1063.397972516082
 30
0.0
 10
595.5898430610742
 20
1063.019452604802
 30
0.0
 10
595.892913789695
 20
1062.57688928941
 30
0.0
 10
596.2405847990407
 20
1062.068839569808
 30
0.0
 10
596.5054799746665
 20
1061.680684361213
 30
0.0
 10
596.6387037611881
 20
1061.485469380325
 30
0.0
  0
LINE
  5
1F2
330
1F
100
AcDbEntity
  8
0
  6
Continuous
 62
     7
370
    15
100
AcDbLine
 10
594.7048012591
 20
1065.7858401927
 30
0.0
 11
594.049463091
 21
1065.3438121471
 31
0.0
  0
LWPOLYLINE
  5
1F3
330
1F
100
AcDbEntity
  8
0
  6
Continuous
 62
     7
370
    15
100
AcDbPolyline
 90
       39
 70
   128
 43
0.0
 10
602.5334988213
 20
1054.1793182883
 10
602.5201324798
 20
1054.1991368327
 10
602.4801228619
 20
1054.258465806
 10
602.4137232877
 20
1054.3568954262
 10
602.3214105941
 20
1054.4937551412
 10
602.2038106299
 20
1054.6681061778
 10
602.0617280579
 20
1054.8787638936
 10
601.8961165524
 20
1055.124282876
 10
601.7081235028
 20
1055.4029867443
 10
601.4990304089
 20
1055.7129756007
 10
601.2702677823
 20
1056.05213348
 10
601.0234002448
 20
1056.4181432518
 10
600.7600967265
 20
1056.8084940705
 10
600.4821751691
 20
1057.2205335292
 10
600.19152802
 20
1057.6514378581
 10
599.8901371337
 20
1058.0982640776
 10
599.5800737716
 20
1058.5579649004
 10
599.2634389974
 20
1059.0273961815
 10
598.9423934794
 20
1059.5033467206
 10
598.6191574908
 20
1059.9825755152
 10
598.295906601
 20
1060.4618117604
 10
597.9748759843
 20
1060.9377622995
 10
597.6582412101
 20
1061.4071935806
 10
597.3481629468
 20
1061.8668944034
 10
597.0467720605
 20
1062.313720623
 10
596.7561249114
 20
1062.7446249518
 10
596.478203354
 20
1063.1566644105
 10
596.2149147368
 20
1063.5470152292
 10
595.9680322982
 20
1063.913025001
 10
595.7392696715
 20
1064.2521754298
 10
595.5301765777
 20
1064.5621717367
 10
595.342183528
 20
1064.8408756051
 10
595.1765869237
 20
1065.0863945875
 10
595.0344894505
 20
1065.2970523033
 10
594.9168894864
 20
1065.4714033398
 10
594.8245767928
 20
1065.6082630548
 10
594.7581921197
 20
1065.7066926751
 10
594.7181676007
 20
1065.7660216484
 10
594.7048012591
 20
1065.7858401927
  0
LINE
  5
1F4
330
1F
100
AcDbEntity
  8
0
  6
Continuous
 62
     7
370
    15
100
AcDbLine
 10
602.5334988213
 20
1054.1793182883
 30
0.0
 11
601.8781755544
 21
1053.7372902426
 31
0.0
  0
SPLINE
  5
1F5
330
1F
100
AcDbEntity
  8
0
  6
Continuous
 62
     7
370
    15
100
AcDbSpline
210
0.0
220
0.0
230
1.0
 70
     8
 71
     3
 72
    21
 73
    17
 74
     0
 42
0.00000001
 43
0.00000001
 12
1.0
 22
0.0
 32
0.0
 13
1.0
 23
0.0
 33
0.0
 40
0.0
 40
0.0
 40
0.0
 40
0.0
 40
0.0676886940610052
 40
0.1353766218093748
 40
0.2050304165147949
 40
0.2746847517189113
 40
0.3423897104239578
 40
0.4100940595448564
 40
0.4797665135349729
 40
0.5494387018139206
 40
0.6171361776480767
 40
0.6848320370818466
 40
0.7544968042408109
 40
0.8241610548107338
 40
0.9115665692612398
 40
1.0
 40
1.0
 40
1.0
 40
1.0
 10
599.2707256651798
 20
1057.583347001975
 30
0.0
 10
599.3711721060762
 20
1057.432694016681
 30
0.0
 10
599.5720638507016
 20
1057.131389751656
 30
0.0
 10
599.8622773739163
 20
1056.695139873161
 30
0.0
 10
600.1421783058915
 20
1056.27397351199
 30
0.0
 10
600.406145917718
 20
1055.876553977433
 30
0.0
 10
600.6504487868184
 20
1055.50896752789
 30
0.0
 10
600.8763847596691
 20
1055.169542759395
 30
0.0
 10
601.0841042825317
 20
1054.858536932398
 30
0.0
 10
601.269960109861
 20
1054.581720577617
 30
0.0
 10
601.4313584353193
 20
1054.343383454564
 30
0.0
 10
601.5695786459817
 20
1054.141786244658
 30
0.0
 10
601.684496464111
 20
1053.977491586394
 30
0.0
 10
601.7816989432959
 20
1053.843423547338
 30
0.0
 10
601.8546070229984
 20
1053.750000028236
 30
0.0
 10
601.8702888197818
 20
1053.741543316524
 30
0.0
 10
601.8781755543629
 20
1053.737290242618
 30
0.0
  0
LINE
  5
1F6
330
1F
100
AcDbEntity
  8
0
  6
Continuous
 62
     7
370
    15
100
AcDbLine
 10
255.1667634822
 20
819.8774904403
 30
0.0
 11
255.8221016503
 21
820.319518486
 31
0.0
  0
LWPOLYLINE
  5
1F7
330
1F
100
AcDbEntity
  8
0
  6
Continuous
 62
     7
370
    15
100
AcDbPolyline
 90
       39
 70
   128
 43
0.0
 10
255.1667634822
 20
819.8774904403
 10
255.1533971406
 20
819.8973089847
 10
255.1133726216
 20
819.956637958
 10
255.0469879485
 20
820.0550675783
 10
254.9546752549
 20
820.1919272932
 10
254.8370752908
 20
820.3662783298
 10
254.6949778176
 20
820.5769360456
 10
254.5293812133
 20
820.822455028
 10
254.3413881637
 20
821.1011588964
 10
254.1322950698
 20
821.4111552033
 10
253.9035324431
 20
821.7503056321
 10
253.6566500045
 20
822.1163154039
 10
253.3933613873
 20
822.5066662225
 10
253.1154398299
 20
822.9187056813
 10
252.8247926808
 20
823.3496100101
 10
252.5234017945
 20
823.7964362297
 10
252.2133235312
 20
824.2561370525
 10
251.896688757
 20
824.7255683336
 10
251.5756581403
 20
825.2015188727
 10
251.2524072505
 20
825.6807551178
 10
250.9291712619
 20
826.1599839124
 10
250.608125744
 20
826.6359344515
 10
250.2914909697
 20
827.1053657326
 10
249.9814276076
 20
827.5650665554
 10
249.6800367213
 20
828.011892775
 10
249.3893895722
 20
828.4427971038
 10
249.1114680148
 20
828.8548365626
 10
248.8481644965
 20
829.2451873812
 10
248.601296959
 20
829.611197153
 10
248.3725343324
 20
829.9503550324
 10
248.1634412385
 20
830.2603438887
 10
247.9754481889
 20
830.5390477571
 10
247.8098366834
 20
830.7845667395
 10
247.6677541114
 20
830.9952244553
 10
247.5501541472
 20
831.1695754919
 10
247.4578414536
 20
831.3064352068
 10
247.3914418794
 20
831.4048648271
 10
247.3514322616
 20
831.4641938004
 10
247.33806592
 20
831.4840123448
  0
LINE
  5
1F8
330
1F
100
AcDbEntity
  8
0
  6
Continuous
 62
     7
370
    15
100
AcDbLine
 10
247.33806592
 20
831.4840123448
 30
0.0
 11
247.9933891869
 21
831.9260403904
 31
0.0
  0
SPLINE
  5
1F9
330
1F
100
AcDbEntity
  8
0
  6
Continuous
 62
     7
370
    15
100
AcDbSpline
210
0.0
220
0.0
230
1.0
 70
     8
 71
     3
 72
    21
 73
    17
 74
     0
 42
0.00000001
 43
0.00000001
 12
1.0
 22
0.0
 32
0.0
 13
1.0
 23
0.0
 33
0.0
 40
0.0
 40
0.0
 40
0.0
 40
0.0
 40
0.0676712397827031
 40
0.1353405624317144
 40
0.2049767934935354
 40
0.2746133160611207
 40
0.3422881202330396
 40
0.4099650388387442
 40
0.4796063198962931
 40
0.5492479872823073
 40
0.6169292760702114
 40
0.6846119309726704
 40
0.7542582746998536
 40
0.8239045563139323
 40
0.9114368388219639
 40
1.0
 40
1.0
 40
1.0
 40
1.0
 10
247.9933891869465
 20
831.9260403904376
 30
0.0
 10
247.9986797494904
 20
831.9239704606684
 30
0.0
 10
248.009260724696
 20
831.9198306597715
 30
0.0
 10
248.0579518883695
 20
831.8613604337268
 30
0.0
 10
248.131485814564
 20
831.7632585007309
 30
0.0
 10
248.231459114208
 20
831.622871541627
 30
0.0
 10
248.3552921180755
 20
831.4441673355727
 30
0.0
 10
248.5027973789113
 20
831.2278439373001
 30
0.0
 10
248.6752075361901
 20
830.9721890402055
 30
0.0
 10
248.870203384681
 20
830.6810878804116
 30
0.0
 10
249.0842894764944
 20
830.3599937278117
 30
0.0
 10
249.3176102582762
 20
830.0092345141202
 30
0.0
 10
249.571474798526
 20
829.6271166006076
 30
0.0
 10
249.868269213355
 20
829.1803184785587
 30
0.0
 10
250.2090981900062
 20
828.66765183113
 30
0.0
 10
250.4697501540233
 20
828.2766360450341
 30
0.0
 10
250.6008390761295
 20
828.0799836310802
 30
0.0
  0
SPLINE
  5
1FA
330
1F
100
AcDbEntity
  8
0
  6
Continuous
 62
     7
370
    15
100
AcDbSpline
210
0.0
220
0.0
230
1.0
 70
     8
 71
     3
 72
    21
 73
    17
 74
     0
 42
0.00000001
 43
0.00000001
 12
1.0
 22
0.0
 32
0.0
 13
1.0
 23
0.0
 33
0.0
 40
0.0
 40
0.0
 40
0.0
 40
0.0
 40
0.0676890242923426
 40
0.1353767411616068
 40
0.2050305726315264
 40
0.2746850265385676
 40
0.3423898778141378
 40
0.4100941488593348
 40
0.4797665764224012
 40
0.5494388219673874
 40
0.6171363043558674
 40
0.6848319736999413
 40
0.7544968050300371
 40
0.8241610875847004
 40
0.9115665969452931
 40
1.0
 40
1.0
 40
1.0
 40
1.0
 10
253.2328609801212
 20
824.1778612527308
 30
0.0
 10
253.3349137015168
 20
824.0282902972843
 30
0.0
 10
253.5390171731455
 20
823.7291512753752
 30
0.0
 10
253.8347822254615
 20
823.2966462609726
 30
0.0
 10
254.1204454796149
 20
822.8793666515377
 30
0.0
 10
254.3900358916685
 20
822.4857383031584
 30
0.0
 10
254.6393459066441
 20
822.1215303539618
 30
0.0
 10
254.8693908023335
 20
821.7848777119016
 30
0.0
 10
255.0799597743768
 20
821.4757943414442
 30
0.0
 10
255.2669896632825
 20
821.1997688187977
 30
0.0
 10
255.4275214369286
 20
820.9608452981435
 30
0.0
 10
255.5626572883936
 20
820.7571747531176
 30
0.0
 10
255.671913849229
 20
820.5890578313761
 30
0.0
 10
255.7598461874348
 20
820.4487337879766
 30
0.0
 10
255.819138530017
 20
820.3461263568366
 30
0.0
 10
255.821110101846
 20
820.3284222735817
 30
0.0
 10
255.8221016503254
 20
820.3195184859691
 30
0.0
  0
ARC
  5
1FB
330
1F
100
AcDbEntity
  8
0
  6
Continuous
 62
     7
370
    15
100
AcDbCircle
 10
241.6703066423
 20
1040.5965518372
 30
0.0
 40
0.9999703996763809
100
AcDbArc
 50
151.9223656626
 51
258.9934613068
  0
SPLINE
  5
1FC
330
1F
100
AcDbEntity
  8
0
  6
Continuous
 62
     7
370
    15
100
AcDbSpline
210
0.0
220
0.0
230
1.0
 70
     8
 71
     3
 72
    13
 73
     9
 74
     0
 42
0.00000001
 43
0.00000001
 12
1.0
 22
0.0
 32
0.0
 13
1.0
 23
0.0
 33
0.0
 40
0.0
 40
0.0
 40
0.0
 40
0.0
 40
0.1805648948057738
 40
0.3611262952926868
 40
0.5416728974408118
 40
0.7221913215514313
 40
0.902684217669443
 40
1.0
 40
1.0
 40
1.0
 40
1.0
 10
241.074780044643
 20
1039.693623820251
 30
0.0
 10
240.9664698462136
 20
1039.725947172145
 30
0.0
 10
240.7498515453897
 20
1039.790593250405
 30
0.0
 10
240.4889214602225
 20
1040.016920337283
 30
0.0
 10
240.313722936515
 20
1040.309783728912
 30
0.0
 10
240.2475345747067
 20
1040.645085281395
 30
0.0
 10
240.2845601620699
 20
1040.933995630704
 30
0.0
 10
240.3573363732527
 20
1041.090561881631
 30
0.0
 10
240.3828297234455
 20
1041.145406702464
 30
0.0
  0
LINE
  5
1FD
330
1F
100
AcDbEntity
  8
0
  6
Continuous
 62
     7
370
    15
100
AcDbLine
 10
241.4793912745
 20
1039.6149754915
 30
0.0
 11
241.0747800446
 21
1039.6936238203
 31
0.0
  0
SPLINE
  5
1FE
330
1F
100
AcDbEntity
  8
0
  6
Continuous
 62
     7
370
    15
100
AcDbSpline
210
0.0
220
0.0
230
1.0
 70
     8
 71
     3
 72
    13
 73
     9
 74
     0
 42
0.00000001
 43
0.00000001
 12
1.0
 22
0.0
 32
0.0
 13
1.0
 23
0.0
 33
0.0
 40
0.0
 40
0.0
 40
0.0
 40
0.0
 40
0.18048145600955
 40
0.3609586805786741
 40
0.5414423315467815
 40
0.7219470851582119
 40
0.9024747624977251
 40
1.0
 40
1.0
 40
1.0
 40
1.0
 10
216.9922832823673
 20
920.8115078899322
 30
0.0
 10
216.9914426170306
 20
920.9244829438394
 30
0.0
 10
216.9897613060669
 20
921.150430402921
 30
0.0
 10
217.1295952056307
 20
921.4661081602804
 30
0.0
 10
217.3581575977791
 20
921.7193902839578
 30
0.0
 10
217.6592801207632
 20
921.8809888692804
 30
0.0
 10
217.9464851328042
 20
921.9303558702156
 30
0.0
 10
218.1176614768782
 20
921.9066720163252
 30
0.0
 10
218.1777004576603
 20
921.8983650597987
 30
0.0
  0
LINE
  5
1FF
330
1F
100
AcDbEntity
  8
0
  6
Continuous
 62
     7
370
    15
100
AcDbLine
 10
218.1777004577
 20
921.8983650598
 30
0.0
 11
218.5823116876
 21
921.8197148684
 31
0.0
  0
SPLINE
  5
200
330
1F
100
AcDbEntity
  8
0
  6
Continuous
 62
     7
370
    15
100
AcDbSpline
210
0.0
220
0.0
230
1.0
 70
     8
 71
     3
 72
    29
 73
    25
 74
     0
 42
0.00000001
 43
0.00000001
 12
1.0
 22
0.0
 32
0.0
 13
1.0
 23
0.0
 33
0.0
 40
0.0
 40
0.0
 40
0.0
 40
0.0
 40
0.0302728510919705
 40
0.0778102825617902
 40
0.1251969290409423
 40
0.1726583368758624
 40
0.2202712582716806
 40
0.2677333997417798
 40
0.3152753962399754
 40
0.3629684809813085
 40
0.4105113328822422
 40
0.4580877131433163
 40
0.5058141943805677
 40
0.5533900050606754
 40
0.6009444373801875
 40
0.6486488849461546
 40
0.696202748068925
 40
0.7437018787211125
 40
0.7913510865946995
 40
0.8388490959375294
 40
0.8862767156422606
 40
0.9338547922869161
 40
0.9812814183082469
 40
1.0
 40
1.0
 40
1.0
 40
1.0
 10
322.8131998754421
 20
1125.014364758438
 30
0.0
 10
322.7626149465727
 20
1124.983006903776
 30
0.0
 10
322.632596548347
 20
1124.902407837493
 30
0.0
 10
322.3465890585173
 20
1124.729825369675
 30
0.0
 10
321.9696536773488
 20
1124.504321981585
 30
0.0
 10
321.5302129309154
 20
1124.243230854916
 30
0.0
 10
321.0397939061345
 20
1123.952712890635
 30
0.0
 10
320.5035604571194
 20
1123.635281447568
 30
0.0
 10
319.9273996299906
 20
1123.293887900405
 30
0.0
 10
319.3200606306954
 20
1122.933295719251
 30
0.0
 10
318.6891860505647
 20
1122.557705128682
 30
0.0
 10
318.0423489329158
 20
1122.171163041563
 30
0.0
 10
317.3882605902791
 20
1121.778864558474
 30
0.0
 10
316.7350121064557
 20
1121.385602568064
 30
0.0
 10
316.091152998066
 20
1120.996431832353
 30
0.0
 10
315.4643395026868
 20
1120.616328511106
 30
0.0
 10
314.8620799454756
 20
1120.250095179409
 30
0.0
 10
314.2930011883589
 20
1119.903322550147
 30
0.0
 10
313.7627979143587
 20
1119.579971207295
 30
0.0
 10
313.2780807526711
 20
1119.284647166581
 30
0.0
 10
312.845209621836
 20
1119.021690994094
 30
0.0
 10
312.4728698610001
 20
1118.797134813533
 30
0.0
 10
312.2113803219769
 20
1118.640618334783
 30
0.0
 10
312.0999236856759
 20
1118.575797101689
 30
0.0
 10
312.0683823204914
 20
1118.557453194564
 30
0.0
  0
ARC
  5
201
330
1F
100
AcDbEntity
  8
0
  6
Continuous
 62
     7
370
    15
100
AcDbCircle
 10
424.9357823707
 20
942.8316653165
 30
0.0
 40
209.1061595638789
100
AcDbArc
 50
35.9183815716
 51
119.1412656193
  0
ARC
  5
202
330
1F
100
AcDbEntity
  8
0
  6
Continuous
 62
     7
370
    15
100
AcDbCircle
 10
424.9357823707
 20
942.8316653165
 30
0.0
 40
209.1061595638791
100
AcDbArc
 50
122.8587343807
 51
151.9551966455
  0
ARC
  5
203
330
1F
100
AcDbEntity
  8
0
  6
Continuous
 62
     7
370
    15
100
AcDbCircle
 10
424.9357823707
 20
942.8316653165
 30
0.0
 40
209.1061595638791
100
AcDbArc
 50
215.9183815716
 51
32.0816184284
  0
ARC
  5
204
330
1F
100
AcDbEntity
  8
0
  6
Continuous
 62
     7
370
    15
100
AcDbCircle
 10
424.9357823707
 20
942.8316653165
 30
0.0
 40
209.1061595638792
100
AcDbArc
 50
186.0448033545
 51
212.0816184284
  0
LINE
  5
205
330
1F
100
AcDbEntity
  8
0
  6
Continuous
 62
     7
370
    15
100
AcDbLine
 10
323.0339233256
 20
1125.4145354423
 30
0.0
 11
323.1084961868
 21
1125.4695356283
 31
0.0
  0
SPLINE
  5
206
330
1F
100
AcDbEntity
  8
0
  6
Continuous
 62
     7
370
    15
100
AcDbSpline
210
0.0
220
0.0
230
1.0
 70
     8
 71
     3
 72
     9
 73
     5
 74
     0
 42
0.00000001
 43
0.00000001
 12
1.0
 22
0.0
 32
0.0
 13
1.0
 23
0.0
 33
0.0
 40
0.0
 40
0.0
 40
0.0
 40
0.0
 40
0.5059531203033711
 40
1.0
 40
1.0
 40
1.0
 40
1.0
 10
311.4811350084224
 20
1118.483111301368
 30
0.0
 10
311.5817792365024
 20
1118.536424951763
 30
0.0
 10
311.7806993024948
 20
1118.641797659737
 30
0.0
 10
312.0056766426342
 20
1118.638872762865
 30
0.0
 10
312.1168259955326
 20
1118.637427726692
 30
0.0
  0
ARC
  5
207
330
1F
100
AcDbEntity
  8
0
  6
Continuous
 62
     7
370
    15
100
AcDbCircle
 10
424.9357823707
 20
942.8316653165
 30
0.0
 40
202.4603594805741
100
AcDbArc
 50
151.7598700033
 51
156.5647159766
  0
ARC
  5
208
330
1F
100
AcDbEntity
  8
0
  6
Continuous
 62
     7
370
    15
100
AcDbCircle
 10
424.9357823707
 20
942.8316653165
 30
0.0
 40
202.4603594805741
100
AcDbArc
 50
183.8328455367
 51
186.2401437683
  0
ARC
  5
209
330
1F
100
AcDbEntity
  8
0
  6
Continuous
 62
     7
370
    15
100
AcDbCircle
 10
424.9357823707
 20
942.8316653165
 30
0.0
 40
203.294536363756
100
AcDbArc
 50
151.832140756
 51
156.6815426651
  0
ARC
  5
20A
330
1F
100
AcDbEntity
  8
0
  6
Continuous
 62
     7
370
    15
100
AcDbCircle
 10
424.9357823707
 20
942.8316653165
 30
0.0
 40
203.294536363756
100
AcDbArc
 50
183.8129680863
 51
186.1675499009
  0
ARC
  5
20B
330
1F
100
AcDbEntity
  8
0
  6
Continuous
 62
     7
370
    15
100
AcDbCircle
 10
424.9357823707
 20
942.8316653165
 30
0.0
 40
205.3300666775467
100
AcDbArc
 50
183.7651440756
 51
185.9923400357
  0
ARC
  5
20C
330
1F
100
AcDbEntity
  8
0
  6
Continuous
 62
     7
370
    15
100
AcDbCircle
 10
424.9357823707
 20
942.8316653165
 30
0.0
 40
205.3300666775467
100
AcDbArc
 50
152.0078304941
 51
156.9621542499
  0
ARC
  5
20D
330
1F
100
AcDbEntity
  8
0
  6
Continuous
 62
     7
370
    15
100
AcDbCircle
 10
424.9357823707
 20
942.8316653165
 30
0.0
 40
205.6
100
AcDbArc
 50
183.7588734571
 51
185.9692994729
  0
ARC
  5
20E
330
1F
100
AcDbEntity
  8
0
  6
Continuous
 62
     7
370
    15
100
AcDbCircle
 10
424.9357823707
 20
942.8316653165
 30
0.0
 40
205.6
100
AcDbArc
 50
152.0307843451
 51
156.998899186
  0
ARC
  5
20F
330
1F
100
AcDbEntity
  8
0
  6
Continuous
 62
     7
370
    15
100
AcDbCircle
 10
424.9357823707
 20
942.8316653165
 30
0.0
 40
202.4599024964425
100
AcDbArc
 50
151.7598297807
 51
156.5646516795
  0
ARC
  5
210
330
1F
100
AcDbEntity
  8
0
  6
Continuous
 62
     7
370
    15
100
AcDbCircle
 10
424.9357823707
 20
942.8316653165
 30
0.0
 40
202.4599024964425
100
AcDbArc
 50
183.8328564712
 51
186.2401837852
  0
ARC
  5
211
330
1F
100
AcDbEntity
  8
0
  6
Continuous
 62
     7
370
    15
100
AcDbCircle
 10
424.9357823707
 20
942.8316653165
 30
0.0
 40
201.8632658638002
100
AcDbArc
 50
153.3742848057
 51
156.4804264649
  0
LWPOLYLINE
  5
212
330
1F
100
AcDbEntity
  8
0
  6
Continuous
 62
     7
370
    15
100
AcDbPolyline
 90
        3
 70
   128
 43
0.0
 10
223.733807025
 20
926.5054446104
 10
223.6985061742
 20
926.9465096685
 10
223.5273961402
 20
929.2875640485
  0
ARC
  5
213
330
1F
100
AcDbEntity
  8
0
  6
Continuous
 62
     7
370
    15
100
AcDbCircle
 10
424.9357823707
 20
942.8316653165
 30
0.0
 40
209.1
100
AcDbArc
 50
183.6790384422
 51
212.0815618965
  0
ARC
  5
214
330
1F
100
AcDbEntity
  8
0
  6
Continuous
 62
     7
370
    15
100
AcDbCircle
 10
424.9357823707
 20
942.8316653165
 30
0.0
 40
209.1
100
AcDbArc
 50
151.9856331426
 51
157.4657544294
  0
ARC
  5
215
330
1F
100
AcDbEntity
  8
0
  6
Continuous
 62
     7
370
    15
100
AcDbCircle
 10
424.9357823707
 20
942.8316653165
 30
0.0
 40
209.1000000000001
100
AcDbArc
 50
119.1664636212
 51
122.8246461393
  0
ARC
  5
216
330
1F
100
AcDbEntity
  8
0
  6
Continuous
 62
     7
370
    15
100
AcDbCircle
 10
424.9357823707
 20
942.8316653165
 30
0.0
 40
201.7100832990305
100
AcDbArc
 50
153.7305472271
 51
156.4587117994
  0
LINE
  5
217
330
1F
100
AcDbEntity
  8
0
  6
Continuous
 62
     7
370
    15
100
AcDbLine
 10
223.6811165191
 20
929.2848809081
 30
0.0
 11
223.7951998092
 21
927.6849991101
 31
0.0
  0
ARC
  5
218
330
1F
100
AcDbEntity
  8
0
  6
Continuous
 62
     7
370
    15
100
AcDbCircle
 10
424.9357823707
 20
942.8316653165
 30
0.0
 40
201.6325984979246
100
AcDbArc
 50
153.9565746746
 51
156.4477136708
  0
LINE
  5
219
330
1F
100
AcDbEntity
  8
0
  6
Continuous
 62
     7
370
    15
100
AcDbLine
 10
223.7588707782
 20
929.2835239711
 30
0.0
 11
223.8212321378
 21
928.3871269244
 31
0.0
  0
LINE
  5
21A
330
1F
100
AcDbEntity
  8
0
  6
Continuous
 62
     7
370
    15
100
AcDbLine
 10
630.6357775308
 20
984.5748991165
 30
0.0
 11
629.8330519772
 21
984.5748991165
 31
0.0
  0
LINE
  5
21B
330
1F
100
AcDbEntity
  8
0
  6
Continuous
 62
     7
370
    15
100
AcDbLine
 10
630.6357775308
 20
984.5748991165
 30
0.0
 11
630.6357775308
 21
980.4201722536
 31
0.0
  0
LINE
  5
21C
330
1F
100
AcDbEntity
  8
0
  6
Continuous
 62
     7
370
    15
100
AcDbLine
 10
630.6357775308
 20
901.9301124308
 30
0.0
 11
630.0027165986
 21
901.9301124308
 31
0.0
  0
LINE
  5
21D
330
1F
100
AcDbEntity
  8
0
  6
Continuous
 62
     7
370
    15
100
AcDbLine
 10
630.6357775308
 20
905.2431583795
 30
0.0
 11
630.6357775308
 21
901.9301124308
 31
0.0
  0
LINE
  5
21E
330
1F
100
AcDbEntity
  8
0
  6
Continuous
 62
     7
370
    15
100
AcDbLine
 10
630.6357775308
 20
900.8648246917
 30
0.0
 11
629.787365017
 21
900.8648246917
 31
0.0
  0
LINE
  5
21F
330
1F
100
AcDbEntity
  8
0
  6
Continuous
 62
     7
370
    15
100
AcDbLine
 10
630.6357775308
 20
901.9301124308
 30
0.0
 11
630.6357775308
 21
900.8648246917
 31
0.0
  0
LINE
  5
220
330
1F
100
AcDbEntity
  8
0
  6
Continuous
 62
     7
370
    15
100
AcDbLine
 10
633.2357768393
 20
963.3316658828
 30
0.0
 11
633.2357768393
 21
961.1754920724
 31
0.0
  0
LINE
  5
221
330
1F
100
AcDbEntity
  8
0
  6
Continuous
 62
     7
370
    15
100
AcDbLine
 10
633.2357768393
 20
924.4878385606
 30
0.0
 11
633.2357768393
 21
922.3316647503
 31
0.0
  0
LINE
  5
222
330
1F
100
AcDbEntity
  8
0
  6
Continuous
 62
     7
370
    15
100
AcDbLine
 10
447.6568755186
 20
1162.7087891492
 30
0.0
 11
448.9951599813
 21
1150.5402475986
 31
0.0
  0
LINE
  5
223
330
1F
100
AcDbEntity
  8
0
  6
Continuous
 62
     7
370
    15
100
AcDbLine
 10
400.875911159
 20
1150.5357474479
 30
0.0
 11
402.2146892227
 21
1162.7087891492
 31
0.0
  0
LINE
  5
224
330
1F
100
AcDbEntity
  8
0
  6
Continuous
 62
     7
370
    15
100
AcDbLine
 10
412.9357822663
 20
1162.9501879606
 30
0.0
 11
412.9357822663
 21
1151.5840888414
 31
0.0
  0
LINE
  5
225
330
1F
100
AcDbEntity
  8
0
  6
Continuous
 62
     7
370
    15
100
AcDbLine
 10
436.935782475
 20
1151.5892595443
 30
0.0
 11
436.935782475
 21
1162.9501879606
 31
0.0
  0
LINE
  5
226
330
1F
100
AcDbEntity
  8
0
  6
Continuous
 62
     7
370
    15
100
AcDbLine
 10
616.8385241605
 20
859.8191738519
 30
0.0
 11
626.7155055381
 21
852.5701463613
 31
0.0
  0
LINE
  5
227
330
1F
100
AcDbEntity
  8
0
  6
Continuous
 62
     7
370
    15
100
AcDbLine
 10
223.1560592032
 20
852.5701463613
 30
0.0
 11
233.0234889365
 21
859.8121628556
 31
0.0
  0
LINE
  5
228
330
1F
100
AcDbEntity
  8
0
  6
Continuous
 62
     7
370
    15
100
AcDbLine
 10
623.4917436219
 20
842.0517295989
 30
0.0
 11
611.7098872043
 21
848.8539904746
 31
0.0
  0
LINE
  5
229
330
1F
100
AcDbEntity
  8
0
  6
Continuous
 62
     7
370
    15
100
AcDbLine
 10
599.7152124024
 20
828.0663043651
 30
0.0
 11
611.4917491055
 21
821.2671205792
 31
0.0
  0
LINE
  5
22A
330
1F
100
AcDbEntity
  8
0
  6
Continuous
 62
     7
370
    15
100
AcDbLine
 10
238.3798156358
 20
821.2671205792
 30
0.0
 11
244.7823528624
 21
824.9636218342
 31
0.0
  0
LINE
  5
22B
330
1F
100
AcDbEntity
  8
0
  6
Continuous
 62
     7
370
    15
100
AcDbLine
 10
238.1526921369
 20
848.8488048706
 30
0.0
 11
226.3798211194
 21
842.0517295989
 31
0.0
  0
LINE
  5
22C
330
1F
100
AcDbEntity
  8
0
  6
Continuous
 62
     7
370
    15
100
AcDbLine
 10
257.0834402419
 20
818.1408495101
 30
0.0
 11
245.8771560765
 21
813.2160604391
 31
0.0
  0
LINE
  5
22D
330
1F
100
AcDbEntity
  8
0
  6
Continuous
 62
     7
370
    15
100
AcDbLine
 10
603.9944086648
 20
813.2160604391
 30
0.0
 11
592.7842203952
 21
818.1425631437
 31
0.0
  0
SPLINE
  5
22E
330
1F
100
AcDbEntity
  8
0
  6
Continuous
 62
     7
370
    15
100
AcDbSpline
210
0.0
220
0.0
230
1.0
 70
     8
 71
     3
 72
    20
 73
    16
 74
     0
 42
0.00000001
 43
0.00000001
 12
1.0
 22
0.0
 32
0.0
 13
1.0
 23
0.0
 33
0.0
 40
0.0
 40
0.0
 40
0.0
 40
0.0
 40
0.0016852806434969
 40
0.0672511862095468
 40
0.1461078922760095
 40
0.2325195201999029
 40
0.3099466730821807
 40
0.3873706601823997
 40
0.472151328682974
 40
0.5571863632825589
 40
0.6419405769811365
 40
0.7286609329353161
 40
0.8153715273859269
 40
0.9076908402714885
 40
1.0
 40
1.0
 40
1.0
 40
1.0
 10
440.2431007898727
 20
1169.816106596893
 30
0.0
 10
440.2488599020479
 20
1169.815711303174
 30
0.0
 10
440.4786774857176
 20
1169.799937092756
 30
0.0
 10
440.9766871575056
 20
1169.744176225037
 30
0.0
 10
441.7528994816353
 20
1169.583251959439
 30
0.0
 10
442.5486314943075
 20
1169.327761995517
 30
0.0
 10
443.3105748183747
 20
1168.990399119563
 30
0.0
 10
444.033391139001
 20
1168.580015657031
 30
0.0
 10
444.7335444313933
 20
1168.076370063914
 30
0.0
 10
445.3971225265278
 20
1167.478116125277
 30
0.0
 10
445.9988773526573
 20
1166.800646682027
 30
0.0
 10
446.5258483181406
 20
1166.048366904723
 30
0.0
 10
446.9769136021729
 20
1165.211820896088
 30
0.0
 10
447.3409816334249
 20
1164.30439799834
 30
0.0
 10
447.4894076661187
 20
1163.655236906807
 30
0.0
 10
447.563616601316
 20
1163.330674210494
 30
0.0
  0
SPLINE
  5
22F
330
1F
100
AcDbEntity
  8
0
  6
Continuous
 62
     7
370
    15
100
AcDbSpline
210
0.0
220
0.0
230
1.0
 70
    24
 71
     3
 72
     9
 73
     5
 74
     0
 42
0.00000001
 43
0.00000001
 12
1.0
 22
0.0
 32
0.0
 13
1.0
 23
0.0
 33
0.0
 40
0.0
 40
0.0
 40
0.0
 40
0.0
 40
0.4945266471630609
 40
1.0
 40
1.0
 40
1.0
 40
1.0
 10
436.9357824749628
 20
1162.950187960571
 30
0.0
 10
436.9357824749628
 20
1163.306737595977
 30
0.0
 10
436.9357824749628
 20
1164.027729351327
 30
0.0
 10
436.9357824749628
 20
1164.720088070954
 30
0.0
 10
436.9357824749628
 20
1165.07005695433
 30
0.0
  0
ARC
  5
230
330
1F
100
AcDbEntity
  8
0
  6
Continuous
 62
     7
370
    15
100
AcDbCircle
 10
424.9357823707
 20
942.8316653165
 30
0.0
 40
222.562132482968
100
AcDbArc
 50
86.9092544534
 51
93.0907455466
  0
SPLINE
  5
231
330
1F
100
AcDbEntity
  8
0
  6
Continuous
 62
     7
370
    15
100
AcDbSpline
210
0.0
220
0.0
230
1.0
 70
    24
 71
     3
 72
     9
 73
     5
 74
     0
 42
0.00000001
 43
0.00000001
 12
1.0
 22
0.0
 32
0.0
 13
1.0
 23
0.0
 33
0.0
 40
0.0
 40
0.0
 40
0.0
 40
0.0
 40
0.4945253095052612
 40
1.0
 40
1.0
 40
1.0
 40
1.0
 10
412.9357822663465
 20
1165.07005695433
 30
0.0
 10
412.9357822663465
 20
1164.727782661156
 30
0.0
 10
412.9357822663465
 20
1164.03565571316
 30
0.0
 10
412.9357822663465
 20
1163.314642095699
 30
0.0
 10
412.9357822663465
 20
1162.950187960571
 30
0.0
  0
ARC
  5
232
330
1F
100
AcDbEntity
  8
0
  6
Continuous
 62
     7
370
    15
100
AcDbCircle
 10
424.9357823707
 20
942.8316653165
 30
0.0
 40
227.5000000000001
100
AcDbArc
 50
86.1419433523
 51
93.8580566477
  0
ARC
  5
233
330
1F
100
AcDbEntity
  8
0
  6
Continuous
 62
     7
370
    15
100
AcDbCircle
 10
424.9357823707
 20
942.8316653165
 30
0.0
 40
224.2511456165759
100
AcDbArc
 50
326.932555659
 51
333.067444341
  0
ARC
  5
234
330
1F
100
AcDbEntity
  8
0
  6
Continuous
 62
     7
370
    15
100
AcDbCircle
 10
424.9357823707
 20
942.8316653165
 30
0.0
 40
227.5000000000001
100
AcDbArc
 50
326.1419433523
 51
333.8580566477
  0
SPLINE
  5
235
330
1F
100
AcDbEntity
  8
0
  6
Continuous
 62
     7
370
    15
100
AcDbSpline
210
0.0
220
0.0
230
1.0
 70
     8
 71
     3
 72
     9
 73
     5
 74
     0
 42
0.00000001
 43
0.00000001
 12
1.0
 22
0.0
 32
0.0
 13
1.0
 23
0.0
 33
0.0
 40
0.0
 40
0.0
 40
0.0
 40
0.0
 40
0.4934254585525149
 40
1.0
 40
1.0
 40
1.0
 40
1.0
 10
611.4917491055409
 20
821.2671205791888
 30
0.0
 10
611.7230018824976
 20
821.1336068841638
 30
0.0
 10
612.191669992236
 20
820.8630215450597
 30
0.0
 10
612.6384068013798
 20
820.6050966126728
 30
0.0
 10
612.8647122956196
 20
820.4744384083209
 30
0.0
  0
SPLINE
  5
236
330
1F
100
AcDbEntity
  8
0
  6
Continuous
 62
     7
370
    15
100
AcDbSpline
210
0.0
220
0.0
230
1.0
 70
     8
 71
     3
 72
     9
 73
     5
 74
     0
 42
0.00000001
 43
0.00000001
 12
1.0
 22
0.0
 32
0.0
 13
1.0
 23
0.0
 33
0.0
 40
0.0
 40
0.0
 40
0.0
 40
0.0
 40
0.4934153914085074
 40
1.0
 40
1.0
 40
1.0
 40
1.0
 10
624.8647217131535
 20
841.2590474280772
 30
0.0
 10
624.6443992652388
 20
841.3862510242443
 30
0.0
 10
624.1978739809635
 20
841.6440532703479
 30
0.0
 10
623.7291778619251
 20
841.9146496419505
 30
0.0
 10
623.4917436219135
 20
842.0517295989451
 30
0.0
  0
ARC
  5
237
330
1F
100
AcDbEntity
  8
0
  6
Continuous
 62
     7
370
    15
100
AcDbCircle
 10
424.9357823707
 20
942.8316653165
 30
0.0
 40
224.2511456152346
100
AcDbArc
 50
206.932555659
 51
213.067444341
  0
ARC
  5
238
330
1F
100
AcDbEntity
  8
0
  6
Continuous
 62
     7
370
    15
100
AcDbCircle
 10
424.9357823707
 20
942.8316653165
 30
0.0
 40
227.5
100
AcDbArc
 50
206.1419433523
 51
213.8580566477
  0
SPLINE
  5
239
330
1F
100
AcDbEntity
  8
0
  6
Continuous
 62
     7
370
    15
100
AcDbSpline
210
0.0
220
0.0
230
1.0
 70
     8
 71
     3
 72
     9
 73
     5
 74
     0
 42
0.00000001
 43
0.00000001
 12
1.0
 22
0.0
 32
0.0
 13
1.0
 23
0.0
 33
0.0
 40
0.0
 40
0.0
 40
0.0
 40
0.0
 40
0.4934192922390331
 40
1.0
 40
1.0
 40
1.0
 40
1.0
 10
237.0068524456898
 20
820.4744384083209
 30
0.0
 10
237.2271751896732
 20
820.6016414863207
 30
0.0
 10
237.6736975438837
 20
820.8594406441578
 30
0.0
 10
238.1423867340793
 20
821.1300401101744
 30
0.0
 10
238.3798156357685
 20
821.2671205791888
 30
0.0
  0
SPLINE
  5
23A
330
1F
100
AcDbEntity
  8
0
  6
Continuous
 62
     7
370
    15
100
AcDbSpline
210
0.0
220
0.0
230
1.0
 70
     8
 71
     3
 72
     9
 73
     5
 74
     0
 42
0.00000001
 43
0.00000001
 12
1.0
 22
0.0
 32
0.0
 13
1.0
 23
0.0
 33
0.0
 40
0.0
 40
0.0
 40
0.0
 40
0.0
 40
0.4934216793759987
 40
1.0
 40
1.0
 40
1.0
 40
1.0
 10
226.3798211193958
 20
842.0517295989451
 30
0.0
 10
226.1485687206302
 20
841.9182154331409
 30
0.0
 10
225.6798977877721
 20
841.6476270674793
 30
0.0
 10
225.2331538313495
 20
841.3897051034614
 30
0.0
 10
225.0068430281559
 20
841.2590474280772
 30
0.0
  0
SPLINE
  5
23B
330
1F
100
AcDbEntity
  8
0
  6
Continuous
 62
     7
370
    15
100
AcDbSpline
210
0.0
220
0.0
230
1.0
 70
     8
 71
     3
 72
    24
 73
    20
 74
     0
 42
0.00000001
 43
0.00000001
 12
1.0
 22
0.0
 32
0.0
 13
1.0
 23
0.0
 33
0.0
 40
0.0
 40
0.0
 40
0.0
 40
0.0
 40
0.0596595109046286
 40
0.1193201002270314
 40
0.1807140376218553
 40
0.2421074704654533
 40
0.3017757584013717
 40
0.3614449157615445
 40
0.4228485355898966
 40
0.4842522721452173
 40
0.5439097132446834
 40
0.6035669383692758
 40
0.664958686004423
 40
0.7263504738359924
 40
0.7859825304992586
 40
0.8456147302384246
 40
0.9069790741458236
 40
0.9683437998245219
 40
1.0
 40
1.0
 40
1.0
 40
1.0
 10
626.7155055380741
 20
852.5701463612971
 30
0.0
 10
626.8911051998862
 20
852.4346238699438
 30
0.0
 10
627.2423076976869
 20
852.1635764375043
 30
0.0
 10
627.7288174133388
 20
851.6990174207052
 30
0.0
 10
628.1811563298913
 20
851.1931495666569
 30
0.0
 10
628.5881455932166
 20
850.6497767288463
 30
0.0
 10
628.944405349351
 20
850.0795880830849
 30
0.0
 10
629.2523142070589
 20
849.4818201870397
 30
0.0
 10
629.5109323009236
 20
848.854095937717
 30
0.0
 10
629.7152553155996
 20
848.206698231698
 30
0.0
 10
629.8625421958351
 20
847.5506986363307
 30
0.0
 10
629.9551077799142
 20
846.884811378518
 30
0.0
 10
629.9912889769707
 20
846.2069799119168
 30
0.0
 10
629.9697194918677
 20
845.5286098509255
 30
0.0
 10
629.8915107695856
 20
844.8610780148528
 30
0.0
 10
629.7585988689594
 20
844.2022942613904
 30
0.0
 10
629.567911078307
 20
843.5512540141684
 30
0.0
 10
629.3623346896753
 20
843.0146378136023
 30
0.0
 10
629.214161674996
 20
842.7022736456156
 30
0.0
 10
629.1637365199009
 20
842.5959721598086
 30
0.0
  0
SPLINE
  5
23C
330
1F
100
AcDbEntity
  8
0
  6
Continuous
 62
     7
370
    15
100
AcDbSpline
210
0.0
220
0.0
230
1.0
 70
     8
 71
     3
 72
    24
 73
    20
 74
     0
 42
0.00000001
 43
0.00000001
 12
1.0
 22
0.0
 32
0.0
 13
1.0
 23
0.0
 33
0.0
 40
0.0
 40
0.0
 40
0.0
 40
0.0
 40
0.0596604414481048
 40
0.1193201603487097
 40
0.1807139881051143
 40
0.2421072891806253
 40
0.3017757300742469
 40
0.3614443143163469
 40
0.4228486263079115
 40
0.4842517191624136
 40
0.5439085749357829
 40
0.60356578837654
 40
0.6649587676486924
 40
0.7263496475596679
 40
0.7859821275927285
 40
0.8456146313896415
 40
0.9069786521823624
 40
0.9683435279518636
 40
1.0
 40
1.0
 40
1.0
 40
1.0
 10
245.8771560765186
 20
813.2160604390559
 30
0.0
 10
245.6719873955371
 20
813.1317451937266
 30
0.0
 10
245.2616525183714
 20
812.9631157242097
 30
0.0
 10
244.6160773354115
 20
812.7740622376845
 30
0.0
 10
243.9518135945102
 20
812.635276394964
 30
0.0
 10
243.2777467886033
 20
812.5544773650347
 30
0.0
 10
242.6058191984174
 20
812.5310435353814
 30
0.0
 10
241.9341816060222
 20
812.5632807987588
 30
0.0
 10
241.2612470657675
 20
812.6531633136118
 30
0.0
 10
240.5984257924221
 20
812.7999245574179
 30
0.0
 10
239.956675213179
 20
813.0003715084184
 30
0.0
 10
239.3337069818305
 20
813.2531364027851
 30
0.0
 10
238.728604631668
 20
813.560737318106
 30
0.0
 10
238.1518878484132
 20
813.918582974133
 30
0.0
 10
237.6128982907643
 20
814.3200888774114
 30
0.0
 10
237.1088292197545
 20
814.7645868091568
 30
0.0
 10
236.6403481377929
 20
815.255242414978
 30
0.0
 10
236.2784179379205
 20
815.7015910056624
 30
0.0
 10
236.0819956359358
 20
815.9861016667774
 30
0.0
 10
236.0151503659168
 20
816.0829246434627
 30
0.0
  0
SPLINE
  5
23D
330
1F
100
AcDbEntity
  8
0
  6
Continuous
 62
     7
370
    15
100
AcDbSpline
210
0.0
220
0.0
230
1.0
 70
     8
 71
     3
 72
    24
 73
    20
 74
     0
 42
0.00000001
 43
0.00000001
 12
1.0
 22
0.0
 32
0.0
 13
1.0
 23
0.0
 33
0.0
 40
0.0
 40
0.0
 40
0.0
 40
0.0
 40
0.0596133360082394
 40
0.1192270851749955
 40
0.1805710582450751
 40
0.241915070790195
 40
0.30152246711849
 40
0.361129631669774
 40
0.4224672793716849
 40
0.4838041790409089
 40
0.5434167993853066
 40
0.6030299270319582
 40
0.6643721968556435
 40
0.7257156109757299
 40
0.7853501324158064
 40
0.8449854717779477
 40
0.9063521683789201
 40
0.9677195779867199
 40
1.0
 40
1.0
 40
1.0
 40
1.0
 10
220.7078282214084
 20
842.5959721598086
 30
0.0
 10
220.614992141033
 20
842.7972542068402
 30
0.0
 10
220.4293193368688
 20
843.1998196959165
 30
0.0
 10
220.2133257509074
 20
843.8363732299988
 30
0.0
 10
220.0466332124874
 20
844.4936751277896
 30
0.0
 10
219.9374279475739
 20
845.1631598459592
 30
0.0
 10
219.8855171907063
 20
845.8328769557157
 30
0.0
 10
219.8891582196131
 20
846.5045960272889
 30
0.0
 10
219.950192167479
 20
847.1800441494004
 30
0.0
 10
220.068361166694
 20
847.8478912424166
 30
0.0
 10
220.2410216704526
 20
848.4970710303368
 30
0.0
 10
220.4666672183619
 20
849.1298027266895
 30
0.0
 10
220.7477362252536
 20
849.7470726276326
 30
0.0
 10
221.08029689248
 20
850.3382870336345
 30
0.0
 10
221.4580997035329
 20
850.8939130468403
 30
0.0
 10
221.8804785094355
 20
851.4166411585471
 30
0.0
 10
222.3505003511795
 20
851.9057957938059
 30
0.0
 10
222.7825618951558
 20
852.2881487776622
 30
0.0
 10
223.0603169819491
 20
852.4978591601032
 30
0.0
 10
223.1560592032352
 20
852.5701463612971
 30
0.0
  0
SPLINE
  5
23E
330
1F
100
AcDbEntity
  8
0
  6
Continuous
 62
     7
370
    15
100
AcDbSpline
210
0.0
220
0.0
230
1.0
 70
     8
 71
     3
 72
    24
 73
    20
 74
     0
 42
0.00000001
 43
0.00000001
 12
1.0
 22
0.0
 32
0.0
 13
1.0
 23
0.0
 33
0.0
 40
0.0
 40
0.0
 40
0.0
 40
0.0
 40
0.0596140907959538
 40
0.1192268151692784
 40
0.1805720434265666
 40
0.2419154738799035
 40
0.3015220925820842
 40
0.3611302669079526
 40
0.4224672657820429
 40
0.4838037807032437
 40
0.5434171641316711
 40
0.6030292205680237
 40
0.6643731570374395
 40
0.7257157181792216
 40
0.7853507033236455
 40
0.8449850513329907
 40
0.9063515659709556
 40
0.9677189516505985
 40
1.0
 40
1.0
 40
1.0
 40
1.0
 10
613.8564143753925
 20
816.0829246434627
 30
0.0
 10
613.7285170060492
 20
815.90188170571
 30
0.0
 10
613.4727251989152
 20
815.5397999799144
 30
0.0
 10
613.0294572237336
 20
815.0344552377003
 30
0.0
 10
612.5435484263816
 20
814.5614602638545
 30
0.0
 10
612.0183585736218
 20
814.1321465284034
 30
0.0
 10
611.464328232741
 20
813.7523244729265
 30
0.0
 10
610.8807856598653
 20
813.4196128643172
 30
0.0
 10
610.2653099868978
 20
813.1347528611416
 30
0.0
 10
609.6278556800496
 20
812.9031598005017
 30
0.0
 10
608.9793197552618
 20
812.72810781882
 30
0.0
 10
608.318534504227
 20
812.6071235624781
 30
0.0
 10
607.6434242865497
 20
812.5419547746847
 30
0.0
 10
606.9651333439491
 20
812.5343071436005
 30
0.0
 10
606.2950511205307
 20
812.5837083440634
 30
0.0
 10
605.631168065479
 20
812.6881292622953
 30
0.0
 10
604.9725414758791
 20
812.8506063563016
 30
0.0
 10
604.4253800217226
 20
813.0336017196548
 30
0.0
 10
604.1048848372292
 20
813.1692885582262
 30
0.0
 10
603.9944086647907
 20
813.2160604390559
 30
0.0
  0
SPLINE
  5
23F
330
1F
100
AcDbEntity
  8
0
  6
Continuous
 62
     7
370
    15
100
AcDbSpline
210
0.0
220
0.0
230
1.0
 70
     8
 71
     3
 72
    24
 73
    20
 74
     0
 42
0.00000001
 43
0.00000001
 12
1.0
 22
0.0
 32
0.0
 13
1.0
 23
0.0
 33
0.0
 40
0.0
 40
0.0
 40
0.0
 40
0.0
 40
0.0596591786081226
 40
0.119316158369355
 40
0.1807089730042097
 40
0.2421016698789055
 40
0.3017696063390021
 40
0.3614372446542805
 40
0.4228410219911087
 40
0.4842441800456385
 40
0.5439029342432633
 40
0.6035613516328007
 40
0.6649540890373677
 40
0.7263472054597905
 40
0.7859811703741517
 40
0.8456150260436015
 40
0.906981282039883
 40
0.9683475403550729
 40
1.0
 40
1.0
 40
1.0
 40
1.0
 10
402.2146892226615
 20
1162.70878914923
 30
0.0
 10
402.2442540825211
 20
1162.928632063251
 30
0.0
 10
402.3033827125738
 20
1163.368309788583
 30
0.0
 10
402.462459881735
 20
1164.021921811954
 30
0.0
 10
402.674388170855
 20
1164.666592516606
 30
0.0
 10
402.941462963137
 20
1165.290754888564
 30
0.0
 10
403.2571326237301
 20
1165.884384659471
 30
0.0
 10
403.6208830840981
 20
1166.44991499027
 30
0.0
 10
404.0351833675228
 20
1166.987758096712
 30
0.0
 10
404.4937087254809
 20
1167.488391843143
 30
0.0
 10
404.9881776859282
 20
1167.943951582509
 30
0.0
 10
405.5185717907719
 20
1168.357069433602
 30
0.0
 10
406.0875100991025
 20
1168.727309556037
 30
0.0
 10
406.6857803634567
 20
1169.047820055071
 30
0.0
 10
407.3029918814918
 20
1169.313842829653
 30
0.0
 10
407.9399728428094
 20
1169.528130578831
 30
0.0
 10
408.5991341003379
 20
1169.688502487354
 30
0.0
 10
409.1666251381985
 20
1169.778784462938
 30
0.0
 10
409.511208827363
 20
1169.8066309718
 30
0.0
 10
409.6284639514366
 20
1169.816106596893
 30
0.0
  0
LINE
  5
240
330
1F
100
AcDbEntity
  8
0
  6
Continuous
 62
     7
370
    15
100
AcDbLine
 10
447.5636166013
 20
1163.3306742105
 30
0.0
 11
447.6568755186
 21
1162.7087891492
 31
0.0
  0
ARC
  5
241
330
1F
100
AcDbEntity
  8
0
  6
Continuous
 62
     7
370
    15
100
AcDbCircle
 10
424.9357823707
 20
1150.3316653165
 30
0.0
 40
5.500000000000024
100
AcDbArc
 50
16.187264951
 51
163.812735049
  0
ARC
  5
242
330
1F
100
AcDbEntity
  8
0
  6
Continuous
 62
     7
370
    15
100
AcDbCircle
 10
604.6360536559
 20
839.0816653165
 30
0.0
 40
5.500000000000024
100
AcDbArc
 50
256.187264951
 51
43.812735049
  0
ARC
  5
243
330
1F
100
AcDbEntity
  8
0
  6
Continuous
 62
     7
370
    15
100
AcDbCircle
 10
245.2355110854
 20
839.0816653165
 30
0.0
 40
5.500000000000033
100
AcDbArc
 50
136.187264951
 51
283.812735049
  0
LINE
  5
244
330
1F
100
AcDbEntity
  8
SLD-0
 62
     7
370
     0
100
AcDbLine
 10
61.5084027867
 20
942.8316653165
 30
0.0
 11
720.5059790058
 21
942.8316653165
 31
0.0
  0
LINE
  5
245
330
1F
100
AcDbEntity
  8
SLD-0
 62
     7
370
     0
100
AcDbLine
 10
424.9357823707
 20
1235.8261681008
 30
0.0
 11
424.9357823707
 21
688.4430219635
 31
0.0
  0
LINE
  5
246
330
1F
100
AcDbEntity
  8
SLD-0
370
    15
100
AcDbLine
 10
216.9937351583
 20
1022.1902357364
 30
0.0
 11
240.6603912098
 21
1023.5756009687
 31
0.0
  0
ENDSEC
  0
SECTION
  2
OBJECTS
  0
DICTIONARY
  5
C
330
0
100
AcDbDictionary
281
     1
  3
ACAD_GROUP
350
D
  3
ACAD_LAYOUT
350
1A
  3
ACAD_MLINESTYLE
350
17
  3
ACAD_PLOTSETTINGS
350
19
  3
ACAD_PLOTSTYLENAME
350
E
  0
DICTIONARY
  5
D
102
{ACAD_REACTORS
330
C
102
}
330
C
100
AcDbDictionary
281
     1
  0
DICTIONARY
  5
1A
102
{ACAD_REACTORS
330
C
102
}
330
C
100
AcDbDictionary
281
     1
  3
Layout1
350
1E
  3
Layout2
350
26
  3
Model
350
22
  0
DICTIONARY
  5
17
102
{ACAD_REACTORS
330
C
102
}
330
C
100
AcDbDictionary
281
     1
  3
Standard
350
18
  0
DICTIONARY
  5
19
102
{ACAD_REACTORS
330
C
102
}
330
C
100
AcDbDictionary
281
     1
  0
ACDBDICTIONARYWDFLT
  5
E
102
{ACAD_REACTORS
330
C
102
}
330
C
100
AcDbDictionary
281
     1
  3
Normal
350
F
100
AcDbDictionaryWithDefault
340
F
  0
LAYOUT
  5
1E
102
{ACAD_REACTORS
330
1A
102
}
330
1A
100
AcDbPlotSettings
  1

  2
none_device
  4

  6

 40
0.0
 41
0.0
 42
0.0
 43
0.0
 44
0.0
 45
0.0
 46
0.0
 47
0.0
 48
0.0
 49
0.0
140
0.0
141
0.0
142
1.0
143
1.0
 70
   688
 72
     0
 73
     0
 74
     5
  7

 75
    16
147
1.0
148
0.0
149
0.0
100
AcDbLayout
  1
Layout1
 70
     1
 71
     1
 10
0.0
 20
0.0
 11
420.0
 21
297.0
 12
0.0
 22
0.0
 32
0.0
 14
1.0000000000E+20
 24
1.0000000000E+20
 34
1.0000000000E+20
 15
-1.0000000000E+20
 25
-1.0000000000E+20
 35
-1.0000000000E+20
146
0.0
 13
0.0
 23
0.0
 33
0.0
 16
1.0
 26
0.0
 36
0.0
 17
0.0
 27
1.0
 37
0.0
 76
     0
330
1B
  0
LAYOUT
  5
26
102
{ACAD_REACTORS
330
1A
102
}
330
1A
100
AcDbPlotSettings
  1

  2
none_device
  4

  6

 40
0.0
 41
0.0
 42
0.0
 43
0.0
 44
0.0
 45
0.0
 46
0.0
 47
0.0
 48
0.0
 49
0.0
140
0.0
141
0.0
142
1.0
143
1.0
 70
   688
 72
     0
 73
     0
 74
     5
  7

 75
    16
147
1.0
148
0.0
149
0.0
100
AcDbLayout
  1
Layout2
 70
     1
 71
     2
 10
0.0
 20
0.0
 11
0.0
 21
0.0
 12
0.0
 22
0.0
 32
0.0
 14
0.0
 24
0.0
 34
0.0
 15
0.0
 25
0.0
 35
0.0
146
0.0
 13
0.0
 23
0.0
 33
0.0
 16
1.0
 26
0.0
 36
0.0
 17
0.0
 27
1.0
 37
0.0
 76
     0
330
23
  0
LAYOUT
  5
22
102
{ACAD_REACTORS
330
1A
102
}
330
1A
100
AcDbPlotSettings
  1

  2
none_device
  4

  6

 40
0.0
 41
0.0
 42
0.0
 43
0.0
 44
0.0
 45
0.0
 46
0.0
 47
0.0
 48
0.0
 49
0.0
140
0.0
141
0.0
142
1.0
143
1.0
 70
  1712
 72
     0
 73
     0
 74
     0
  7

 75
     0
147
1.0
148
0.0
149
0.0
100
AcDbLayout
  1
Model
 70
     1
 71
     0
 10
0.0
 20
0.0
 11
420.0
 21
297.0
 12
0.0
 22
0.0
 32
0.0
 14
0.0
 24
0.0
 34
0.0
 15
420.0
 25
297.0
 35
0.0
146
0.0
 13
0.0
 23
0.0
 33
0.0
 16
1.0
 26
0.0
 36
0.0
 17
0.0
 27
1.0
 37
0.0
 76
     0
330
1F
331
29
  0
MLINESTYLE
  5
18
102
{ACAD_REACTORS
330
17
102
}
330
17
100
AcDbMlineStyle
  2
Standard
 70
     0
  3

 62
   256
 51
90.0
 52
90.0
 71
     2
 49
0.5
 62
   256
  6
BYLAYER
 49
-0.5
 62
   256
  6
BYLAYER
  0
ACDBPLACEHOLDER
  5
F
102
{ACAD_REACTORS
330
E
102
}
330
E
  0
ENDSEC
  0
EOF
