  0
SECTION
  2
HEADER
  9
$ACADVER
  1
AC1015
  9
$ACADMAINTVER
 70
     6
  9
$DWGCODEPAGE
  3
DOS932
  9
$INSBASE
 10
0.0
 20
0.0
 30
0.0
  9
$EXTMIN
 10
0.0
 20
0.0
 30
0.0
  9
$EXTMAX
 10
210.0
 20
297.0
 30
0.0
  9
$LIMMIN
 10
0.0
 20
0.0
  9
$LIMMAX
 10
210.0
 20
297.0
  9
$ORTHOMODE
 70
     0
  9
$REGENMODE
 70
     1
  9
$FILLMODE
 70
     1
  9
$QTEXTMODE
 70
     0
  9
$MIRRTEXT
 70
     1
  9
$LTSCALE
 40
1.0
  9
$ATTMODE
 70
     1
  9
$TEXTSIZE
 40
3.5
  9
$TRACEWID
 40
1.0
  9
$TEXTSTYLE
  7
Standard
  9
$CLAYER
  8
0
  9
$CELTYPE
  6
ByLayer
  9
$CECOLOR
 62
   256
  9
$CELTSCALE
 40
1.0
  9
$DISPSILH
 70
     0
  9
$DIMSCALE
 40
1.0
  9
$DIMASZ
 40
3.5
  9
$DIMEXO
 40
1.0
  9
$DIMDLI
 40
3.75
  9
$DIMRND
 40
0.0
  9
$DIMDLE
 40
0.0
  9
$DIMEXE
 40
1.0
  9
$DIMTP
 40
0.0
  9
$DIMTM
 40
0.0
  9
$DIMTXT
 40
3.5
  9
$DIMCEN
 40
2.5
  9
$DIMTSZ
 40
0.0
  9
$DIMTOL
 70
     0
  9
$DIMLIM
 70
     0
  9
$DIMTIH
 70
     1
  9
$DIMTOH
 70
     1
  9
$DIMSE1
 70
     0
  9
$DIMSE2
 70
     0
  9
$DIMTAD
 70
     1
  9
$DIMZIN
 70
     0
  9
$DIMBLK
  1

  9
$DIMASO
 70
     1
  9
$DIMSHO
 70
     1
  9
$DIMPOST
  1

  9
$DIMAPOST
  1

  9
$DIMALT
 70
     0
  9
$DIMALTD
 70
     3
  9
$DIMALTF
 40
0.0393700787
  9
$DIMLFAC
 40
20.0
  9
$DIMTOFL
 70
     1
  9
$DIMTVP
 40
0.0
  9
$DIMTIX
 70
     0
  9
$DIMSOXD
 70
     0
  9
$DIMSAH
 70
     0
  9
$DIMBLK1
  1

  9
$DIMBLK2
  1

  9
$DIMSTYLE
  2
ISO-25
  9
$DIMCLRD
 70
     0
  9
$DIMCLRE
 70
     0
  9
$DIMCLRT
 70
     0
  9
$DIMTFAC
 40
1.0
  9
$DIMGAP
 40
1.524
  9
$DIMJUST
 70
     0
  9
$DIMSD1
 70
     0
  9
$DIMSD2
 70
     0
  9
$DIMTOLJ
 70
     0
  9
$DIMTZIN
 70
     0
  9
$DIMALTZ
 70
     0
  9
$DIMALTTZ
 70
     0
  9
$DIMUPT
 70
     0
  9
$DIMDEC
 70
     2
  9
$DIMTDEC
 70
     2
  9
$DIMALTU
 70
     2
  9
$DIMALTTD
 70
     3
  9
$DIMTXSTY
  7
Standard
  9
$DIMAUNIT
 70
     0
  9
$DIMADEC
 70
     2
  9
$DIMALTRND
 40
0.0
  9
$DIMAZIN
 70
     0
  9
$DIMDSEP
 70
    44
  9
$DIMATFIT
 70
     3
  9
$DIMFRAC
 70
     0
  9
$DIMLDRBLK
  1

  9
$DIMLUNIT
 70
     2
  9
$DIMLWD
 70
    -2
  9
$DIMLWE
 70
    -2
  9
$DIMTMOVE
 70
     0
  9
$LUNITS
 70
     2
  9
$LUPREC
 70
     2
  9
$SKETCHINC
 40
1.0
  9
$FILLETRAD
 40
10.0
  9
$AUNITS
 70
     0
  9
$AUPREC
 70
     2
  9
$MENU
  1
.
  9
$ELEVATION
 40
0.0
  9
$PELEVATION
 40
0.0
  9
$THICKNESS
 40
0.0
  9
$LIMCHECK
 70
     0
  9
$CHAMFERA
 40
10.0
  9
$CHAMFERB
 40
10.0
  9
$CHAMFERC
 40
20.0
  9
$CHAMFERD
 40
0.0
  9
$SKPOLY
 70
     0
  9
$TDCREATE
 40
2456434.458145972
  9
$TDUCREATE
 40
2456434.083145972
  9
$TDUPDATE
 40
2456434.458145984
  9
$TDUUPDATE
 40
2456434.083145984
  9
$TDINDWG
 40
0.0000000116
  9
$TDUSRTIMER
 40
0.0000000116
  9
$USRTIMER
 70
     1
  9
$ANGBASE
 50
0.0
  9
$ANGDIR
 70
     0
  9
$PDMODE
 70
     0
  9
$PDSIZE
 40
-1.0
  9
$PLINEWID
 40
0.0
  9
$SPLFRAME
 70
     0
  9
$SPLINETYPE
 70
     6
  9
$SPLINESEGS
 70
     8
  9
$HANDSEED
  5
4EF
  9
$SURFTAB1
 70
     6
  9
$SURFTAB2
 70
     6
  9
$SURFTYPE
 70
     6
  9
$SURFU
 70
     6
  9
$SURFV
 70
     6
  9
$UCSBASE
  2

  9
$UCSNAME
  2

  9
$UCSORG
 10
0.0
 20
0.0
 30
0.0
  9
$UCSXDIR
 10
1.0
 20
0.0
 30
0.0
  9
$UCSYDIR
 10
0.0
 20
1.0
 30
0.0
  9
$UCSORTHOREF
  2

  9
$UCSORTHOVIEW
 70
     0
  9
$UCSORGTOP
 10
0.0
 20
0.0
 30
0.0
  9
$UCSORGBOTTOM
 10
0.0
 20
0.0
 30
0.0
  9
$UCSORGLEFT
 10
0.0
 20
0.0
 30
0.0
  9
$UCSORGRIGHT
 10
0.0
 20
0.0
 30
0.0
  9
$UCSORGFRONT
 10
0.0
 20
0.0
 30
0.0
  9
$UCSORGBACK
 10
0.0
 20
0.0
 30
0.0
  9
$PUCSBASE
  2

  9
$PUCSNAME
  2

  9
$PUCSORG
 10
0.0
 20
0.0
 30
0.0
  9
$PUCSXDIR
 10
1.0
 20
0.0
 30
0.0
  9
$PUCSYDIR
 10
0.0
 20
1.0
 30
0.0
  9
$PUCSORTHOREF
  2

  9
$PUCSORTHOVIEW
 70
     0
  9
$PUCSORGTOP
 10
0.0
 20
0.0
 30
0.0
  9
$PUCSORGBOTTOM
 10
0.0
 20
0.0
 30
0.0
  9
$PUCSORGLEFT
 10
0.0
 20
0.0
 30
0.0
  9
$PUCSORGRIGHT
 10
0.0
 20
0.0
 30
0.0
  9
$PUCSORGFRONT
 10
0.0
 20
0.0
 30
0.0
  9
$PUCSORGBACK
 10
0.0
 20
0.0
 30
0.0
  9
$USERI1
 70
     0
  9
$USERI2
 70
     0
  9
$USERI3
 70
     0
  9
$USERI4
 70
     0
  9
$USERI5
 70
     0
  9
$USERR1
 40
0.0
  9
$USERR2
 40
0.0
  9
$USERR3
 40
0.0
  9
$USERR4
 40
0.0
  9
$USERR5
 40
0.0
  9
$WORLDVIEW
 70
     1
  9
$SHADEDGE
 70
     3
  9
$SHADEDIF
 70
    70
  9
$TILEMODE
 70
     1
  9
$MAXACTVP
 70
    64
  9
$PINSBASE
 10
0.0
 20
0.0
 30
0.0
  9
$PLIMCHECK
 70
     0
  9
$PEXTMIN
 10
1.0000000000E+20
 20
1.0000000000E+20
 30
1.0000000000E+20
  9
$PEXTMAX
 10
-1.0000000000E+20
 20
-1.0000000000E+20
 30
-1.0000000000E+20
  9
$PLIMMIN
 10
0.0
 20
0.0
  9
$PLIMMAX
 10
420.0
 20
297.0
  9
$UNITMODE
 70
     0
  9
$VISRETAIN
 70
     1
  9
$PLINEGEN
 70
     0
  9
$PSLTSCALE
 70
     1
  9
$TREEDEPTH
 70
  3020
  9
$CMLSTYLE
  2
Standard
  9
$CMLJUST
 70
     0
  9
$CMLSCALE
 40
20.0
  9
$PROXYGRAPHICS
 70
     1
  9
$MEASUREMENT
 70
     1
  9
$CELWEIGHT
370
    -1
  9
$ENDCAPS
280
     0
  9
$JOINSTYLE
280
     0
  9
$LWDISPLAY
290
     1
  9
$INSUNITS
 70
     4
  9
$HYPERLINKBASE
  1

  9
$STYLESHEET
  1

  9
$XEDIT
290
     1
  9
$CEPSNTYPE
380
     0
  9
$PSTYLEMODE
290
     1
  9
$FINGERPRINTGUID
  2
{E3E63F8A-B9F8-45EC-B2E4-6C7F387AA923}
  9
$VERSIONGUID
  2
{FAEB1C32-E019-11D5-929B-00C0DF256EC4}
  9
$EXTNAMES
290
     1
  9
$PSVPSCALE
 40
0.0
  9
$OLESTARTUP
290
     0
  0
ENDSEC
  0
SECTION
  2
CLASSES
  0
CLASS
  1
ACDBDICTIONARYWDFLT
  2
AcDbDictionaryWithDefault
  3
ObjectDBX Classes
 90
        0
280
     0
281
     0
  0
CLASS
  1
VISUALSTYLE
  2
AcDbVisualStyle
  3
ObjectDBX Classes
 90
     4095
280
     0
281
     0
  0
CLASS
  1
MATERIAL
  2
AcDbMaterial
  3
ObjectDBX Classes
 90
     1153
280
     0
281
     0
  0
CLASS
  1
ACDBPLACEHOLDER
  2
AcDbPlaceHolder
  3
ObjectDBX Classes
 90
        0
280
     0
281
     0
  0
CLASS
  1
LAYOUT
  2
AcDbLayout
  3
ObjectDBX Classes
 90
        0
280
     0
281
     0
  0
ENDSEC
  0
SECTION
  2
TABLES
  0
TABLE
  2
VPORT
  5
8
330
0
100
AcDbSymbolTable
 70
     1
  0
VPORT
  5
29
330
8
100
AcDbSymbolTableRecord
100
AcDbViewportTableRecord
  2
*Active
 70
     0
 10
0.0
 20
0.0
 11
1.0
 21
1.0
 12
105.0
 22
148.5
 13
0.0
 23
0.0
 14
10.0
 24
10.0
 15
10.0
 25
10.0
 16
0.0
 26
0.0
 36
1.0
 17
0.0
 27
0.0
 37
0.0
 40
297.0
 41
0.7070707071
 42
50.0
 43
0.0
 44
0.0
 50
0.0
 51
0.0
 71
     0
 72
  2000
 73
     1
 74
     3
 75
     0
 76
     0
 77
     0
 78
     0
281
     0
 65
     1
110
0.0
120
0.0
130
0.0
111
1.0
121
0.0
131
0.0
112
0.0
122
1.0
132
0.0
 79
     0
146
0.0
  0
ENDTAB
  0
TABLE
  2
LTYPE
  5
5
330
0
100
AcDbSymbolTable
 70
     6
  0
LTYPE
  5
14
330
5
100
AcDbSymbolTableRecord
100
AcDbLinetypeTableRecord
  2
ByBlock
 70
     0
  3

 72
    65
 73
     0
 40
0.0
  0
LTYPE
  5
15
330
5
100
AcDbSymbolTableRecord
100
AcDbLinetypeTableRecord
  2
ByLayer
 70
     0
  3

 72
    65
 73
     0
 40
0.0
  0
LTYPE
  5
16
330
5
100
AcDbSymbolTableRecord
100
AcDbLinetypeTableRecord
  2
Continuous
 70
     0
  3
Solid line
 72
    65
 73
     0
 40
0.0
  0
LTYPE
  5
3F
330
5
100
AcDbSymbolTableRecord
100
AcDbLinetypeTableRecord
  2
HIDDEN
 70
     0
  3
Hidden __ __ __ __ __ __ __ __ __ __ __ __ __ __
 72
    65
 73
     2
 40
1.905
 49
1.27
 74
     0
 49
-0.635
 74
     0
  0
LTYPE
  5
40
330
5
100
AcDbSymbolTableRecord
100
AcDbLinetypeTableRecord
  2
PHANTOM
 70
     0
  3
Phantom ______  __  __  ______  __  __  ______
 72
    65
 73
     6
 40
12.7
 49
6.35
 74
     0
 49
-1.27
 74
     0
 49
1.27
 74
     0
 49
-1.27
 74
     0
 49
1.27
 74
     0
 49
-1.27
 74
     0
  0
LTYPE
  5
41
330
5
100
AcDbSymbolTableRecord
100
AcDbLinetypeTableRecord
  2
CENTER
 70
     0
  3
Center ____ _ ____ _ ____ _ ____ _ ____ _ ____
 72
    65
 73
     4
 40
10.16
 49
6.35
 74
     0
 49
-1.27
 74
     0
 49
1.27
 74
     0
 49
-1.27
 74
     0
  0
LTYPE
  5
42
330
5
100
AcDbSymbolTableRecord
100
AcDbLinetypeTableRecord
  2
CENTERX2
 70
     0
  3
Center (2x) ________  __  ________  __  _____
 72
    65
 73
     4
 40
20.32
 49
12.7
 74
     0
 49
-2.54
 74
     0
 49
2.54
 74
     0
 49
-2.54
 74
     0
  0
LTYPE
  5
43
330
5
100
AcDbSymbolTableRecord
100
AcDbLinetypeTableRecord
  2
DOT2
 70
     0
  3
Dot (.5x) ........................................
 72
    65
 73
     2
 40
0.635
 49
0.0
 74
     0
 49
-0.635
 74
     0
  0
ENDTAB
  0
TABLE
  2
LAYER
  5
2
330
0
100
AcDbSymbolTable
 70
     2
  0
LAYER
  5
10
330
2
100
AcDbSymbolTableRecord
100
AcDbLayerTableRecord
  2
0
 70
     0
 62
     7
  6
Continuous
370
    -3
390
F
  0
LAYER
  5
44
330
2
100
AcDbSymbolTableRecord
100
AcDbLayerTableRecord
  2
FORMAT
 70
     0
 62
     7
  6
Continuous
370
    -3
390
F
  0
ENDTAB
  0
TABLE
  2
STYLE
  5
3
330
0
100
AcDbSymbolTable
 70
     2
  0
STYLE
  5
11
330
3
100
AcDbSymbolTableRecord
100
AcDbTextStyleTableRecord
  2
Standard
 70
     0
 40
0.0
 41
1.0
 50
0.0
 71
     0
 42
2.5
  3
txt
  4
bigfont
  0
STYLE
  5
1EE
330
3
100
AcDbSymbolTableRecord
100
AcDbTextStyleTableRecord
  2
SLDTEXTSTYLE0
 70
     0
 40
0.0
 41
0.7
 50
0.0
 71
     0
 42
0.2
  3
TXT
  4
bigfont
  0
ENDTAB
  0
TABLE
  2
VIEW
  5
6
330
0
100
AcDbSymbolTable
 70
     0
  0
ENDTAB
  0
TABLE
  2
UCS
  5
7
330
0
100
AcDbSymbolTable
 70
     0
  0
ENDTAB
  0
TABLE
  2
APPID
  5
9
330
0
100
AcDbSymbolTable
 70
     1
  0
APPID
  5
12
330
9
100
AcDbSymbolTableRecord
100
AcDbRegAppTableRecord
  2
ACAD
 70
     0
  0
ENDTAB
  0
TABLE
  2
DIMSTYLE
  5
A
330
0
100
AcDbSymbolTable
 70
     5
100
AcDbDimStyleTable
  0
DIMSTYLE
105
27
330
A
100
AcDbSymbolTableRecord
100
AcDbDimStyleTableRecord
  2
ISO-25
 70
     0
 41
2.5
 42
0.625
 43
3.75
 44
1.25
 73
     0
 74
     0
 77
     1
 78
     8
140
2.5
141
2.5
143
0.0393700787
147
0.625
171
     3
172
     1
178
     0
271
     2
272
     2
274
     3
278
    44
283
     0
284
     8
340
11
  0
DIMSTYLE
105
1EF
102
{ACAD_REACTORS
330
1ED
330
20C
330
216
330
220
330
22A
330
234
330
23E
330
248
330
252
330
478
330
482
330
48C
330
496
330
4A0
330
4AA
330
4B4
102
}
330
A
100
AcDbSymbolTableRecord
100
AcDbDimStyleTableRecord
  2
SLDDIMSTYLE0
 70
     0
 41
3.5
 44
0.0
 45
0.000000001
 73
     0
 74
     0
 77
     3
 78
    12
 79
     3
140
3.5
147
0.875
173
     1
178
     0
271
     2
272
     2
276
     2
284
    12
340
1EE
341
1F0
343
1F0
344
1F0
  0
DIMSTYLE
105
200
102
{ACAD_REACTORS
330
1FF
102
}
330
A
100
AcDbSymbolTableRecord
100
AcDbDimStyleTableRecord
  2
SLDDIMSTYLE1
 70
     0
 41
3.5
 44
0.0
 45
0.000000001
 73
     0
 74
     0
 77
     3
 78
    12
 79
     3
140
3.5
147
0.875
172
     1
173
     1
178
     0
271
     2
272
     2
276
     2
284
    12
289
     0
340
1EE
341
1F0
343
1F0
344
1F0
  0
DIMSTYLE
105
25D
102
{ACAD_REACTORS
330
25C
330
464
330
46E
102
}
330
A
100
AcDbSymbolTableRecord
100
AcDbDimStyleTableRecord
  2
SLDDIMSTYLE2
 70
     0
 41
3.5
 44
0.0
 45
0.000000001
 73
     0
 74
     0
 77
     3
 78
    12
 79
     3
140
3.5
147
0.875
173
     1
178
     0
271
     0
272
     0
276
     2
284
    12
340
1EE
341
1F0
343
1F0
344
1F0
  0
DIMSTYLE
105
4C0
330
A
100
AcDbSymbolTableRecord
100
AcDbDimStyleTableRecord
  2
SLDDIMSTYLE3
 70
     0
 41
3.5
 44
0.0
 45
0.000000001
140
0.0
146
3.5
147
0.0
173
     1
178
     0
271
     0
272
     0
276
     2
340
11
341
1F0
343
1F0
344
1F0
  0
ENDTAB
  0
TABLE
  2
BLOCK_RECORD
  5
1
330
0
100
AcDbSymbolTable
 70
    33
  0
BLOCK_RECORD
  5
1F
330
1
100
AcDbSymbolTableRecord
100
AcDbBlockTableRecord
  2
*Model_Space
340
22
  0
BLOCK_RECORD
  5
1B
330
1
100
AcDbSymbolTableRecord
100
AcDbBlockTableRecord
  2
*Paper_Space
340
1E
  0
BLOCK_RECORD
  5
23
330
1
100
AcDbSymbolTableRecord
100
AcDbBlockTableRecord
  2
*Paper_Space0
340
26
  0
BLOCK_RECORD
  5
1F0
330
1
100
AcDbSymbolTableRecord
100
AcDbBlockTableRecord
  2
_OPEN30
340
0
102
{BLKREFS
331
1F9
331
1FA
331
204
331
205
331
210
331
211
331
21A
331
21B
331
224
331
225
331
22E
331
22F
331
238
331
239
331
242
331
243
331
24C
331
24D
331
256
331
257
331
261
331
262
331
273
331
468
331
469
331
472
331
473
331
47C
331
47D
331
486
331
487
331
490
331
491
331
49A
331
49B
331
4A4
331
4A5
331
4AE
331
4AF
331
4B8
331
4B9
102
}
  0
BLOCK_RECORD
  5
1F6
330
1
100
AcDbSymbolTableRecord
100
AcDbBlockTableRecord
  2
*D2
340
0
  0
BLOCK_RECORD
  5
201
330
1
100
AcDbSymbolTableRecord
100
AcDbBlockTableRecord
  2
*D3
340
0
  0
BLOCK_RECORD
  5
20D
330
1
100
AcDbSymbolTableRecord
100
AcDbBlockTableRecord
  2
*D4
340
0
  0
BLOCK_RECORD
  5
217
330
1
100
AcDbSymbolTableRecord
100
AcDbBlockTableRecord
  2
*D5
340
0
  0
BLOCK_RECORD
  5
221
330
1
100
AcDbSymbolTableRecord
100
AcDbBlockTableRecord
  2
*D6
340
0
  0
BLOCK_RECORD
  5
22B
330
1
100
AcDbSymbolTableRecord
100
AcDbBlockTableRecord
  2
*D7
340
0
  0
BLOCK_RECORD
  5
235
330
1
100
AcDbSymbolTableRecord
100
AcDbBlockTableRecord
  2
*D8
340
0
  0
BLOCK_RECORD
  5
23F
330
1
100
AcDbSymbolTableRecord
100
AcDbBlockTableRecord
  2
*D9
340
0
  0
BLOCK_RECORD
  5
249
330
1
100
AcDbSymbolTableRecord
100
AcDbBlockTableRecord
  2
*D10
340
0
  0
BLOCK_RECORD
  5
253
330
1
100
AcDbSymbolTableRecord
100
AcDbBlockTableRecord
  2
*D11
340
0
  0
BLOCK_RECORD
  5
25E
330
1
100
AcDbSymbolTableRecord
100
AcDbBlockTableRecord
  2
*D12
340
0
  0
BLOCK_RECORD
  5
267
330
1
100
AcDbSymbolTableRecord
100
AcDbBlockTableRecord
  2
SW_NOTE_0
340
0
102
{BLKREFS
331
271
102
}
  0
BLOCK_RECORD
  5
274
330
1
100
AcDbSymbolTableRecord
100
AcDbBlockTableRecord
  2
SW_CENTERMARKSYMBOL_0
340
0
102
{BLKREFS
331
27F
102
}
  0
BLOCK_RECORD
  5
280
330
1
100
AcDbSymbolTableRecord
100
AcDbBlockTableRecord
  2
SW_CENTERMARKSYMBOL_1
340
0
102
{BLKREFS
331
28B
102
}
  0
BLOCK_RECORD
  5
28C
330
1
100
AcDbSymbolTableRecord
100
AcDbBlockTableRecord
  2
SW_CENTERMARKSYMBOL_2
340
0
102
{BLKREFS
331
297
102
}
  0
BLOCK_RECORD
  5
298
330
1
100
AcDbSymbolTableRecord
100
AcDbBlockTableRecord
  2
SW_CENTERMARKSYMBOL_3
340
0
102
{BLKREFS
331
2A3
102
}
  0
BLOCK_RECORD
  5
2A4
330
1
100
AcDbSymbolTableRecord
100
AcDbBlockTableRecord
  2
SW_CENTERMARKSYMBOL_4
340
0
102
{BLKREFS
331
2AF
102
}
  0
BLOCK_RECORD
  5
2B0
330
1
100
AcDbSymbolTableRecord
100
AcDbBlockTableRecord
  2
SW_CENTERMARKSYMBOL_5
340
0
102
{BLKREFS
331
2D3
102
}
  0
BLOCK_RECORD
  5
465
330
1
100
AcDbSymbolTableRecord
100
AcDbBlockTableRecord
  2
*D20
340
0
  0
BLOCK_RECORD
  5
46F
330
1
100
AcDbSymbolTableRecord
100
AcDbBlockTableRecord
  2
*D21
340
0
  0
BLOCK_RECORD
  5
479
330
1
100
AcDbSymbolTableRecord
100
AcDbBlockTableRecord
  2
*D22
340
0
  0
BLOCK_RECORD
  5
483
330
1
100
AcDbSymbolTableRecord
100
AcDbBlockTableRecord
  2
*D23
340
0
  0
BLOCK_RECORD
  5
48D
330
1
100
AcDbSymbolTableRecord
100
AcDbBlockTableRecord
  2
*D24
340
0
  0
BLOCK_RECORD
  5
497
330
1
100
AcDbSymbolTableRecord
100
AcDbBlockTableRecord
  2
*D25
340
0
  0
BLOCK_RECORD
  5
4A1
330
1
100
AcDbSymbolTableRecord
100
AcDbBlockTableRecord
  2
*D26
340
0
  0
BLOCK_RECORD
  5
4AB
330
1
100
AcDbSymbolTableRecord
100
AcDbBlockTableRecord
  2
*D27
340
0
  0
BLOCK_RECORD
  5
4B5
330
1
100
AcDbSymbolTableRecord
100
AcDbBlockTableRecord
  2
*D28
340
0
  0
BLOCK_RECORD
  5
4C2
330
1
100
AcDbSymbolTableRecord
100
AcDbBlockTableRecord
  2
SW_NOTE_1
340
0
102
{BLKREFS
331
4C8
102
}
  0
BLOCK_RECORD
  5
4CA
330
1
100
AcDbSymbolTableRecord
100
AcDbBlockTableRecord
  2
SW_CENTERMARKSYMBOL_6
340
0
102
{BLKREFS
331
4D5
102
}
  0
BLOCK_RECORD
  5
4D6
330
1
100
AcDbSymbolTableRecord
100
AcDbBlockTableRecord
  2
SW_CENTERMARKSYMBOL_7
340
0
102
{BLKREFS
331
4E1
102
}
  0
BLOCK_RECORD
  5
4E2
330
1
100
AcDbSymbolTableRecord
100
AcDbBlockTableRecord
  2
SW_CENTERMARKSYMBOL_8
340
0
102
{BLKREFS
331
4ED
102
}
  0
ENDTAB
  0
ENDSEC
  0
SECTION
  2
BLOCKS
  0
BLOCK
  5
20
330
1F
100
AcDbEntity
  8
0
100
AcDbBlockBegin
  2
*Model_Space
 70
     0
 10
0.0
 20
0.0
 30
0.0
  3
*Model_Space
  1

  0
ENDBLK
  5
21
330
1F
100
AcDbEntity
  8
0
100
AcDbBlockEnd
  0
BLOCK
  5
1C
330
1B
100
AcDbEntity
 67
     1
  8
0
100
AcDbBlockBegin
  2
*Paper_Space
 70
     0
 10
0.0
 20
0.0
 30
0.0
  3
*Paper_Space
  1

  0
ENDBLK
  5
1D
330
1B
100
AcDbEntity
 67
     1
  8
0
100
AcDbBlockEnd
  0
BLOCK
  5
24
330
23
100
AcDbEntity
  8
0
100
AcDbBlockBegin
  2
*Paper_Space0
 70
     0
 10
0.0
 20
0.0
 30
0.0
  3
*Paper_Space0
  1

  0
ENDBLK
  5
25
330
23
100
AcDbEntity
  8
0
100
AcDbBlockEnd
  0
BLOCK
  5
1F1
330
1F0
100
AcDbEntity
  8
0
100
AcDbBlockBegin
  2
_OPEN30
 70
     0
 10
0.0
 20
0.0
 30
0.0
  3
_OPEN30
  1

  0
LINE
  5
1F3
330
1F0
100
AcDbEntity
  8
0
  6
ByBlock
 62
     0
370
    -2
100
AcDbLine
 10
-1.0
 20
0.267949
 30
0.0
 11
0.0
 21
0.0
 31
0.0
  0
LINE
  5
1F4
330
1F0
100
AcDbEntity
  8
0
  6
ByBlock
 62
     0
370
    -2
100
AcDbLine
 10
0.0
 20
0.0
 30
0.0
 11
-1.0
 21
-0.267949
 31
0.0
  0
LINE
  5
1F5
330
1F0
100
AcDbEntity
  8
0
  6
ByBlock
 62
     0
370
    -2
100
AcDbLine
 10
0.0
 20
0.0
 30
0.0
 11
-1.0
 21
0.0
 31
0.0
  0
ENDBLK
  5
1F2
330
1F0
100
AcDbEntity
  8
0
100
AcDbBlockEnd
  0
BLOCK
  5
1F7
330
1F6
100
AcDbEntity
  8
0
100
AcDbBlockBegin
  2
*D2
 70
     1
 10
0.0
 20
0.0
 30
0.0
  3
*D2
  1

  0
INSERT
  5
1F9
330
1F6
100
AcDbEntity
  8
0
  6
Continuous
 62
     7
370
     0
100
AcDbBlockReference
  2
_OPEN30
 10
-267.5357350185
 20
473.5458226934
 30
-210.8960379901
 41
3.5
 42
3.5
 50
180.0
  0
INSERT
  5
1FA
330
1F6
100
AcDbEntity
  8
0
  6
Continuous
 62
     7
370
     0
100
AcDbBlockReference
  2
_OPEN30
 10
481.4642649815
 20
473.5458226934
 30
-210.8960379901
 41
3.5
 42
3.5
 50
0.0
  0
LINE
  5
1FB
330
1F6
100
AcDbEntity
  8
0
  6
Continuous
 62
     7
370
     0
100
AcDbLine
 10
-267.5357350185
 20
531.0458226934
 30
0.0
 11
-267.5357350185
 21
472.5458226934
 31
0.0
  0
LINE
  5
1FC
330
1F6
100
AcDbEntity
  8
0
  6
Continuous
 62
     7
370
     0
100
AcDbLine
 10
481.4642649815
 20
531.0458226934
 30
0.0
 11
481.4642649815
 21
472.5458226934
 31
0.0
  0
LINE
  5
1FD
330
1F6
100
AcDbEntity
  8
0
  6
Continuous
 62
     7
370
     0
100
AcDbLine
 10
-267.5357350185
 20
473.5458226934
 30
0.0
 11
481.4642649815
 21
473.5458226934
 31
0.0
  0
MTEXT
  5
1FE
330
1F6
100
AcDbEntity
  8
0
  6
Continuous
 62
     7
370
     0
100
AcDbMText
 10
82.2668788628
 20
478.0575595498
 30
-210.8960379901
 40
3.5
 41
0.0
 71
     1
 72
     1
  1
749
  7
SLDTEXTSTYLE0
 73
     1
 44
1.0
  0
ENDBLK
  5
1F8
330
1F6
100
AcDbEntity
  8
0
100
AcDbBlockEnd
  0
BLOCK
  5
202
330
201
100
AcDbEntity
  8
0
100
AcDbBlockBegin
  2
*D3
 70
     1
 10
0.0
 20
0.0
 30
0.0
  3
*D3
  1

  0
INSERT
  5
204
330
201
100
AcDbEntity
  8
0
  6
Continuous
 62
     7
370
     0
100
AcDbBlockReference
  2
_OPEN30
 10
488.6642649815
 20
473.5458226934
 30
-210.8960379901
 41
3.5
 42
3.5
 50
180.0
  0
INSERT
  5
205
330
201
100
AcDbEntity
  8
0
  6
Continuous
 62
     7
370
     0
100
AcDbBlockReference
  2
_OPEN30
 10
481.4642649815
 20
473.5458226934
 30
-210.8960379901
 41
3.5
 42
3.5
 50
0.0
  0
LINE
  5
206
330
201
100
AcDbEntity
  8
0
  6
Continuous
 62
     7
370
     0
100
AcDbLine
 10
488.6642649815
 20
687.1981018396
 30
0.0
 11
488.6642649815
 21
472.5458226934
 31
0.0
  0
LINE
  5
207
330
201
100
AcDbEntity
  8
0
  6
Continuous
 62
     7
370
     0
100
AcDbLine
 10
481.4642649815
 20
531.0458226934
 30
0.0
 11
481.4642649815
 21
472.5458226934
 31
0.0
  0
LINE
  5
208
330
201
100
AcDbEntity
  8
0
  6
Continuous
 62
     7
370
     0
100
AcDbLine
 10
488.6642649815
 20
473.5458226934
 30
0.0
 11
524.6912068284
 21
473.5458226934
 31
0.0
  0
LINE
  5
209
330
201
100
AcDbEntity
  8
0
  6
Continuous
 62
     7
370
     0
100
AcDbLine
 10
488.6642649815
 20
473.5458226934
 30
0.0
 11
481.4642649815
 21
473.5458226934
 31
0.0
  0
LINE
  5
20A
330
201
100
AcDbEntity
  8
0
  6
Continuous
 62
     7
370
     0
100
AcDbLine
 10
481.4642649815
 20
473.5458226934
 30
0.0
 11
474.7334957507
 21
473.5458226934
 31
0.0
  0
MTEXT
  5
20B
330
201
100
AcDbEntity
  8
0
  6
Continuous
 62
     7
370
     0
100
AcDbMText
 10
517.3412067413
 20
478.0575595498
 30
-210.8960379901
 40
3.5
 41
0.0
 71
     1
 72
     1
  1
7.2
  7
SLDTEXTSTYLE0
 73
     1
 44
1.0
  0
ENDBLK
  5
203
330
201
100
AcDbEntity
  8
0
100
AcDbBlockEnd
  0
BLOCK
  5
20E
330
20D
100
AcDbEntity
  8
0
100
AcDbBlockBegin
  2
*D4
 70
     1
 10
0.0
 20
0.0
 30
0.0
  3
*D4
  1

  0
INSERT
  5
210
330
20D
100
AcDbEntity
  8
0
  6
Continuous
 62
     7
370
     0
100
AcDbBlockReference
  2
_OPEN30
 10
498.6091519338
 20
495.0458226934
 30
-210.8960379901
 41
3.5
 42
3.5
 50
270.0
  0
INSERT
  5
211
330
20D
100
AcDbEntity
  8
0
  6
Continuous
 62
     7
370
     0
100
AcDbBlockReference
  2
_OPEN30
 10
498.6091519338
 20
527.0458226934
 30
-210.8960379901
 41
3.5
 42
3.5
 50
90.0
  0
LINE
  5
212
330
20D
100
AcDbEntity
  8
0
  6
Continuous
 62
     7
370
     0
100
AcDbLine
 10
445.4642649815
 20
495.0458226934
 30
0.0
 11
499.6091519338
 21
495.0458226934
 31
0.0
  0
LINE
  5
213
330
20D
100
AcDbEntity
  8
0
  6
Continuous
 62
     7
370
     0
100
AcDbLine
 10
457.9642649815
 20
527.0458226934
 30
0.0
 11
499.6091519338
 21
527.0458226934
 31
0.0
  0
LINE
  5
214
330
20D
100
AcDbEntity
  8
0
  6
Continuous
 62
     7
370
     0
100
AcDbLine
 10
498.6091519338
 20
495.0458226934
 30
0.0
 11
498.6091519338
 21
527.0458226934
 31
0.0
  0
MTEXT
  5
215
330
20D
100
AcDbEntity
  8
0
  6
Continuous
 62
     7
370
     0
100
AcDbMText
 10
494.0974150775
 20
506.9155396518
 30
-210.8960379901
 40
3.5
 41
0.0
 71
     1
 72
     1
  1
32
  7
SLDTEXTSTYLE0
 11
6.123233995736766E-17
 21
1.0
 31
0.0
 73
     1
 44
1.0
  0
ENDBLK
  5
20F
330
20D
100
AcDbEntity
  8
0
100
AcDbBlockEnd
  0
BLOCK
  5
218
330
217
100
AcDbEntity
  8
0
100
AcDbBlockBegin
  2
*D5
 70
     1
 10
0.0
 20
0.0
 30
0.0
  3
*D5
  1

  0
INSERT
  5
21A
330
217
100
AcDbEntity
  8
0
  6
Continuous
 62
     7
370
     0
100
AcDbBlockReference
  2
_OPEN30
 10
498.6091519338
 20
909.0458226934
 30
-210.8960379901
 41
3.5
 42
3.5
 50
90.0
  0
INSERT
  5
21B
330
217
100
AcDbEntity
  8
0
  6
Continuous
 62
     7
370
     0
100
AcDbBlockReference
  2
_OPEN30
 10
498.6091519338
 20
877.0458226934
 30
-210.8960379901
 41
3.5
 42
3.5
 50
270.0
  0
LINE
  5
21C
330
217
100
AcDbEntity
  8
0
  6
Continuous
 62
     7
370
     0
100
AcDbLine
 10
445.4642649815
 20
909.0458226934
 30
0.0
 11
499.6091519338
 21
909.0458226934
 31
0.0
  0
LINE
  5
21D
330
217
100
AcDbEntity
  8
0
  6
Continuous
 62
     7
370
     0
100
AcDbLine
 10
457.9642649815
 20
877.0458226934
 30
0.0
 11
499.6091519338
 21
877.0458226934
 31
0.0
  0
LINE
  5
21E
330
217
100
AcDbEntity
  8
0
  6
Continuous
 62
     7
370
     0
100
AcDbLine
 10
498.6091519338
 20
909.0458226934
 30
0.0
 11
498.6091519338
 21
877.0458226934
 31
0.0
  0
MTEXT
  5
21F
330
217
100
AcDbEntity
  8
0
  6
Continuous
 62
     7
370
     0
100
AcDbMText
 10
494.0974150775
 20
889.8462129996
 30
-210.8960379901
 40
3.5
 41
0.0
 71
     1
 72
     1
  1
32
  7
SLDTEXTSTYLE0
 11
-7.044195017643634E-15
 21
1.0
 31
0.0
 73
     1
 44
1.0
  0
ENDBLK
  5
219
330
217
100
AcDbEntity
  8
0
100
AcDbBlockEnd
  0
BLOCK
  5
222
330
221
100
AcDbEntity
  8
0
100
AcDbBlockBegin
  2
*D6
 70
     1
 10
0.0
 20
0.0
 30
0.0
  3
*D6
  1

  0
INSERT
  5
224
330
221
100
AcDbEntity
  8
0
  6
Continuous
 62
     7
370
     0
100
AcDbBlockReference
  2
_OPEN30
 10
498.6091519338
 20
877.0458226934
 30
-210.8960379901
 41
3.5
 42
3.5
 50
90.0
  0
INSERT
  5
225
330
221
100
AcDbEntity
  8
0
  6
Continuous
 62
     7
370
     0
100
AcDbBlockReference
  2
_OPEN30
 10
498.6091519338
 20
527.0458226934
 30
-210.8960379901
 41
3.5
 42
3.5
 50
270.0
  0
LINE
  5
226
330
221
100
AcDbEntity
  8
0
  6
Continuous
 62
     7
370
     0
100
AcDbLine
 10
457.9642649815
 20
877.0458226934
 30
0.0
 11
499.6091519338
 21
877.0458226934
 31
0.0
  0
LINE
  5
227
330
221
100
AcDbEntity
  8
0
  6
Continuous
 62
     7
370
     0
100
AcDbLine
 10
457.9642649815
 20
527.0458226934
 30
0.0
 11
499.6091519338
 21
527.0458226934
 31
0.0
  0
LINE
  5
228
330
221
100
AcDbEntity
  8
0
  6
Continuous
 62
     7
370
     0
100
AcDbLine
 10
498.6091519338
 20
877.0458226934
 30
0.0
 11
498.6091519338
 21
527.0458226934
 31
0.0
  0
MTEXT
  5
229
330
221
100
AcDbEntity
  8
0
  6
Continuous
 62
     7
370
     0
100
AcDbMText
 10
494.0974150775
 20
697.2381223418
 30
-210.8960379901
 40
3.5
 41
0.0
 71
     1
 72
     1
  1
350
  7
SLDTEXTSTYLE0
 11
-7.044195017643634E-15
 21
1.0
 31
0.0
 73
     1
 44
1.0
  0
ENDBLK
  5
223
330
221
100
AcDbEntity
  8
0
100
AcDbBlockEnd
  0
BLOCK
  5
22C
330
22B
100
AcDbEntity
  8
0
100
AcDbBlockBegin
  2
*D7
 70
     1
 10
0.0
 20
0.0
 30
0.0
  3
*D7
  1

  0
INSERT
  5
22E
330
22B
100
AcDbEntity
  8
0
  6
Continuous
 62
     7
370
     0
100
AcDbBlockReference
  2
_OPEN30
 10
-235.5357350185
 20
917.1624081512
 30
-210.8960379901
 41
3.5
 42
3.5
 50
180.0
  0
INSERT
  5
22F
330
22B
100
AcDbEntity
  8
0
  6
Continuous
 62
     7
370
     0
100
AcDbBlockReference
  2
_OPEN30
 10
449.4642649815
 20
917.1624081512
 30
-210.8960379901
 41
3.5
 42
3.5
 50
0.0
  0
LINE
  5
230
330
22B
100
AcDbEntity
  8
0
  6
Continuous
 62
     7
370
     0
100
AcDbLine
 10
-235.5357350185
 20
865.5458226934
 30
0.0
 11
-235.5357350185
 21
918.1624081512
 31
0.0
  0
LINE
  5
231
330
22B
100
AcDbEntity
  8
0
  6
Continuous
 62
     7
370
     0
100
AcDbLine
 10
449.4642649815
 20
885.5458226934
 30
0.0
 11
449.4642649815
 21
918.1624081512
 31
0.0
  0
LINE
  5
232
330
22B
100
AcDbEntity
  8
0
  6
Continuous
 62
     7
370
     0
100
AcDbLine
 10
-235.5357350185
 20
917.1624081512
 30
0.0
 11
449.4642649815
 21
917.1624081512
 31
0.0
  0
MTEXT
  5
233
330
22B
100
AcDbEntity
  8
0
  6
Continuous
 62
     7
370
     0
100
AcDbMText
 10
100.3278510613
 20
921.6741450076
 30
-210.8960379901
 40
3.5
 41
0.0
 71
     1
 72
     1
  1
685
  7
SLDTEXTSTYLE0
 73
     1
 44
1.0
  0
ENDBLK
  5
22D
330
22B
100
AcDbEntity
  8
0
100
AcDbBlockEnd
  0
BLOCK
  5
236
330
235
100
AcDbEntity
  8
0
100
AcDbBlockBegin
  2
*D8
 70
     1
 10
0.0
 20
0.0
 30
0.0
  3
*D8
  1

  0
INSERT
  5
238
330
235
100
AcDbEntity
  8
0
  6
Continuous
 62
     7
370
     0
100
AcDbBlockReference
  2
_OPEN30
 10
-274.5432390499
 20
909.0458226934
 30
-210.8960379901
 41
3.5
 42
3.5
 50
90.0
  0
INSERT
  5
239
330
235
100
AcDbEntity
  8
0
  6
Continuous
 62
     7
370
     0
100
AcDbBlockReference
  2
_OPEN30
 10
-274.5432390499
 20
857.0458226934
 30
-210.8960379901
 41
3.5
 42
3.5
 50
270.0
  0
LINE
  5
23A
330
235
100
AcDbEntity
  8
0
  6
Continuous
 62
     7
370
     0
100
AcDbLine
 10
-231.5357350185
 20
909.0458226934
 30
0.0
 11
-275.5432390499
 21
909.0458226934
 31
0.0
  0
LINE
  5
23B
330
235
100
AcDbEntity
  8
0
  6
Continuous
 62
     7
370
     0
100
AcDbLine
 10
-244.0357350185
 20
857.0458226934
 30
0.0
 11
-275.5432390499
 21
857.0458226934
 31
0.0
  0
LINE
  5
23C
330
235
100
AcDbEntity
  8
0
  6
Continuous
 62
     7
370
     0
100
AcDbLine
 10
-274.5432390499
 20
909.0458226934
 30
0.0
 11
-274.5432390499
 21
857.0458226934
 31
0.0
  0
MTEXT
  5
23D
330
235
100
AcDbEntity
  8
0
  6
Continuous
 62
     7
370
     0
100
AcDbMText
 10
-279.0549759063
 20
879.7783740839
 30
-210.8960379901
 40
3.5
 41
0.0
 71
     1
 72
     1
  1
52
  7
SLDTEXTSTYLE0
 11
-7.044195017643634E-15
 21
1.0
 31
0.0
 73
     1
 44
1.0
  0
ENDBLK
  5
237
330
235
100
AcDbEntity
  8
0
100
AcDbBlockEnd
  0
BLOCK
  5
240
330
23F
100
AcDbEntity
  8
0
100
AcDbBlockBegin
  2
*D9
 70
     1
 10
0.0
 20
0.0
 30
0.0
  3
*D9
  1

  0
INSERT
  5
242
330
23F
100
AcDbEntity
  8
0
  6
Continuous
 62
     7
370
     0
100
AcDbBlockReference
  2
_OPEN30
 10
-274.5432390499
 20
857.0458226934
 30
-210.8960379901
 41
3.5
 42
3.5
 50
90.0
  0
INSERT
  5
243
330
23F
100
AcDbEntity
  8
0
  6
Continuous
 62
     7
370
     0
100
AcDbBlockReference
  2
_OPEN30
 10
-274.5432390499
 20
527.0458226934
 30
-210.8960379901
 41
3.5
 42
3.5
 50
270.0
  0
LINE
  5
244
330
23F
100
AcDbEntity
  8
0
  6
Continuous
 62
     7
370
     0
100
AcDbLine
 10
-244.0357350185
 20
857.0458226934
 30
0.0
 11
-275.5432390499
 21
857.0458226934
 31
0.0
  0
LINE
  5
245
330
23F
100
AcDbEntity
  8
0
  6
Continuous
 62
     7
370
     0
100
AcDbLine
 10
-244.0357350185
 20
527.0458226934
 30
0.0
 11
-275.5432390499
 21
527.0458226934
 31
0.0
  0
LINE
  5
246
330
23F
100
AcDbEntity
  8
0
  6
Continuous
 62
     7
370
     0
100
AcDbLine
 10
-274.5432390499
 20
857.0458226934
 30
0.0
 11
-274.5432390499
 21
527.0458226934
 31
0.0
  0
MTEXT
  5
247
330
23F
100
AcDbEntity
  8
0
  6
Continuous
 62
     7
370
     0
100
AcDbMText
 10
-279.0549759063
 20
698.9948780788
 30
-210.8960379901
 40
3.5
 41
0.0
 71
     1
 72
     1
  1
330
  7
SLDTEXTSTYLE0
 11
-7.044195017643634E-15
 21
1.0
 31
0.0
 73
     1
 44
1.0
  0
ENDBLK
  5
241
330
23F
100
AcDbEntity
  8
0
100
AcDbBlockEnd
  0
BLOCK
  5
24A
330
249
100
AcDbEntity
  8
0
100
AcDbBlockBegin
  2
*D10
 70
     1
 10
0.0
 20
0.0
 30
0.0
  3
*D10
  1

  0
INSERT
  5
24C
330
249
100
AcDbEntity
  8
0
  6
Continuous
 62
     7
370
     0
100
AcDbBlockReference
  2
_OPEN30
 10
-274.5432390499
 20
527.0458226934
 30
-210.8960379901
 41
3.5
 42
3.5
 50
90.0
  0
INSERT
  5
24D
330
249
100
AcDbEntity
  8
0
  6
Continuous
 62
     7
370
     0
100
AcDbBlockReference
  2
_OPEN30
 10
-274.5432390499
 20
495.0458226934
 30
-210.8960379901
 41
3.5
 42
3.5
 50
270.0
  0
LINE
  5
24E
330
249
100
AcDbEntity
  8
0
  6
Continuous
 62
     7
370
     0
100
AcDbLine
 10
-244.0357350185
 20
527.0458226934
 30
0.0
 11
-275.5432390499
 21
527.0458226934
 31
0.0
  0
LINE
  5
24F
330
249
100
AcDbEntity
  8
0
  6
Continuous
 62
     7
370
     0
100
AcDbLine
 10
-231.5357350185
 20
495.0458226934
 30
0.0
 11
-275.5432390499
 21
495.0458226934
 31
0.0
  0
LINE
  5
250
330
249
100
AcDbEntity
  8
0
  6
Continuous
 62
     7
370
     0
100
AcDbLine
 10
-274.5432390499
 20
527.0458226934
 30
0.0
 11
-274.5432390499
 21
495.0458226934
 31
0.0
  0
MTEXT
  5
251
330
249
100
AcDbEntity
  8
0
  6
Continuous
 62
     7
370
     0
100
AcDbMText
 10
-279.0549759063
 20
509.3539168655
 30
-210.8960379901
 40
3.5
 41
0.0
 71
     1
 72
     1
  1
32
  7
SLDTEXTSTYLE0
 11
-7.044195017643634E-15
 21
1.0
 31
0.0
 73
     1
 44
1.0
  0
ENDBLK
  5
24B
330
249
100
AcDbEntity
  8
0
100
AcDbBlockEnd
  0
BLOCK
  5
254
330
253
100
AcDbEntity
  8
0
100
AcDbBlockBegin
  2
*D11
 70
     1
 10
0.0
 20
0.0
 30
0.0
  3
*D11
  1

  0
INSERT
  5
256
330
253
100
AcDbEntity
  8
0
  6
Continuous
 62
     7
370
     0
100
AcDbBlockReference
  2
_OPEN30
 10
-282.0711292271
 20
909.0458226934
 30
-210.8960379901
 41
3.5
 42
3.5
 50
90.0
  0
INSERT
  5
257
330
253
100
AcDbEntity
  8
0
  6
Continuous
 62
     7
370
     0
100
AcDbBlockReference
  2
_OPEN30
 10
-282.0711292271
 20
495.0458226934
 30
-210.8960379901
 41
3.5
 42
3.5
 50
270.0
  0
LINE
  5
258
330
253
100
AcDbEntity
  8
0
  6
Continuous
 62
     7
370
     0
100
AcDbLine
 10
-231.5357350185
 20
909.0458226934
 30
0.0
 11
-283.0711292271
 21
909.0458226934
 31
0.0
  0
LINE
  5
259
330
253
100
AcDbEntity
  8
0
  6
Continuous
 62
     7
370
     0
100
AcDbLine
 10
-231.5357350185
 20
495.0458226934
 30
0.0
 11
-283.0711292271
 21
495.0458226934
 31
0.0
  0
LINE
  5
25A
330
253
100
AcDbEntity
  8
0
  6
Continuous
 62
     7
370
     0
100
AcDbLine
 10
-282.0711292271
 20
909.0458226934
 30
0.0
 11
-282.0711292271
 21
495.0458226934
 31
0.0
  0
MTEXT
  5
25B
330
253
100
AcDbEntity
  8
0
  6
Continuous
 62
     7
370
     0
100
AcDbMText
 10
-286.5828660835
 20
697.9268219334
 30
-210.8960379901
 40
3.5
 41
0.0
 71
     1
 72
     1
  1
414
  7
SLDTEXTSTYLE0
 11
-7.044195017643634E-15
 21
1.0
 31
0.0
 73
     1
 44
1.0
  0
ENDBLK
  5
255
330
253
100
AcDbEntity
  8
0
100
AcDbBlockEnd
  0
BLOCK
  5
25F
330
25E
100
AcDbEntity
  8
0
100
AcDbBlockBegin
  2
*D12
 70
     1
 10
0.0
 20
0.0
 30
0.0
  3
*D12
  1

  0
INSERT
  5
261
330
25E
100
AcDbEntity
  8
0
  6
Continuous
 62
     7
370
     0
100
AcDbBlockReference
  2
_OPEN30
 10
504.6642649815
 20
909.0458226934
 30
-210.8960379901
 41
3.5
 42
3.5
 50
90.0
  0
INSERT
  5
262
330
25E
100
AcDbEntity
  8
0
  6
Continuous
 62
     7
370
     0
100
AcDbBlockReference
  2
_OPEN30
 10
504.6642649815
 20
483.5458226934
 30
-210.8960379901
 41
3.5
 42
3.5
 50
270.0
  0
LINE
  5
263
330
25E
100
AcDbEntity
  8
0
  6
Continuous
 62
     7
370
     0
100
AcDbLine
 10
445.4642649815
 20
909.0458226934
 30
0.0
 11
505.6642649815
 21
909.0458226934
 31
0.0
  0
LINE
  5
264
330
25E
100
AcDbEntity
  8
0
  6
Continuous
 62
     7
370
     0
100
AcDbLine
 10
304.9642649815
 20
483.5458226934
 30
0.0
 11
505.6642649815
 21
483.5458226934
 31
0.0
  0
LINE
  5
265
330
25E
100
AcDbEntity
  8
0
  6
Continuous
 62
     7
370
     0
100
AcDbLine
 10
504.6642649815
 20
909.0458226934
 30
0.0
 11
504.6642649815
 21
483.5458226934
 31
0.0
  0
MTEXT
  5
266
330
25E
100
AcDbEntity
  8
0
  6
Continuous
 62
     7
370
     0
100
AcDbMText
 10
500.1525281251
 20
697.2381223418
 30
-210.8960379901
 40
3.5
 41
0.0
 71
     1
 72
     1
  1
426
  7
SLDTEXTSTYLE0
 11
-7.044195017643634E-15
 21
1.0
 31
0.0
 73
     1
 44
1.0
  0
ENDBLK
  5
260
330
25E
100
AcDbEntity
  8
0
100
AcDbBlockEnd
  0
BLOCK
  5
268
330
267
100
AcDbEntity
  8
0
100
AcDbBlockBegin
  2
SW_NOTE_0
 70
     0
 10
0.0
 20
0.0
 30
0.0
  3
SW_NOTE_0
  1

  0
LINE
  5
26A
330
267
100
AcDbEntity
  8
0
  6
Continuous
 62
     0
370
     0
100
AcDbLine
 10
0.0
 20
0.0
 30
0.0
 11
5.7070411317
 21
0.0
 31
0.0
  0
LINE
  5
26B
330
267
100
AcDbEntity
  8
0
  6
Continuous
 62
     0
370
     0
100
AcDbLine
 10
5.7070411317
 20
0.0
 30
0.0
 11
0.0
 21
0.0
 31
0.0
  0
LINE
  5
26C
330
267
100
AcDbEntity
  8
0
  6
Continuous
 62
     0
370
     0
100
AcDbLine
 10
0.0
 20
0.0
 30
0.0
 11
5.7070411317
 21
0.0
 31
0.0
  0
LINE
  5
26D
330
267
100
AcDbEntity
  8
0
  6
Continuous
 62
     0
370
     0
100
AcDbLine
 10
5.7070411317
 20
0.0
 30
0.0
 11
0.0
 21
0.0
 31
0.0
  0
LINE
  5
26E
330
267
100
AcDbEntity
  8
0
  6
Continuous
 62
     0
370
     0
100
AcDbLine
 10
0.0
 20
0.0
 30
0.0
 11
5.7070411317
 21
0.0
 31
0.0
  0
LINE
  5
26F
330
267
100
AcDbEntity
  8
0
  6
Continuous
 62
     0
370
     0
100
AcDbLine
 10
5.7070411317
 20
0.0
 30
0.0
 11
0.0
 21
0.0
 31
0.0
  0
MTEXT
  5
270
330
267
100
AcDbEntity
  8
0
  6
Continuous
 62
     0
370
     0
100
AcDbMText
 10
0.0119807991
 20
3.4220775029
 30
0.0
 40
2.6458333333
 41
0.0
 71
     1
 72
     1
  1
Ｍ８
  7
SLDTEXTSTYLE0
 73
     1
 44
1.0
  0
ENDBLK
  5
269
330
267
100
AcDbEntity
  8
0
100
AcDbBlockEnd
  0
BLOCK
  5
275
330
274
100
AcDbEntity
  8
0
100
AcDbBlockBegin
  2
SW_CENTERMARKSYMBOL_0
 70
     0
 10
0.0
 20
0.0
 30
0.0
  3
SW_CENTERMARKSYMBOL_0
  1

  0
LINE
  5
277
330
274
100
AcDbEntity
  8
0
  6
Continuous
 62
     0
370
     0
100
AcDbLine
 10
0.0
 20
0.0
 30
0.0
 11
0.0
 21
2.5
 31
0.0
  0
LINE
  5
278
330
274
100
AcDbEntity
  8
0
  6
Continuous
 62
     0
370
     0
100
AcDbLine
 10
0.0
 20
0.0
 30
0.0
 11
-2.5
 21
0.0
 31
0.0
  0
LINE
  5
279
330
274
100
AcDbEntity
  8
0
  6
Continuous
 62
     0
370
     0
100
AcDbLine
 10
0.0
 20
0.0
 30
0.0
 11
0.0
 21
-2.5
 31
0.0
  0
LINE
  5
27A
330
274
100
AcDbEntity
  8
0
  6
Continuous
 62
     0
370
     0
100
AcDbLine
 10
0.0
 20
0.0
 30
0.0
 11
2.5
 21
0.0
 31
0.0
  0
LINE
  5
27B
330
274
100
AcDbEntity
  8
0
  6
Continuous
 62
     0
370
     0
100
AcDbLine
 10
0.0
 20
5.0
 30
0.0
 11
0.0
 21
7.5
 31
0.0
  0
LINE
  5
27C
330
274
100
AcDbEntity
  8
0
  6
Continuous
 62
     0
370
     0
100
AcDbLine
 10
-5.0
 20
0.0
 30
0.0
 11
-7.5
 21
0.0
 31
0.0
  0
LINE
  5
27D
330
274
100
AcDbEntity
  8
0
  6
Continuous
 62
     0
370
     0
100
AcDbLine
 10
0.0
 20
-5.0
 30
0.0
 11
0.0
 21
-7.5
 31
0.0
  0
LINE
  5
27E
330
274
100
AcDbEntity
  8
0
  6
Continuous
 62
     0
370
     0
100
AcDbLine
 10
5.0
 20
0.0
 30
0.0
 11
7.5
 21
0.0
 31
0.0
  0
ENDBLK
  5
276
330
274
100
AcDbEntity
  8
0
100
AcDbBlockEnd
  0
BLOCK
  5
281
330
280
100
AcDbEntity
  8
0
100
AcDbBlockBegin
  2
SW_CENTERMARKSYMBOL_1
 70
     0
 10
0.0
 20
0.0
 30
0.0
  3
SW_CENTERMARKSYMBOL_1
  1

  0
LINE
  5
283
330
280
100
AcDbEntity
  8
0
  6
Continuous
 62
     0
370
     0
100
AcDbLine
 10
0.0
 20
0.0
 30
0.0
 11
0.0
 21
2.5
 31
0.0
  0
LINE
  5
284
330
280
100
AcDbEntity
  8
0
  6
Continuous
 62
     0
370
     0
100
AcDbLine
 10
0.0
 20
0.0
 30
0.0
 11
-2.5
 21
0.0
 31
0.0
  0
LINE
  5
285
330
280
100
AcDbEntity
  8
0
  6
Continuous
 62
     0
370
     0
100
AcDbLine
 10
0.0
 20
0.0
 30
0.0
 11
0.0
 21
-2.5
 31
0.0
  0
LINE
  5
286
330
280
100
AcDbEntity
  8
0
  6
Continuous
 62
     0
370
     0
100
AcDbLine
 10
0.0
 20
0.0
 30
0.0
 11
2.5
 21
0.0
 31
0.0
  0
LINE
  5
287
330
280
100
AcDbEntity
  8
0
  6
Continuous
 62
     0
370
     0
100
AcDbLine
 10
0.0
 20
5.0
 30
0.0
 11
0.0
 21
7.5
 31
0.0
  0
LINE
  5
288
330
280
100
AcDbEntity
  8
0
  6
Continuous
 62
     0
370
     0
100
AcDbLine
 10
-5.0
 20
0.0
 30
0.0
 11
-7.5
 21
0.0
 31
0.0
  0
LINE
  5
289
330
280
100
AcDbEntity
  8
0
  6
Continuous
 62
     0
370
     0
100
AcDbLine
 10
0.0
 20
-5.0
 30
0.0
 11
0.0
 21
-7.5
 31
0.0
  0
LINE
  5
28A
330
280
100
AcDbEntity
  8
0
  6
Continuous
 62
     0
370
     0
100
AcDbLine
 10
5.0
 20
0.0
 30
0.0
 11
7.5
 21
0.0
 31
0.0
  0
ENDBLK
  5
282
330
280
100
AcDbEntity
  8
0
100
AcDbBlockEnd
  0
BLOCK
  5
28D
330
28C
100
AcDbEntity
  8
0
100
AcDbBlockBegin
  2
SW_CENTERMARKSYMBOL_2
 70
     0
 10
0.0
 20
0.0
 30
0.0
  3
SW_CENTERMARKSYMBOL_2
  1

  0
LINE
  5
28F
330
28C
100
AcDbEntity
  8
0
  6
Continuous
 62
     0
370
     0
100
AcDbLine
 10
0.0
 20
0.0
 30
0.0
 11
0.0
 21
2.5
 31
0.0
  0
LINE
  5
290
330
28C
100
AcDbEntity
  8
0
  6
Continuous
 62
     0
370
     0
100
AcDbLine
 10
0.0
 20
0.0
 30
0.0
 11
-2.5
 21
0.0
 31
0.0
  0
LINE
  5
291
330
28C
100
AcDbEntity
  8
0
  6
Continuous
 62
     0
370
     0
100
AcDbLine
 10
0.0
 20
0.0
 30
0.0
 11
0.0
 21
-2.5
 31
0.0
  0
LINE
  5
292
330
28C
100
AcDbEntity
  8
0
  6
Continuous
 62
     0
370
     0
100
AcDbLine
 10
0.0
 20
0.0
 30
0.0
 11
2.5
 21
0.0
 31
0.0
  0
LINE
  5
293
330
28C
100
AcDbEntity
  8
0
  6
Continuous
 62
     0
370
     0
100
AcDbLine
 10
0.0
 20
5.0
 30
0.0
 11
0.0
 21
7.5
 31
0.0
  0
LINE
  5
294
330
28C
100
AcDbEntity
  8
0
  6
Continuous
 62
     0
370
     0
100
AcDbLine
 10
-5.0
 20
0.0
 30
0.0
 11
-7.5
 21
0.0
 31
0.0
  0
LINE
  5
295
330
28C
100
AcDbEntity
  8
0
  6
Continuous
 62
     0
370
     0
100
AcDbLine
 10
0.0
 20
-5.0
 30
0.0
 11
0.0
 21
-7.5
 31
0.0
  0
LINE
  5
296
330
28C
100
AcDbEntity
  8
0
  6
Continuous
 62
     0
370
     0
100
AcDbLine
 10
5.0
 20
0.0
 30
0.0
 11
7.5
 21
0.0
 31
0.0
  0
ENDBLK
  5
28E
330
28C
100
AcDbEntity
  8
0
100
AcDbBlockEnd
  0
BLOCK
  5
299
330
298
100
AcDbEntity
  8
0
100
AcDbBlockBegin
  2
SW_CENTERMARKSYMBOL_3
 70
     0
 10
0.0
 20
0.0
 30
0.0
  3
SW_CENTERMARKSYMBOL_3
  1

  0
LINE
  5
29B
330
298
100
AcDbEntity
  8
0
  6
Continuous
 62
     0
370
     0
100
AcDbLine
 10
0.0
 20
0.0
 30
0.0
 11
0.0
 21
2.5
 31
0.0
  0
LINE
  5
29C
330
298
100
AcDbEntity
  8
0
  6
Continuous
 62
     0
370
     0
100
AcDbLine
 10
0.0
 20
0.0
 30
0.0
 11
-2.5
 21
0.0
 31
0.0
  0
LINE
  5
29D
330
298
100
AcDbEntity
  8
0
  6
Continuous
 62
     0
370
     0
100
AcDbLine
 10
0.0
 20
0.0
 30
0.0
 11
0.0
 21
-2.5
 31
0.0
  0
LINE
  5
29E
330
298
100
AcDbEntity
  8
0
  6
Continuous
 62
     0
370
     0
100
AcDbLine
 10
0.0
 20
0.0
 30
0.0
 11
2.5
 21
0.0
 31
0.0
  0
LINE
  5
29F
330
298
100
AcDbEntity
  8
0
  6
Continuous
 62
     0
370
     0
100
AcDbLine
 10
0.0
 20
5.0
 30
0.0
 11
0.0
 21
7.5
 31
0.0
  0
LINE
  5
2A0
330
298
100
AcDbEntity
  8
0
  6
Continuous
 62
     0
370
     0
100
AcDbLine
 10
-5.0
 20
0.0
 30
0.0
 11
-7.5
 21
0.0
 31
0.0
  0
LINE
  5
2A1
330
298
100
AcDbEntity
  8
0
  6
Continuous
 62
     0
370
     0
100
AcDbLine
 10
0.0
 20
-5.0
 30
0.0
 11
0.0
 21
-7.5
 31
0.0
  0
LINE
  5
2A2
330
298
100
AcDbEntity
  8
0
  6
Continuous
 62
     0
370
     0
100
AcDbLine
 10
5.0
 20
0.0
 30
0.0
 11
7.5
 21
0.0
 31
0.0
  0
ENDBLK
  5
29A
330
298
100
AcDbEntity
  8
0
100
AcDbBlockEnd
  0
BLOCK
  5
2A5
330
2A4
100
AcDbEntity
  8
0
100
AcDbBlockBegin
  2
SW_CENTERMARKSYMBOL_4
 70
     0
 10
0.0
 20
0.0
 30
0.0
  3
SW_CENTERMARKSYMBOL_4
  1

  0
LINE
  5
2A7
330
2A4
100
AcDbEntity
  8
0
  6
Continuous
 62
     0
370
     0
100
AcDbLine
 10
0.0
 20
0.0
 30
0.0
 11
0.0
 21
2.5
 31
0.0
  0
LINE
  5
2A8
330
2A4
100
AcDbEntity
  8
0
  6
Continuous
 62
     0
370
     0
100
AcDbLine
 10
0.0
 20
0.0
 30
0.0
 11
-2.5
 21
0.0
 31
0.0
  0
LINE
  5
2A9
330
2A4
100
AcDbEntity
  8
0
  6
Continuous
 62
     0
370
     0
100
AcDbLine
 10
0.0
 20
0.0
 30
0.0
 11
0.0
 21
-2.5
 31
0.0
  0
LINE
  5
2AA
330
2A4
100
AcDbEntity
  8
0
  6
Continuous
 62
     0
370
     0
100
AcDbLine
 10
0.0
 20
0.0
 30
0.0
 11
2.5
 21
0.0
 31
0.0
  0
LINE
  5
2AB
330
2A4
100
AcDbEntity
  8
0
  6
Continuous
 62
     0
370
     0
100
AcDbLine
 10
0.0
 20
5.0
 30
0.0
 11
0.0
 21
220.5559839134
 31
0.0
  0
LINE
  5
2AC
330
2A4
100
AcDbEntity
  8
0
  6
Continuous
 62
     0
370
     0
100
AcDbLine
 10
-5.0
 20
0.0
 30
0.0
 11
-549.4300955755
 21
0.0
 31
0.0
  0
LINE
  5
2AD
330
2A4
100
AcDbEntity
  8
0
  6
Continuous
 62
     0
370
     0
100
AcDbLine
 10
0.0
 20
-5.0
 30
0.0
 11
0.0
 21
-225.8032527065
 31
0.0
  0
LINE
  5
2AE
330
2A4
100
AcDbEntity
  8
0
  6
Continuous
 62
     0
370
     0
100
AcDbLine
 10
5.0
 20
0.0
 30
0.0
 11
221.8300819854
 21
0.0
 31
0.0
  0
ENDBLK
  5
2A6
330
2A4
100
AcDbEntity
  8
0
100
AcDbBlockEnd
  0
BLOCK
  5
2B1
330
2B0
100
AcDbEntity
  8
0
100
AcDbBlockBegin
  2
SW_CENTERMARKSYMBOL_5
 70
     0
 10
0.0
 20
0.0
 30
0.0
  3
SW_CENTERMARKSYMBOL_5
  1

  0
ARC
  5
2B3
330
2B0
100
AcDbEntity
  8
0
  6
Continuous
 62
     0
370
     0
100
AcDbCircle
 10
152.0279579551
 20
-152.0279579551
 30
0.0
 40
215.0
100
AcDbArc
 50
135.0
 51
135.6662299943
  0
ARC
  5
2B4
330
2B0
100
AcDbEntity
  8
0
  6
Continuous
 62
     0
370
     0
100
AcDbCircle
 10
152.0279579551
 20
-152.0279579551
 30
0.0
 40
215.0
100
AcDbArc
 50
134.3337700057
 51
135.0
  0
ARC
  5
2B5
330
2B0
100
AcDbEntity
  8
0
  6
Continuous
 62
     0
370
     0
100
AcDbCircle
 10
152.0279579551
 20
-152.0279579551
 30
0.0
 40
215.0
100
AcDbArc
 50
136.3324599887
 51
136.998689983
  0
ARC
  5
2B6
330
2B0
100
AcDbEntity
  8
0
  6
Continuous
 62
     0
370
     0
100
AcDbCircle
 10
152.0279579551
 20
-152.0279579551
 30
0.0
 40
215.0000000000001
100
AcDbArc
 50
133.001310017
 51
133.6675400113
  0
ARC
  5
2B7
330
2B0
100
AcDbEntity
  8
0
  6
Continuous
 62
     0
370
     0
100
AcDbCircle
 10
152.0279579551
 20
-152.0279579551
 30
0.0
 40
214.9999999999999
100
AcDbArc
 50
225.0
 51
225.6662299943
  0
ARC
  5
2B8
330
2B0
100
AcDbEntity
  8
0
  6
Continuous
 62
     0
370
     0
100
AcDbCircle
 10
152.0279579551
 20
-152.0279579551
 30
0.0
 40
215.0
100
AcDbArc
 50
224.3337700057
 51
225.0
  0
ARC
  5
2B9
330
2B0
100
AcDbEntity
  8
0
  6
Continuous
 62
     0
370
     0
100
AcDbCircle
 10
152.0279579551
 20
-152.0279579551
 30
0.0
 40
214.9999999999999
100
AcDbArc
 50
226.3324599887
 51
226.998689983
  0
ARC
  5
2BA
330
2B0
100
AcDbEntity
  8
0
  6
Continuous
 62
     0
370
     0
100
AcDbCircle
 10
152.0279579551
 20
-152.0279579551
 30
0.0
 40
215.0
100
AcDbArc
 50
223.001310017
 51
223.6675400113
  0
ARC
  5
2BB
330
2B0
100
AcDbEntity
  8
0
  6
Continuous
 62
     0
370
     0
100
AcDbCircle
 10
152.0279579551
 20
-152.0279579551
 30
0.0
 40
214.9999999999999
100
AcDbArc
 50
315.0
 51
315.6662299943
  0
ARC
  5
2BC
330
2B0
100
AcDbEntity
  8
0
  6
Continuous
 62
     0
370
     0
100
AcDbCircle
 10
152.0279579551
 20
-152.0279579551
 30
0.0
 40
214.9999999999999
100
AcDbArc
 50
314.3337700057
 51
315.0
  0
ARC
  5
2BD
330
2B0
100
AcDbEntity
  8
0
  6
Continuous
 62
     0
370
     0
100
AcDbCircle
 10
152.0279579551
 20
-152.0279579551
 30
0.0
 40
215.0
100
AcDbArc
 50
316.3324599887
 51
316.998689983
  0
ARC
  5
2BE
330
2B0
100
AcDbEntity
  8
0
  6
Continuous
 62
     0
370
     0
100
AcDbCircle
 10
152.0279579551
 20
-152.0279579551
 30
0.0
 40
214.9999999999999
100
AcDbArc
 50
313.001310017
 51
313.6675400113
  0
ARC
  5
2BF
330
2B0
100
AcDbEntity
  8
0
  6
Continuous
 62
     0
370
     0
100
AcDbCircle
 10
152.0279579551
 20
-152.0279579551
 30
0.0
 40
215.0000000000001
100
AcDbArc
 50
45.0
 51
45.6662299943
  0
ARC
  5
2C0
330
2B0
100
AcDbEntity
  8
0
  6
Continuous
 62
     0
370
     0
100
AcDbCircle
 10
152.0279579551
 20
-152.0279579551
 30
0.0
 40
215.0000000000001
100
AcDbArc
 50
44.3337700057
 51
45.0
  0
ARC
  5
2C1
330
2B0
100
AcDbEntity
  8
0
  6
Continuous
 62
     0
370
     0
100
AcDbCircle
 10
152.0279579551
 20
-152.0279579551
 30
0.0
 40
215.0000000000001
100
AcDbArc
 50
46.3324599887
 51
46.998689983
  0
ARC
  5
2C2
330
2B0
100
AcDbEntity
  8
0
  6
Continuous
 62
     0
370
     0
100
AcDbCircle
 10
152.0279579551
 20
-152.0279579551
 30
0.0
 40
215.0000000000001
100
AcDbArc
 50
43.001310017
 51
43.6675400113
  0
LINE
  5
2C3
330
2B0
100
AcDbEntity
  8
0
  6
Continuous
 62
     0
370
     0
100
AcDbLine
 10
0.0
 20
0.0
 30
0.0
 11
-1.767766953
 21
1.767766953
 31
0.0
  0
LINE
  5
2C4
330
2B0
100
AcDbEntity
  8
0
  6
Continuous
 62
     0
370
     0
100
AcDbLine
 10
0.0
 20
0.0
 30
0.0
 11
1.767766953
 21
-1.767766953
 31
0.0
  0
LINE
  5
2C5
330
2B0
100
AcDbEntity
  8
0
  6
Continuous
 62
     0
370
     0
100
AcDbLine
 10
-3.5355339059
 20
3.5355339059
 30
0.0
 11
-5.3033008589
 21
5.3033008589
 31
0.0
  0
LINE
  5
2C6
330
2B0
100
AcDbEntity
  8
0
  6
Continuous
 62
     0
370
     0
100
AcDbLine
 10
3.5355339059
 20
-3.5355339059
 30
0.0
 11
5.3033008589
 21
-5.3033008589
 31
0.0
  0
LINE
  5
2C7
330
2B0
100
AcDbEntity
  8
0
  6
Continuous
 62
     0
370
     0
100
AcDbLine
 10
0.0
 20
-304.0559159102
 30
0.0
 11
-1.767766953
 21
-305.8236828632
 31
0.0
  0
LINE
  5
2C8
330
2B0
100
AcDbEntity
  8
0
  6
Continuous
 62
     0
370
     0
100
AcDbLine
 10
0.0
 20
-304.0559159102
 30
0.0
 11
1.767766953
 21
-302.2881489572
 31
0.0
  0
LINE
  5
2C9
330
2B0
100
AcDbEntity
  8
0
  6
Continuous
 62
     0
370
     0
100
AcDbLine
 10
-3.5355339059
 20
-307.5914498161
 30
0.0
 11
-5.3033008589
 21
-309.3592167691
 31
0.0
  0
LINE
  5
2CA
330
2B0
100
AcDbEntity
  8
0
  6
Continuous
 62
     0
370
     0
100
AcDbLine
 10
3.5355339059
 20
-300.5203820043
 30
0.0
 11
5.3033008589
 21
-298.7526150513
 31
0.0
  0
LINE
  5
2CB
330
2B0
100
AcDbEntity
  8
0
  6
Continuous
 62
     0
370
     0
100
AcDbLine
 10
304.0559159102
 20
-304.0559159102
 30
0.0
 11
305.8236828632
 21
-305.8236828632
 31
0.0
  0
LINE
  5
2CC
330
2B0
100
AcDbEntity
  8
0
  6
Continuous
 62
     0
370
     0
100
AcDbLine
 10
304.0559159102
 20
-304.0559159102
 30
0.0
 11
302.2881489572
 21
-302.2881489572
 31
0.0
  0
LINE
  5
2CD
330
2B0
100
AcDbEntity
  8
0
  6
Continuous
 62
     0
370
     0
100
AcDbLine
 10
307.5914498161
 20
-307.5914498161
 30
0.0
 11
309.3592167691
 21
-309.3592167691
 31
0.0
  0
LINE
  5
2CE
330
2B0
100
AcDbEntity
  8
0
  6
Continuous
 62
     0
370
     0
100
AcDbLine
 10
300.5203820043
 20
-300.5203820043
 30
0.0
 11
298.7526150513
 21
-298.7526150513
 31
0.0
  0
LINE
  5
2CF
330
2B0
100
AcDbEntity
  8
0
  6
Continuous
 62
     0
370
     0
100
AcDbLine
 10
304.0559159102
 20
0.0
 30
0.0
 11
305.8236828632
 21
1.767766953
 31
0.0
  0
LINE
  5
2D0
330
2B0
100
AcDbEntity
  8
0
  6
Continuous
 62
     0
370
     0
100
AcDbLine
 10
304.0559159102
 20
0.0
 30
0.0
 11
302.2881489572
 21
-1.767766953
 31
0.0
  0
LINE
  5
2D1
330
2B0
100
AcDbEntity
  8
0
  6
Continuous
 62
     0
370
     0
100
AcDbLine
 10
307.5914498161
 20
3.5355339059
 30
0.0
 11
309.3592167691
 21
5.3033008589
 31
0.0
  0
LINE
  5
2D2
330
2B0
100
AcDbEntity
  8
0
  6
Continuous
 62
     0
370
     0
100
AcDbLine
 10
300.5203820043
 20
-3.5355339059
 30
0.0
 11
298.7526150513
 21
-5.3033008589
 31
0.0
  0
ENDBLK
  5
2B2
330
2B0
100
AcDbEntity
  8
0
100
AcDbBlockEnd
  0
BLOCK
  5
466
330
465
100
AcDbEntity
  8
0
100
AcDbBlockBegin
  2
*D20
 70
     1
 10
0.0
 20
0.0
 30
0.0
  3
*D20
  1

  0
INSERT
  5
468
330
465
100
AcDbEntity
  8
0
  6
Continuous
 62
     7
370
     0
100
AcDbBlockReference
  2
_OPEN30
 10
501.0176295251
 20
314.1386149053
 30
0.0
 41
3.5
 42
3.5
 50
90.0
  0
INSERT
  5
469
330
465
100
AcDbEntity
  8
0
  6
Continuous
 62
     7
370
     0
100
AcDbBlockReference
  2
_OPEN30
 10
501.0176295251
 20
-107.6255645508
 30
0.0
 41
3.5
 42
3.5
 50
270.0
  0
LINE
  5
46A
330
465
100
AcDbEntity
  8
0
  6
Continuous
 62
     7
370
     0
100
AcDbLine
 10
275.9661128217
 20
314.1386149053
 30
0.0
 11
502.0176295251
 21
314.1386149053
 31
0.0
  0
LINE
  5
46B
330
465
100
AcDbEntity
  8
0
  6
Continuous
 62
     7
370
     0
100
AcDbLine
 10
482.4642649815
 20
-107.6255645508
 30
0.0
 11
502.0176295251
 21
-107.6255645508
 31
0.0
  0
LINE
  5
46C
330
465
100
AcDbEntity
  8
0
  6
Continuous
 62
     7
370
     0
100
AcDbLine
 10
501.0176295251
 20
314.1386149053
 30
0.0
 11
501.0176295251
 21
-107.6255645508
 31
0.0
  0
MTEXT
  5
46D
330
465
100
AcDbEntity
  8
0
  6
Continuous
 62
     7
370
     0
100
AcDbMText
 10
496.5058926687
 20
90.7555263267
 30
0.0
 40
3.5
 41
0.0
 71
     1
 72
     1
  1
422
  7
SLDTEXTSTYLE0
 11
-7.044195017643634E-15
 21
1.0
 31
0.0
 73
     1
 44
1.0
  0
ENDBLK
  5
467
330
465
100
AcDbEntity
  8
0
100
AcDbBlockEnd
  0
BLOCK
  5
470
330
46F
100
AcDbEntity
  8
0
100
AcDbBlockBegin
  2
*D21
 70
     1
 10
0.0
 20
0.0
 30
0.0
  3
*D21
  1

  0
INSERT
  5
472
330
46F
100
AcDbEntity
  8
0
  6
Continuous
 62
     7
370
     0
100
AcDbBlockReference
  2
_OPEN30
 10
-283.5357350185
 20
271.3668201205
 30
0.0
 41
3.5
 42
3.5
 50
90.0
  0
INSERT
  5
473
330
46F
100
AcDbEntity
  8
0
  6
Continuous
 62
     7
370
     0
100
AcDbBlockReference
  2
_OPEN30
 10
-283.5357350185
 20
-107.6255645508
 30
0.0
 41
3.5
 42
3.5
 50
270.0
  0
LINE
  5
474
330
46F
100
AcDbEntity
  8
0
  6
Continuous
 62
     7
370
     0
100
AcDbLine
 10
-102.3473449068
 20
271.3668201205
 30
0.0
 11
-284.5357350185
 21
271.3668201205
 31
0.0
  0
LINE
  5
475
330
46F
100
AcDbEntity
  8
0
  6
Continuous
 62
     7
370
     0
100
AcDbLine
 10
-268.5357350185
 20
-107.6255645508
 30
0.0
 11
-284.5357350185
 21
-107.6255645508
 31
0.0
  0
LINE
  5
476
330
46F
100
AcDbEntity
  8
0
  6
Continuous
 62
     7
370
     0
100
AcDbLine
 10
-283.5357350185
 20
271.3668201205
 30
0.0
 11
-283.5357350185
 21
-107.6255645508
 31
0.0
  0
MTEXT
  5
477
330
46F
100
AcDbEntity
  8
0
  6
Continuous
 62
     7
370
     0
100
AcDbMText
 10
-288.0474718749
 20
85.9500034672
 30
0.0
 40
3.5
 41
0.0
 71
     1
 72
     1
  1
379
  7
SLDTEXTSTYLE0
 11
-7.044195017643634E-15
 21
1.0
 31
0.0
 73
     1
 44
1.0
  0
ENDBLK
  5
471
330
46F
100
AcDbEntity
  8
0
100
AcDbBlockEnd
  0
BLOCK
  5
47A
330
479
100
AcDbEntity
  8
0
100
AcDbBlockBegin
  2
*D22
 70
     1
 10
0.0
 20
0.0
 30
0.0
  3
*D22
  1

  0
INSERT
  5
47C
330
479
100
AcDbEntity
  8
0
  6
Continuous
 62
     7
370
     0
100
AcDbBlockReference
  2
_OPEN30
 10
493.7754601842
 20
-37.6255645508
 30
-5.4
 41
3.5
 42
3.5
 50
90.0
  0
INSERT
  5
47D
330
479
100
AcDbEntity
  8
0
  6
Continuous
 62
     7
370
     0
100
AcDbBlockReference
  2
_OPEN30
 10
493.7754601842
 20
-107.6255645508
 30
-5.4
 41
3.5
 42
3.5
 50
270.0
  0
LINE
  5
47E
330
479
100
AcDbEntity
  8
0
  6
Continuous
 62
     7
370
     0
100
AcDbLine
 10
485.6613376295
 20
-37.6255645508
 30
0.0
 11
494.7754601842
 21
-37.6255645508
 31
0.0
  0
LINE
  5
47F
330
479
100
AcDbEntity
  8
0
  6
Continuous
 62
     7
370
     0
100
AcDbLine
 10
482.4642649815
 20
-107.6255645508
 30
0.0
 11
494.7754601842
 21
-107.6255645508
 31
0.0
  0
LINE
  5
480
330
479
100
AcDbEntity
  8
0
  6
Continuous
 62
     7
370
     0
100
AcDbLine
 10
493.7754601842
 20
-37.6255645508
 30
0.0
 11
493.7754601842
 21
-107.6255645508
 31
0.0
  0
MTEXT
  5
481
330
479
100
AcDbEntity
  8
0
  6
Continuous
 62
     7
370
     0
100
AcDbMText
 10
489.2637233279
 20
-73.6398487682
 30
-5.4
 40
3.5
 41
0.0
 71
     1
 72
     1
  1
70
  7
SLDTEXTSTYLE0
 11
-7.044195017643634E-15
 21
1.0
 31
0.0
 73
     1
 44
1.0
  0
ENDBLK
  5
47B
330
479
100
AcDbEntity
  8
0
100
AcDbBlockEnd
  0
BLOCK
  5
484
330
483
100
AcDbEntity
  8
0
100
AcDbBlockBegin
  2
*D23
 70
     1
 10
0.0
 20
0.0
 30
0.0
  3
*D23
  1

  0
INSERT
  5
486
330
483
100
AcDbEntity
  8
0
  6
Continuous
 62
     7
370
     0
100
AcDbBlockReference
  2
_OPEN30
 10
228.4642649815
 20
-77.6275255833
 30
-5.4
 41
3.5
 42
3.5
 50
180.0
  0
INSERT
  5
487
330
483
100
AcDbEntity
  8
0
  6
Continuous
 62
     7
370
     0
100
AcDbBlockReference
  2
_OPEN30
 10
320.4642649815
 20
-77.6275255833
 30
-5.4
 41
3.5
 42
3.5
 50
0.0
  0
LINE
  5
488
330
483
100
AcDbEntity
  8
0
  6
Continuous
 62
     7
370
     0
100
AcDbLine
 10
228.4642649815
 20
-28.8106099746
 30
0.0
 11
228.4642649815
 21
-78.6275255833
 31
0.0
  0
LINE
  5
489
330
483
100
AcDbEntity
  8
0
  6
Continuous
 62
     7
370
     0
100
AcDbLine
 10
320.4642649815
 20
-28.8106099746
 30
0.0
 11
320.4642649815
 21
-78.6275255833
 31
0.0
  0
LINE
  5
48A
330
483
100
AcDbEntity
  8
0
  6
Continuous
 62
     7
370
     0
100
AcDbLine
 10
228.4642649815
 20
-77.6275255833
 30
0.0
 11
320.4642649815
 21
-77.6275255833
 31
0.0
  0
MTEXT
  5
48B
330
483
100
AcDbEntity
  8
0
  6
Continuous
 62
     7
370
     0
100
AcDbMText
 10
270.9591985191
 20
-73.1157887269
 30
-5.4
 40
3.5
 41
0.0
 71
     1
 72
     1
  1
92
  7
SLDTEXTSTYLE0
 73
     1
 44
1.0
  0
ENDBLK
  5
485
330
483
100
AcDbEntity
  8
0
100
AcDbBlockEnd
  0
BLOCK
  5
48E
330
48D
100
AcDbEntity
  8
0
100
AcDbBlockBegin
  2
*D24
 70
     1
 10
0.0
 20
0.0
 30
0.0
  3
*D24
  1

  0
INSERT
  5
490
330
48D
100
AcDbEntity
  8
0
  6
Continuous
 62
     7
370
     0
100
AcDbBlockReference
  2
_OPEN30
 10
-195.5357350185
 20
-117.6255645508
 30
-5.4
 41
3.5
 42
3.5
 50
180.0
  0
INSERT
  5
491
330
48D
100
AcDbEntity
  8
0
  6
Continuous
 62
     7
370
     0
100
AcDbBlockReference
  2
_OPEN30
 10
274.4642649815
 20
-117.6255645508
 30
-5.4
 41
3.5
 42
3.5
 50
0.0
  0
LINE
  5
492
330
48D
100
AcDbEntity
  8
0
  6
Continuous
 62
     7
370
     0
100
AcDbLine
 10
-195.5357350185
 20
-72.6255645508
 30
0.0
 11
-195.5357350185
 21
-118.6255645508
 31
0.0
  0
LINE
  5
493
330
48D
100
AcDbEntity
  8
0
  6
Continuous
 62
     7
370
     0
100
AcDbLine
 10
274.4642649815
 20
-72.6255645508
 30
0.0
 11
274.4642649815
 21
-118.6255645508
 31
0.0
  0
LINE
  5
494
330
48D
100
AcDbEntity
  8
0
  6
Continuous
 62
     7
370
     0
100
AcDbLine
 10
-195.5357350185
 20
-117.6255645508
 30
0.0
 11
274.4642649815
 21
-117.6255645508
 31
0.0
  0
MTEXT
  5
495
330
48D
100
AcDbEntity
  8
0
  6
Continuous
 62
     7
370
     0
100
AcDbMText
 10
50.7886240596
 20
-113.1138276944
 30
-5.4
 40
3.5
 41
0.0
 71
     1
 72
     1
  1
470
  7
SLDTEXTSTYLE0
 73
     1
 44
1.0
  0
ENDBLK
  5
48F
330
48D
100
AcDbEntity
  8
0
100
AcDbBlockEnd
  0
BLOCK
  5
498
330
497
100
AcDbEntity
  8
0
100
AcDbBlockBegin
  2
*D25
 70
     1
 10
0.0
 20
0.0
 30
0.0
  3
*D25
  1

  0
INSERT
  5
49A
330
497
100
AcDbEntity
  8
0
  6
Continuous
 62
     7
370
     0
100
AcDbBlockReference
  2
_OPEN30
 10
-267.5357350185
 20
-117.6255645508
 30
-5.4
 41
3.5
 42
3.5
 50
180.0
  0
INSERT
  5
49B
330
497
100
AcDbEntity
  8
0
  6
Continuous
 62
     7
370
     0
100
AcDbBlockReference
  2
_OPEN30
 10
-195.5357350185
 20
-117.6255645508
 30
-5.4
 41
3.5
 42
3.5
 50
0.0
  0
LINE
  5
49C
330
497
100
AcDbEntity
  8
0
  6
Continuous
 62
     7
370
     0
100
AcDbLine
 10
-267.5357350185
 20
-108.6255645508
 30
0.0
 11
-267.5357350185
 21
-118.6255645508
 31
0.0
  0
LINE
  5
49D
330
497
100
AcDbEntity
  8
0
  6
Continuous
 62
     7
370
     0
100
AcDbLine
 10
-195.5357350185
 20
-72.6255645508
 30
0.0
 11
-195.5357350185
 21
-118.6255645508
 31
0.0
  0
LINE
  5
49E
330
497
100
AcDbEntity
  8
0
  6
Continuous
 62
     7
370
     0
100
AcDbLine
 10
-267.5357350185
 20
-117.6255645508
 30
0.0
 11
-195.5357350185
 21
-117.6255645508
 31
0.0
  0
MTEXT
  5
49F
330
497
100
AcDbEntity
  8
0
  6
Continuous
 62
     7
370
     0
100
AcDbMText
 10
-233.9276463084
 20
-113.1138276944
 30
-5.4
 40
3.5
 41
0.0
 71
     1
 72
     1
  1
72
  7
SLDTEXTSTYLE0
 73
     1
 44
1.0
  0
ENDBLK
  5
499
330
497
100
AcDbEntity
  8
0
100
AcDbBlockEnd
  0
BLOCK
  5
4A2
330
4A1
100
AcDbEntity
  8
0
100
AcDbBlockBegin
  2
*D26
 70
     1
 10
0.0
 20
0.0
 30
0.0
  3
*D26
  1

  0
INSERT
  5
4A4
330
4A1
100
AcDbEntity
  8
0
  6
Continuous
 62
     7
370
     0
100
AcDbBlockReference
  2
_OPEN30
 10
-271.7997708452
 20
-107.6255645508
 30
-5.4
 41
3.5
 42
3.5
 50
270.0
  0
INSERT
  5
4A5
330
4A1
100
AcDbEntity
  8
0
  6
Continuous
 62
     7
370
     0
100
AcDbBlockReference
  2
_OPEN30
 10
-271.7997708452
 20
-77.6255645508
 30
-5.4
 41
3.5
 42
3.5
 50
90.0
  0
LINE
  5
4A6
330
4A1
100
AcDbEntity
  8
0
  6
Continuous
 62
     7
370
     0
100
AcDbLine
 10
-268.5357350185
 20
-107.6255645508
 30
0.0
 11
-272.7997708452
 21
-107.6255645508
 31
0.0
  0
LINE
  5
4A7
330
4A1
100
AcDbEntity
  8
0
  6
Continuous
 62
     7
370
     0
100
AcDbLine
 10
-262.3357350185
 20
-77.6255645508
 30
0.0
 11
-272.7997708452
 21
-77.6255645508
 31
0.0
  0
LINE
  5
4A8
330
4A1
100
AcDbEntity
  8
0
  6
Continuous
 62
     7
370
     0
100
AcDbLine
 10
-271.7997708452
 20
-107.6255645508
 30
0.0
 11
-271.7997708452
 21
-77.6255645508
 31
0.0
  0
MTEXT
  5
4A9
330
4A1
100
AcDbEntity
  8
0
  6
Continuous
 62
     7
370
     0
100
AcDbMText
 10
-276.3115077016
 20
-95.8554884187
 30
-5.4
 40
3.5
 41
0.0
 71
     1
 72
     1
  1
30
  7
SLDTEXTSTYLE0
 11
6.123233995736766E-17
 21
1.0
 31
0.0
 73
     1
 44
1.0
  0
ENDBLK
  5
4A3
330
4A1
100
AcDbEntity
  8
0
100
AcDbBlockEnd
  0
BLOCK
  5
4AC
330
4AB
100
AcDbEntity
  8
0
100
AcDbBlockBegin
  2
*D27
 70
     1
 10
0.0
 20
0.0
 30
0.0
  3
*D27
  1

  0
INSERT
  5
4AE
330
4AB
100
AcDbEntity
  8
0
  6
Continuous
 62
     7
370
     0
100
AcDbBlockReference
  2
_OPEN30
 10
-277.5357350185
 20
-37.6255645508
 30
-5.4
 41
3.5
 42
3.5
 50
90.0
  0
INSERT
  5
4AF
330
4AB
100
AcDbEntity
  8
0
  6
Continuous
 62
     7
370
     0
100
AcDbBlockReference
  2
_OPEN30
 10
-277.5357350185
 20
-107.6255645508
 30
-5.4
 41
3.5
 42
3.5
 50
270.0
  0
LINE
  5
4B0
330
4AB
100
AcDbEntity
  8
0
  6
Continuous
 62
     7
370
     0
100
AcDbLine
 10
-230.5357350185
 20
-37.6255645508
 30
0.0
 11
-278.5357350185
 21
-37.6255645508
 31
0.0
  0
LINE
  5
4B1
330
4AB
100
AcDbEntity
  8
0
  6
Continuous
 62
     7
370
     0
100
AcDbLine
 10
-268.5357350185
 20
-107.6255645508
 30
0.0
 11
-278.5357350185
 21
-107.6255645508
 31
0.0
  0
LINE
  5
4B2
330
4AB
100
AcDbEntity
  8
0
  6
Continuous
 62
     7
370
     0
100
AcDbLine
 10
-277.5357350185
 20
-37.6255645508
 30
0.0
 11
-277.5357350185
 21
-107.6255645508
 31
0.0
  0
MTEXT
  5
4B3
330
4AB
100
AcDbEntity
  8
0
  6
Continuous
 62
     7
370
     0
100
AcDbMText
 10
-282.0474718749
 20
-79.665925391
 30
-5.4
 40
3.5
 41
0.0
 71
     1
 72
     1
  1
70
  7
SLDTEXTSTYLE0
 11
-7.044195017643634E-15
 21
1.0
 31
0.0
 73
     1
 44
1.0
  0
ENDBLK
  5
4AD
330
4AB
100
AcDbEntity
  8
0
100
AcDbBlockEnd
  0
BLOCK
  5
4B6
330
4B5
100
AcDbEntity
  8
0
100
AcDbBlockBegin
  2
*D28
 70
     1
 10
0.0
 20
0.0
 30
0.0
  3
*D28
  1

  0
INSERT
  5
4B8
330
4B5
100
AcDbEntity
  8
0
  6
Continuous
 62
     7
370
     0
100
AcDbBlockReference
  2
_OPEN30
 10
79.9642649815
 20
321.0566618075
 30
-5.4
 41
3.5
 42
3.5
 50
180.0
  0
INSERT
  5
4B9
330
4B5
100
AcDbEntity
  8
0
  6
Continuous
 62
     7
370
     0
100
AcDbBlockReference
  2
_OPEN30
 10
468.9642649815
 20
321.0566618075
 30
-5.4
 41
3.5
 42
3.5
 50
0.0
  0
LINE
  5
4BA
330
4B5
100
AcDbEntity
  8
0
  6
Continuous
 62
     7
370
     0
100
AcDbLine
 10
79.9642649815
 20
234.9652652128
 30
0.0
 11
79.9642649815
 21
322.0566618075
 31
0.0
  0
LINE
  5
4BB
330
4B5
100
AcDbEntity
  8
0
  6
Continuous
 62
     7
370
     0
100
AcDbLine
 10
468.9642649815
 20
234.9652652128
 30
0.0
 11
468.9642649815
 21
322.0566618075
 31
0.0
  0
LINE
  5
4BC
330
4B5
100
AcDbEntity
  8
0
  6
Continuous
 62
     7
370
     0
100
AcDbLine
 10
79.9642649815
 20
321.0566618075
 30
0.0
 11
468.9642649815
 21
321.0566618075
 31
0.0
  0
MTEXT
  5
4BD
330
4B5
100
AcDbEntity
  8
0
  6
Continuous
 62
     7
370
     0
100
AcDbMText
 10
268.00583028
 20
325.5683991295
 30
-5.4
 40
3.5
 41
0.0
 71
     1
 72
     1
  1
%%c
  7
SLDTEXTSTYLE0
 73
     1
 44
1.0
  0
MTEXT
  5
4BE
330
4B5
100
AcDbEntity
  8
0
  6
Continuous
 62
     7
370
     0
100
AcDbMText
 10
271.8757607951
 20
325.5683991295
 30
-5.4
 40
3.5
 41
0.0
 71
     1
 72
     1
  1
389
  7
SLDTEXTSTYLE0
 73
     1
 44
1.0
  0
ENDBLK
  5
4B7
330
4B5
100
AcDbEntity
  8
0
100
AcDbBlockEnd
  0
BLOCK
  5
4C3
330
4C2
100
AcDbEntity
  8
0
100
AcDbBlockBegin
  2
SW_NOTE_1
 70
     0
 10
0.0
 20
0.0
 30
0.0
  3
SW_NOTE_1
  1

  0
MTEXT
  5
4C5
330
4C2
100
AcDbEntity
  8
0
  6
Continuous
 62
     0
370
     0
100
AcDbMText
 10
0.0013332458
 20
3.4292037724
 30
0.0
 40
2.6458333333
 41
0.0
 71
     1
 72
     1
  1
30A（R1
  7
SLDTEXTSTYLE0
 73
     1
 44
1.0
  0
MTEXT
  5
4C6
330
4C2
100
AcDbEntity
  8
0
  6
Continuous
 62
     0
370
     0
100
AcDbMText
 10
11.496008897
 20
2.846045868
 30
0.0
 40
2.1166666667
 41
0.0
 71
     1
 72
     1
  1
1/4
  7
SLDTEXTSTYLE0
 73
     1
 44
1.0
  0
MTEXT
  5
4C7
330
4C2
100
AcDbEntity
  8
0
  6
Continuous
 62
     0
370
     0
100
AcDbMText
 10
15.7293412478
 20
3.4292037724
 30
0.0
 40
2.6458333333
 41
0.0
 71
     1
 72
     1
  1
）
  7
SLDTEXTSTYLE0
 73
     1
 44
1.0
  0
ENDBLK
  5
4C4
330
4C2
100
AcDbEntity
  8
0
100
AcDbBlockEnd
  0
BLOCK
  5
4CB
330
4CA
100
AcDbEntity
  8
0
100
AcDbBlockBegin
  2
SW_CENTERMARKSYMBOL_6
 70
     0
 10
0.0
 20
0.0
 30
0.0
  3
SW_CENTERMARKSYMBOL_6
  1

  0
LINE
  5
4CD
330
4CA
100
AcDbEntity
  8
0
  6
Continuous
 62
     0
370
     0
100
AcDbLine
 10
0.0
 20
0.0
 30
0.0
 11
0.0
 21
2.5
 31
0.0
  0
LINE
  5
4CE
330
4CA
100
AcDbEntity
  8
0
  6
Continuous
 62
     0
370
     0
100
AcDbLine
 10
0.0
 20
0.0
 30
0.0
 11
-2.5
 21
0.0
 31
0.0
  0
LINE
  5
4CF
330
4CA
100
AcDbEntity
  8
0
  6
Continuous
 62
     0
370
     0
100
AcDbLine
 10
0.0
 20
0.0
 30
0.0
 11
0.0
 21
-2.5
 31
0.0
  0
LINE
  5
4D0
330
4CA
100
AcDbEntity
  8
0
  6
Continuous
 62
     0
370
     0
100
AcDbLine
 10
0.0
 20
0.0
 30
0.0
 11
2.5
 21
0.0
 31
0.0
  0
LINE
  5
4D1
330
4CA
100
AcDbEntity
  8
0
  6
Continuous
 62
     0
370
     0
100
AcDbLine
 10
0.0
 20
5.0
 30
0.0
 11
0.0
 21
34.0
 31
0.0
  0
LINE
  5
4D2
330
4CA
100
AcDbEntity
  8
0
  6
Continuous
 62
     0
370
     0
100
AcDbLine
 10
-5.0
 20
0.0
 30
0.0
 11
-62.6167231275
 21
0.0
 31
0.0
  0
LINE
  5
4D3
330
4CA
100
AcDbEntity
  8
0
  6
Continuous
 62
     0
370
     0
100
AcDbLine
 10
0.0
 20
-5.0
 30
0.0
 11
0.0
 21
-34.0
 31
0.0
  0
LINE
  5
4D4
330
4CA
100
AcDbEntity
  8
0
  6
Continuous
 62
     0
370
     0
100
AcDbLine
 10
5.0
 20
0.0
 30
0.0
 11
61.5438233602
 21
0.0
 31
0.0
  0
ENDBLK
  5
4CC
330
4CA
100
AcDbEntity
  8
0
100
AcDbBlockEnd
  0
BLOCK
  5
4D7
330
4D6
100
AcDbEntity
  8
0
100
AcDbBlockBegin
  2
SW_CENTERMARKSYMBOL_7
 70
     0
 10
0.0
 20
0.0
 30
0.0
  3
SW_CENTERMARKSYMBOL_7
  1

  0
LINE
  5
4D9
330
4D6
100
AcDbEntity
  8
0
  6
Continuous
 62
     0
370
     0
100
AcDbLine
 10
0.0
 20
0.0
 30
0.0
 11
0.0
 21
2.5
 31
0.0
  0
LINE
  5
4DA
330
4D6
100
AcDbEntity
  8
0
  6
Continuous
 62
     0
370
     0
100
AcDbLine
 10
0.0
 20
0.0
 30
0.0
 11
-2.5
 21
0.0
 31
0.0
  0
LINE
  5
4DB
330
4D6
100
AcDbEntity
  8
0
  6
Continuous
 62
     0
370
     0
100
AcDbLine
 10
0.0
 20
0.0
 30
0.0
 11
0.0
 21
-2.5
 31
0.0
  0
LINE
  5
4DC
330
4D6
100
AcDbEntity
  8
0
  6
Continuous
 62
     0
370
     0
100
AcDbLine
 10
0.0
 20
0.0
 30
0.0
 11
2.5
 21
0.0
 31
0.0
  0
LINE
  5
4DD
330
4D6
100
AcDbEntity
  8
0
  6
Continuous
 62
     0
370
     0
100
AcDbLine
 10
0.0
 20
5.0
 30
0.0
 11
0.0
 21
34.0
 31
0.0
  0
LINE
  5
4DE
330
4D6
100
AcDbEntity
  8
0
  6
Continuous
 62
     0
370
     0
100
AcDbLine
 10
-5.0
 20
0.0
 30
0.0
 11
-34.0
 21
0.0
 31
0.0
  0
LINE
  5
4DF
330
4D6
100
AcDbEntity
  8
0
  6
Continuous
 62
     0
370
     0
100
AcDbLine
 10
0.0
 20
-5.0
 30
0.0
 11
0.0
 21
-34.0
 31
0.0
  0
LINE
  5
4E0
330
4D6
100
AcDbEntity
  8
0
  6
Continuous
 62
     0
370
     0
100
AcDbLine
 10
5.0
 20
0.0
 30
0.0
 11
34.0
 21
0.0
 31
0.0
  0
ENDBLK
  5
4D8
330
4D6
100
AcDbEntity
  8
0
100
AcDbBlockEnd
  0
BLOCK
  5
4E3
330
4E2
100
AcDbEntity
  8
0
100
AcDbBlockBegin
  2
SW_CENTERMARKSYMBOL_8
 70
     0
 10
0.0
 20
0.0
 30
0.0
  3
SW_CENTERMARKSYMBOL_8
  1

  0
LINE
  5
4E5
330
4E2
100
AcDbEntity
  8
0
  6
Continuous
 62
     0
370
     0
100
AcDbLine
 10
0.0
 20
0.0
 30
0.0
 11
0.0
 21
2.5
 31
0.0
  0
LINE
  5
4E6
330
4E2
100
AcDbEntity
  8
0
  6
Continuous
 62
     0
370
     0
100
AcDbLine
 10
0.0
 20
0.0
 30
0.0
 11
-2.5
 21
0.0
 31
0.0
  0
LINE
  5
4E7
330
4E2
100
AcDbEntity
  8
0
  6
Continuous
 62
     0
370
     0
100
AcDbLine
 10
0.0
 20
0.0
 30
0.0
 11
0.0
 21
-2.5
 31
0.0
  0
LINE
  5
4E8
330
4E2
100
AcDbEntity
  8
0
  6
Continuous
 62
     0
370
     0
100
AcDbLine
 10
0.0
 20
0.0
 30
0.0
 11
2.5
 21
0.0
 31
0.0
  0
LINE
  5
4E9
330
4E2
100
AcDbEntity
  8
0
  6
Continuous
 62
     0
370
     0
100
AcDbLine
 10
0.0
 20
5.0
 30
0.0
 11
0.0
 21
34.0
 31
0.0
  0
LINE
  5
4EA
330
4E2
100
AcDbEntity
  8
0
  6
Continuous
 62
     0
370
     0
100
AcDbLine
 10
-5.0
 20
0.0
 30
0.0
 11
-34.0
 21
0.0
 31
0.0
  0
LINE
  5
4EB
330
4E2
100
AcDbEntity
  8
0
  6
Continuous
 62
     0
370
     0
100
AcDbLine
 10
0.0
 20
-5.0
 30
0.0
 11
0.0
 21
-34.0
 31
0.0
  0
LINE
  5
4EC
330
4E2
100
AcDbEntity
  8
0
  6
Continuous
 62
     0
370
     0
100
AcDbLine
 10
5.0
 20
0.0
 30
0.0
 11
34.0
 21
0.0
 31
0.0
  0
ENDBLK
  5
4E4
330
4E2
100
AcDbEntity
  8
0
100
AcDbBlockEnd
  0
ENDSEC
  0
SECTION
  2
ENTITIES
  0
LINE
  5
45
330
1F
100
AcDbEntity
  8
0
  6
Continuous
 62
     7
370
    15
100
AcDbLine
 10
-4.2857332304
 20
511.4458298221
 30
0.0
 11
-4.2857332304
 21
510.3458261028
 31
0.0
  0
LINE
  5
46
330
1F
100
AcDbEntity
  8
0
  6
Continuous
 62
     7
370
    15
100
AcDbLine
 10
5.2142636702
 20
510.3458261028
 30
0.0
 11
5.2142636702
 21
511.4458298221
 31
0.0
  0
ARC
  5
47
330
1F
100
AcDbEntity
  8
0
  6
Continuous
 62
     7
370
    15
100
AcDbCircle
 10
-2.2857350185
 20
510.3458226934
 30
0.0
 40
2.000000000000002
100
AcDbArc
 50
180.0
 51
238.5257269006
  0
ARC
  5
48
330
1F
100
AcDbEntity
  8
0
  6
Continuous
 62
     7
370
    15
100
AcDbCircle
 10
3.2142649815
 20
510.3458226934
 30
0.0
 40
2.000000000000002
100
AcDbArc
 50
301.4829838721
 51
0.0
  0
LINE
  5
49
330
1F
100
AcDbEntity
  8
0
  6
Continuous
 62
     7
370
    15
100
AcDbLine
 10
79.9642642811
 20
618.0458238259
 30
0.0
 11
79.9642642811
 21
613.3958196178
 31
0.0
  0
LINE
  5
4A
330
1F
100
AcDbEntity
  8
0
  6
Continuous
 62
     7
370
    15
100
AcDbLine
 10
79.9642642811
 20
600.6958207026
 30
0.0
 11
79.9642642811
 21
554.0248548523
 31
0.0
  0
LINE
  5
4B
330
1F
100
AcDbEntity
  8
0
  6
Continuous
 62
     7
370
    15
100
AcDbLine
 10
89.9642640576
 20
551.9114231601
 30
0.0
 11
89.9642640576
 21
600.6958207026
 31
0.0
  0
LINE
  5
4C
330
1F
100
AcDbEntity
  8
0
  6
Continuous
 62
     7
370
    15
100
AcDbLine
 10
91.1642657444
 20
600.6958207026
 30
0.0
 11
91.1642657444
 21
613.0458211437
 31
0.0
  0
CIRCLE
  5
4D
330
1F
100
AcDbEntity
  8
0
  6
Continuous
 62
     7
370
    15
100
AcDbCircle
 10
274.4642649815
 20
702.0458226934
 30
0.0
 40
8.899999999999977
  0
LINE
  5
4E
330
1F
100
AcDbEntity
  8
0
  6
Continuous
 62
     7
370
    15
100
AcDbLine
 10
86.4642644152
 20
623.0458190575
 30
0.0
 11
89.464264907
 21
623.0458190575
 31
0.0
  0
LINE
  5
4F
330
1F
100
AcDbEntity
  8
0
  6
Continuous
 62
     7
370
    15
100
AcDbLine
 10
89.464264907
 20
633.0458244219
 30
0.0
 11
86.4642644152
 21
633.0458244219
 31
0.0
  0
LINE
  5
50
330
1F
100
AcDbEntity
  8
0
  6
Continuous
 62
     7
370
    15
100
AcDbLine
 10
76.4269819334
 20
673.0458235279
 30
0.0
 11
74.4642661736
 21
673.0458235279
 31
0.0
  0
LINE
  5
51
330
1F
100
AcDbEntity
  8
0
  6
Continuous
 62
     7
370
    15
100
AcDbLine
 10
73.8642634675
 20
673.0458235279
 30
0.0
 11
58.8642665968
 21
673.0458235279
 31
0.0
  0
LINE
  5
52
330
1F
100
AcDbEntity
  8
0
  6
Continuous
 62
     7
370
    15
100
AcDbLine
 10
58.8642665968
 20
643.0458223358
 30
0.0
 11
73.8642634675
 21
643.0458223358
 31
0.0
  0
LINE
  5
53
330
1F
100
AcDbEntity
  8
0
  6
Continuous
 62
     7
370
    15
100
AcDbLine
 10
74.4642661736
 20
643.0458223358
 30
0.0
 11
76.4179630056
 21
643.0458223358
 31
0.0
  0
LINE
  5
54
330
1F
100
AcDbEntity
  8
0
  6
Continuous
 62
     7
370
    15
100
AcDbLine
 10
81.9902410582
 20
730.0458235577
 30
0.0
 11
76.4642646387
 21
730.0458235577
 31
0.0
  0
LINE
  5
55
330
1F
100
AcDbEntity
  8
0
  6
Continuous
 62
     7
370
    15
100
AcDbLine
 10
76.4642646387
 20
618.0458238259
 30
0.0
 11
86.4642644152
 21
618.0458238259
 31
0.0
  0
LINE
  5
56
330
1F
100
AcDbEntity
  8
0
  6
Continuous
 62
     7
370
    15
100
AcDbLine
 10
481.6642748043
 20
719.0162597135
 30
0.0
 11
475.8642660305
 21
719.0162597135
 31
0.0
  0
LINE
  5
57
330
1F
100
AcDbEntity
  8
0
  6
Continuous
 62
     7
370
    15
100
AcDbLine
 10
475.8642660305
 20
687.0162600562
 30
0.0
 11
481.6642748043
 21
687.0162600562
 31
0.0
  0
LINE
  5
58
330
1F
100
AcDbEntity
  8
0
  6
Continuous
 62
     7
370
    15
100
AcDbLine
 10
482.4958490059
 20
694.1773082972
 30
0.0
 11
488.164250724
 21
694.1773082972
 31
0.0
  0
LINE
  5
59
330
1F
100
AcDbEntity
  8
0
  6
Continuous
 62
     7
370
    15
100
AcDbLine
 10
488.164250724
 20
711.8552124038
 30
0.0
 11
482.4958490059
 21
711.8552124038
 31
0.0
  0
ARC
  5
5A
330
1F
100
AcDbEntity
  8
0
  6
Continuous
 62
     7
370
    15
100
AcDbCircle
 10
488.1642649815
 20
694.6773084314
 30
0.0
 40
0.5000000000001137
100
AcDbArc
 50
270.0
 51
0.0
  0
ARC
  5
5B
330
1F
100
AcDbEntity
  8
0
  6
Continuous
 62
     7
370
    15
100
AcDbCircle
 10
488.1642649815
 20
711.3552123079
 30
0.0
 40
0.5
100
AcDbArc
 50
0.0
 51
90.0
  0
LINE
  5
5C
330
1F
100
AcDbEntity
  8
0
  6
Continuous
 62
     7
370
    15
100
AcDbLine
 10
475.8642660305
 20
713.4937599212
 30
0.0
 11
475.1642690823
 21
713.4937599212
 31
0.0
  0
LINE
  5
5D
330
1F
100
AcDbEntity
  8
0
  6
Continuous
 62
     7
370
    15
100
AcDbLine
 10
475.1642690823
 20
692.5387607798
 30
0.0
 11
475.8642660305
 21
692.5387607798
 31
0.0
  0
ARC
  5
5E
330
1F
100
AcDbEntity
  8
0
  6
Continuous
 62
     7
370
    15
100
AcDbCircle
 10
488.1642649815
 20
691.4562418791
 30
0.0
 40
0.5000000000001137
100
AcDbArc
 50
0.0
 51
90.0
  0
LINE
  5
5F
330
1F
100
AcDbEntity
  8
0
  6
Continuous
 62
     7
370
    15
100
AcDbLine
 10
488.164250724
 20
691.9562417924
 30
0.0
 11
482.6642619297
 21
691.9562417924
 31
0.0
  0
ARC
  5
60
330
1F
100
AcDbEntity
  8
0
  6
Continuous
 62
     7
370
    15
100
AcDbCircle
 10
488.1642649815
 20
714.5762788601
 30
0.0
 40
0.5000000000001137
100
AcDbArc
 50
270.0
 51
0.0
  0
LINE
  5
61
330
1F
100
AcDbEntity
  8
0
  6
Continuous
 62
     7
370
    15
100
AcDbLine
 10
482.6642619297
 20
714.0762789086
 30
0.0
 11
488.164250724
 21
714.0762789086
 31
0.0
  0
LINE
  5
62
330
1F
100
AcDbEntity
  8
0
  6
Continuous
 62
     7
370
    15
100
AcDbLine
 10
481.9470094368
 20
687.6761067569
 30
0.0
 11
488.164250724
 21
687.6761067569
 31
0.0
  0
ARC
  5
63
330
1F
100
AcDbEntity
  8
0
  6
Continuous
 62
     7
370
    15
100
AcDbCircle
 10
481.6642649815
 20
688.0162603696
 30
0.0
 40
1.0
100
AcDbArc
 50
270.0
 51
340.1137787139
  0
LINE
  5
64
330
1F
100
AcDbEntity
  8
0
  6
Continuous
 62
     7
370
    15
100
AcDbLine
 10
488.164250724
 20
718.3564139441
 30
0.0
 11
481.9470094368
 21
718.3564139441
 31
0.0
  0
ARC
  5
65
330
1F
100
AcDbEntity
  8
0
  6
Continuous
 62
     7
370
    15
100
AcDbCircle
 10
481.6642649815
 20
718.0162603696
 30
0.0
 40
1.0
100
AcDbArc
 50
19.8862212861
 51
90.0
  0
ARC
  5
66
330
1F
100
AcDbEntity
  8
0
  6
Continuous
 62
     7
370
    15
100
AcDbCircle
 10
488.1642649815
 20
688.1761069534
 30
0.0
 40
0.5000000000001137
100
AcDbArc
 50
270.0
 51
0.0
  0
ARC
  5
67
330
1F
100
AcDbEntity
  8
0
  6
Continuous
 62
     7
370
    15
100
AcDbCircle
 10
488.1642649815
 20
717.8564137858
 30
0.0
 40
0.5
100
AcDbArc
 50
0.0
 51
90.0
  0
LINE
  5
68
330
1F
100
AcDbEntity
  8
0
  6
Continuous
 62
     7
370
    15
100
AcDbLine
 10
475.1642690823
 20
761.045823051
 30
0.0
 11
471.9642745182
 21
761.045823051
 31
0.0
  0
LINE
  5
69
330
1F
100
AcDbEntity
  8
0
  6
Continuous
 62
     7
370
    15
100
AcDbLine
 10
471.9642745182
 20
643.0458223358
 30
0.0
 11
475.1642690823
 21
643.0458223358
 31
0.0
  0
LINE
  5
6A
330
1F
100
AcDbEntity
  8
0
  6
Continuous
 62
     7
370
    15
100
AcDbLine
 10
215.4642613456
 20
902.7458226219
 30
0.0
 11
215.4642613456
 21
899.5458280578
 31
0.0
  0
LINE
  5
6B
330
1F
100
AcDbEntity
  8
0
  6
Continuous
 62
     7
370
    15
100
AcDbLine
 10
333.4642695114
 20
899.5458280578
 30
0.0
 11
333.4642695114
 21
902.7458226219
 31
0.0
  0
ARC
  5
6C
330
1F
100
AcDbEntity
  8
0
  6
Continuous
 62
     7
370
    15
100
AcDbCircle
 10
303.9642649815
 20
485.5458226934
 30
0.0
 40
2.0
100
AcDbArc
 50
270.0
 51
0.0
  0
ARC
  5
6D
330
1F
100
AcDbEntity
  8
0
  6
Continuous
 62
     7
370
    15
100
AcDbCircle
 10
244.9642649815
 20
485.5458226934
 30
0.0
 40
2.0
100
AcDbArc
 50
180.0
 51
270.0
  0
LINE
  5
6E
330
1F
100
AcDbEntity
  8
0
  6
Continuous
 62
     7
370
    15
100
AcDbLine
 10
242.9642723724
 20
494.5458268657
 30
0.0
 11
242.9642723724
 21
485.5458235279
 31
0.0
  0
LINE
  5
6F
330
1F
100
AcDbEntity
  8
0
  6
Continuous
 62
     7
370
    15
100
AcDbLine
 10
305.9642659351
 20
485.5458235279
 30
0.0
 11
305.9642659351
 21
494.5458268657
 31
0.0
  0
ARC
  5
70
330
1F
100
AcDbEntity
  8
0
  6
Continuous
 62
     7
370
    15
100
AcDbCircle
 10
307.9642649815
 20
494.5458226934
 30
0.0
 40
2.0
100
AcDbArc
 50
90.0
 51
180.0
  0
ARC
  5
71
330
1F
100
AcDbEntity
  8
0
  6
Continuous
 62
     7
370
    15
100
AcDbCircle
 10
240.9642649815
 20
494.5458226934
 30
0.0
 40
2.0
100
AcDbArc
 50
0.0
 51
90.0
  0
LINE
  5
72
330
1F
100
AcDbEntity
  8
0
  6
Continuous
 62
     7
370
    15
100
AcDbLine
 10
333.4642695114
 20
499.8998885885
 30
0.0
 11
333.4642695114
 21
504.545817329
 31
0.0
  0
LINE
  5
73
330
1F
100
AcDbEntity
  8
0
  6
Continuous
 62
     7
370
    15
100
AcDbLine
 10
215.4642613456
 20
504.545817329
 30
0.0
 11
215.4642613456
 21
499.8998885885
 31
0.0
  0
ARC
  5
74
330
1F
100
AcDbEntity
  8
0
  6
Continuous
 62
     7
370
    15
100
AcDbCircle
 10
217.4642649815
 20
499.8998886163
 30
0.0
 40
2.000000000000025
100
AcDbArc
 50
182.5070908257
 51
248.1985905136
  0
ARC
  5
75
330
1F
100
AcDbEntity
  8
0
  6
Continuous
 62
     7
370
    15
100
AcDbCircle
 10
331.4642649815
 20
499.8998886163
 30
0.0
 40
2.000000000000036
100
AcDbArc
 50
291.8014094864
 51
359.0447415993
  0
LINE
  5
76
330
1F
100
AcDbEntity
  8
0
  6
Continuous
 62
     7
370
    15
100
AcDbLine
 10
216.4216758535
 20
899.5458280578
 30
0.0
 11
216.4216758535
 21
896.5458219782
 31
0.0
  0
LINE
  5
77
330
1F
100
AcDbEntity
  8
0
  6
Continuous
 62
     7
370
    15
100
AcDbLine
 10
332.5068550036
 20
896.5458219782
 30
0.0
 11
332.5068550036
 21
899.5458280578
 31
0.0
  0
LINE
  5
78
330
1F
100
AcDbEntity
  8
0
  6
Continuous
 62
     7
370
    15
100
AcDbLine
 10
471.9642745182
 20
760.0884122685
 30
0.0
 11
468.9642535374
 21
760.0884122685
 31
0.0
  0
LINE
  5
79
330
1F
100
AcDbEntity
  8
0
  6
Continuous
 62
     7
370
    15
100
AcDbLine
 10
468.9642535374
 20
644.0032331184
 30
0.0
 11
471.9642745182
 21
644.0032331184
 31
0.0
  0
LINE
  5
7A
330
1F
100
AcDbEntity
  8
0
  6
Continuous
 62
     7
370
    15
100
AcDbLine
 10
216.4216758535
 20
507.5458234087
 30
0.0
 11
216.4216758535
 21
504.545817329
 31
0.0
  0
LINE
  5
7B
330
1F
100
AcDbEntity
  8
0
  6
Continuous
 62
     7
370
    15
100
AcDbLine
 10
332.5068550036
 20
504.545817329
 30
0.0
 11
332.5068550036
 21
507.5458234087
 31
0.0
  0
LINE
  5
7C
330
1F
100
AcDbEntity
  8
0
  6
Continuous
 62
     7
370
    15
100
AcDbLine
 10
89.464264907
 20
613.0458211437
 30
0.0
 11
101.4955672287
 21
613.0458211437
 31
0.0
  0
LINE
  5
7D
330
1F
100
AcDbEntity
  8
0
  6
Continuous
 62
     7
370
    15
100
AcDbLine
 10
210.464266114
 20
896.5458219782
 30
0.0
 11
210.464266114
 21
885.722736074
 31
0.0
  0
LINE
  5
7E
330
1F
100
AcDbEntity
  8
0
  6
Continuous
 62
     7
370
    15
100
AcDbLine
 10
468.9642535374
 20
766.0458257333
 30
0.0
 11
458.1411825344
 21
766.0458257333
 31
0.0
  0
LINE
  5
7F
330
1F
100
AcDbEntity
  8
0
  6
Continuous
 62
     7
370
    15
100
AcDbLine
 10
458.1411825344
 20
638.0458196536
 30
0.0
 11
468.9642535374
 21
638.0458196536
 31
0.0
  0
LINE
  5
80
330
1F
100
AcDbEntity
  8
0
  6
Continuous
 62
     7
370
    15
100
AcDbLine
 10
338.4642647431
 20
885.722736074
 30
0.0
 11
338.4642647431
 21
896.5458219782
 31
0.0
  0
LINE
  5
81
330
1F
100
AcDbEntity
  8
0
  6
Continuous
 62
     7
370
    15
100
AcDbLine
 10
338.4642647431
 20
507.5458234087
 30
0.0
 11
338.4642647431
 21
518.3689093128
 31
0.0
  0
LINE
  5
82
330
1F
100
AcDbEntity
  8
0
  6
Continuous
 62
     7
370
    15
100
AcDbLine
 10
210.464266114
 20
518.3689093128
 30
0.0
 11
210.464266114
 21
507.5458234087
 31
0.0
  0
LINE
  5
83
330
1F
100
AcDbEntity
  8
0
  6
Continuous
 62
     7
370
    15
100
AcDbLine
 10
67.076557301
 20
605.2263399497
 30
0.0
 11
66.8683433756
 21
605.845825924
 31
0.0
  0
ARC
  5
84
330
1F
100
AcDbEntity
  8
0
  6
Continuous
 62
     7
370
    15
100
AcDbCircle
 10
71.4642649815
 20
607.0458226934
 30
0.0
 40
4.749999999999991
100
AcDbArc
 50
59.6511770724
 51
187.2567473075
  0
ARC
  5
85
330
1F
100
AcDbEntity
  8
0
  6
Continuous
 62
     7
370
    15
100
AcDbCircle
 10
71.4642649815
 20
607.0458226934
 30
0.0
 40
4.75000000000002
100
AcDbArc
 50
202.5226735859
 51
50.8332892839
  0
LINE
  5
86
330
1F
100
AcDbEntity
  8
0
  6
Continuous
 62
     7
370
    15
100
AcDbLine
 10
67.8641283736
 20
605.845825924
 30
0.0
 11
68.1592868492
 21
605.1340421572
 31
0.0
  0
SPLINE
  5
87
330
1F
100
AcDbEntity
  8
0
  6
Continuous
 62
     7
370
    15
100
AcDbSpline
210
0.0
220
0.0
230
1.0
 70
     8
 71
     3
 72
     9
 73
     5
 74
     0
 42
0.00000001
 43
0.00000001
 40
0.0
 40
0.0
 40
0.0
 40
0.0
 40
0.6022823701713977
 40
1.0
 40
1.0
 40
1.0
 40
1.0
 10
68.15928684922085
 20
605.1340421572389
 30
0.0
 10
68.34963358714836
 20
605.2129738748455
 30
0.0
 10
68.66567594095882
 20
605.3440282133349
 30
0.0
 10
69.01782221091548
 20
605.4900536393322
 30
0.0
 10
69.15787699075565
 20
605.5481305256548
 30
0.0
  0
SPLINE
  5
88
330
1F
100
AcDbEntity
  8
0
  6
Continuous
 62
     7
370
    15
100
AcDbSpline
210
0.0
220
0.0
230
1.0
 70
     8
 71
     3
 72
     9
 73
     5
 74
     0
 42
0.00000001
 43
0.00000001
 40
0.0
 40
0.0
 40
0.0
 40
0.0
 40
0.6147259497152836
 40
1.0
 40
1.0
 40
1.0
 40
1.0
 10
72.03822674604282
 20
604.356387807435
 30
0.0
 10
72.128348321993
 20
604.1390608494761
 30
0.0
 10
72.27495279833227
 20
603.7855261433855
 30
0.0
 10
72.40298958742844
 20
603.4767553245806
 30
0.0
 10
72.45231883974895
 20
603.3577939406099
 30
0.0
  0
LINE
  5
89
330
1F
100
AcDbEntity
  8
0
  6
Continuous
 62
     7
370
    15
100
AcDbLine
 10
72.4523188397
 20
603.3577939406
 30
0.0
 11
73.3760492727
 21
603.7408431903
 31
0.0
  0
SPLINE
  5
8A
330
1F
100
AcDbEntity
  8
0
  6
Continuous
 62
     7
370
    15
100
AcDbSpline
210
0.0
220
0.0
230
1.0
 70
     8
 71
     3
 72
     9
 73
     5
 74
     0
 42
0.00000001
 43
0.00000001
 40
0.0
 40
0.0
 40
0.0
 40
0.0
 40
0.6022839482794583
 40
0.9999999999999999
 40
0.9999999999999999
 40
0.9999999999999999
 40
0.9999999999999999
 10
73.37604927273617
 20
603.7408431902589
 30
0.0
 10
73.29711611627775
 20
603.9311911173949
 30
0.0
 10
73.16605973218532
 20
604.2472346176073
 30
0.0
 10
73.02003396900972
 20
604.5993822794095
 30
0.0
 10
72.96195717903004
 20
604.739437057084
 30
0.0
  0
SPLINE
  5
8B
330
1F
100
AcDbEntity
  8
0
  6
Continuous
 62
     7
370
    15
100
AcDbSpline
210
0.0
220
0.0
230
1.0
 70
     8
 71
     3
 72
     9
 73
     5
 74
     0
 42
0.00000001
 43
0.00000001
 40
0.0
 40
0.0
 40
0.0
 40
0.0
 40
0.4491239529513906
 40
1.0
 40
1.0
 40
1.0
 40
1.0
 10
74.46426617356167
 20
607.748570097989
 30
0.0
 10
74.57453738635027
 20
607.7942984687228
 30
0.0
 10
74.82006250711918
 20
607.8961152843996
 30
0.0
 10
75.03428177518879
 20
607.9849424325457
 30
0.0
 10
75.1522900387846
 20
608.033875180787
 30
0.0
  0
LINE
  5
8C
330
1F
100
AcDbEntity
  8
0
  6
Continuous
 62
     7
370
    15
100
AcDbLine
 10
75.1522900388
 20
608.0338751808
 30
0.0
 11
74.7692407891
 21
608.9576056138
 31
0.0
  0
LINE
  5
8D
330
1F
100
AcDbEntity
  8
0
  6
Continuous
 62
     7
370
    15
100
AcDbLine
 10
74.7692407891
 20
608.9576056138
 30
0.0
 11
74.4642661736
 21
608.8311394587
 31
0.0
  0
SPLINE
  5
8E
330
1F
100
AcDbEntity
  8
0
  6
Continuous
 62
     7
370
    15
100
AcDbSpline
210
0.0
220
0.0
230
1.0
 70
     8
 71
     3
 72
     9
 73
     5
 74
     0
 42
0.00000001
 43
0.00000001
 40
0.0
 40
0.0
 40
0.0
 40
0.0
 40
0.6147281319482676
 40
1.0
 40
1.0
 40
1.0
 40
1.0
 10
70.89030089231358
 20
609.7352599635782
 30
0.0
 10
70.80018176754155
 20
609.9525876119632
 30
0.0
 10
70.65358179905401
 20
610.306122186176
 30
0.0
 10
70.52553978467596
 20
610.614887709761
 30
0.0
 10
70.47620879860744
 20
610.7338463798227
 30
0.0
  0
LINE
  5
8F
330
1F
100
AcDbEntity
  8
0
  6
Continuous
 62
     7
370
    15
100
AcDbLine
 10
70.4762087986
 20
610.7338463798
 30
0.0
 11
69.5524820909
 21
610.3507971302
 31
0.0
  0
SPLINE
  5
90
330
1F
100
AcDbEntity
  8
0
  6
Continuous
 62
     7
370
    15
100
AcDbSpline
210
0.0
220
0.0
230
1.0
 70
     8
 71
     3
 72
     9
 73
     5
 74
     0
 42
0.00000001
 43
0.00000001
 40
0.0
 40
0.0
 40
0.0
 40
0.0
 40
0.6022805019704649
 40
1.0
 40
1.0
 40
1.0
 40
1.0
 10
69.55248209091053
 20
610.3507971301736
 30
0.0
 10
69.63141345160574
 20
610.1604515030585
 30
0.0
 10
69.76246760400979
 20
609.8444100132672
 30
0.0
 10
69.9084958885795
 20
609.4922654663592
 30
0.0
 10
69.96657418461666
 20
609.3522107139291
 30
0.0
  0
LINE
  5
91
330
1F
100
AcDbEntity
  8
0
  6
Continuous
 62
     7
370
    15
100
AcDbLine
 10
73.7706506476
 20
608.5435172454
 30
0.0
 11
71.7346044108
 21
607.6992100015
 31
0.0
  0
LINE
  5
92
330
1F
100
AcDbEntity
  8
0
  6
Continuous
 62
     7
370
    15
100
AcDbLine
 10
71.7346044108
 20
607.6992100015
 30
0.0
 11
70.8903008923
 21
609.7352599636
 31
0.0
  0
LINE
  5
93
330
1F
100
AcDbEntity
  8
0
  6
Continuous
 62
     7
370
    15
100
AcDbLine
 10
69.1578769908
 20
605.5481305257
 30
0.0
 11
69.875762783
 21
605.845825924
 31
0.0
  0
LINE
  5
94
330
1F
100
AcDbEntity
  8
0
  6
Continuous
 62
     7
370
    15
100
AcDbLine
 10
71.420592241
 20
605.845825924
 30
0.0
 11
72.038226746
 21
604.3563878074
 31
0.0
  0
LINE
  5
95
330
1F
100
AcDbEntity
  8
0
  6
Continuous
 62
     7
370
    15
100
AcDbLine
 10
69.9665741846
 20
609.3522107139
 30
0.0
 11
70.8108777032
 21
607.3161607519
 31
0.0
  0
LINE
  5
96
330
1F
100
AcDbEntity
  8
0
  6
Continuous
 62
     7
370
    15
100
AcDbLine
 10
70.8108777032
 20
607.3161607519
 30
0.0
 11
68.7748277411
 21
606.4718609586
 31
0.0
  0
LINE
  5
97
330
1F
100
AcDbEntity
  8
0
  6
Continuous
 62
     7
370
    15
100
AcDbLine
 10
72.961957179
 20
604.7394370571
 30
0.0
 11
72.5031616017
 21
605.845825924
 31
0.0
  0
LINE
  5
98
330
1F
100
AcDbEntity
  8
0
  6
Continuous
 62
     7
370
    15
100
AcDbLine
 10
72.2543569133
 20
606.4458211795
 30
0.0
 11
72.1176536605
 21
606.7754795685
 31
0.0
  0
LINE
  5
99
330
1F
100
AcDbEntity
  8
0
  6
Continuous
 62
     7
370
    15
100
AcDbLine
 10
72.1176536605
 20
606.7754795685
 30
0.0
 11
73.8642634675
 21
607.4997654095
 31
0.0
  0
SPLINE
  5
9A
330
1F
100
AcDbEntity
  8
0
  6
Continuous
 62
     7
370
    15
100
AcDbSpline
210
0.0
220
0.0
230
1.0
 70
     8
 71
     3
 72
     9
 73
     5
 74
     0
 42
0.00000001
 43
0.00000001
 40
0.0
 40
0.0
 40
0.0
 40
0.0
 40
0.6022827021471506
 40
1.0
 40
1.0
 40
1.0
 40
1.0
 10
4.249473087509726
 20
508.6549019351663
 30
0.0
 10
4.043409740527276
 20
508.5498440767816
 30
0.0
 10
3.701272491279009
 20
508.3754112763538
 30
0.0
 10
3.320049910504996
 20
508.3542415972522
 30
0.0
 10
3.168431095799062
 20
508.3458220496835
 30
0.0
  0
LINE
  5
9B
330
1F
100
AcDbEntity
  8
0
  6
Continuous
 62
     7
370
    15
100
AcDbLine
 10
3.1684310958
 20
508.3458220497
 30
0.0
 11
0.9642662332
 21
508.3458220497
 31
0.0
  0
SPLINE
  5
9C
330
1F
100
AcDbEntity
  8
0
  6
Continuous
 62
     7
370
    15
100
AcDbSpline
210
0.0
220
0.0
230
1.0
 70
    24
 71
     3
 72
     9
 73
     5
 74
     0
 42
0.00000001
 43
0.00000001
 40
0.0
 40
0.0
 40
0.0
 40
0.0
 40
0.6147258747657648
 40
0.9999999999999999
 40
0.9999999999999999
 40
0.9999999999999999
 40
0.9999999999999999
 10
0.964266233166311
 20
508.3458220496835
 30
0.0
 10
0.9642662331663249
 20
508.3663317306747
 30
0.0
 10
0.9642662331663249
 20
508.3996956768385
 30
0.0
 10
0.9642662331663249
 20
508.5839236600794
 30
0.0
 10
0.964266233166311
 20
508.6549019351663
 30
0.0
  0
LINE
  5
9D
330
1F
100
AcDbEntity
  8
0
  6
Continuous
 62
     7
370
    15
100
AcDbLine
 10
0.9642662332
 20
508.6549019352
 30
0.0
 11
-0.0357357934
 21
508.6549019352
 31
0.0
  0
SPLINE
  5
9E
330
1F
100
AcDbEntity
  8
0
  6
Continuous
 62
     7
370
    15
100
AcDbSpline
210
0.0
220
0.0
230
1.0
 70
    24
 71
     3
 72
     9
 73
     5
 74
     0
 42
0.00000001
 43
0.00000001
 40
0.0
 40
0.0
 40
0.0
 40
0.0
 40
0.6022807372120121
 40
0.9999999999999999
 40
0.9999999999999999
 40
0.9999999999999999
 40
0.9999999999999999
 10
-0.0357357933916114
 20
508.6549019351663
 30
0.0
 10
-0.0357357933915975
 20
508.5498440755156
 30
0.0
 10
-0.0357357933915836
 20
508.3754107039007
 30
0.0
 10
-0.0357357933915975
 20
508.354241464122
 30
0.0
 10
-0.0357357933916252
 20
508.3458220496835
 30
0.0
  0
LINE
  5
9F
330
1F
100
AcDbEntity
  8
0
  6
Continuous
 62
     7
370
    15
100
AcDbLine
 10
-0.0357357934
 20
508.3458220497
 30
0.0
 11
-2.239900656
 21
508.3458220497
 31
0.0
  0
SPLINE
  5
A0
330
1F
100
AcDbEntity
  8
0
  6
Continuous
 62
     7
370
    15
100
AcDbSpline
210
0.0
220
0.0
230
1.0
 70
     8
 71
     3
 72
     9
 73
     5
 74
     0
 42
0.00000001
 43
0.00000001
 40
0.0
 40
0.0
 40
0.0
 40
0.0
 40
0.6147215660260995
 40
1.0
 40
1.0
 40
1.0
 40
1.0
 10
-2.239900656024363
 20
508.3458220496835
 30
0.0
 10
-2.475169841408747
 20
508.3663324305311
 30
0.0
 10
-2.857894636481922
 20
508.3996977490446
 30
0.0
 10
-3.19215813174531
 20
508.5839236633899
 30
0.0
 10
-3.320942647735026
 20
508.6549019351663
 30
0.0
  0
CIRCLE
  5
A1
330
1F
100
AcDbEntity
  8
0
  6
Continuous
 62
     7
370
    15
100
AcDbCircle
 10
94.4642649815
 20
517.0458226934
 30
0.0
 40
4.000000000000115
  0
LINE
  5
A2
330
1F
100
AcDbEntity
  8
0
  6
Continuous
 62
     7
370
    15
100
AcDbLine
 10
91.0020293519
 20
517.5164436832
 30
0.0
 11
91.0105192885
 21
516.516471459
 31
0.0
  0
SPLINE
  5
A3
330
1F
100
AcDbEntity
  8
0
  6
Continuous
 62
     7
370
    15
100
AcDbSpline
210
0.0
220
0.0
230
1.0
 70
     8
 71
     3
 72
    10
 73
     6
 74
     0
 42
0.00000001
 43
0.00000001
 40
0.0
 40
0.0
 40
0.0
 40
0.0
 40
0.3971557743115978
 40
0.794124978694893
 40
1.0
 40
1.0
 40
1.0
 40
1.0
 10
91.0105192885004
 20
516.5164714589777
 30
0.0
 10
91.17886862460678
 20
516.5179006738521
 30
0.0
 10
91.51548821217418
 20
516.5207584322054
 30
0.0
 10
92.07286666711396
 20
516.525501967628
 30
0.0
 10
92.4151851067162
 20
516.5284007974641
 30
0.0
 10
92.53208896519766
 20
516.5293907657327
 30
0.0
  0
SPLINE
  5
A4
330
1F
100
AcDbEntity
  8
0
  6
Continuous
 62
     7
370
    15
100
AcDbSpline
210
0.0
220
0.0
230
1.0
 70
     8
 71
     3
 72
    10
 73
     6
 74
     0
 42
0.00000001
 43
0.00000001
 40
0.0
 40
0.0
 40
0.0
 40
0.0
 40
0.4119482862699667
 40
0.8219733497532568
 40
0.9999999999999999
 40
0.9999999999999999
 40
0.9999999999999999
 40
0.9999999999999999
 10
93.98072677107677
 20
515.105152679986
 30
0.0
 10
93.98272144859905
 20
514.870262005032
 30
0.0
 10
93.98670149128718
 20
514.4015772663093
 30
0.0
 10
93.99104595920605
 20
513.8898263780558
 30
0.0
 10
93.99304255896863
 20
513.6547478367263
 30
0.0
 10
93.99364700915442
 20
513.583580209321
 30
0.0
  0
LINE
  5
A5
330
1F
100
AcDbEntity
  8
0
  6
Continuous
 62
     7
370
    15
100
AcDbLine
 10
93.9936470092
 20
513.5835802093
 30
0.0
 11
94.9936108515
 21
513.5920738712
 31
0.0
  0
SPLINE
  5
A6
330
1F
100
AcDbEntity
  8
0
  6
Continuous
 62
     7
370
    15
100
AcDbSpline
210
0.0
220
0.0
230
1.0
 70
     8
 71
     3
 72
    10
 73
     6
 74
     0
 42
0.00000001
 43
0.00000001
 40
0.0
 40
0.0
 40
0.0
 40
0.0
 40
0.3971584843361166
 40
0.794129446183043
 40
1.0
 40
1.0
 40
1.0
 40
1.0
 10
94.99361085148678
 20
513.5920738712015
 30
0.0
 10
94.99218108983051
 20
513.7604254759359
 30
0.0
 10
94.98932224159473
 20
514.0970491964523
 30
0.0
 10
94.98459031045724
 20
514.6544279572969
 30
0.0
 10
94.9816833434812
 20
514.9967449789191
 30
0.0
 10
94.98069061340914
 20
515.1136463418665
 30
0.0
  0
SPLINE
  5
A7
330
1F
100
AcDbEntity
  8
0
  6
Continuous
 62
     7
370
    15
100
AcDbSpline
210
0.0
220
0.0
230
1.0
 70
     8
 71
     3
 72
    10
 73
     6
 74
     0
 42
0.00000001
 43
0.00000001
 40
0.0
 40
0.0
 40
0.0
 40
0.0
 40
0.4119521133792496
 40
0.8219734492926092
 40
1.0
 40
1.0
 40
1.0
 40
1.0
 10
96.4049324244462
 20
516.5622776284875
 30
0.0
 10
96.63982525547642
 20
516.5642756981878
 30
0.0
 10
97.10850999883706
 20
516.5682624728398
 30
0.0
 10
97.62025763875556
 20
516.5725884033121
 30
0.0
 10
97.85533383038822
 20
516.5746021818825
 30
0.0
 10
97.92650116982088
 20
516.5752118364038
 30
0.0
  0
LINE
  5
A8
330
1F
100
AcDbEntity
  8
0
  6
Continuous
 62
     7
370
    15
100
AcDbLine
 10
97.9265011698
 20
516.5752118364
 30
0.0
 11
97.9180103019
 21
517.5751691595
 31
0.0
  0
SPLINE
  5
A9
330
1F
100
AcDbEntity
  8
0
  6
Continuous
 62
     7
370
    15
100
AcDbSpline
210
0.0
220
0.0
230
1.0
 70
     8
 71
     3
 72
    10
 73
     6
 74
     0
 42
0.00000001
 43
0.00000001
 40
0.0
 40
0.0
 40
0.0
 40
0.0
 40
0.3971555160940166
 40
0.7941248905119964
 40
1.0
 40
1.0
 40
1.0
 40
1.0
 10
97.91801030190811
 20
517.5751691594782
 30
0.0
 10
97.74966129489236
 20
517.5737399440426
 30
0.0
 10
97.41304218387256
 20
517.5708821830262
 30
0.0
 10
96.8556638415102
 20
517.566138650966
 30
0.0
 10
96.51334541167826
 20
517.5632398210269
 30
0.0
 10
96.39644155653343
 20
517.5622498527231
 30
0.0
  0
SPLINE
  5
AA
330
1F
100
AcDbEntity
  8
0
  6
Continuous
 62
     7
370
    15
100
AcDbSpline
210
0.0
220
0.0
230
1.0
 70
     8
 71
     3
 72
    10
 73
     6
 74
     0
 42
0.00000001
 43
0.00000001
 40
0.0
 40
0.0
 40
0.0
 40
0.0
 40
0.4119482846052822
 40
0.8219733504726632
 40
1.0
 40
1.0
 40
1.0
 40
1.0
 10
94.94780375065432
 20
518.9864879384698
 30
0.0
 10
94.94580918856856
 20
519.2213786141415
 30
0.0
 10
94.94182937619495
 20
519.6900633566006
 30
0.0
 10
94.93748351108127
 20
520.2018142379468
 30
0.0
 10
94.93548700352208
 20
520.4368927815348
 30
0.0
 10
94.9348825812541
 20
520.5080604091348
 30
0.0
  0
LINE
  5
AB
330
1F
100
AcDbEntity
  8
0
  6
Continuous
 62
     7
370
    15
100
AcDbLine
 10
94.9348825813
 20
520.5080604091
 30
0.0
 11
93.9349187389
 21
520.4995667473
 31
0.0
  0
SPLINE
  5
AC
330
1F
100
AcDbEntity
  8
0
  6
Continuous
 62
     7
370
    15
100
AcDbSpline
210
0.0
220
0.0
230
1.0
 70
     8
 71
     3
 72
    10
 73
     6
 74
     0
 42
0.00000001
 43
0.00000001
 40
0.0
 40
0.0
 40
0.0
 40
0.0
 40
0.3971508941061083
 40
0.7941211237443668
 40
1.0
 40
1.0
 40
1.0
 40
1.0
 10
93.93491873892174
 20
520.4995667472543
 30
0.0
 10
93.93634838977225
 20
520.3312204046532
 30
0.0
 10
93.93920704112321
 20
519.9946043004252
 30
0.0
 10
93.94394046709417
 20
519.4372225276625
 30
0.0
 10
93.9468472227766
 20
519.0949005768073
 30
0.0
 10
93.94783990832195
 20
518.9779942765894
 30
0.0
  0
SPLINE
  5
AD
330
1F
100
AcDbEntity
  8
0
  6
Continuous
 62
     7
370
    15
100
AcDbSpline
210
0.0
220
0.0
230
1.0
 70
     8
 71
     3
 72
    10
 73
     6
 74
     0
 42
0.00000001
 43
0.00000001
 40
0.0
 40
0.0
 40
0.0
 40
0.0
 40
0.4119517855997964
 40
0.8219738069626726
 40
0.9999999999999999
 40
0.9999999999999999
 40
0.9999999999999999
 40
0.9999999999999999
 10
92.52359716596231
 20
517.5293629899683
 30
0.0
 10
92.28870471645392
 20
517.5273660183268
 30
0.0
 10
91.82002015748766
 20
517.5233814297417
 30
0.0
 10
91.30827207559788
 20
517.5190422064157
 30
0.0
 10
91.07319636351403
 20
517.5170475477839
 30
0.0
 10
91.00202935191021
 20
517.5164436832132
 30
0.0
  0
LINE
  5
AE
330
1F
100
AcDbEntity
  8
0
  6
Continuous
 62
     7
370
    15
100
AcDbLine
 10
93.9478399083
 20
518.9779942766
 30
0.0
 11
93.9600374401
 21
517.5415521398
 31
0.0
  0
LINE
  5
AF
330
1F
100
AcDbEntity
  8
0
  6
Continuous
 62
     7
370
    15
100
AcDbLine
 10
93.9600374401
 20
517.5415521398
 30
0.0
 11
92.523597166
 21
517.52936299
 31
0.0
  0
LINE
  5
B0
330
1F
100
AcDbEntity
  8
0
  6
Continuous
 62
     7
370
    15
100
AcDbLine
 10
94.9806906134
 20
515.1136463419
 30
0.0
 11
94.9684930816
 21
516.5500884786
 31
0.0
  0
LINE
  5
B1
330
1F
100
AcDbEntity
  8
0
  6
Continuous
 62
     7
370
    15
100
AcDbLine
 10
94.9684930816
 20
516.5500884786
 30
0.0
 11
96.4049324244
 21
516.5622776285
 31
0.0
  0
LINE
  5
B2
330
1F
100
AcDbEntity
  8
0
  6
Continuous
 62
     7
370
    15
100
AcDbLine
 10
96.3964415565
 20
517.5622498527
 30
0.0
 11
94.9600012824
 21
517.5500458017
 31
0.0
  0
LINE
  5
B3
330
1F
100
AcDbEntity
  8
0
  6
Continuous
 62
     7
370
    15
100
AcDbLine
 10
94.9600012824
 20
517.5500458017
 30
0.0
 11
94.9478037507
 21
518.9864879385
 31
0.0
  0
LINE
  5
B4
330
1F
100
AcDbEntity
  8
0
  6
Continuous
 62
     7
370
    15
100
AcDbLine
 10
92.5320889652
 20
516.5293907657
 30
0.0
 11
93.968528308
 21
516.5415948168
 31
0.0
  0
LINE
  5
B5
330
1F
100
AcDbEntity
  8
0
  6
Continuous
 62
     7
370
    15
100
AcDbLine
 10
93.968528308
 20
516.5415948168
 30
0.0
 11
93.9807267711
 21
515.10515268
 31
0.0
  0
CIRCLE
  5
B6
330
1F
100
AcDbEntity
  8
0
  6
Continuous
 62
     7
370
    15
100
AcDbCircle
 10
94.4642649815
 20
517.0458226934
 30
0.0
 40
4.500000000000137
  0
SPLINE
  5
B7
330
1F
100
AcDbEntity
  8
0
  6
Continuous
 62
     7
370
    15
100
AcDbSpline
210
0.0
220
0.0
230
1.0
 70
     8
 71
     3
 72
    19
 73
    15
 74
     0
 42
0.00000001
 43
0.00000001
 40
0.0
 40
0.0
 40
0.0
 40
0.0
 40
0.101083240075455
 40
0.2020375247986899
 40
0.2781260383183674
 40
0.3408159688305689
 40
0.4181213787295741
 40
0.5193749088253582
 40
0.5868333519774405
 40
0.6542024683700267
 40
0.7438684553796152
 40
0.8351310384686431
 40
0.9385025993338925
 40
1.0
 40
1.0
 40
1.0
 40
1.0
 10
79.9642642811142
 20
554.0248548522653
 30
0.0
 10
80.0183595698641
 20
554.0437134449885
 30
0.0
 10
80.12648113615087
 20
554.081406571882
 30
0.0
 10
80.89471604121165
 20
554.2573032742814
 30
0.0
 10
81.83665433257346
 20
554.2266197920709
 30
0.0
 10
82.83085499596619
 20
553.8885196739604
 30
0.0
 10
83.8454710900056
 20
553.0834142342964
 30
0.0
 10
84.82109822761392
 20
552.1392384685084
 30
0.0
 10
86.0274477680988
 20
551.608303889119
 30
0.0
 10
87.20222748088041
 20
551.4481903858112
 30
0.0
 10
88.35906306707629
 20
551.5472090299772
 30
0.0
 10
89.33860178901776
 20
551.7549397774454
 30
0.0
 10
89.92048911687688
 20
551.9176666338641
 30
0.0
 10
89.90388072740059
 20
551.9131193370886
 30
0.0
 10
89.89768566938267
 20
551.9114231601419
 30
0.0
  0
LINE
  5
B8
330
1F
100
AcDbEntity
  8
0
  6
Continuous
 62
     7
370
    15
100
AcDbLine
 10
78.7642644569
 20
613.3958196178
 30
0.0
 11
78.7642644569
 21
600.6958207026
 31
0.0
  0
LINE
  5
B9
330
1F
100
AcDbEntity
  8
0
  6
Continuous
 62
     7
370
    15
100
AcDbLine
 10
78.7642644569
 20
613.3958196178
 30
0.0
 11
89.464264907
 21
613.3958196178
 31
0.0
  0
LINE
  5
BA
330
1F
100
AcDbEntity
  8
0
  6
Continuous
 62
     7
370
    15
100
AcDbLine
 10
78.7642644569
 20
600.6958207026
 30
0.0
 11
91.1642657444
 21
600.6958207026
 31
0.0
  0
LINE
  5
BB
330
1F
100
AcDbEntity
  8
0
  6
Continuous
 62
     7
370
    15
100
AcDbLine
 10
77.764264293
 20
613.3958196178
 30
0.0
 11
78.7642644569
 21
613.3958196178
 31
0.0
  0
LINE
  5
BC
330
1F
100
AcDbEntity
  8
0
  6
Continuous
 62
     7
370
    15
100
AcDbLine
 10
77.764264293
 20
600.6958207026
 30
0.0
 11
78.7642644569
 21
600.6958207026
 31
0.0
  0
LINE
  5
BD
330
1F
100
AcDbEntity
  8
0
  6
Continuous
 62
     7
370
    15
100
AcDbLine
 10
65.1142643616
 20
607.0458238855
 30
0.0
 11
65.1426734254
 21
606.4458211795
 31
0.0
  0
ARC
  5
BE
330
1F
100
AcDbEntity
  8
0
  6
Continuous
 62
     7
370
    15
100
AcDbCircle
 10
71.4642649815
 20
607.0458226934
 30
0.0
 40
6.350000000000136
100
AcDbArc
 50
190.8930528194
 51
270.0
  0
ARC
  5
BF
330
1F
100
AcDbEntity
  8
0
  6
Continuous
 62
     7
370
    15
100
AcDbCircle
 10
71.4642649815
 20
607.0458226934
 30
0.0
 40
6.350000000000023
100
AcDbArc
 50
90.0
 51
180.0
  0
LINE
  5
C0
330
1F
100
AcDbEntity
  8
0
  6
Continuous
 62
     7
370
    15
100
AcDbLine
 10
71.4642638192
 20
613.3958196178
 30
0.0
 11
73.8642634675
 21
613.3958196178
 31
0.0
  0
LINE
  5
C1
330
1F
100
AcDbEntity
  8
0
  6
Continuous
 62
     7
370
    15
100
AcDbLine
 10
74.4642661736
 20
613.3958196178
 30
0.0
 11
77.764264293
 21
613.3958196178
 31
0.0
  0
LINE
  5
C2
330
1F
100
AcDbEntity
  8
0
  6
Continuous
 62
     7
370
    15
100
AcDbLine
 10
71.4642638192
 20
600.6958207026
 30
0.0
 11
77.764264293
 21
600.6958207026
 31
0.0
  0
LINE
  5
C3
330
1F
100
AcDbEntity
  8
0
  6
Continuous
 62
     7
370
    15
100
AcDbLine
 10
274.9642627165
 20
699.5458227493
 30
0.0
 11
273.9642606899
 21
699.5458227493
 31
0.0
  0
LINE
  5
C4
330
1F
100
AcDbEntity
  8
0
  6
Continuous
 62
     7
370
    15
100
AcDbLine
 10
274.9642627165
 20
701.0458226459
 30
0.0
 11
274.9642627165
 21
699.5458227493
 31
0.0
  0
LINE
  5
C5
330
1F
100
AcDbEntity
  8
0
  6
Continuous
 62
     7
370
    15
100
AcDbLine
 10
276.9642667696
 20
701.5458226697
 30
0.0
 11
275.4642711804
 21
701.5458226697
 31
0.0
  0
LINE
  5
C6
330
1F
100
AcDbEntity
  8
0
  6
Continuous
 62
     7
370
    15
100
AcDbLine
 10
276.9642667696
 20
702.5458227172
 30
0.0
 11
276.9642667696
 21
701.5458226697
 31
0.0
  0
LINE
  5
C7
330
1F
100
AcDbEntity
  8
0
  6
Continuous
 62
     7
370
    15
100
AcDbLine
 10
275.4642711804
 20
702.5458227172
 30
0.0
 11
276.9642667696
 21
702.5458227172
 31
0.0
  0
LINE
  5
C8
330
1F
100
AcDbEntity
  8
0
  6
Continuous
 62
     7
370
    15
100
AcDbLine
 10
274.9642627165
 20
704.5458226375
 30
0.0
 11
274.9642627165
 21
703.0458227409
 31
0.0
  0
LINE
  5
C9
330
1F
100
AcDbEntity
  8
0
  6
Continuous
 62
     7
370
    15
100
AcDbLine
 10
273.9642606899
 20
704.5458226375
 30
0.0
 11
274.9642627165
 21
704.5458226375
 31
0.0
  0
LINE
  5
CA
330
1F
100
AcDbEntity
  8
0
  6
Continuous
 62
     7
370
    15
100
AcDbLine
 10
273.9642606899
 20
703.0458227409
 30
0.0
 11
273.9642606899
 21
704.5458226375
 31
0.0
  0
LINE
  5
CB
330
1F
100
AcDbEntity
  8
0
  6
Continuous
 62
     7
370
    15
100
AcDbLine
 10
271.964271538
 20
702.5458227172
 30
0.0
 11
273.4642671272
 21
702.5458227172
 31
0.0
  0
LINE
  5
CC
330
1F
100
AcDbEntity
  8
0
  6
Continuous
 62
     7
370
    15
100
AcDbLine
 10
271.964271538
 20
701.5458226697
 30
0.0
 11
271.964271538
 21
702.5458227172
 31
0.0
  0
LINE
  5
CD
330
1F
100
AcDbEntity
  8
0
  6
Continuous
 62
     7
370
    15
100
AcDbLine
 10
273.4642671272
 20
701.5458226697
 30
0.0
 11
271.964271538
 21
701.5458226697
 31
0.0
  0
LINE
  5
CE
330
1F
100
AcDbEntity
  8
0
  6
Continuous
 62
     7
370
    15
100
AcDbLine
 10
273.9642606899
 20
699.5458227493
 30
0.0
 11
273.9642606899
 21
701.0458226459
 31
0.0
  0
SPLINE
  5
CF
330
1F
100
AcDbEntity
  8
0
  6
Continuous
 62
     7
370
    15
100
AcDbSpline
210
0.0
220
0.0
230
1.0
 70
     8
 71
     3
 72
    12
 73
     8
 74
     0
 42
0.00000001
 43
0.00000001
 40
0.0
 40
0.0
 40
0.0
 40
0.0
 40
0.2140814275366569
 40
0.4281980719267053
 40
0.6414535954875799
 40
0.8543351809682533
 40
1.0
 40
1.0
 40
1.0
 40
1.0
 10
274.9642627164923
 20
703.0458227409111
 30
0.0
 10
274.9697360836309
 20
702.9898612731997
 30
0.0
 10
274.9806837182889
 20
702.8779291319955
 30
0.0
 10
275.0663002531318
 20
702.7283704389976
 30
0.0
 10
275.1922815426557
 20
702.615456357327
 30
0.0
 10
275.3328952389371
 20
702.5546897486021
 30
0.0
 10
275.4263171407793
 20
702.5483843708299
 30
0.0
 10
275.4642711803518
 20
702.5458227171624
 30
0.0
  0
SPLINE
  5
D0
330
1F
100
AcDbEntity
  8
0
  6
Continuous
 62
     7
370
    15
100
AcDbSpline
210
0.0
220
0.0
230
1.0
 70
     8
 71
     3
 72
    12
 73
     8
 74
     0
 42
0.00000001
 43
0.00000001
 40
0.0
 40
0.0
 40
0.0
 40
0.0
 40
0.2140857057873002
 40
0.428206815237828
 40
0.6414578007284859
 40
0.8543464441350324
 40
1.0
 40
1.0
 40
1.0
 40
1.0
 10
275.4642711803518
 20
701.545822669665
 30
0.0
 10
275.408307862403
 20
701.5403530518895
 30
0.0
 10
275.2963719717706
 20
701.5294129118201
 30
0.0
 10
275.1468109234202
 20
701.4437926000411
 30
0.0
 10
275.0339037483919
 20
701.3178037118411
 30
0.0
 10
274.9731316226305
 20
701.1771949514097
 30
0.0
 10
274.9668247922386
 20
701.0837738647481
 30
0.0
 10
274.9642627164923
 20
701.0458226459162
 30
0.0
  0
SPLINE
  5
D1
330
1F
100
AcDbEntity
  8
0
  6
Continuous
 62
     7
370
    15
100
AcDbSpline
210
0.0
220
0.0
230
1.0
 70
     8
 71
     3
 72
    12
 73
     8
 74
     0
 42
0.00000001
 43
0.00000001
 40
0.0
 40
0.0
 40
0.0
 40
0.0
 40
0.2140792127850537
 40
0.4281968170121854
 40
0.641453296549931
 40
0.8543533809182691
 40
0.9999999999999999
 40
0.9999999999999999
 40
0.9999999999999999
 40
0.9999999999999999
 10
273.9642606899343
 20
701.0458226459162
 30
0.0
 10
273.9587935141422
 20
701.101784346417
 30
0.0
 10
273.9478581821134
 20
701.2137177831916
 30
0.0
 10
273.8622368272227
 20
701.3632743314452
 30
0.0
 10
273.7362542182274
 20
701.4761937953892
 30
0.0
 10
273.5956367333015
 20
701.536951694251
 30
0.0
 10
273.5022159419436
 20
701.5432601058244
 30
0.0
 10
273.464267127236
 20
701.545822669665
 30
0.0
  0
SPLINE
  5
D2
330
1F
100
AcDbEntity
  8
0
  6
Continuous
 62
     7
370
    15
100
AcDbSpline
210
0.0
220
0.0
230
1.0
 70
     8
 71
     3
 72
    12
 73
     8
 74
     0
 42
0.00000001
 43
0.00000001
 40
0.0
 40
0.0
 40
0.0
 40
0.0
 40
0.2140698455940699
 40
0.4281938115477092
 40
0.6414603368735579
 40
0.8543445010298589
 40
1.0
 40
1.0
 40
1.0
 40
1.0
 10
273.464267127236
 20
702.5458227171624
 30
0.0
 10
273.520225689707
 20
702.5512927525775
 30
0.0
 10
273.6321569618895
 20
702.5622342063224
 30
0.0
 10
273.7817108359731
 20
702.6478579688942
 30
0.0
 10
273.8946396609091
 20
702.7738325156863
 30
0.0
 10
273.9553888023574
 20
702.9144538765034
 30
0.0
 10
273.9616977156954
 20
703.0078719652336
 30
0.0
 10
273.9642606899343
 20
703.0458227409111
 30
0.0
  0
LINE
  5
D3
330
1F
100
AcDbEntity
  8
0
  6
Continuous
 62
     7
370
    15
100
AcDbLine
 10
218.649310045
 20
909.7458219066
 30
0.0
 11
218.649310045
 21
902.7458226219
 31
0.0
  0
LINE
  5
D4
330
1F
100
AcDbEntity
  8
0
  6
Continuous
 62
     7
370
    15
100
AcDbLine
 10
218.649310045
 20
909.7458219066
 30
0.0
 11
223.5567914173
 21
909.7458219066
 31
0.0
  0
LINE
  5
D5
330
1F
100
AcDbEntity
  8
0
  6
Continuous
 62
     7
370
    15
100
AcDbLine
 10
223.5567914173
 20
909.7458219066
 30
0.0
 11
223.5567914173
 21
902.7458226219
 31
0.0
  0
LINE
  5
D6
330
1F
100
AcDbEntity
  8
0
  6
Continuous
 62
     7
370
    15
100
AcDbLine
 10
233.3717392609
 20
909.7458219066
 30
0.0
 11
233.3717392609
 21
902.7458226219
 31
0.0
  0
LINE
  5
D7
330
1F
100
AcDbEntity
  8
0
  6
Continuous
 62
     7
370
    15
100
AcDbLine
 10
223.5567914173
 20
909.7458219066
 30
0.0
 11
233.3717392609
 21
909.7458219066
 31
0.0
  0
LINE
  5
D8
330
1F
100
AcDbEntity
  8
0
  6
Continuous
 62
     7
370
    15
100
AcDbLine
 10
238.2792131826
 20
909.7458219066
 30
0.0
 11
238.2792131826
 21
902.7458226219
 31
0.0
  0
LINE
  5
D9
330
1F
100
AcDbEntity
  8
0
  6
Continuous
 62
     7
370
    15
100
AcDbLine
 10
233.3717392609
 20
909.7458219066
 30
0.0
 11
238.2792131826
 21
909.7458219066
 31
0.0
  0
LINE
  5
DA
330
1F
100
AcDbEntity
  8
0
  6
Continuous
 62
     7
370
    15
100
AcDbLine
 10
113.9363068938
 20
849.1662984625
 30
0.0
 11
122.4363073558
 21
844.2588245407
 31
0.0
  0
LINE
  5
DB
330
1F
100
AcDbEntity
  8
0
  6
Continuous
 62
     7
370
    15
100
AcDbLine
 10
130.9363068864
 20
858.9812612072
 30
0.0
 11
122.4363073558
 21
863.8887351289
 31
0.0
  0
LINE
  5
DC
330
1F
100
AcDbEntity
  8
0
  6
Continuous
 62
     7
370
    15
100
AcDbLine
 10
122.4363073558
 20
863.8887351289
 30
0.0
 11
113.9363068938
 21
858.9812612072
 31
0.0
  0
LINE
  5
DD
330
1F
100
AcDbEntity
  8
0
  6
Continuous
 62
     7
370
    15
100
AcDbLine
 10
122.4363073558
 20
844.2588245407
 30
0.0
 11
130.9363068864
 21
849.1662984625
 31
0.0
  0
LINE
  5
DE
330
1F
100
AcDbEntity
  8
0
  6
Continuous
 62
     7
370
    15
100
AcDbLine
 10
130.9363068864
 20
849.1662984625
 30
0.0
 11
130.9363068864
 21
858.9812612072
 31
0.0
  0
LINE
  5
DF
330
1F
100
AcDbEntity
  8
0
  6
Continuous
 62
     7
370
    15
100
AcDbLine
 10
113.9363068938
 20
858.9812612072
 30
0.0
 11
113.9363068938
 21
849.1662984625
 31
0.0
  0
LINE
  5
E0
330
1F
100
AcDbEntity
  8
0
  6
Continuous
 62
     7
370
    15
100
AcDbLine
 10
482.164268367
 20
756.5458213821
 30
0.0
 11
475.1642690823
 21
756.5458213821
 31
0.0
  0
LINE
  5
E1
330
1F
100
AcDbEntity
  8
0
  6
Continuous
 62
     7
370
    15
100
AcDbLine
 10
482.164268367
 20
748.0458227828
 30
0.0
 11
475.1642690823
 21
748.0458227828
 31
0.0
  0
LINE
  5
E2
330
1F
100
AcDbEntity
  8
0
  6
Continuous
 62
     7
370
    15
100
AcDbLine
 10
482.164268367
 20
756.5458213821
 30
0.0
 11
482.164268367
 21
748.0458227828
 31
0.0
  0
LINE
  5
E3
330
1F
100
AcDbEntity
  8
0
  6
Continuous
 62
     7
370
    15
100
AcDbLine
 10
482.164268367
 20
739.5458241835
 30
0.0
 11
475.1642690823
 21
739.5458241835
 31
0.0
  0
LINE
  5
E4
330
1F
100
AcDbEntity
  8
0
  6
Continuous
 62
     7
370
    15
100
AcDbLine
 10
482.164268367
 20
748.0458227828
 30
0.0
 11
482.164268367
 21
739.5458241835
 31
0.0
  0
LINE
  5
E5
330
1F
100
AcDbEntity
  8
0
  6
Continuous
 62
     7
370
    15
100
AcDbLine
 10
426.4922188446
 20
559.8328208461
 30
0.0
 11
417.9922090695
 21
554.9253469244
 31
0.0
  0
LINE
  5
E6
330
1F
100
AcDbEntity
  8
0
  6
Continuous
 62
     7
370
    15
100
AcDbLine
 10
434.9922286198
 20
554.9253469244
 30
0.0
 11
426.4922188446
 21
559.8328208461
 31
0.0
  0
LINE
  5
E7
330
1F
100
AcDbEntity
  8
0
  6
Continuous
 62
     7
370
    15
100
AcDbLine
 10
417.9922090695
 20
545.1103841797
 30
0.0
 11
426.4922188446
 21
540.2029102579
 31
0.0
  0
LINE
  5
E8
330
1F
100
AcDbEntity
  8
0
  6
Continuous
 62
     7
370
    15
100
AcDbLine
 10
434.9922286198
 20
545.1103841797
 30
0.0
 11
434.9922286198
 21
554.9253469244
 31
0.0
  0
LINE
  5
E9
330
1F
100
AcDbEntity
  8
0
  6
Continuous
 62
     7
370
    15
100
AcDbLine
 10
417.9922090695
 20
554.9253469244
 30
0.0
 11
417.9922090695
 21
545.1103841797
 31
0.0
  0
LINE
  5
EA
330
1F
100
AcDbEntity
  8
0
  6
Continuous
 62
     7
370
    15
100
AcDbLine
 10
426.4922188446
 20
540.2029102579
 30
0.0
 11
434.9922286198
 21
545.1103841797
 31
0.0
  0
LINE
  5
EB
330
1F
100
AcDbEntity
  8
0
  6
Continuous
 62
     7
370
    15
100
AcDbLine
 10
69.4642634914
 20
632.9533031121
 30
0.0
 11
73.8642634675
 21
632.9533031121
 31
0.0
  0
LINE
  5
EC
330
1F
100
AcDbEntity
  8
0
  6
Continuous
 62
     7
370
    15
100
AcDbLine
 10
74.4642661736
 20
632.9533031121
 30
0.0
 11
76.4642646387
 21
632.9533031121
 31
0.0
  0
LINE
  5
ED
330
1F
100
AcDbEntity
  8
0
  6
Continuous
 62
     7
370
    15
100
AcDbLine
 10
69.4642634914
 20
637.8607770339
 30
0.0
 11
73.8642634675
 21
637.8607770339
 31
0.0
  0
LINE
  5
EE
330
1F
100
AcDbEntity
  8
0
  6
Continuous
 62
     7
370
    15
100
AcDbLine
 10
74.4642661736
 20
637.8607770339
 30
0.0
 11
76.4642646387
 21
637.8607770339
 31
0.0
  0
LINE
  5
EF
330
1F
100
AcDbEntity
  8
0
  6
Continuous
 62
     7
370
    15
100
AcDbLine
 10
69.4642634914
 20
632.9533031121
 30
0.0
 11
69.4642634914
 21
637.8607770339
 31
0.0
  0
LINE
  5
F0
330
1F
100
AcDbEntity
  8
0
  6
Continuous
 62
     7
370
    15
100
AcDbLine
 10
69.4642634914
 20
623.138347818
 30
0.0
 11
73.8642634675
 21
623.138347818
 31
0.0
  0
LINE
  5
F1
330
1F
100
AcDbEntity
  8
0
  6
Continuous
 62
     7
370
    15
100
AcDbLine
 10
74.4642661736
 20
623.138347818
 30
0.0
 11
76.4642646387
 21
623.138347818
 31
0.0
  0
LINE
  5
F2
330
1F
100
AcDbEntity
  8
0
  6
Continuous
 62
     7
370
    15
100
AcDbLine
 10
69.4642634914
 20
623.138347818
 30
0.0
 11
69.4642634914
 21
632.9533031121
 31
0.0
  0
LINE
  5
F3
330
1F
100
AcDbEntity
  8
0
  6
Continuous
 62
     7
370
    15
100
AcDbLine
 10
69.4642634914
 20
618.2308664456
 30
0.0
 11
73.8642634675
 21
618.2308664456
 31
0.0
  0
LINE
  5
F4
330
1F
100
AcDbEntity
  8
0
  6
Continuous
 62
     7
370
    15
100
AcDbLine
 10
74.4642661736
 20
618.2308664456
 30
0.0
 11
76.4642646387
 21
618.2308664456
 31
0.0
  0
LINE
  5
F5
330
1F
100
AcDbEntity
  8
0
  6
Continuous
 62
     7
370
    15
100
AcDbLine
 10
69.4642634914
 20
618.2308664456
 30
0.0
 11
69.4642634914
 21
623.138347818
 31
0.0
  0
LINE
  5
F6
330
1F
100
AcDbEntity
  8
0
  6
Continuous
 62
     7
370
    15
100
AcDbLine
 10
310.6493102238
 20
909.7458219066
 30
0.0
 11
310.6493102238
 21
902.7458226219
 31
0.0
  0
LINE
  5
F7
330
1F
100
AcDbEntity
  8
0
  6
Continuous
 62
     7
370
    15
100
AcDbLine
 10
310.6493102238
 20
909.7458219066
 30
0.0
 11
315.5567841456
 21
909.7458219066
 31
0.0
  0
LINE
  5
F8
330
1F
100
AcDbEntity
  8
0
  6
Continuous
 62
     7
370
    15
100
AcDbLine
 10
315.5567841456
 20
909.7458219066
 30
0.0
 11
315.5567841456
 21
902.7458226219
 31
0.0
  0
LINE
  5
F9
330
1F
100
AcDbEntity
  8
0
  6
Continuous
 62
     7
370
    15
100
AcDbLine
 10
325.3717468903
 20
909.7458219066
 30
0.0
 11
325.3717468903
 21
902.7458226219
 31
0.0
  0
LINE
  5
FA
330
1F
100
AcDbEntity
  8
0
  6
Continuous
 62
     7
370
    15
100
AcDbLine
 10
315.5567841456
 20
909.7458219066
 30
0.0
 11
325.3717468903
 21
909.7458219066
 31
0.0
  0
LINE
  5
FB
330
1F
100
AcDbEntity
  8
0
  6
Continuous
 62
     7
370
    15
100
AcDbLine
 10
330.279220812
 20
909.7458219066
 30
0.0
 11
330.279220812
 21
902.7458226219
 31
0.0
  0
LINE
  5
FC
330
1F
100
AcDbEntity
  8
0
  6
Continuous
 62
     7
370
    15
100
AcDbLine
 10
325.3717468903
 20
909.7458219066
 30
0.0
 11
330.279220812
 21
909.7458219066
 31
0.0
  0
LINE
  5
FD
330
1F
100
AcDbEntity
  8
0
  6
Continuous
 62
     7
370
    15
100
AcDbLine
 10
320.4642580673
 20
489.5458167329
 30
0.0
 11
320.4642580673
 21
496.5458160177
 31
0.0
  0
LINE
  5
FE
330
1F
100
AcDbEntity
  8
0
  6
Continuous
 62
     7
370
    15
100
AcDbLine
 10
311.9642631933
 20
489.5458167329
 30
0.0
 11
311.9642631933
 21
496.5458160177
 31
0.0
  0
LINE
  5
FF
330
1F
100
AcDbEntity
  8
0
  6
Continuous
 62
     7
370
    15
100
AcDbLine
 10
320.4642580673
 20
489.5458167329
 30
0.0
 11
311.9642631933
 21
489.5458167329
 31
0.0
  0
LINE
  5
100
330
1F
100
AcDbEntity
  8
0
  6
Continuous
 62
     7
370
    15
100
AcDbLine
 10
328.9642678425
 20
489.5458167329
 30
0.0
 11
328.9642678425
 21
496.5458160177
 31
0.0
  0
LINE
  5
101
330
1F
100
AcDbEntity
  8
0
  6
Continuous
 62
     7
370
    15
100
AcDbLine
 10
328.9642678425
 20
496.5458160177
 30
0.0
 11
328.4642593786
 21
496.5458160177
 31
0.0
  0
LINE
  5
102
330
1F
100
AcDbEntity
  8
0
  6
Continuous
 62
     7
370
    15
100
AcDbLine
 10
328.9642678425
 20
489.5458167329
 30
0.0
 11
320.4642580673
 21
489.5458167329
 31
0.0
  0
LINE
  5
103
330
1F
100
AcDbEntity
  8
0
  6
Continuous
 62
     7
370
    15
100
AcDbLine
 10
228.4642653391
 20
489.5458167329
 30
0.0
 11
228.4642653391
 21
496.5458160177
 31
0.0
  0
LINE
  5
104
330
1F
100
AcDbEntity
  8
0
  6
Continuous
 62
     7
370
    15
100
AcDbLine
 10
228.4642653391
 20
489.5458167329
 30
0.0
 11
219.9642630145
 21
489.5458167329
 31
0.0
  0
LINE
  5
105
330
1F
100
AcDbEntity
  8
0
  6
Continuous
 62
     7
370
    15
100
AcDbLine
 10
219.9642630145
 20
489.5458167329
 30
0.0
 11
219.9642630145
 21
496.5458160177
 31
0.0
  0
LINE
  5
106
330
1F
100
AcDbEntity
  8
0
  6
Continuous
 62
     7
370
    15
100
AcDbLine
 10
220.4642640278
 20
496.5458160177
 30
0.0
 11
219.9642630145
 21
496.5458160177
 31
0.0
  0
LINE
  5
107
330
1F
100
AcDbEntity
  8
0
  6
Continuous
 62
     7
370
    15
100
AcDbLine
 10
236.9642602131
 20
489.5458167329
 30
0.0
 11
236.9642602131
 21
496.5458160177
 31
0.0
  0
LINE
  5
108
330
1F
100
AcDbEntity
  8
0
  6
Continuous
 62
     7
370
    15
100
AcDbLine
 10
236.9642602131
 20
489.5458167329
 30
0.0
 11
228.4642653391
 21
489.5458167329
 31
0.0
  0
LINE
  5
109
330
1F
100
AcDbEntity
  8
0
  6
Continuous
 62
     7
370
    15
100
AcDbLine
 10
113.9363068938
 20
554.9253469244
 30
0.0
 11
113.9363068938
 21
545.1103841797
 31
0.0
  0
LINE
  5
10A
330
1F
100
AcDbEntity
  8
0
  6
Continuous
 62
     7
370
    15
100
AcDbLine
 10
122.4363073558
 20
559.8328208461
 30
0.0
 11
113.9363068938
 21
554.9253469244
 31
0.0
  0
LINE
  5
10B
330
1F
100
AcDbEntity
  8
0
  6
Continuous
 62
     7
370
    15
100
AcDbLine
 10
130.9363068864
 20
554.9253469244
 30
0.0
 11
122.4363073558
 21
559.8328208461
 31
0.0
  0
LINE
  5
10C
330
1F
100
AcDbEntity
  8
0
  6
Continuous
 62
     7
370
    15
100
AcDbLine
 10
130.9363068864
 20
545.1103841797
 30
0.0
 11
130.9363068864
 21
554.9253469244
 31
0.0
  0
LINE
  5
10D
330
1F
100
AcDbEntity
  8
0
  6
Continuous
 62
     7
370
    15
100
AcDbLine
 10
122.4363073558
 20
540.2029102579
 30
0.0
 11
130.9363068864
 21
545.1103841797
 31
0.0
  0
LINE
  5
10E
330
1F
100
AcDbEntity
  8
0
  6
Continuous
 62
     7
370
    15
100
AcDbLine
 10
113.9363068938
 20
545.1103841797
 30
0.0
 11
122.4363073558
 21
540.2029102579
 31
0.0
  0
LINE
  5
10F
330
1F
100
AcDbEntity
  8
0
  6
Continuous
 62
     7
370
    15
100
AcDbLine
 10
482.164268367
 20
664.5458212033
 30
0.0
 11
475.1642690823
 21
664.5458212033
 31
0.0
  0
LINE
  5
110
330
1F
100
AcDbEntity
  8
0
  6
Continuous
 62
     7
370
    15
100
AcDbLine
 10
482.164268367
 20
656.045822604
 30
0.0
 11
475.1642690823
 21
656.045822604
 31
0.0
  0
LINE
  5
111
330
1F
100
AcDbEntity
  8
0
  6
Continuous
 62
     7
370
    15
100
AcDbLine
 10
482.164268367
 20
664.5458212033
 30
0.0
 11
482.164268367
 21
656.045822604
 31
0.0
  0
LINE
  5
112
330
1F
100
AcDbEntity
  8
0
  6
Continuous
 62
     7
370
    15
100
AcDbLine
 10
482.164268367
 20
647.5458240047
 30
0.0
 11
475.1642690823
 21
647.5458240047
 31
0.0
  0
LINE
  5
113
330
1F
100
AcDbEntity
  8
0
  6
Continuous
 62
     7
370
    15
100
AcDbLine
 10
482.164268367
 20
656.045822604
 30
0.0
 11
482.164268367
 21
647.5458240047
 31
0.0
  0
LINE
  5
114
330
1F
100
AcDbEntity
  8
0
  6
Continuous
 62
     7
370
    15
100
AcDbLine
 10
426.4922188446
 20
844.2588245407
 30
0.0
 11
434.9922286198
 21
849.1662984625
 31
0.0
  0
LINE
  5
115
330
1F
100
AcDbEntity
  8
0
  6
Continuous
 62
     7
370
    15
100
AcDbLine
 10
417.9922090695
 20
858.9812612072
 30
0.0
 11
417.9922090695
 21
849.1662984625
 31
0.0
  0
LINE
  5
116
330
1F
100
AcDbEntity
  8
0
  6
Continuous
 62
     7
370
    15
100
AcDbLine
 10
434.9922286198
 20
849.1662984625
 30
0.0
 11
434.9922286198
 21
858.9812612072
 31
0.0
  0
LINE
  5
117
330
1F
100
AcDbEntity
  8
0
  6
Continuous
 62
     7
370
    15
100
AcDbLine
 10
417.9922090695
 20
849.1662984625
 30
0.0
 11
426.4922188446
 21
844.2588245407
 31
0.0
  0
LINE
  5
118
330
1F
100
AcDbEntity
  8
0
  6
Continuous
 62
     7
370
    15
100
AcDbLine
 10
426.4922188446
 20
863.8887351289
 30
0.0
 11
417.9922090695
 21
858.9812612072
 31
0.0
  0
LINE
  5
119
330
1F
100
AcDbEntity
  8
0
  6
Continuous
 62
     7
370
    15
100
AcDbLine
 10
434.9922286198
 20
858.9812612072
 30
0.0
 11
426.4922188446
 21
863.8887351289
 31
0.0
  0
ARC
  5
11A
330
1F
100
AcDbEntity
  8
0
  6
Continuous
 62
     7
370
    15
100
AcDbCircle
 10
50.9642649815
 20
658.0458226934
 30
0.0
 40
15.00000000000005
100
AcDbArc
 50
301.7805103451
 51
58.2194896549
  0
LINE
  5
11B
330
1F
100
AcDbEntity
  8
0
  6
Continuous
 62
     7
370
    15
100
AcDbLine
 10
76.4642646387
 20
658.8919779196
 30
0.0
 11
76.4642646387
 21
644.3562528029
 31
0.0
  0
LINE
  5
11C
330
1F
100
AcDbEntity
  8
0
  6
Continuous
 62
     7
370
    15
100
AcDbLine
 10
86.4642644152
 20
652.1835124031
 30
0.0
 11
86.4642644152
 21
644.3562528029
 31
0.0
  0
LINE
  5
11D
330
1F
100
AcDbEntity
  8
0
  6
Continuous
 62
     7
370
    15
100
AcDbLine
 10
76.4642646387
 20
710.8150536105
 30
0.0
 11
76.4642646387
 21
658.8919779196
 31
0.0
  0
LINE
  5
11E
330
1F
100
AcDbEntity
  8
0
  6
Continuous
 62
     7
370
    15
100
AcDbLine
 10
76.4642646387
 20
730.0458235577
 30
0.0
 11
76.4642646387
 21
710.8150536105
 31
0.0
  0
LINE
  5
11F
330
1F
100
AcDbEntity
  8
0
  6
Continuous
 62
     7
370
    15
100
AcDbLine
 10
76.4642646387
 20
644.3562528029
 30
0.0
 11
76.4642646387
 21
622.2010349765
 31
0.0
  0
LINE
  5
120
330
1F
100
AcDbEntity
  8
0
  6
Continuous
 62
     7
370
    15
100
AcDbLine
 10
86.4642644152
 20
644.3562528029
 30
0.0
 11
86.4642644152
 21
622.2010349765
 31
0.0
  0
LINE
  5
121
330
1F
100
AcDbEntity
  8
0
  6
Continuous
 62
     7
370
    15
100
AcDbLine
 10
76.4642646387
 20
622.2010349765
 30
0.0
 11
76.4642646387
 21
618.0458238259
 31
0.0
  0
LINE
  5
122
330
1F
100
AcDbEntity
  8
0
  6
Continuous
 62
     7
370
    15
100
AcDbLine
 10
86.4642644152
 20
622.2010349765
 30
0.0
 11
86.4642644152
 21
618.0458238259
 31
0.0
  0
LINE
  5
123
330
1F
100
AcDbEntity
  8
0
  6
Continuous
 62
     7
370
    15
100
AcDbLine
 10
475.8642660305
 20
703.0162603505
 30
0.0
 11
475.8642660305
 21
687.0162600562
 31
0.0
  0
LINE
  5
124
330
1F
100
AcDbEntity
  8
0
  6
Continuous
 62
     7
370
    15
100
AcDbLine
 10
475.8642660305
 20
719.0162597135
 30
0.0
 11
475.8642660305
 21
703.0162603505
 31
0.0
  0
LINE
  5
125
330
1F
100
AcDbEntity
  8
0
  6
Continuous
 62
     7
370
    15
100
AcDbLine
 10
482.6642619297
 20
706.4510036171
 30
0.0
 11
482.6642619297
 21
699.5815170839
 31
0.0
  0
SPLINE
  5
126
330
1F
100
AcDbEntity
  8
0
  6
Continuous
 62
     7
370
    15
100
AcDbSpline
210
0.0
220
0.0
230
1.0
 70
     8
 71
     3
 72
    13
 73
     9
 74
     0
 42
0.00000001
 43
0.00000001
 40
0.0
 40
0.0
 40
0.0
 40
0.0
 40
0.1391090129247379
 40
0.2775329856453664
 40
0.4724664981453304
 40
0.7375819397545578
 40
0.9966181890885794
 40
1.0
 40
1.0
 40
1.0
 40
1.0
 10
482.664261929711
 20
699.581517083949
 30
0.0
 10
482.6570474282009
 20
699.5510567261814
 30
0.0
 10
482.6426539528832
 20
699.4902860122115
 30
0.0
 10
482.5275266972694
 20
699.3079205980962
 30
0.0
 10
482.3224382530789
 20
699.0371603285336
 30
0.0
 10
482.0198982169916
 20
698.6870880284974
 30
0.0
 10
481.7829518526274
 20
698.4405172197255
 30
0.0
 10
481.6657847498803
 20
698.3244231750682
 30
0.0
 10
481.6642748043143
 20
698.3229270581218
 30
0.0
  0
SPLINE
  5
127
330
1F
100
AcDbEntity
  8
0
  6
Continuous
 62
     7
370
    15
100
AcDbSpline
210
0.0
220
0.0
230
1.0
 70
     8
 71
     3
 72
    13
 73
     9
 74
     0
 42
0.00000001
 43
0.00000001
 40
0.0
 40
0.0
 40
0.0
 40
0.0
 40
0.0033819769111505
 40
0.2624181225858445
 40
0.5275335469798299
 40
0.7224669633723628
 40
0.8608909961082907
 40
1.0
 40
1.0
 40
1.0
 40
1.0
 10
481.6642748043143
 20
707.7095938757124
 30
0.0
 10
481.6657847493204
 20
707.7080976029691
 30
0.0
 10
481.782946085451
 20
707.5919971402911
 30
0.0
 10
482.0199010209604
 20
707.3454356840359
 30
0.0
 10
482.3224376311615
 20
706.9953597224961
 30
0.0
 10
482.5275268682815
 20
706.7246004761608
 30
0.0
 10
482.6426539076979
 20
706.5422346299521
 30
0.0
 10
482.6570474143093
 20
706.4814639501317
 30
0.0
 10
482.664261929711
 20
706.4510036170544
 30
0.0
  0
LINE
  5
128
330
1F
100
AcDbEntity
  8
0
  6
Continuous
 62
     7
370
    15
100
AcDbLine
 10
488.6642740891
 20
699.1162604563
 30
0.0
 11
488.6642740891
 21
698.4695935998
 31
0.0
  0
ARC
  5
129
330
1F
100
AcDbEntity
  8
0
  6
Continuous
 62
     7
370
    15
100
AcDbCircle
 10
488.1642649815
 20
699.1162603696
 30
0.0
 40
0.5000000000001137
100
AcDbArc
 50
0.0
 51
90.0
  0
LINE
  5
12A
330
1F
100
AcDbEntity
  8
0
  6
Continuous
 62
     7
370
    15
100
AcDbLine
 10
482.6642619297
 20
699.6162603054
 30
0.0
 11
488.164250724
 21
699.6162603054
 31
0.0
  0
LINE
  5
12B
330
1F
100
AcDbEntity
  8
0
  6
Continuous
 62
     7
370
    15
100
AcDbLine
 10
488.6642740891
 20
707.5629268684
 30
0.0
 11
488.6642740891
 21
706.9162602447
 31
0.0
  0
ARC
  5
12C
330
1F
100
AcDbEntity
  8
0
  6
Continuous
 62
     7
370
    15
100
AcDbCircle
 10
488.1642649815
 20
706.9162603696
 30
0.0
 40
0.5
100
AcDbArc
 50
270.0
 51
0.0
  0
LINE
  5
12D
330
1F
100
AcDbEntity
  8
0
  6
Continuous
 62
     7
370
    15
100
AcDbLine
 10
488.164250724
 20
706.4162601627
 30
0.0
 11
482.6642619297
 21
706.4162601627
 31
0.0
  0
LINE
  5
12E
330
1F
100
AcDbEntity
  8
0
  6
Continuous
 62
     7
370
    15
100
AcDbLine
 10
488.6642740891
 20
698.4695935998
 30
0.0
 11
488.6642740891
 21
694.9160100803
 31
0.0
  0
LINE
  5
12F
330
1F
100
AcDbEntity
  8
0
  6
Continuous
 62
     7
370
    15
100
AcDbLine
 10
488.6642740891
 20
711.1165106207
 30
0.0
 11
488.6642740891
 21
707.5629268684
 31
0.0
  0
LINE
  5
130
330
1F
100
AcDbEntity
  8
0
  6
Continuous
 62
     7
370
    15
100
AcDbLine
 10
482.6642619297
 20
694.1773082972
 30
0.0
 11
482.6642619297
 21
690.7782863736
 31
0.0
  0
SPLINE
  5
131
330
1F
100
AcDbEntity
  8
0
  6
Continuous
 62
     7
370
    15
100
AcDbSpline
210
0.0
220
0.0
230
1.0
 70
     8
 71
     3
 72
    13
 73
     9
 74
     0
 42
0.00000001
 43
0.00000001
 40
0.0
 40
0.0
 40
0.0
 40
0.0
 40
0.1391082308203309
 40
0.2775341381452885
 40
0.4724666826238743
 40
0.737581118515662
 40
0.996615933433043
 40
1.0
 40
1.0
 40
1.0
 40
1.0
 10
482.664261929711
 20
690.7782863736214
 30
0.0
 10
482.6570471017827
 20
690.6993043153326
 30
0.0
 10
482.6426528345336
 20
690.5417276044012
 30
0.0
 10
482.5275295277553
 20
690.2560619428543
 30
0.0
 10
482.3224305075324
 20
689.9265034437888
 30
0.0
 10
482.0199355983743
 20
689.6052228715554
 30
0.0
 10
481.7828735236671
 20
689.4393687786649
 30
0.0
 10
481.6657847422738
 20
689.3758004500727
 30
0.0
 10
481.6642748043142
 20
689.3749806940617
 30
0.0
  0
SPLINE
  5
132
330
1F
100
AcDbEntity
  8
0
  6
Continuous
 62
     7
370
    15
100
AcDbSpline
210
0.0
220
0.0
230
1.0
 70
     8
 71
     3
 72
    11
 73
     7
 74
     0
 42
0.00000001
 43
0.00000001
 40
0.0
 40
0.0
 40
0.0
 40
0.0
 40
0.0049543533942557
 40
0.3843042210962485
 40
0.7725579030900024
 40
1.0
 40
1.0
 40
1.0
 40
1.0
 10
481.6642748043142
 20
694.6547116994919
 30
0.0
 10
481.6657847963733
 20
694.653379187071
 30
0.0
 10
481.7829133651206
 20
694.5500175357531
 30
0.0
 10
482.0180939104663
 20
694.3684001211141
 30
0.0
 10
482.3111569849855
 20
694.1999934935732
 30
0.0
 10
482.4460270945311
 20
694.18954928971
 30
0.0
 10
482.4958490058981
 20
694.1856911316576
 30
0.0
  0
LINE
  5
133
330
1F
100
AcDbEntity
  8
0
  6
Continuous
 62
     7
370
    15
100
AcDbLine
 10
482.6642619297
 20
715.2542343274
 30
0.0
 11
482.6642619297
 21
711.8552124038
 31
0.0
  0
SPLINE
  5
134
330
1F
100
AcDbEntity
  8
0
  6
Continuous
 62
     7
370
    15
100
AcDbSpline
210
0.0
220
0.0
230
1.0
 70
     8
 71
     3
 72
    11
 73
     7
 74
     0
 42
0.00000001
 43
0.00000001
 40
0.0
 40
0.0
 40
0.0
 40
0.0
 40
0.2274420809606966
 40
0.6156956162313368
 40
0.9950456469531666
 40
1.0
 40
1.0
 40
1.0
 40
1.0
 10
482.4958490058981
 20
711.8468295693459
 30
0.0
 10
482.4460271030883
 20
711.842971385379
 30
0.0
 10
482.311157042883
 20
711.832527113391
 30
0.0
 10
482.0180936956949
 20
711.6641213107451
 30
0.0
 10
481.7829134235565
 20
711.4825032147769
 30
0.0
 10
481.6657847963815
 20
711.3791415139137
 30
0.0
 10
481.6642748043142
 20
711.3778090015115
 30
0.0
  0
SPLINE
  5
135
330
1F
100
AcDbEntity
  8
0
  6
Continuous
 62
     7
370
    15
100
AcDbSpline
210
0.0
220
0.0
230
1.0
 70
     8
 71
     3
 72
    13
 73
     9
 74
     0
 42
0.00000001
 43
0.00000001
 40
0.0
 40
0.0
 40
0.0
 40
0.0
 40
0.003384066566957
 40
0.262418881484338
 40
0.5275333173761259
 40
0.7224658618547116
 40
0.8608917691796693
 40
1.0
 40
1.0
 40
1.0
 40
1.0
 10
481.6642748043142
 20
716.6575400069418
 30
0.0
 10
481.6657847422739
 20
716.6567202509308
 30
0.0
 10
481.7828735236666
 20
716.5931519223387
 30
0.0
 10
482.0199355983746
 20
716.427297829448
 30
0.0
 10
482.3224305075322
 20
716.1060172572146
 30
0.0
 10
482.5275295277554
 20
715.776458758149
 30
0.0
 10
482.6426528345336
 20
715.4907930966023
 30
0.0
 10
482.6570471017826
 20
715.3332163856709
 30
0.0
 10
482.664261929711
 20
715.254234327382
 30
0.0
  0
LINE
  5
136
330
1F
100
AcDbEntity
  8
0
  6
Continuous
 62
     7
370
    15
100
AcDbLine
 10
488.6642740891
 20
694.9160100803
 30
0.0
 11
488.6642740891
 21
694.6773083791
 31
0.0
  0
LINE
  5
137
330
1F
100
AcDbEntity
  8
0
  6
Continuous
 62
     7
370
    15
100
AcDbLine
 10
488.6642740891
 20
711.3552123219
 30
0.0
 11
488.6642740891
 21
711.1165106207
 31
0.0
  0
LINE
  5
138
330
1F
100
AcDbEntity
  8
0
  6
Continuous
 62
     7
370
    15
100
AcDbLine
 10
488.6642740891
 20
690.5811142087
 30
0.0
 11
488.6642740891
 21
689.8012712509
 31
0.0
  0
LINE
  5
139
330
1F
100
AcDbEntity
  8
0
  6
Continuous
 62
     7
370
    15
100
AcDbLine
 10
488.6642740891
 20
716.2312494502
 30
0.0
 11
488.6642740891
 21
715.4514064923
 31
0.0
  0
LINE
  5
13A
330
1F
100
AcDbEntity
  8
0
  6
Continuous
 62
     7
370
    15
100
AcDbLine
 10
488.6642740891
 20
691.3097949609
 30
0.0
 11
488.6642740891
 21
690.5811142087
 31
0.0
  0
LINE
  5
13B
330
1F
100
AcDbEntity
  8
0
  6
Continuous
 62
     7
370
    15
100
AcDbLine
 10
488.6642740891
 20
715.4514064923
 30
0.0
 11
488.6642740891
 21
714.7227257401
 31
0.0
  0
LINE
  5
13C
330
1F
100
AcDbEntity
  8
0
  6
Continuous
 62
     7
370
    15
100
AcDbLine
 10
488.6642740891
 20
689.8012712509
 30
0.0
 11
488.6642740891
 21
688.1981018841
 31
0.0
  0
LINE
  5
13D
330
1F
100
AcDbEntity
  8
0
  6
Continuous
 62
     7
370
    15
100
AcDbLine
 10
488.6642740891
 20
717.8344188169
 30
0.0
 11
488.6642740891
 21
716.2312494502
 31
0.0
  0
LINE
  5
13E
330
1F
100
AcDbEntity
  8
0
  6
Continuous
 62
     7
370
    15
100
AcDbLine
 10
488.6642740891
 20
691.4562417105
 30
0.0
 11
488.6642740891
 21
691.3097949609
 31
0.0
  0
LINE
  5
13F
330
1F
100
AcDbEntity
  8
0
  6
Continuous
 62
     7
370
    15
100
AcDbLine
 10
488.6642740891
 20
714.7227257401
 30
0.0
 11
488.6642740891
 21
714.5762789905
 31
0.0
  0
LINE
  5
140
330
1F
100
AcDbEntity
  8
0
  6
Continuous
 62
     7
370
    15
100
AcDbLine
 10
488.6642740891
 20
694.6773083791
 30
0.0
 11
488.6642740891
 21
691.4562417105
 31
0.0
  0
LINE
  5
141
330
1F
100
AcDbEntity
  8
0
  6
Continuous
 62
     7
370
    15
100
AcDbLine
 10
488.6642740891
 20
714.5762789905
 30
0.0
 11
488.6642740891
 21
711.3552123219
 31
0.0
  0
SPLINE
  5
142
330
1F
100
AcDbEntity
  8
0
  6
Continuous
 62
     7
370
    15
100
AcDbSpline
210
0.0
220
0.0
230
1.0
 70
     8
 71
     3
 72
     9
 73
     5
 74
     0
 42
0.00000001
 43
0.00000001
 40
0.0
 40
0.0
 40
0.0
 40
0.0
 40
0.0159261118041722
 40
1.0
 40
1.0
 40
1.0
 40
1.0
 10
481.6642748043142
 20
687.7200968474211
 30
0.0
 10
481.6657848617177
 20
687.7196391956717
 30
0.0
 10
481.7606013129647
 20
687.6909032584248
 30
0.0
 10
481.8545535215748
 20
687.6886024410431
 30
0.0
 10
481.9470094368063
 20
687.6863382667365
 30
0.0
  0
SPLINE
  5
143
330
1F
100
AcDbEntity
  8
0
  6
Continuous
 62
     7
370
    15
100
AcDbSpline
210
0.0
220
0.0
230
1.0
 70
     8
 71
     3
 72
     9
 73
     5
 74
     0
 42
0.00000001
 43
0.00000001
 40
0.0
 40
0.0
 40
0.0
 40
0.0
 40
0.984074359387092
 40
1.0
 40
1.0
 40
1.0
 40
1.0
 10
481.9470094368063
 20
718.346182434267
 30
0.0
 10
481.8545549019695
 20
718.3439087785434
 30
0.0
 10
481.7606041410795
 20
718.3415983274057
 30
0.0
 10
481.6657848620748
 20
718.3128811923546
 30
0.0
 10
481.6642748043142
 20
718.3124238535823
 30
0.0
  0
LINE
  5
144
330
1F
100
AcDbEntity
  8
0
  6
Continuous
 62
     7
370
    15
100
AcDbLine
 10
488.6642740891
 20
688.1981018841
 30
0.0
 11
488.6642740891
 21
688.1761068389
 31
0.0
  0
LINE
  5
145
330
1F
100
AcDbEntity
  8
0
  6
Continuous
 62
     7
370
    15
100
AcDbLine
 10
488.6642740891
 20
717.8564129308
 30
0.0
 11
488.6642740891
 21
717.8344188169
 31
0.0
  0
LINE
  5
146
330
1F
100
AcDbEntity
  8
0
  6
Continuous
 62
     7
370
    15
100
AcDbLine
 10
471.9642745182
 20
690.2333229691
 30
0.0
 11
471.9642745182
 21
713.8583224177
 31
0.0
  0
LINE
  5
147
330
1F
100
AcDbEntity
  8
0
  6
Continuous
 62
     7
370
    15
100
AcDbLine
 10
475.1642690823
 20
690.2333229691
 30
0.0
 11
475.1642690823
 21
713.8583224177
 31
0.0
  0
LINE
  5
148
330
1F
100
AcDbEntity
  8
0
  6
Continuous
 62
     7
370
    15
100
AcDbLine
 10
471.9642745182
 20
652.4208208457
 30
0.0
 11
471.9642745182
 21
690.2333229691
 31
0.0
  0
LINE
  5
149
330
1F
100
AcDbEntity
  8
0
  6
Continuous
 62
     7
370
    15
100
AcDbLine
 10
475.1642690823
 20
652.4208208457
 30
0.0
 11
475.1642690823
 21
690.2333229691
 31
0.0
  0
LINE
  5
14A
330
1F
100
AcDbEntity
  8
0
  6
Continuous
 62
     7
370
    15
100
AcDbLine
 10
471.9642745182
 20
713.8583224177
 30
0.0
 11
471.9642745182
 21
751.6708245412
 31
0.0
  0
LINE
  5
14B
330
1F
100
AcDbEntity
  8
0
  6
Continuous
 62
     7
370
    15
100
AcDbLine
 10
475.1642690823
 20
713.8583224177
 30
0.0
 11
475.1642690823
 21
751.6708245412
 31
0.0
  0
LINE
  5
14C
330
1F
100
AcDbEntity
  8
0
  6
Continuous
 62
     7
370
    15
100
AcDbLine
 10
471.9642745182
 20
751.6708245412
 30
0.0
 11
471.9642745182
 21
761.045823051
 31
0.0
  0
LINE
  5
14D
330
1F
100
AcDbEntity
  8
0
  6
Continuous
 62
     7
370
    15
100
AcDbLine
 10
475.1642690823
 20
751.6708245412
 30
0.0
 11
475.1642690823
 21
761.045823051
 31
0.0
  0
LINE
  5
14E
330
1F
100
AcDbEntity
  8
0
  6
Continuous
 62
     7
370
    15
100
AcDbLine
 10
471.9642745182
 20
643.0458223358
 30
0.0
 11
471.9642745182
 21
652.4208208457
 31
0.0
  0
LINE
  5
14F
330
1F
100
AcDbEntity
  8
0
  6
Continuous
 62
     7
370
    15
100
AcDbLine
 10
475.1642690823
 20
643.0458223358
 30
0.0
 11
475.1642690823
 21
652.4208208457
 31
0.0
  0
LINE
  5
150
330
1F
100
AcDbEntity
  8
0
  6
Continuous
 62
     7
370
    15
100
AcDbLine
 10
262.6517610476
 20
902.7458226219
 30
0.0
 11
286.2767623589
 21
902.7458226219
 31
0.0
  0
LINE
  5
151
330
1F
100
AcDbEntity
  8
0
  6
Continuous
 62
     7
370
    15
100
AcDbLine
 10
262.6517610476
 20
899.5458280578
 30
0.0
 11
286.2767623589
 21
899.5458280578
 31
0.0
  0
LINE
  5
152
330
1F
100
AcDbEntity
  8
0
  6
Continuous
 62
     7
370
    15
100
AcDbLine
 10
224.839267306
 20
902.7458226219
 30
0.0
 11
262.6517610476
 21
902.7458226219
 31
0.0
  0
LINE
  5
153
330
1F
100
AcDbEntity
  8
0
  6
Continuous
 62
     7
370
    15
100
AcDbLine
 10
224.839267306
 20
899.5458280578
 30
0.0
 11
262.6517610476
 21
899.5458280578
 31
0.0
  0
LINE
  5
154
330
1F
100
AcDbEntity
  8
0
  6
Continuous
 62
     7
370
    15
100
AcDbLine
 10
286.2767623589
 20
902.7458226219
 30
0.0
 11
324.089263551
 21
902.7458226219
 31
0.0
  0
LINE
  5
155
330
1F
100
AcDbEntity
  8
0
  6
Continuous
 62
     7
370
    15
100
AcDbLine
 10
286.2767623589
 20
899.5458280578
 30
0.0
 11
324.089263551
 21
899.5458280578
 31
0.0
  0
LINE
  5
156
330
1F
100
AcDbEntity
  8
0
  6
Continuous
 62
     7
370
    15
100
AcDbLine
 10
215.4642613456
 20
902.7458226219
 30
0.0
 11
224.839267306
 21
902.7458226219
 31
0.0
  0
LINE
  5
157
330
1F
100
AcDbEntity
  8
0
  6
Continuous
 62
     7
370
    15
100
AcDbLine
 10
215.4642613456
 20
899.5458280578
 30
0.0
 11
224.839267306
 21
899.5458280578
 31
0.0
  0
LINE
  5
158
330
1F
100
AcDbEntity
  8
0
  6
Continuous
 62
     7
370
    15
100
AcDbLine
 10
324.089263551
 20
902.7458226219
 30
0.0
 11
333.4642695114
 21
902.7458226219
 31
0.0
  0
LINE
  5
159
330
1F
100
AcDbEntity
  8
0
  6
Continuous
 62
     7
370
    15
100
AcDbLine
 10
324.089263551
 20
899.5458280578
 30
0.0
 11
333.4642695114
 21
899.5458280578
 31
0.0
  0
LINE
  5
15A
330
1F
100
AcDbEntity
  8
0
  6
Continuous
 62
     7
370
    15
100
AcDbLine
 10
303.964261882
 20
483.5458194748
 30
0.0
 11
244.9642615244
 21
483.5458194748
 31
0.0
  0
LINE
  5
15B
330
1F
100
AcDbEntity
  8
0
  6
Continuous
 62
     7
370
    15
100
AcDbLine
 10
286.2767623589
 20
504.545817329
 30
0.0
 11
262.6517610476
 21
504.545817329
 31
0.0
  0
LINE
  5
15C
330
1F
100
AcDbEntity
  8
0
  6
Continuous
 62
     7
370
    15
100
AcDbLine
 10
324.089263551
 20
504.545817329
 30
0.0
 11
286.2767623589
 21
504.545817329
 31
0.0
  0
LINE
  5
15D
330
1F
100
AcDbEntity
  8
0
  6
Continuous
 62
     7
370
    15
100
AcDbLine
 10
323.3392583057
 20
496.5458160177
 30
0.0
 11
300.2428309843
 21
496.5458160177
 31
0.0
  0
LINE
  5
15E
330
1F
100
AcDbEntity
  8
0
  6
Continuous
 62
     7
370
    15
100
AcDbLine
 10
248.6857073233
 20
496.5458160177
 30
0.0
 11
225.5892651007
 21
496.5458160177
 31
0.0
  0
LINE
  5
15F
330
1F
100
AcDbEntity
  8
0
  6
Continuous
 62
     7
370
    15
100
AcDbLine
 10
262.6517610476
 20
504.545817329
 30
0.0
 11
224.839267306
 21
504.545817329
 31
0.0
  0
SPLINE
  5
160
330
1F
100
AcDbEntity
  8
0
  6
Continuous
 62
     7
370
    15
100
AcDbSpline
210
0.0
220
0.0
230
1.0
 70
     8
 71
     3
 72
    12
 73
     8
 74
     0
 42
0.00000001
 43
0.00000001
 40
0.0
 40
0.0
 40
0.0
 40
0.0
 40
0.0073266996467085
 40
0.2200034565267993
 40
0.4809122534454442
 40
0.7404269935923099
 40
1.0
 40
1.0
 40
1.0
 40
1.0
 10
329.5583026334845
 20
498.5458200708093
 30
0.0
 10
329.5588464704093
 20
498.5395519783739
 30
0.0
 10
329.575176606629
 20
498.3513359919002
 30
0.0
 10
329.5671466034077
 20
497.9379613873019
 30
0.0
 10
329.4111836572922
 20
497.3655156781352
 30
0.0
 10
329.1003080792776
 20
496.8716041576745
 30
0.0
 10
328.804585674752
 20
496.7057378695264
 30
0.0
 10
328.6567078754507
 20
496.6227954164208
 30
0.0
  0
SPLINE
  5
161
330
1F
100
AcDbEntity
  8
0
  6
Continuous
 62
     7
370
    15
100
AcDbSpline
210
0.0
220
0.0
230
1.0
 70
     8
 71
     3
 72
    10
 73
     6
 74
     0
 42
0.00000001
 43
0.00000001
 40
0.0
 40
0.0
 40
0.0
 40
0.0
 40
0.2847081061414871
 40
0.6647911111183483
 40
1.0
 40
1.0
 40
1.0
 40
1.0
 10
328.6567078754507
 20
496.6227954164208
 30
0.0
 10
328.6177532654455
 20
496.607215645555
 30
0.0
 10
328.526794568064
 20
496.5708370073586
 30
0.0
 10
328.4726585338955
 20
496.5491877516183
 30
0.0
 10
328.4669395018169
 20
496.546891919017
 30
0.0
 10
328.4642593786322
 20
496.5458160176934
 30
0.0
  0
LINE
  5
162
330
1F
100
AcDbEntity
  8
0
  6
Continuous
 62
     7
370
    15
100
AcDbLine
 10
328.4642593786
 20
496.5458160177
 30
0.0
 11
323.3392583057
 21
496.5458160177
 31
0.0
  0
LINE
  5
163
330
1F
100
AcDbEntity
  8
0
  6
Continuous
 62
     7
370
    15
100
AcDbLine
 10
333.4642695114
 20
504.545817329
 30
0.0
 11
324.089263551
 21
504.545817329
 31
0.0
  0
SPLINE
  5
164
330
1F
100
AcDbEntity
  8
0
  6
Continuous
 62
     7
370
    15
100
AcDbSpline
210
0.0
220
0.0
230
1.0
 70
     8
 71
     3
 72
    10
 73
     6
 74
     0
 42
0.00000001
 43
0.00000001
 40
0.0
 40
0.0
 40
0.0
 40
0.0
 40
0.4161091958466576
 40
0.7671233785715709
 40
1.0
 40
1.0
 40
1.0
 40
1.0
 10
220.4642640277945
 20
496.5458160176934
 30
0.0
 10
220.4604105097428
 20
496.547366224331
 30
0.0
 10
220.4533063077288
 20
496.5502241274132
 30
0.0
 10
220.3861674155549
 20
496.5770498935731
 30
0.0
 10
220.3044248516051
 20
496.6097524589368
 30
0.0
 10
220.2718229815565
 20
496.6227954164208
 30
0.0
  0
SPLINE
  5
165
330
1F
100
AcDbEntity
  8
0
  6
Continuous
 62
     7
370
    15
100
AcDbSpline
210
0.0
220
0.0
230
1.0
 70
     8
 71
     3
 72
    12
 73
     8
 74
     0
 42
0.00000001
 43
0.00000001
 40
0.0
 40
0.0
 40
0.0
 40
0.0
 40
0.2595745078594409
 40
0.5190889450231848
 40
0.7799967444708655
 40
0.9926733089072038
 40
1.0
 40
1.0
 40
1.0
 40
1.0
 10
220.2718229815565
 20
496.6227954164208
 30
0.0
 10
220.1239425441238
 20
496.7057376062053
 30
0.0
 10
219.8282158917281
 20
496.8716027913043
 30
0.0
 10
219.5173364276439
 20
497.3655146874785
 30
0.0
 10
219.3613905452487
 20
497.937962569954
 30
0.0
 10
219.353346722322
 20
498.3513359404687
 30
0.0
 10
219.3696769336539
 20
498.5395519782565
 30
0.0
 10
219.3702207729422
 20
498.5458200708093
 30
0.0
  0
LINE
  5
166
330
1F
100
AcDbEntity
  8
0
  6
Continuous
 62
     7
370
    15
100
AcDbLine
 10
225.5892651007
 20
496.5458160177
 30
0.0
 11
220.4642640278
 21
496.5458160177
 31
0.0
  0
LINE
  5
167
330
1F
100
AcDbEntity
  8
0
  6
Continuous
 62
     7
370
    15
100
AcDbLine
 10
224.839267306
 20
504.545817329
 30
0.0
 11
215.4642613456
 21
504.545817329
 31
0.0
  0
LWPOLYLINE
  5
168
330
1F
100
AcDbEntity
  8
0
  6
Continuous
 62
     7
370
    15
100
AcDbPolyline
 90
        6
 70
   128
 43
0.0
 10
220.2718229816
 20
496.6227954164
 10
218.9104454443
 20
497.1673583523
 10
217.8542809412
 20
497.5898211733
 10
217.133161597
 20
497.8782629505
 10
216.7674423978
 20
498.0245476499
 10
216.7214872167
 20
498.0429356828
  0
LWPOLYLINE
  5
169
330
1F
100
AcDbEntity
  8
0
  6
Continuous
 62
     7
370
    15
100
AcDbPolyline
 90
        6
 70
   128
 43
0.0
 10
332.2070436403
 20
498.0429356828
 10
332.1610884592
 20
498.0245476499
 10
331.79536926
 20
497.8782629505
 10
331.0742424652
 20
497.5898211733
 10
330.0180928633
 20
497.1673583523
 10
328.6567078755
 20
496.6227954164
  0
LINE
  5
16A
330
1F
100
AcDbEntity
  8
0
  6
Continuous
 62
     7
370
    15
100
AcDbLine
 10
-240.5357314423
 20
891.4458250538
 30
0.0
 11
-233.9284969643
 21
891.4458250538
 31
0.0
  0
LINE
  5
16B
330
1F
100
AcDbEntity
  8
0
  6
Continuous
 62
     7
370
    15
100
AcDbLine
 10
38.2642643377
 20
511.4458298221
 30
0.0
 11
31.6570149586
 21
511.4458298221
 31
0.0
  0
LINE
  5
16C
330
1F
100
AcDbEntity
  8
0
  6
Continuous
 62
     7
370
    15
100
AcDbLine
 10
31.6570149586
 20
891.4458250538
 30
0.0
 11
38.2642643377
 21
891.4458250538
 31
0.0
  0
LINE
  5
16D
330
1F
100
AcDbEntity
  8
0
  6
Continuous
 62
     7
370
    15
100
AcDbLine
 10
-233.9284969643
 20
511.4458298221
 30
0.0
 11
-240.5357314423
 21
511.4458298221
 31
0.0
  0
LINE
  5
16E
330
1F
100
AcDbEntity
  8
0
  6
Continuous
 62
     7
370
    15
100
AcDbLine
 10
-233.9284969643
 20
891.4458250538
 30
0.0
 11
31.6570149586
 21
891.4458250538
 31
0.0
  0
LINE
  5
16F
330
1F
100
AcDbEntity
  8
0
  6
Continuous
 62
     7
370
    15
100
AcDbLine
 10
31.6570149586
 20
511.4458298221
 30
0.0
 11
-233.9284969643
 21
511.4458298221
 31
0.0
  0
ARC
  5
170
330
1F
100
AcDbEntity
  8
0
  6
Continuous
 62
     7
370
    15
100
AcDbCircle
 10
-240.5357350185
 20
870.8458226934
 30
0.0
 40
20.60000000000002
100
AcDbArc
 50
90.0
 51
180.0
  0
ARC
  5
171
330
1F
100
AcDbEntity
  8
0
  6
Continuous
 62
     7
370
    15
100
AcDbCircle
 10
38.2642649815
 20
870.8458226934
 30
0.0
 40
20.60000000000002
100
AcDbArc
 50
0.0
 51
90.0
  0
ARC
  5
172
330
1F
100
AcDbEntity
  8
0
  6
Continuous
 62
     7
370
    15
100
AcDbCircle
 10
-240.5357350185
 20
532.0458226934
 30
0.0
 40
20.60000000000005
100
AcDbArc
 50
180.0
 51
270.0
  0
ARC
  5
173
330
1F
100
AcDbEntity
  8
0
  6
Continuous
 62
     7
370
    15
100
AcDbCircle
 10
38.2642649815
 20
532.0458226934
 30
0.0
 40
20.60000000000002
100
AcDbArc
 50
270.0
 51
0.0
  0
LINE
  5
174
330
1F
100
AcDbEntity
  8
0
  6
Continuous
 62
     7
370
    15
100
AcDbLine
 10
58.8642665968
 20
870.8458190695
 30
0.0
 11
58.8642665968
 21
532.0458209053
 31
0.0
  0
LINE
  5
175
330
1F
100
AcDbEntity
  8
0
  6
Continuous
 62
     7
370
    15
100
AcDbLine
 10
-261.1357225254
 20
532.0458209053
 30
0.0
 11
-261.1357225254
 21
870.8458190695
 31
0.0
  0
LINE
  5
176
330
1F
100
AcDbEntity
  8
0
  6
Continuous
 62
     7
370
    15
100
AcDbLine
 10
59.4642655775
 20
593.845823957
 30
0.0
 11
58.8642665968
 21
593.845823957
 31
0.0
  0
ARC
  5
177
330
1F
100
AcDbEntity
  8
0
  6
Continuous
 62
     7
370
    15
100
AcDbCircle
 10
60.4642649815
 20
604.8458226934
 30
0.0
 40
1.600000000000136
100
AcDbArc
 50
90.0
 51
180.0
  0
LINE
  5
178
330
1F
100
AcDbEntity
  8
0
  6
Continuous
 62
     7
370
    15
100
AcDbLine
 10
60.4642638788
 20
606.4458211795
 30
0.0
 11
72.8642651662
 21
606.4458211795
 31
0.0
  0
LINE
  5
179
330
1F
100
AcDbEntity
  8
0
  6
Continuous
 62
     7
370
    15
100
AcDbLine
 10
73.8642634675
 20
607.445823206
 30
0.0
 11
73.8642634675
 21
720.4458231017
 31
0.0
  0
LINE
  5
17A
330
1F
100
AcDbEntity
  8
0
  6
Continuous
 62
     7
370
    15
100
AcDbLine
 10
60.4642638788
 20
722.0458222464
 30
0.0
 11
72.8642651662
 21
722.0458222464
 31
0.0
  0
LINE
  5
17B
330
1F
100
AcDbEntity
  8
0
  6
Continuous
 62
     7
370
    15
100
AcDbLine
 10
74.4642661736
 20
720.4458231017
 30
0.0
 11
74.4642661736
 21
607.445823206
 31
0.0
  0
LINE
  5
17C
330
1F
100
AcDbEntity
  8
0
  6
Continuous
 62
     7
370
    15
100
AcDbLine
 10
72.8642651662
 20
605.845825924
 30
0.0
 11
60.4642638788
 21
605.845825924
 31
0.0
  0
ARC
  5
17D
330
1F
100
AcDbEntity
  8
0
  6
Continuous
 62
     7
370
    15
100
AcDbCircle
 10
72.8642649815
 20
607.4458226934
 30
0.0
 40
1.600000000000136
100
AcDbArc
 50
270.0
 51
0.0
  0
ARC
  5
17E
330
1F
100
AcDbEntity
  8
0
  6
Continuous
 62
     7
370
    15
100
AcDbCircle
 10
72.8642649815
 20
720.4458226934
 30
0.0
 40
1.0
100
AcDbArc
 50
0.0
 51
90.0
  0
ARC
  5
17F
330
1F
100
AcDbEntity
  8
0
  6
Continuous
 62
     7
370
    15
100
AcDbCircle
 10
72.8642649815
 20
607.4458226934
 30
0.0
 40
1.0
100
AcDbArc
 50
270.0
 51
0.0
  0
ARC
  5
180
330
1F
100
AcDbEntity
  8
0
  6
Continuous
 62
     7
370
    15
100
AcDbCircle
 10
72.8642649815
 20
720.4458226934
 30
0.0
 40
1.600000000000023
100
AcDbArc
 50
0.0
 51
90.0
  0
LINE
  5
181
330
1F
100
AcDbEntity
  8
0
  6
Continuous
 62
     7
370
    15
100
AcDbLine
 10
59.4642655775
 20
604.8458238974
 30
0.0
 11
59.4642655775
 21
593.845823957
 31
0.0
  0
ARC
  5
182
330
1F
100
AcDbEntity
  8
0
  6
Continuous
 62
     7
370
    15
100
AcDbCircle
 10
60.4642649815
 20
723.0458226934
 30
0.0
 40
1.0
100
AcDbArc
 50
180.0
 51
270.0
  0
LINE
  5
183
330
1F
100
AcDbEntity
  8
0
  6
Continuous
 62
     7
370
    15
100
AcDbLine
 10
59.4642655775
 20
734.0458242133
 30
0.0
 11
59.4642655775
 21
723.0458224103
 31
0.0
  0
ARC
  5
184
330
1F
100
AcDbEntity
  8
0
  6
Continuous
 62
     7
370
    15
100
AcDbCircle
 10
60.4642649815
 20
723.0458226934
 30
0.0
 40
1.600000000000023
100
AcDbArc
 50
180.0
 51
270.0
  0
ARC
  5
185
330
1F
100
AcDbEntity
  8
0
  6
Continuous
 62
     7
370
    15
100
AcDbCircle
 10
60.4642649815
 20
604.8458226934
 30
0.0
 40
1.0
100
AcDbArc
 50
90.0
 51
180.0
  0
LINE
  5
186
330
1F
100
AcDbEntity
  8
0
  6
Continuous
 62
     7
370
    15
100
AcDbLine
 10
58.8642665968
 20
734.0458242133
 30
0.0
 11
59.4642655775
 21
734.0458242133
 31
0.0
  0
LINE
  5
187
330
1F
100
AcDbEntity
  8
0
  6
Continuous
 62
     7
370
    15
100
AcDbLine
 10
72.8642651662
 20
721.4458232656
 30
0.0
 11
60.4642638788
 21
721.4458232656
 31
0.0
  0
SPLINE
  5
188
330
1F
100
AcDbEntity
  8
0
  6
Continuous
 62
     7
370
    15
100
AcDbSpline
210
0.0
220
0.0
230
1.0
 70
     8
 71
     3
 72
    24
 73
    20
 74
     0
 42
0.00000001
 43
0.00000001
 40
0.0
 40
0.0
 40
0.0
 40
0.0
 40
0.0081562317023795
 40
0.0229469536095217
 40
0.0442571220619821
 40
0.0902506051227538
 40
0.1591200518496952
 40
0.2489883970003948
 40
0.4539738681883329
 40
0.6120788215521488
 40
0.8428356377696624
 40
0.9222128464044257
 40
0.9606191334263559
 40
0.9799573985841571
 40
0.9897854365062075
 40
0.9947930405024171
 40
0.9972769104001035
 40
0.9979340452223711
 40
1.0
 40
1.0
 40
1.0
 40
1.0
 10
-261.1357225253977
 20
631.4458196893396
 30
0.0
 10
-261.1369951658189
 20
631.4467758029053
 30
0.0
 10
-261.1405756453552
 20
631.4494657575852
 30
0.0
 10
-261.1842842624625
 20
631.482295024041
 30
0.0
 10
-261.3201018440562
 20
631.5862346108419
 30
0.0
 10
-261.6208675829521
 20
631.8278614892656
 30
0.0
 10
-262.0954571891166
 20
632.2518737826065
 30
0.0
 10
-262.9081348952415
 20
633.096536254469
 30
0.0
 10
-263.7734436496936
 20
634.3040843923017
 30
0.0
 10
-264.5969444758813
 20
636.0303242687575
 30
0.0
 10
-264.9810324578266
 20
637.4829167616291
 30
0.0
 10
-265.1036017358246
 20
638.5793240860327
 30
0.0
 10
-265.1275767612308
 20
639.0122528992206
 30
0.0
 10
-265.1336939572872
 20
639.2257401054172
 30
0.0
 10
-265.1351554219306
 20
639.3337480486892
 30
0.0
 10
-265.135609398507
 20
639.3884740990306
 30
0.0
 10
-265.1356668760719
 20
639.4142338863968
 30
0.0
 10
-265.1357594537606
 20
639.430684011939
 30
0.0
 10
-265.1357430652623
 20
639.4392910268799
 30
0.0
 10
-265.1357306316294
 20
639.4458210006418
 30
0.0
  0
SPLINE
  5
189
330
1F
100
AcDbEntity
  8
0
  6
Continuous
 62
     7
370
    15
100
AcDbSpline
210
0.0
220
0.0
230
1.0
 70
     8
 71
     3
 72
    19
 73
    15
 74
     0
 42
0.00000001
 43
0.00000001
 40
0.0
 40
0.0
 40
0.0
 40
0.0
 40
0.0020677612734988
 40
0.0027253515952678
 40
0.2719048591004712
 40
0.545476500582732
 40
0.7209824641944966
 40
0.8305963990959331
 40
0.902999996820275
 40
0.9468980769108754
 40
0.9700079083436621
 40
0.9804125602709172
 40
0.9962726857595156
 40
1.0
 40
1.0
 40
1.0
 40
1.0
 10
-265.1357306316294
 20
763.4458226993742
 30
0.0
 10
-265.1357422337329
 20
763.452353837694
 30
0.0
 10
-265.1357575255423
 20
763.4609620114067
 30
0.0
 10
-265.1312506786378
 20
764.3194222786975
 30
0.0
 10
-264.9107601112717
 20
766.0428284917066
 30
0.0
 10
-264.0279769337869
 20
768.1941265980361
 30
0.0
 10
-262.9891656424389
 20
769.6893164022848
 30
0.0
 10
-262.203162858968
 20
770.5386455599137
 30
0.0
 10
-261.6788126225784
 20
771.0142731071837
 30
0.0
 10
-261.3686891932014
 20
771.2671404816191
 30
0.0
 10
-261.2260553026036
 20
771.3774527187188
 30
0.0
 10
-261.1605149235286
 20
771.4272458915901
 30
0.0
 10
-261.1374262380406
 20
771.4445589033505
 30
0.0
 10
-261.135994896807
 20
771.4456186290773
 30
0.0
 10
-261.1357225253977
 20
771.445820285386
 30
0.0
  0
LINE
  5
18A
330
1F
100
AcDbEntity
  8
0
  6
Continuous
 62
     7
370
    15
100
AcDbLine
 10
-265.1357306316
 20
639.4458210006
 30
0.0
 11
-265.1357306316
 21
763.4458226994
 31
0.0
  0
CIRCLE
  5
18B
330
1F
100
AcDbEntity
  8
0
  6
Continuous
 62
     7
370
    15
100
AcDbCircle
 10
274.4642649815
 20
702.0458226934
 30
0.0
 40
194.5000000000001
  0
LINE
  5
18C
330
1F
100
AcDbEntity
  8
0
  6
Continuous
 62
     7
370
    15
100
AcDbLine
 10
89.464264907
 20
618.964294149
 30
0.0
 11
89.464264907
 21
642.0020891264
 31
0.0
  0
LINE
  5
18D
330
1F
100
AcDbEntity
  8
0
  6
Continuous
 62
     7
370
    15
100
AcDbLine
 10
89.464264907
 20
613.0458211437
 30
0.0
 11
89.464264907
 21
618.964294149
 31
0.0
  0
LINE
  5
18E
330
1F
100
AcDbEntity
  8
0
  6
Continuous
 62
     7
370
    15
100
AcDbLine
 10
262.6381711886
 20
896.5458219782
 30
0.0
 11
274.4642691538
 21
896.5458219782
 31
0.0
  0
LINE
  5
18F
330
1F
100
AcDbEntity
  8
0
  6
Continuous
 62
     7
370
    15
100
AcDbLine
 10
274.4642691538
 20
896.5458219782
 30
0.0
 11
286.2903522179
 21
896.5458219782
 31
0.0
  0
LINE
  5
190
330
1F
100
AcDbEntity
  8
0
  6
Continuous
 62
     7
370
    15
100
AcDbLine
 10
468.9642535374
 20
702.0458226934
 30
0.0
 11
468.9642535374
 21
690.219735904
 31
0.0
  0
LINE
  5
191
330
1F
100
AcDbEntity
  8
0
  6
Continuous
 62
     7
370
    15
100
AcDbLine
 10
468.9642535374
 20
713.8719094828
 30
0.0
 11
468.9642535374
 21
702.0458226934
 31
0.0
  0
LINE
  5
192
330
1F
100
AcDbEntity
  8
0
  6
Continuous
 62
     7
370
    15
100
AcDbLine
 10
274.4642691538
 20
507.5458234087
 30
0.0
 11
262.6381711886
 21
507.5458234087
 31
0.0
  0
LINE
  5
193
330
1F
100
AcDbEntity
  8
0
  6
Continuous
 62
     7
370
    15
100
AcDbLine
 10
286.2903522179
 20
507.5458234087
 30
0.0
 11
274.4642691538
 21
507.5458234087
 31
0.0
  0
LINE
  5
194
330
1F
100
AcDbEntity
  8
0
  6
Continuous
 62
     7
370
    15
100
AcDbLine
 10
222.2033934519
 20
896.5458219782
 30
0.0
 11
262.6381711886
 21
896.5458219782
 31
0.0
  0
LINE
  5
195
330
1F
100
AcDbEntity
  8
0
  6
Continuous
 62
     7
370
    15
100
AcDbLine
 10
468.9642535374
 20
754.3066909447
 30
0.0
 11
468.9642535374
 21
713.8719094828
 31
0.0
  0
LINE
  5
196
330
1F
100
AcDbEntity
  8
0
  6
Continuous
 62
     7
370
    15
100
AcDbLine
 10
286.2903522179
 20
896.5458219782
 30
0.0
 11
326.7251299545
 21
896.5458219782
 31
0.0
  0
LINE
  5
197
330
1F
100
AcDbEntity
  8
0
  6
Continuous
 62
     7
370
    15
100
AcDbLine
 10
326.7251299545
 20
507.5458234087
 30
0.0
 11
286.2903522179
 21
507.5458234087
 31
0.0
  0
LINE
  5
198
330
1F
100
AcDbEntity
  8
0
  6
Continuous
 62
     7
370
    15
100
AcDbLine
 10
468.9642535374
 20
690.219735904
 30
0.0
 11
468.9642535374
 21
649.7849544421
 31
0.0
  0
LINE
  5
199
330
1F
100
AcDbEntity
  8
0
  6
Continuous
 62
     7
370
    15
100
AcDbLine
 10
262.6381711886
 20
507.5458234087
 30
0.0
 11
222.2033934519
 21
507.5458234087
 31
0.0
  0
LINE
  5
19A
330
1F
100
AcDbEntity
  8
0
  6
Continuous
 62
     7
370
    15
100
AcDbLine
 10
210.464266114
 20
896.5458219782
 30
0.0
 11
222.2033934519
 21
896.5458219782
 31
0.0
  0
LINE
  5
19B
330
1F
100
AcDbEntity
  8
0
  6
Continuous
 62
     7
370
    15
100
AcDbLine
 10
468.9642535374
 20
766.0458257333
 30
0.0
 11
468.9642535374
 21
754.3066909447
 31
0.0
  0
LINE
  5
19C
330
1F
100
AcDbEntity
  8
0
  6
Continuous
 62
     7
370
    15
100
AcDbLine
 10
468.9642535374
 20
649.7849544421
 30
0.0
 11
468.9642535374
 21
638.0458196536
 31
0.0
  0
LINE
  5
19D
330
1F
100
AcDbEntity
  8
0
  6
Continuous
 62
     7
370
    15
100
AcDbLine
 10
326.7251299545
 20
896.5458219782
 30
0.0
 11
338.4642647431
 21
896.5458219782
 31
0.0
  0
LINE
  5
19E
330
1F
100
AcDbEntity
  8
0
  6
Continuous
 62
     7
370
    15
100
AcDbLine
 10
338.4642647431
 20
507.5458234087
 30
0.0
 11
326.7251299545
 21
507.5458234087
 31
0.0
  0
LINE
  5
19F
330
1F
100
AcDbEntity
  8
0
  6
Continuous
 62
     7
370
    15
100
AcDbLine
 10
222.2033934519
 20
507.5458234087
 30
0.0
 11
210.464266114
 21
507.5458234087
 31
0.0
  0
ARC
  5
1A0
330
1F
100
AcDbEntity
  8
0
  6
Continuous
 62
     7
370
    15
100
AcDbCircle
 10
127.7396078853
 20
862.9126154134
 30
0.0
 40
10.00000000000004
100
AcDbArc
 50
45.0
 51
135.0
  0
LINE
  5
1A1
330
1F
100
AcDbEntity
  8
0
  6
Continuous
 62
     7
370
    15
100
AcDbLine
 10
151.8031665907
 20
852.9911881223
 30
0.0
 11
134.810675852
 21
869.9836825863
 31
0.0
  0
LINE
  5
1A2
330
1F
100
AcDbEntity
  8
0
  6
Continuous
 62
     7
370
    15
100
AcDbLine
 10
106.5264044588
 20
841.6994159952
 30
0.0
 11
123.5188944116
 21
824.7069215313
 31
0.0
  0
ARC
  5
1A3
330
1F
100
AcDbEntity
  8
0
  6
Continuous
 62
     7
370
    15
100
AcDbCircle
 10
120.3149866828
 20
851.952460305
 30
0.0
 40
5.99999999999996
100
AcDbArc
 50
219.0197263411
 51
260.9802736589
  0
LINE
  5
1A4
330
1F
100
AcDbEntity
  8
0
  6
Continuous
 62
     7
370
    15
100
AcDbLine
 10
120.6685397625
 20
869.9836825863
 30
0.0
 11
106.5264044588
 21
855.8415418401
 31
0.0
  0
ARC
  5
1A5
330
1F
100
AcDbEntity
  8
0
  6
Continuous
 62
     7
370
    15
100
AcDbCircle
 10
113.5974722615
 20
848.7704797896
 30
0.0
 40
9.99999999999997
100
AcDbArc
 50
135.0
 51
225.0
  0
ARC
  5
1A6
330
1F
100
AcDbEntity
  8
0
  6
Continuous
 62
     7
370
    15
100
AcDbCircle
 10
124.5576273699
 20
856.1951009921
 30
0.0
 40
6.000000000000089
100
AcDbArc
 50
39.0197263411
 51
80.9802736589
  0
ARC
  5
1A7
330
1F
100
AcDbEntity
  8
0
  6
Continuous
 62
     7
370
    15
100
AcDbCircle
 10
428.6135432801
 20
851.952460305
 30
0.0
 40
5.999999999999982
100
AcDbArc
 50
279.0197263411
 51
320.9802736589
  0
ARC
  5
1A8
330
1F
100
AcDbEntity
  8
0
  6
Continuous
 62
     7
370
    15
100
AcDbCircle
 10
424.370902593
 20
856.1951009921
 30
0.0
 40
6.000000000000067
100
AcDbArc
 50
99.0197263411
 51
140.9802736589
  0
LINE
  5
1A9
330
1F
100
AcDbEntity
  8
0
  6
Continuous
 62
     7
370
    15
100
AcDbLine
 10
414.1178475544
 20
869.9836825863
 30
0.0
 11
397.1253679916
 21
852.9911881223
 31
0.0
  0
ARC
  5
1AA
330
1F
100
AcDbEntity
  8
0
  6
Continuous
 62
     7
370
    15
100
AcDbCircle
 10
421.1889220777
 20
862.9126154134
 30
0.0
 40
10.00000000000008
100
AcDbArc
 50
45.0
 51
135.0
  0
LINE
  5
1AB
330
1F
100
AcDbEntity
  8
0
  6
Continuous
 62
     7
370
    15
100
AcDbLine
 10
442.4021290466
 20
855.8415418401
 30
0.0
 11
428.2600032017
 21
869.9836825863
 31
0.0
  0
ARC
  5
1AC
330
1F
100
AcDbEntity
  8
0
  6
Continuous
 62
     7
370
    15
100
AcDbCircle
 10
435.3310577014
 20
848.7704797896
 30
0.0
 40
10.00000000000004
100
AcDbArc
 50
315.0
 51
45.0
  0
LINE
  5
1AD
330
1F
100
AcDbEntity
  8
0
  6
Continuous
 62
     7
370
    15
100
AcDbLine
 10
425.4096494839
 20
824.7069215313
 30
0.0
 11
442.4021290466
 21
841.6994159952
 31
0.0
  0
ARC
  5
1AE
330
1F
100
AcDbEntity
  8
0
  6
Continuous
 62
     7
370
    15
100
AcDbCircle
 10
124.5576273699
 20
547.8965443947
 30
0.0
 40
6.000000000000064
100
AcDbArc
 50
279.0197263411
 51
320.9802736589
  0
LINE
  5
1AF
330
1F
100
AcDbEntity
  8
0
  6
Continuous
 62
     7
370
    15
100
AcDbLine
 10
134.810675852
 20
534.1079628006
 30
0.0
 11
151.8031665907
 21
551.1004572645
 31
0.0
  0
ARC
  5
1B0
330
1F
100
AcDbEntity
  8
0
  6
Continuous
 62
     7
370
    15
100
AcDbCircle
 10
113.5974722615
 20
555.3211655972
 30
0.0
 40
10.00000000000007
100
AcDbArc
 50
135.0
 51
225.0
  0
LINE
  5
1B1
330
1F
100
AcDbEntity
  8
0
  6
Continuous
 62
     7
370
    15
100
AcDbLine
 10
123.5188944116
 20
579.3847238556
 30
0.0
 11
106.5264044588
 21
562.3922293916
 31
0.0
  0
ARC
  5
1B2
330
1F
100
AcDbEntity
  8
0
  6
Continuous
 62
     7
370
    15
100
AcDbCircle
 10
120.3149866828
 20
552.1391850819
 30
0.0
 40
6.000000000000035
100
AcDbArc
 50
99.0197263411
 51
140.9802736589
  0
ARC
  5
1B3
330
1F
100
AcDbEntity
  8
0
  6
Continuous
 62
     7
370
    15
100
AcDbCircle
 10
127.7396078853
 20
541.1790299735
 30
0.0
 40
10.00000000000006
100
AcDbArc
 50
225.0
 51
315.0
  0
LINE
  5
1B4
330
1F
100
AcDbEntity
  8
0
  6
Continuous
 62
     7
370
    15
100
AcDbLine
 10
106.5264044588
 20
548.2501035467
 30
0.0
 11
120.6685397625
 21
534.1079628006
 31
0.0
  0
ARC
  5
1B5
330
1F
100
AcDbEntity
  8
0
  6
Continuous
 62
     7
370
    15
100
AcDbCircle
 10
424.370902593
 20
547.8965443947
 30
0.0
 40
6.000000000000027
100
AcDbArc
 50
219.0197263411
 51
260.9802736589
  0
ARC
  5
1B6
330
1F
100
AcDbEntity
  8
0
  6
Continuous
 62
     7
370
    15
100
AcDbCircle
 10
428.6135432801
 20
552.1391850819
 30
0.0
 40
6.000000000000166
100
AcDbArc
 50
39.0197263411
 51
80.9802736589
  0
LINE
  5
1B7
330
1F
100
AcDbEntity
  8
0
  6
Continuous
 62
     7
370
    15
100
AcDbLine
 10
442.4021290466
 20
562.3922293916
 30
0.0
 11
425.4096494839
 21
579.3847238556
 31
0.0
  0
ARC
  5
1B8
330
1F
100
AcDbEntity
  8
0
  6
Continuous
 62
     7
370
    15
100
AcDbCircle
 10
435.3310577014
 20
555.3211655972
 30
0.0
 40
9.999999999999961
100
AcDbArc
 50
315.0
 51
45.0
  0
LINE
  5
1B9
330
1F
100
AcDbEntity
  8
0
  6
Continuous
 62
     7
370
    15
100
AcDbLine
 10
428.2600032017
 20
534.1079628006
 30
0.0
 11
442.4021290466
 21
548.2501035467
 31
0.0
  0
ARC
  5
1BA
330
1F
100
AcDbEntity
  8
0
  6
Continuous
 62
     7
370
    15
100
AcDbCircle
 10
421.1889220777
 20
541.1790299735
 30
0.0
 40
10.00000000000012
100
AcDbArc
 50
225.0
 51
315.0
  0
LINE
  5
1BB
330
1F
100
AcDbEntity
  8
0
  6
Continuous
 62
     7
370
    15
100
AcDbLine
 10
397.1253679916
 20
551.1004572645
 30
0.0
 11
414.1178475544
 21
534.1079628006
 31
0.0
  0
CIRCLE
  5
1BC
330
1F
100
AcDbEntity
  8
0
  6
Continuous
 62
     7
370
    15
100
AcDbCircle
 10
274.4642649815
 20
702.0458226934
 30
0.0
 40
9.250000000000057
  0
CIRCLE
  5
1BD
330
1F
100
AcDbEntity
  8
0
  6
Continuous
 62
     7
370
    15
100
AcDbCircle
 10
274.4642649815
 20
702.0458226934
 30
0.0
 40
18.00000000000006
  0
CIRCLE
  5
1BE
330
1F
100
AcDbEntity
  8
0
  6
Continuous
 62
     7
370
    15
100
AcDbCircle
 10
77.4642649815
 20
517.0458226934
 30
0.0
 40
10.3
  0
ARC
  5
1BF
330
1F
100
AcDbEntity
  8
0
  6
Continuous
 62
     7
370
    15
100
AcDbCircle
 10
444.4642649815
 20
872.0458226934
 30
0.0
 40
35.00000000000006
100
AcDbArc
 50
0.0
 51
90.0
  0
ARC
  5
1C0
330
1F
100
AcDbEntity
  8
0
  6
Continuous
 62
     7
370
    15
100
AcDbCircle
 10
444.4642649815
 20
532.0458226934
 30
0.0
 40
35.0
100
AcDbArc
 50
270.0
 51
0.0
  0
ARC
  5
1C1
330
1F
100
AcDbEntity
  8
0
  6
Continuous
 62
     7
370
    15
100
AcDbCircle
 10
274.4642649815
 20
702.0458226934
 30
0.0
 40
196.5
100
AcDbArc
 50
19.0079742429
 51
39.1582525612
  0
ARC
  5
1C2
330
1F
100
AcDbEntity
  8
0
  6
Continuous
 62
     7
370
    15
100
AcDbCircle
 10
274.4642649815
 20
702.0458226934
 30
0.0
 40
196.5
100
AcDbArc
 50
50.8417474388
 51
70.9920257571
  0
ARC
  5
1C3
330
1F
100
AcDbEntity
  8
0
  6
Continuous
 62
     7
370
    15
100
AcDbCircle
 10
274.4642649815
 20
702.0458226934
 30
0.0
 40
196.5
100
AcDbArc
 50
109.0079742429
 51
129.1582525612
  0
ARC
  5
1C4
330
1F
100
AcDbEntity
  8
0
  6
Continuous
 62
     7
370
    15
100
AcDbCircle
 10
274.4642649815
 20
702.0458226934
 30
0.0
 40
196.5000000000001
100
AcDbArc
 50
140.8417474388
 51
171.8078318286
  0
ARC
  5
1C5
330
1F
100
AcDbEntity
  8
0
  6
Continuous
 62
     7
370
    15
100
AcDbCircle
 10
274.4642649815
 20
702.0458226934
 30
0.0
 40
196.5
100
AcDbArc
 50
206.9315820311
 51
219.1582525612
  0
ARC
  5
1C6
330
1F
100
AcDbEntity
  8
0
  6
Continuous
 62
     7
370
    15
100
AcDbCircle
 10
274.4642649815
 20
702.0458226934
 30
0.0
 40
196.5000000000001
100
AcDbArc
 50
230.8417474388
 51
250.9920257571
  0
ARC
  5
1C7
330
1F
100
AcDbEntity
  8
0
  6
Continuous
 62
     7
370
    15
100
AcDbCircle
 10
274.4642649815
 20
702.0458226934
 30
0.0
 40
196.5
100
AcDbArc
 50
289.0079742429
 51
309.1582525612
  0
ARC
  5
1C8
330
1F
100
AcDbEntity
  8
0
  6
Continuous
 62
     7
370
    15
100
AcDbCircle
 10
274.4642649815
 20
702.0458226934
 30
0.0
 40
196.5
100
AcDbArc
 50
320.8417474388
 51
340.9920257571
  0
CIRCLE
  5
1C9
330
1F
100
AcDbEntity
  8
0
  6
Continuous
 62
     7
370
    15
100
AcDbCircle
 10
449.4642649815
 20
877.0458226934
 30
0.0
 40
5.000000000000057
  0
CIRCLE
  5
1CA
330
1F
100
AcDbEntity
  8
0
  6
Continuous
 62
     7
370
    15
100
AcDbCircle
 10
449.4642649815
 20
527.0458226934
 30
0.0
 40
5.000000000000057
  0
LINE
  5
1CB
330
1F
100
AcDbEntity
  8
0
  6
Continuous
 62
     7
370
    15
100
AcDbLine
 10
444.4642709419
 20
497.0458244816
 30
0.0
 11
329.7142581865
 21
497.0458244816
 31
0.0
  0
LINE
  5
1CC
330
1F
100
AcDbEntity
  8
0
  6
Continuous
 62
     7
370
    15
100
AcDbLine
 10
219.2142652199
 20
497.0458244816
 30
0.0
 11
-230.535740979
 21
497.0458244816
 31
0.0
  0
ARC
  5
1CD
330
1F
100
AcDbEntity
  8
0
  6
Continuous
 62
     7
370
    15
100
AcDbCircle
 10
-230.5357350185
 20
532.0458226934
 30
0.0
 40
35.0
100
AcDbArc
 50
180.0
 51
270.0
  0
LINE
  5
1CE
330
1F
100
AcDbEntity
  8
0
  6
Continuous
 62
     7
370
    15
100
AcDbLine
 10
-265.5357374027
 20
532.0458209053
 30
0.0
 11
-265.5357374027
 21
872.0458244816
 31
0.0
  0
LINE
  5
1CF
330
1F
100
AcDbEntity
  8
0
  6
Continuous
 62
     7
370
    15
100
AcDbLine
 10
479.4642673657
 20
872.0458244816
 30
0.0
 11
479.4642673657
 21
756.5458213821
 31
0.0
  0
LINE
  5
1D0
330
1F
100
AcDbEntity
  8
0
  6
Continuous
 62
     7
370
    15
100
AcDbLine
 10
479.4642673657
 20
739.5458241835
 30
0.0
 11
479.4642673657
 21
719.0162597135
 31
0.0
  0
LINE
  5
1D1
330
1F
100
AcDbEntity
  8
0
  6
Continuous
 62
     7
370
    15
100
AcDbLine
 10
479.4642673657
 20
687.0162600562
 30
0.0
 11
479.4642673657
 21
664.5458212033
 31
0.0
  0
LINE
  5
1D2
330
1F
100
AcDbEntity
  8
0
  6
Continuous
 62
     7
370
    15
100
AcDbLine
 10
479.4642673657
 20
647.5458240047
 30
0.0
 11
479.4642673657
 21
532.0458209053
 31
0.0
  0
LINE
  5
1D3
330
1F
100
AcDbEntity
  8
0
  6
Continuous
 62
     7
370
    15
100
AcDbLine
 10
-230.535740979
 20
907.0458209053
 30
0.0
 11
218.649310045
 21
907.0458209053
 31
0.0
  0
LINE
  5
1D4
330
1F
100
AcDbEntity
  8
0
  6
Continuous
 62
     7
370
    15
100
AcDbLine
 10
238.2792131826
 20
907.0458209053
 30
0.0
 11
310.6493102238
 21
907.0458209053
 31
0.0
  0
LINE
  5
1D5
330
1F
100
AcDbEntity
  8
0
  6
Continuous
 62
     7
370
    15
100
AcDbLine
 10
330.279220812
 20
907.0458209053
 30
0.0
 11
444.4642709419
 21
907.0458209053
 31
0.0
  0
ARC
  5
1D6
330
1F
100
AcDbEntity
  8
0
  6
Continuous
 62
     7
370
    15
100
AcDbCircle
 10
-230.5357350185
 20
872.0458226934
 30
0.0
 40
35.0
100
AcDbArc
 50
90.0
 51
180.0
  0
LINE
  5
1D7
330
1F
100
AcDbEntity
  8
0
  6
Continuous
 62
     7
370
    15
100
AcDbLine
 10
-267.5357414558
 20
532.0458209053
 30
0.0
 11
-267.5357414558
 21
872.0458244816
 31
0.0
  0
ARC
  5
1D8
330
1F
100
AcDbEntity
  8
0
  6
Continuous
 62
     7
370
    15
100
AcDbCircle
 10
-230.5357350185
 20
872.0458226934
 30
0.0
 40
37.00000000000003
100
AcDbArc
 50
90.0
 51
180.0
  0
LINE
  5
1D9
330
1F
100
AcDbEntity
  8
0
  6
Continuous
 62
     7
370
    15
100
AcDbLine
 10
-230.535740979
 20
909.0458249584
 30
0.0
 11
218.649310045
 21
909.0458249584
 31
0.0
  0
LINE
  5
1DA
330
1F
100
AcDbEntity
  8
0
  6
Continuous
 62
     7
370
    15
100
AcDbLine
 10
238.2792131826
 20
909.0458249584
 30
0.0
 11
310.6493102238
 21
909.0458249584
 31
0.0
  0
LINE
  5
1DB
330
1F
100
AcDbEntity
  8
0
  6
Continuous
 62
     7
370
    15
100
AcDbLine
 10
330.279220812
 20
909.0458249584
 30
0.0
 11
444.4642709419
 21
909.0458249584
 31
0.0
  0
ARC
  5
1DC
330
1F
100
AcDbEntity
  8
0
  6
Continuous
 62
     7
370
    15
100
AcDbCircle
 10
444.4642649815
 20
872.0458226934
 30
0.0
 40
37.00000000000006
100
AcDbArc
 50
0.0
 51
90.0
  0
LINE
  5
1DD
330
1F
100
AcDbEntity
  8
0
  6
Continuous
 62
     7
370
    15
100
AcDbLine
 10
481.4642714188
 20
872.0458244816
 30
0.0
 11
481.4642714188
 21
756.5458213821
 31
0.0
  0
LINE
  5
1DE
330
1F
100
AcDbEntity
  8
0
  6
Continuous
 62
     7
370
    15
100
AcDbLine
 10
481.4642714188
 20
739.5458241835
 30
0.0
 11
481.4642714188
 21
719.0162597135
 31
0.0
  0
LINE
  5
1DF
330
1F
100
AcDbEntity
  8
0
  6
Continuous
 62
     7
370
    15
100
AcDbLine
 10
481.4642714188
 20
687.0162600562
 30
0.0
 11
481.4642714188
 21
664.5458212033
 31
0.0
  0
LINE
  5
1E0
330
1F
100
AcDbEntity
  8
0
  6
Continuous
 62
     7
370
    15
100
AcDbLine
 10
481.4642714188
 20
647.5458240047
 30
0.0
 11
481.4642714188
 21
532.0458209053
 31
0.0
  0
ARC
  5
1E1
330
1F
100
AcDbEntity
  8
0
  6
Continuous
 62
     7
370
    15
100
AcDbCircle
 10
444.4642649815
 20
532.0458226934
 30
0.0
 40
37.0
100
AcDbArc
 50
270.0
 51
0.0
  0
LINE
  5
1E2
330
1F
100
AcDbEntity
  8
0
  6
Continuous
 62
     7
370
    15
100
AcDbLine
 10
444.4642709419
 20
495.0458204284
 30
0.0
 11
328.9642678425
 21
495.0458204284
 31
0.0
  0
LINE
  5
1E3
330
1F
100
AcDbEntity
  8
0
  6
Continuous
 62
     7
370
    15
100
AcDbLine
 10
311.9642631933
 20
495.0458204284
 30
0.0
 11
306.0277746842
 21
495.0458204284
 31
0.0
  0
LINE
  5
1E4
330
1F
100
AcDbEntity
  8
0
  6
Continuous
 62
     7
370
    15
100
AcDbLine
 10
242.9007636234
 20
495.0458204284
 30
0.0
 11
236.9642602131
 21
495.0458204284
 31
0.0
  0
LINE
  5
1E5
330
1F
100
AcDbEntity
  8
0
  6
Continuous
 62
     7
370
    15
100
AcDbLine
 10
219.9642630145
 20
495.0458204284
 30
0.0
 11
-230.535740979
 21
495.0458204284
 31
0.0
  0
ARC
  5
1E6
330
1F
100
AcDbEntity
  8
0
  6
Continuous
 62
     7
370
    15
100
AcDbCircle
 10
-230.5357350185
 20
532.0458226934
 30
0.0
 40
37.0
100
AcDbArc
 50
180.0
 51
270.0
  0
CIRCLE
  5
1E7
330
1F
100
AcDbEntity
  8
0
  6
CENTERX2
 62
     7
370
     0
100
AcDbCircle
 10
-235.5357350185
 20
527.0458226934
 30
0.0
 40
4.999999999999996
  0
CIRCLE
  5
1E8
330
1F
100
AcDbEntity
  8
0
  6
CENTERX2
 62
     7
370
     0
100
AcDbCircle
 10
-235.5357350185
 20
857.0458226934
 30
0.0
 40
4.999999999999963
  0
CIRCLE
  5
1E9
330
1F
100
AcDbEntity
  8
0
  6
Continuous
 62
     7
370
     0
100
AcDbCircle
 10
122.4363070264
 20
854.0737806485
 30
0.0
 40
4.99999999999999
  0
CIRCLE
  5
1EA
330
1F
100
AcDbEntity
  8
0
  6
Continuous
 62
     7
370
     0
100
AcDbCircle
 10
122.4363070264
 20
550.0178647383
 30
0.0
 40
4.999999999999996
  0
CIRCLE
  5
1EB
330
1F
100
AcDbEntity
  8
0
  6
Continuous
 62
     7
370
     0
100
AcDbCircle
 10
426.4922229366
 20
550.0178647383
 30
0.0
 40
5.000000000000023
  0
CIRCLE
  5
1EC
330
1F
100
AcDbEntity
  8
0
  6
Continuous
 62
     7
370
     0
100
AcDbCircle
 10
426.4922229366
 20
854.0737806485
 30
0.0
 40
4.99999999999999
  0
DIMENSION
  5
1ED
330
1F
100
AcDbEntity
  8
0
  6
Continuous
 62
     7
370
     0
100
AcDbDimension
  2
*D2
 10
481.4642649815
 20
473.5458226934
 30
0.0
 11
86.5470874728
 21
473.5458226934
 31
0.0
 70
   160
 71
     2
 42
-1.0
  3
SLDDIMSTYLE0
100
AcDbAlignedDimension
 13
-267.5357350185
 23
532.0458226934
 33
0.0
 14
481.4642649815
 24
532.0458226934
 34
0.0
 50
0.0
100
AcDbRotatedDimension
  0
DIMENSION
  5
1FF
330
1F
100
AcDbEntity
  8
0
  6
Continuous
 62
     7
370
     0
100
AcDbDimension
  2
*D3
 10
481.4642649815
 20
473.5458226934
 30
0.0
 11
521.0162067849
 21
473.5458226934
 31
0.0
 70
   160
 71
     2
 42
-1.0
  3
SLDDIMSTYLE1
100
AcDbAlignedDimension
 13
488.6642649815
 23
688.1981018396
 33
0.0
 14
481.4642649815
 24
532.0458226934
 34
0.0
100
AcDbRotatedDimension
  0
DIMENSION
  5
20C
330
1F
100
AcDbEntity
  8
0
  6
Continuous
 62
     7
370
     0
100
AcDbDimension
  2
*D4
 10
498.6091519338
 20
527.0458226934
 30
0.0
 11
498.6091519338
 21
510.1773451638
 31
0.0
 70
   160
 71
     2
 42
-1.0
  3
SLDDIMSTYLE0
100
AcDbAlignedDimension
 13
444.4642649815
 23
495.0458226934
 33
0.0
 14
456.9642649815
 24
527.0458226934
 34
0.0
 50
90.0
100
AcDbRotatedDimension
  0
DIMENSION
  5
216
330
1F
100
AcDbEntity
  8
0
  6
Continuous
 62
     7
370
     0
100
AcDbDimension
  2
*D5
 10
498.6091519338
 20
877.0458226934
 30
0.0
 11
498.6091519338
 21
893.1080185116
 31
0.0
 70
   160
 71
     2
 42
-1.0
  3
SLDDIMSTYLE0
100
AcDbAlignedDimension
 13
444.4642649815
 23
909.0458226934
 33
0.0
 14
456.9642649815
 24
877.0458226934
 34
0.0
 50
90.0
100
AcDbRotatedDimension
  0
DIMENSION
  5
220
330
1F
100
AcDbEntity
  8
0
  6
Continuous
 62
     7
370
     0
100
AcDbDimension
  2
*D6
 10
498.6091519338
 20
527.0458226934
 30
0.0
 11
498.6091519338
 21
701.5183309518
 31
0.0
 70
   160
 71
     2
 42
-1.0
  3
SLDDIMSTYLE0
100
AcDbAlignedDimension
 13
456.9642649815
 23
877.0458226934
 33
0.0
 14
456.9642649815
 24
527.0458226934
 34
0.0
 50
90.0
100
AcDbRotatedDimension
  0
DIMENSION
  5
22A
330
1F
100
AcDbEntity
  8
0
  6
Continuous
 62
     7
370
     0
100
AcDbDimension
  2
*D7
 10
449.4642649815
 20
917.1624081512
 30
0.0
 11
104.6080596713
 21
917.1624081512
 31
0.0
 70
   160
 71
     2
 42
-1.0
  3
SLDDIMSTYLE0
100
AcDbAlignedDimension
 13
-235.5357350185
 23
864.5458226934
 33
0.0
 14
449.4642649815
 24
884.5458226934
 34
0.0
100
AcDbRotatedDimension
  0
DIMENSION
  5
234
330
1F
100
AcDbEntity
  8
0
  6
Continuous
 62
     7
370
     0
100
AcDbDimension
  2
*D8
 10
-274.5432390499
 20
857.0458226934
 30
0.0
 11
-274.5432390499
 21
883.0401795959
 31
0.0
 70
   160
 71
     2
 42
-1.0
  3
SLDDIMSTYLE0
100
AcDbAlignedDimension
 13
-230.5357350185
 23
909.0458226934
 33
0.0
 14
-243.0357350185
 24
857.0458226934
 34
0.0
 50
90.0
100
AcDbRotatedDimension
  0
DIMENSION
  5
23E
330
1F
100
AcDbEntity
  8
0
  6
Continuous
 62
     7
370
     0
100
AcDbDimension
  2
*D9
 10
-274.5432390499
 20
527.0458226934
 30
0.0
 11
-274.5432390499
 21
703.2750866888
 31
0.0
 70
   160
 71
     2
 42
-1.0
  3
SLDDIMSTYLE0
100
AcDbAlignedDimension
 13
-243.0357350185
 23
857.0458226934
 33
0.0
 14
-243.0357350185
 24
527.0458226934
 34
0.0
 50
90.0
100
AcDbRotatedDimension
  0
DIMENSION
  5
248
330
1F
100
AcDbEntity
  8
0
  6
Continuous
 62
     7
370
     0
100
AcDbDimension
  2
*D10
 10
-274.5432390499
 20
495.0458226934
 30
0.0
 11
-274.5432390499
 21
512.6157223775
 31
0.0
 70
   160
 71
     2
 42
-1.0
  3
SLDDIMSTYLE0
100
AcDbAlignedDimension
 13
-243.0357350185
 23
527.0458226934
 33
0.0
 14
-230.5357350185
 24
495.0458226934
 34
0.0
 50
90.0
100
AcDbRotatedDimension
  0
DIMENSION
  5
252
330
1F
100
AcDbEntity
  8
0
  6
Continuous
 62
     7
370
     0
100
AcDbDimension
  2
*D11
 10
-282.0711292271
 20
495.0458226934
 30
0.0
 11
-282.0711292271
 21
702.2070305434
 31
0.0
 70
   160
 71
     2
 42
-1.0
  3
SLDDIMSTYLE0
100
AcDbAlignedDimension
 13
-230.5357350185
 23
909.0458226934
 33
0.0
 14
-230.5357350185
 24
495.0458226934
 34
0.0
 50
90.0
100
AcDbRotatedDimension
  0
DIMENSION
  5
25C
330
1F
100
AcDbEntity
  8
0
  6
Continuous
 62
     7
370
     0
100
AcDbDimension
  2
*D12
 10
504.6642649815
 20
483.5458226934
 30
0.0
 11
504.6642649815
 21
701.5183309518
 31
0.0
 70
   160
 71
     2
 42
-1.0
  3
SLDDIMSTYLE2
100
AcDbAlignedDimension
 13
444.4642649815
 23
909.0458226934
 33
0.0
 14
303.9642649815
 24
483.5458226934
 34
0.0
 50
90.0
100
AcDbRotatedDimension
  0
INSERT
  5
271
330
1F
100
AcDbEntity
  8
0
  6
Continuous
 62
     7
370
     0
100
AcDbBlockReference
  2
SW_NOTE_0
 10
283.6057783434
 20
713.434565584
 30
0.0
  0
LINE
  5
272
330
1F
100
AcDbEntity
  8
0
  6
Continuous
 62
     7
370
     0
100
AcDbLine
 10
283.6057783434
 20
713.434565584
 30
0.0
 11
280.5139244935
 21
708.4028295556
 31
0.0
  0
INSERT
  5
273
330
1F
100
AcDbEntity
  8
0
  6
Continuous
 62
     7
370
     0
100
AcDbBlockReference
  2
_OPEN30
 10
280.5139244935
 20
708.4028295556
 30
206.934079657
 41
3.5
 42
3.5
 50
238.4304978493
  0
INSERT
  5
27F
330
1F
100
AcDbEntity
  8
0
  6
Continuous
 62
     7
370
     0
100
AcDbBlockReference
  2
SW_CENTERMARKSYMBOL_0
 10
449.4642649815
 20
527.0458226934
 30
0.0
  0
INSERT
  5
28B
330
1F
100
AcDbEntity
  8
0
  6
Continuous
 62
     7
370
     0
100
AcDbBlockReference
  2
SW_CENTERMARKSYMBOL_1
 10
449.4642649815
 20
877.0458226934
 30
0.0
  0
INSERT
  5
297
330
1F
100
AcDbEntity
  8
0
  6
Continuous
 62
     7
370
     0
100
AcDbBlockReference
  2
SW_CENTERMARKSYMBOL_2
 10
-235.5357350185
 20
527.0458226934
 30
0.0
  0
INSERT
  5
2A3
330
1F
100
AcDbEntity
  8
0
  6
Continuous
 62
     7
370
     0
100
AcDbBlockReference
  2
SW_CENTERMARKSYMBOL_3
 10
-235.5357350185
 20
857.0458226934
 30
0.0
  0
INSERT
  5
2AF
330
1F
100
AcDbEntity
  8
0
  6
Continuous
 62
     7
370
     0
100
AcDbBlockReference
  2
SW_CENTERMARKSYMBOL_4
 10
274.4642649815
 20
702.0458226934
 30
0.0
  0
INSERT
  5
2D3
330
1F
100
AcDbEntity
  8
0
  6
Continuous
 62
     7
370
     0
100
AcDbBlockReference
  2
SW_CENTERMARKSYMBOL_5
 10
122.4363070264
 20
854.0737806485
 30
0.0
  0
LINE
  5
2D4
330
1F
100
AcDbEntity
  8
0
  6
Continuous
 62
     7
370
    15
100
AcDbLine
 10
76.2142641321
 20
-74.9254654998
 30
0.0
 11
76.2142641321
 21
-73.2254627997
 31
0.0
  0
LINE
  5
2D5
330
1F
100
AcDbEntity
  8
0
  6
Continuous
 62
     7
370
    15
100
AcDbLine
 10
66.7142653689
 20
-73.2254627997
 30
0.0
 11
66.7142653689
 21
-74.9254654998
 31
0.0
  0
ARC
  5
2D6
330
1F
100
AcDbEntity
  8
0
  6
Continuous
 62
     7
370
    15
100
AcDbCircle
 10
74.2142649815
 20
-73.2254645508
 30
0.0
 40
2.0
100
AcDbArc
 50
0.0
 51
90.0
  0
ARC
  5
2D7
330
1F
100
AcDbEntity
  8
0
  6
Continuous
 62
     7
370
    15
100
AcDbCircle
 10
68.7142649815
 20
-73.2254645508
 30
0.0
 40
2.0
100
AcDbArc
 50
90.0
 51
180.0
  0
LINE
  5
2D8
330
1F
100
AcDbEntity
  8
0
  6
Continuous
 62
     7
370
    15
100
AcDbLine
 10
73.9642651603
 20
-76.275562858
 30
0.0
 11
73.9642651603
 21
-76.2754660005
 31
0.0
  0
LINE
  5
2D9
330
1F
100
AcDbEntity
  8
0
  6
Continuous
 62
     7
370
    15
100
AcDbLine
 10
68.9642662034
 20
-76.2754660005
 30
0.0
 11
68.9642662034
 21
-76.275562858
 31
0.0
  0
ARC
  5
2DA
330
1F
100
AcDbEntity
  8
0
  6
Continuous
 62
     7
370
    15
100
AcDbCircle
 10
-262.2357350185
 20
-65.8755645508
 30
0.0
 40
2.0
100
AcDbArc
 50
90.0
 51
148.5257269006
  0
ARC
  5
2DB
330
1F
100
AcDbEntity
  8
0
  6
Continuous
 62
     7
370
    15
100
AcDbCircle
 10
-262.2357350185
 20
-71.3755645508
 30
0.0
 40
2.000000000000005
100
AcDbArc
 50
211.4829838721
 51
270.0
  0
LINE
  5
2DC
330
1F
100
AcDbEntity
  8
0
  6
Continuous
 62
     7
370
    15
100
AcDbLine
 10
-260.5357421711
 20
-63.8755652959
 30
0.0
 11
-262.2357262447
 21
-63.8755652959
 31
0.0
  0
LINE
  5
2DD
330
1F
100
AcDbEntity
  8
0
  6
Continuous
 62
     7
370
    15
100
AcDbLine
 10
-262.2357262447
 20
-73.3755659217
 30
0.0
 11
-260.5357421711
 21
-73.3755659217
 31
0.0
  0
LINE
  5
2DE
330
1F
100
AcDbEntity
  8
0
  6
Continuous
 62
     7
370
    15
100
AcDbLine
 10
89.9642640576
 20
-76.8255647177
 30
0.0
 11
89.9642640576
 21
-77.6255652213
 31
0.0
  0
LINE
  5
2DF
330
1F
100
AcDbEntity
  8
0
  6
Continuous
 62
     7
370
    15
100
AcDbLine
 10
98.9642646015
 20
-77.6255652213
 30
0.0
 11
98.9642646015
 21
-76.8255647177
 31
0.0
  0
ARC
  5
2E0
330
1F
100
AcDbEntity
  8
0
  6
Continuous
 62
     7
370
    15
100
AcDbCircle
 10
96.4642649815
 20
-75.7255645508
 30
0.0
 40
2.000000000000057
100
AcDbArc
 50
0.0
 51
42.3051247763
  0
ARC
  5
2E1
330
1F
100
AcDbEntity
  8
0
  6
Continuous
 62
     7
370
    15
100
AcDbCircle
 10
92.4642649815
 20
-75.7255645508
 30
0.0
 40
2.000000000000071
100
AcDbArc
 50
137.7545493637
 51
180.0
  0
LINE
  5
2E2
330
1F
100
AcDbEntity
  8
0
  6
Continuous
 62
     7
370
    15
100
AcDbLine
 10
98.4642645195
 20
-76.8255647177
 30
0.0
 11
98.4642645195
 21
-75.7255647236
 31
0.0
  0
LINE
  5
2E3
330
1F
100
AcDbEntity
  8
0
  6
Continuous
 62
     7
370
    15
100
AcDbLine
 10
90.4642650709
 20
-75.7255647236
 30
0.0
 11
90.4642650709
 21
-76.8255647177
 31
0.0
  0
ARC
  5
2E4
330
1F
100
AcDbEntity
  8
0
  6
Continuous
 62
     7
370
    15
100
AcDbCircle
 10
266.0642649815
 20
309.8744354492
 30
0.0
 40
0.5000000000000568
100
AcDbArc
 50
138.6821798734
 51
270.0
  0
ARC
  5
2E5
330
1F
100
AcDbEntity
  8
0
  6
Continuous
 62
     7
370
    15
100
AcDbCircle
 10
282.8642649815
 20
309.8744354492
 30
0.0
 40
0.5000000000000568
100
AcDbArc
 50
270.0
 51
41.3178201266
  0
ARC
  5
2E6
330
1F
100
AcDbEntity
  8
0
  6
Continuous
 62
     7
370
    15
100
AcDbCircle
 10
274.4642649815
 20
302.4902249229
 30
0.0
 40
11.68421052631586
100
AcDbArc
 50
102.3547524538
 51
138.6821798734
  0
ARC
  5
2E7
330
1F
100
AcDbEntity
  8
0
  6
Continuous
 62
     7
370
    15
100
AcDbCircle
 10
274.4642649815
 20
302.4902249229
 30
0.0
 40
11.68421052631586
100
AcDbArc
 50
41.3178201266
 51
77.6452475462
  0
LINE
  5
2E8
330
1F
100
AcDbEntity
  8
0
  6
Continuous
 62
     7
370
    15
100
AcDbLine
 10
86.4642644152
 20
81.3744310385
 30
0.0
 11
89.464264907
 21
81.3744310385
 31
0.0
  0
LINE
  5
2E9
330
1F
100
AcDbEntity
  8
0
  6
Continuous
 62
     7
370
    15
100
AcDbLine
 10
89.464264907
 20
91.3744364029
 30
0.0
 11
86.4642644152
 21
91.3744364029
 31
0.0
  0
ARC
  5
2EA
330
1F
100
AcDbEntity
  8
0
  6
Continuous
 62
     7
370
    15
100
AcDbCircle
 10
85.9642649815
 20
130.3744354492
 30
0.0
 40
20.00000000000002
100
AcDbArc
 50
180.0
 51
241.6637112549
  0
ARC
  5
2EB
330
1F
100
AcDbEntity
  8
0
  6
Continuous
 62
     7
370
    15
100
AcDbCircle
 10
85.9642649815
 20
130.3744354492
 30
0.0
 40
50.00000000000003
100
AcDbArc
 50
237.1801084292
 51
250.7312245085
  0
LINE
  5
2EC
330
1F
100
AcDbEntity
  8
0
  6
Continuous
 62
     7
370
    15
100
AcDbLine
 10
65.964263849
 20
130.3744409328
 30
0.0
 11
65.964263849
 21
141.3744334226
 31
0.0
  0
LINE
  5
2ED
330
1F
100
AcDbEntity
  8
0
  6
Continuous
 62
     7
370
    15
100
AcDbLine
 10
86.4642644152
 20
117.3744294887
 30
0.0
 11
76.4642646387
 21
117.3744294887
 31
0.0
  0
LINE
  5
2EE
330
1F
100
AcDbEntity
  8
0
  6
Continuous
 62
     7
370
    15
100
AcDbLine
 10
76.4642646387
 20
73.3744297272
 30
0.0
 11
86.4642644152
 21
73.3744297272
 31
0.0
  0
LINE
  5
2EF
330
1F
100
AcDbEntity
  8
0
  6
Continuous
 62
     7
370
    15
100
AcDbLine
 10
481.6642748043
 20
-21.5082745904
 30
0.0
 11
475.8642660305
 21
-21.5082745904
 31
0.0
  0
LINE
  5
2F0
330
1F
100
AcDbEntity
  8
0
  6
Continuous
 62
     7
370
    15
100
AcDbLine
 10
475.8642660305
 20
-53.5082761103
 30
0.0
 11
481.6642748043
 21
-53.5082761103
 31
0.0
  0
LINE
  5
2F1
330
1F
100
AcDbEntity
  8
0
  6
Continuous
 62
     7
370
    15
100
AcDbLine
 10
482.4958490059
 20
-46.3472250754
 30
0.0
 11
488.164250724
 21
-46.3472250754
 31
0.0
  0
LINE
  5
2F2
330
1F
100
AcDbEntity
  8
0
  6
Continuous
 62
     7
370
    15
100
AcDbLine
 10
488.164250724
 20
-28.6693256253
 30
0.0
 11
482.4958490059
 21
-28.6693256253
 31
0.0
  0
ARC
  5
2F3
330
1F
100
AcDbEntity
  8
0
  6
Continuous
 62
     7
370
    15
100
AcDbCircle
 10
488.1642649815
 20
-45.8472263933
 30
0.0
 40
0.5
100
AcDbArc
 50
270.0
 51
0.0
  0
ARC
  5
2F4
330
1F
100
AcDbEntity
  8
0
  6
Continuous
 62
     7
370
    15
100
AcDbCircle
 10
488.1642649815
 20
-29.1693225168
 30
0.0
 40
0.5
100
AcDbArc
 50
0.0
 51
90.0
  0
LINE
  5
2F5
330
1F
100
AcDbEntity
  8
0
  6
Continuous
 62
     7
370
    15
100
AcDbLine
 10
475.8642660305
 20
-27.0307715887
 30
0.0
 11
475.1642690823
 21
-27.0307715887
 31
0.0
  0
LINE
  5
2F6
330
1F
100
AcDbEntity
  8
0
  6
Continuous
 62
     7
370
    15
100
AcDbLine
 10
475.1642690823
 20
-47.9857753867
 30
0.0
 11
475.8642660305
 21
-47.9857753867
 31
0.0
  0
ARC
  5
2F7
330
1F
100
AcDbEntity
  8
0
  6
Continuous
 62
     7
370
    15
100
AcDbCircle
 10
488.1642649815
 20
-49.0682929456
 30
0.0
 40
0.5
100
AcDbArc
 50
0.0
 51
90.0
  0
LINE
  5
2F8
330
1F
100
AcDbEntity
  8
0
  6
Continuous
 62
     7
370
    15
100
AcDbLine
 10
488.164250724
 20
-48.5682915801
 30
0.0
 11
482.6642619297
 21
-48.5682915801
 31
0.0
  0
ARC
  5
2F9
330
1F
100
AcDbEntity
  8
0
  6
Continuous
 62
     7
370
    15
100
AcDbCircle
 10
488.1642649815
 20
-25.9482559646
 30
0.0
 40
0.5
100
AcDbArc
 50
270.0
 51
0.0
  0
LINE
  5
2FA
330
1F
100
AcDbEntity
  8
0
  6
Continuous
 62
     7
370
    15
100
AcDbLine
 10
482.6642619297
 20
-26.4482553953
 30
0.0
 11
488.164250724
 21
-26.4482553953
 31
0.0
  0
LINE
  5
2FB
330
1F
100
AcDbEntity
  8
0
  6
Continuous
 62
     7
370
    15
100
AcDbLine
 10
481.9470094368
 20
-52.8484266156
 30
0.0
 11
488.164250724
 21
-52.8484266156
 31
0.0
  0
ARC
  5
2FC
330
1F
100
AcDbEntity
  8
0
  6
Continuous
 62
     7
370
    15
100
AcDbCircle
 10
481.6642649815
 20
-52.5082744551
 30
0.0
 40
1.0
100
AcDbArc
 50
270.0
 51
340.1137787139
  0
LINE
  5
2FD
330
1F
100
AcDbEntity
  8
0
  6
Continuous
 62
     7
370
    15
100
AcDbLine
 10
488.164250724
 20
-22.1681203598
 30
0.0
 11
481.9470094368
 21
-22.1681203598
 31
0.0
  0
ARC
  5
2FE
330
1F
100
AcDbEntity
  8
0
  6
Continuous
 62
     7
370
    15
100
AcDbCircle
 10
481.6642649815
 20
-22.5082744551
 30
0.0
 40
1.000000000000014
100
AcDbArc
 50
19.8862212861
 51
90.0
  0
ARC
  5
2FF
330
1F
100
AcDbEntity
  8
0
  6
Continuous
 62
     7
370
    15
100
AcDbCircle
 10
488.1642649815
 20
-52.3484278713
 30
0.0
 40
0.5
100
AcDbArc
 50
270.0
 51
0.0
  0
ARC
  5
300
330
1F
100
AcDbEntity
  8
0
  6
Continuous
 62
     7
370
    15
100
AcDbCircle
 10
488.1642649815
 20
-22.6681210389
 30
0.0
 40
0.5
100
AcDbArc
 50
0.0
 51
90.0
  0
LINE
  5
301
330
1F
100
AcDbEntity
  8
0
  6
Continuous
 62
     7
370
    15
100
AcDbLine
 10
471.9642745182
 20
-69.1255647594
 30
0.0
 11
475.1642690823
 21
-69.1255647594
 31
0.0
  0
LINE
  5
302
330
1F
100
AcDbEntity
  8
0
  6
Continuous
 62
     7
370
    15
100
AcDbLine
 10
475.1642690823
 20
-6.1255674714
 30
0.0
 11
471.9642745182
 21
-6.1255674714
 31
0.0
  0
LINE
  5
303
330
1F
100
AcDbEntity
  8
0
  6
Continuous
 62
     7
370
    15
100
AcDbLine
 10
468.9642535374
 20
-68.6255637461
 30
0.0
 11
471.9642745182
 21
-68.6255637461
 31
0.0
  0
LINE
  5
304
330
1F
100
AcDbEntity
  8
0
  6
Continuous
 62
     7
370
    15
100
AcDbLine
 10
471.9642745182
 20
-6.6255610341
 30
0.0
 11
468.9642535374
 21
-6.6255610341
 31
0.0
  0
LINE
  5
305
330
1F
100
AcDbEntity
  8
0
  6
Continuous
 62
     7
370
    15
100
AcDbLine
 10
79.9642642811
 20
69.3744365221
 30
0.0
 11
79.9642642811
 21
-67.7595045323
 31
0.0
  0
LINE
  5
306
330
1F
100
AcDbEntity
  8
0
  6
Continuous
 62
     7
370
    15
100
AcDbLine
 10
79.9642642811
 20
-74.751598751
 30
0.0
 11
79.9642642811
 21
-76.275562858
 31
0.0
  0
LINE
  5
307
330
1F
100
AcDbEntity
  8
0
  6
Continuous
 62
     7
370
    15
100
AcDbLine
 10
79.9642642811
 20
233.9652571922
 30
0.0
 11
79.9642642811
 21
118.0618498569
 31
0.0
  0
LINE
  5
308
330
1F
100
AcDbEntity
  8
0
  6
Continuous
 62
     7
370
    15
100
AcDbLine
 10
468.9642535374
 20
-3.625562405
 30
0.0
 11
468.9642535374
 21
233.9652571922
 31
0.0
  0
LINE
  5
309
330
1F
100
AcDbEntity
  8
0
  6
Continuous
 62
     7
370
    15
100
AcDbLine
 10
468.9642535374
 20
-77.6255652213
 30
0.0
 11
468.9642535374
 21
-71.6255661005
 31
0.0
  0
ARC
  5
30A
330
1F
100
AcDbEntity
  8
0
  6
Continuous
 62
     7
370
    15
100
AcDbCircle
 10
446.9642649815
 20
233.9652652128
 30
0.0
 40
22.00000000000006
100
AcDbArc
 50
0.0
 51
63.0027735061
  0
ARC
  5
30B
330
1F
100
AcDbEntity
  8
0
  6
Continuous
 62
     7
370
    15
100
AcDbCircle
 10
101.9642649815
 20
233.9652652128
 30
0.0
 40
21.99999999999999
100
AcDbArc
 50
116.9972264939
 51
180.0
  0
ARC
  5
30C
330
1F
100
AcDbEntity
  8
0
  6
Continuous
 62
     7
370
    15
100
AcDbCircle
 10
274.4642649815
 20
-104.6255645508
 30
0.0
 40
402.0000000000001
100
AcDbArc
 50
90.6413840616
 51
116.9972264939
  0
ARC
  5
30D
330
1F
100
AcDbEntity
  8
0
  6
Continuous
 62
     7
370
    15
100
AcDbCircle
 10
274.4642649815
 20
-104.6255645508
 30
0.0
 40
402.0000000000001
100
AcDbArc
 50
63.0027735061
 51
89.3586159384
  0
LINE
  5
30E
330
1F
100
AcDbEntity
  8
0
  6
Continuous
 62
     7
370
    15
100
AcDbLine
 10
445.3310714886
 20
-77.6255652213
 30
0.0
 11
445.3310714886
 21
-75.3255654031
 31
0.0
  0
LINE
  5
30F
330
1F
100
AcDbEntity
  8
0
  6
Continuous
 62
     7
370
    15
100
AcDbLine
 10
103.5974721741
 20
-75.3255654031
 30
0.0
 11
103.5974721741
 21
-77.6255652213
 31
0.0
  0
LINE
  5
310
330
1F
100
AcDbEntity
  8
0
  6
Continuous
 62
     7
370
    15
100
AcDbLine
 10
256.4642624781
 20
301.3744447475
 30
0.0
 11
256.4642624781
 21
297.3744366413
 31
0.0
  0
LINE
  5
311
330
1F
100
AcDbEntity
  8
0
  6
Continuous
 62
     7
370
    15
100
AcDbLine
 10
292.4642609284
 20
297.3744366413
 30
0.0
 11
292.4642609284
 21
301.3744447475
 31
0.0
  0
LINE
  5
312
330
1F
100
AcDbEntity
  8
0
  6
Continuous
 62
     7
370
    15
100
AcDbLine
 10
265.2142690346
 20
309.3744311577
 30
0.0
 11
265.2142690346
 21
301.3744447475
 31
0.0
  0
LINE
  5
313
330
1F
100
AcDbEntity
  8
0
  6
Continuous
 62
     7
370
    15
100
AcDbLine
 10
283.714269273
 20
301.3744447475
 30
0.0
 11
283.714269273
 21
309.3744311577
 31
0.0
  0
LINE
  5
314
330
1F
100
AcDbEntity
  8
0
  6
Continuous
 62
     7
370
    15
100
AcDbLine
 10
87.7642640695
 20
-77.6255652213
 30
0.0
 11
87.7642640695
 21
-76.6255650574
 31
0.0
  0
LINE
  5
315
330
1F
100
AcDbEntity
  8
0
  6
Continuous
 62
     7
370
    15
100
AcDbLine
 10
67.1642655358
 20
-76.6255650574
 30
0.0
 11
67.1642655358
 21
-77.6255652213
 31
0.0
  0
LINE
  5
316
330
1F
100
AcDbEntity
  8
0
  6
Continuous
 62
     7
370
    15
100
AcDbLine
 10
67.7762375996
 20
-71.5345498079
 30
0.0
 11
68.1592868492
 21
-71.5345498079
 31
0.0
  0
SPLINE
  5
317
330
1F
100
AcDbEntity
  8
0
  6
Continuous
 62
     7
370
    15
100
AcDbSpline
210
0.0
220
0.0
230
1.0
 70
     8
 71
     3
 72
     9
 73
     5
 74
     0
 42
0.00000001
 43
0.00000001
 40
0.0
 40
0.0
 40
0.0
 40
0.0
 40
0.6022823701713977
 40
1.0
 40
1.0
 40
1.0
 40
1.0
 10
68.15928684922085
 20
-71.53454980794436
 30
0.0
 10
68.34963358714836
 20
-71.42949251562972
 30
0.0
 10
68.66567594095882
 20
-71.25506055893015
 30
0.0
 10
69.01782221091548
 20
-71.23388721094676
 30
0.0
 10
69.15787699075565
 20
-71.22546619717127
 30
0.0
  0
LINE
  5
318
330
1F
100
AcDbEntity
  8
0
  6
Continuous
 62
     7
370
    15
100
AcDbLine
 10
69.1578769908
 20
-71.2254661972
 30
0.0
 11
72.038226746
 21
-71.2254661972
 31
0.0
  0
SPLINE
  5
319
330
1F
100
AcDbEntity
  8
0
  6
Continuous
 62
     7
370
    15
100
AcDbSpline
210
0.0
220
0.0
230
1.0
 70
     8
 71
     3
 72
     9
 73
     5
 74
     0
 42
0.00000001
 43
0.00000001
 40
0.0
 40
0.0
 40
0.0
 40
0.0
 40
0.6147259497152836
 40
1.0
 40
1.0
 40
1.0
 40
1.0
 10
72.03822674604282
 20
-71.22546619717127
 30
0.0
 10
72.128348321993
 20
-71.24597748942394
 30
0.0
 10
72.27495279833227
 20
-71.27934405262526
 30
0.0
 10
72.40298958742844
 20
-71.46357168272246
 30
0.0
 10
72.45231883974895
 20
-71.53454980794436
 30
0.0
  0
LINE
  5
31A
330
1F
100
AcDbEntity
  8
0
  6
Continuous
 62
     7
370
    15
100
AcDbLine
 10
72.4523188397
 20
-71.5345498079
 30
0.0
 11
73.3760492727
 21
-71.5345498079
 31
0.0
  0
SPLINE
  5
31B
330
1F
100
AcDbEntity
  8
0
  6
Continuous
 62
     7
370
    15
100
AcDbSpline
210
0.0
220
0.0
230
1.0
 70
     8
 71
     3
 72
     9
 73
     5
 74
     0
 42
0.00000001
 43
0.00000001
 40
0.0
 40
0.0
 40
0.0
 40
0.0
 40
0.6022839482794583
 40
0.9999999999999999
 40
0.9999999999999999
 40
0.9999999999999999
 40
0.9999999999999999
 10
73.37604927273617
 20
-71.53454980794436
 30
0.0
 10
73.29711611627775
 20
-71.42949251665223
 30
0.0
 10
73.16605973218532
 20
-71.25506101869813
 30
0.0
 10
73.02003396900972
 20
-71.23388731786636
 30
0.0
 10
72.96195717903004
 20
-71.22546619717127
 30
0.0
  0
LINE
  5
31C
330
1F
100
AcDbEntity
  8
0
  6
Continuous
 62
     7
370
    15
100
AcDbLine
 10
72.961957179
 20
-71.2254661972
 30
0.0
 11
74.2142656669
 21
-71.2254661972
 31
0.0
  0
LINE
  5
31D
330
1F
100
AcDbEntity
  8
0
  6
Continuous
 62
     7
370
    15
100
AcDbLine
 10
68.7142656967
 20
-71.2254661972
 30
0.0
 11
68.7748277411
 21
-71.2254661972
 31
0.0
  0
SPLINE
  5
31E
330
1F
100
AcDbEntity
  8
0
  6
Continuous
 62
     7
370
    15
100
AcDbSpline
210
0.0
220
0.0
230
1.0
 70
     8
 71
     3
 72
     9
 73
     5
 74
     0
 42
0.00000001
 43
0.00000001
 40
0.0
 40
0.0
 40
0.0
 40
0.0
 40
0.6147241028189784
 40
0.9999999999999999
 40
0.9999999999999999
 40
0.9999999999999999
 40
0.9999999999999999
 10
68.7748277411066
 20
-71.22546619717127
 30
0.0
 10
68.55750196010935
 20
-71.24597778941164
 30
0.0
 10
68.20396810646564
 20
-71.27934494086426
 30
0.0
 10
67.89519892354384
 20
-71.46357168414293
 30
0.0
 10
67.7762375995718
 20
-71.53454980794436
 30
0.0
  0
LINE
  5
31F
330
1F
100
AcDbEntity
  8
0
  6
Continuous
 62
     7
370
    15
100
AcDbLine
 10
72.961957179
 20
-71.2254661972
 30
0.0
 11
72.1176536605
 21
-71.2254661972
 31
0.0
  0
LINE
  5
320
330
1F
100
AcDbEntity
  8
0
  6
Continuous
 62
     7
370
    15
100
AcDbLine
 10
69.1578769908
 20
-71.2254661972
 30
0.0
 11
68.7748277411
 21
-71.2254661972
 31
0.0
  0
LINE
  5
321
330
1F
100
AcDbEntity
  8
0
  6
Continuous
 62
     7
370
    15
100
AcDbLine
 10
72.1176536605
 20
-71.2254661972
 30
0.0
 11
72.038226746
 21
-71.2254661972
 31
0.0
  0
CIRCLE
  5
322
330
1F
100
AcDbEntity
  8
0
  6
Continuous
 62
     7
370
    15
100
AcDbCircle
 10
0.4642649815
 20
-68.6255645508
 30
0.0
 40
4.750000000000004
  0
LINE
  5
323
330
1F
100
AcDbEntity
  8
0
  6
Continuous
 62
     7
370
    15
100
AcDbLine
 10
4.2494730875
 20
-69.1255647594
 30
0.0
 11
4.2494730875
 21
-68.1255627329
 31
0.0
  0
SPLINE
  5
324
330
1F
100
AcDbEntity
  8
0
  6
Continuous
 62
     7
370
    15
100
AcDbSpline
210
0.0
220
0.0
230
1.0
 70
    24
 71
     3
 72
     9
 73
     5
 74
     0
 42
0.00000001
 43
0.00000001
 40
0.0
 40
0.0
 40
0.0
 40
0.0
 40
0.6022827021471506
 40
1.0
 40
1.0
 40
1.0
 40
1.0
 10
4.249473087509726
 20
-68.12556273285395
 30
0.0
 10
4.043409740527276
 20
-68.12556273285395
 30
0.0
 10
3.701272491279009
 20
-68.12556273285395
 30
0.0
 10
3.320049910504996
 20
-68.12556273285395
 30
0.0
 10
3.168431095799062
 20
-68.12556273285395
 30
0.0
  0
SPLINE
  5
325
330
1F
100
AcDbEntity
  8
0
  6
Continuous
 62
     7
370
    15
100
AcDbSpline
210
0.0
220
0.0
230
1.0
 70
    24
 71
     3
 72
     9
 73
     5
 74
     0
 42
0.00000001
 43
0.00000001
 40
0.0
 40
0.0
 40
0.0
 40
0.0
 40
0.6147258747657648
 40
0.9999999999999999
 40
0.9999999999999999
 40
0.9999999999999999
 40
0.9999999999999999
 10
0.964266233166311
 20
-65.9214015955115
 30
0.0
 10
0.9642662331663249
 20
-65.68612968188711
 30
0.0
 10
0.9642662331663249
 20
-65.30340313126968
 30
0.0
 10
0.9642662331663249
 20
-64.9691391438579
 30
0.0
 10
0.964266233166311
 20
-64.84035587851054
 30
0.0
  0
LINE
  5
326
330
1F
100
AcDbEntity
  8
0
  6
Continuous
 62
     7
370
    15
100
AcDbLine
 10
0.9642662332
 20
-64.8403558785
 30
0.0
 11
-0.0357357934
 21
-64.8403558785
 31
0.0
  0
SPLINE
  5
327
330
1F
100
AcDbEntity
  8
0
  6
Continuous
 62
     7
370
    15
100
AcDbSpline
210
0.0
220
0.0
230
1.0
 70
    24
 71
     3
 72
     9
 73
     5
 74
     0
 42
0.00000001
 43
0.00000001
 40
0.0
 40
0.0
 40
0.0
 40
0.0
 40
0.6022807372120121
 40
0.9999999999999999
 40
0.9999999999999999
 40
0.9999999999999999
 40
0.9999999999999999
 10
-0.0357357933916114
 20
-64.84035587851054
 30
0.0
 10
-0.0357357933915975
 20
-65.04641923410136
 30
0.0
 10
-0.0357357933915836
 20
-65.38855761386218
 30
0.0
 10
-0.0357357933915975
 20
-65.76978150898574
 30
0.0
 10
-0.0357357933916252
 20
-65.9214015955115
 30
0.0
  0
SPLINE
  5
328
330
1F
100
AcDbEntity
  8
0
  6
Continuous
 62
     7
370
    15
100
AcDbSpline
210
0.0
220
0.0
230
1.0
 70
    24
 71
     3
 72
     9
 73
     5
 74
     0
 42
0.00000001
 43
0.00000001
 40
0.0
 40
0.0
 40
0.0
 40
0.0
 40
0.6147215660260995
 40
1.0
 40
1.0
 40
1.0
 40
1.0
 10
-2.239900656024363
 20
-68.12556273285395
 30
0.0
 10
-2.475169841408747
 20
-68.12556273285395
 30
0.0
 10
-2.857894636481922
 20
-68.12556273285395
 30
0.0
 10
-3.19215813174531
 20
-68.12556273285395
 30
0.0
 10
-3.320942647735026
 20
-68.12556273285395
 30
0.0
  0
LINE
  5
329
330
1F
100
AcDbEntity
  8
0
  6
Continuous
 62
     7
370
    15
100
AcDbLine
 10
-3.3209426477
 20
-68.1255627329
 30
0.0
 11
-3.3209426477
 21
-69.1255647594
 31
0.0
  0
SPLINE
  5
32A
330
1F
100
AcDbEntity
  8
0
  6
Continuous
 62
     7
370
    15
100
AcDbSpline
210
0.0
220
0.0
230
1.0
 70
    24
 71
     3
 72
     9
 73
     5
 74
     0
 42
0.00000001
 43
0.00000001
 40
0.0
 40
0.0
 40
0.0
 40
0.0
 40
0.6022827021471506
 40
1.0
 40
1.0
 40
1.0
 40
1.0
 10
-3.320942647735026
 20
-69.12556475941187
 30
0.0
 10
-3.114879300752549
 20
-69.12556475941187
 30
0.0
 10
-2.772742051504296
 20
-69.12556475941187
 30
0.0
 10
-2.391519470730297
 20
-69.12556475941187
 30
0.0
 10
-2.239900656024363
 20
-69.12556475941187
 30
0.0
  0
LINE
  5
32B
330
1F
100
AcDbEntity
  8
0
  6
Continuous
 62
     7
370
    15
100
AcDbLine
 10
-0.0357357934
 20
-72.4107716138
 30
0.0
 11
0.9642662332
 21
-72.4107716138
 31
0.0
  0
SPLINE
  5
32C
330
1F
100
AcDbEntity
  8
0
  6
Continuous
 62
     7
370
    15
100
AcDbSpline
210
0.0
220
0.0
230
1.0
 70
    24
 71
     3
 72
     9
 73
     5
 74
     0
 42
0.00000001
 43
0.00000001
 40
0.0
 40
0.0
 40
0.0
 40
0.0
 40
0.6022827021471506
 40
1.0
 40
1.0
 40
1.0
 40
1.0
 10
0.964266233166311
 20
-72.41077161375529
 30
0.0
 10
0.964266233166311
 20
-72.20470826677283
 30
0.0
 10
0.9642662331662971
 20
-71.86257101752454
 30
0.0
 10
0.964266233166311
 20
-71.48134843675055
 30
0.0
 10
0.964266233166311
 20
-71.32972962204462
 30
0.0
  0
SPLINE
  5
32D
330
1F
100
AcDbEntity
  8
0
  6
Continuous
 62
     7
370
    15
100
AcDbSpline
210
0.0
220
0.0
230
1.0
 70
    24
 71
     3
 72
     9
 73
     5
 74
     0
 42
0.00000001
 43
0.00000001
 40
0.0
 40
0.0
 40
0.0
 40
0.0
 40
0.6147215660260995
 40
1.0
 40
1.0
 40
1.0
 40
1.0
 10
3.168431095799062
 20
-69.12556475941187
 30
0.0
 10
3.403700281183461
 20
-69.12556475941187
 30
0.0
 10
3.786425076256608
 20
-69.12556475941187
 30
0.0
 10
4.120688571519995
 20
-69.12556475941187
 30
0.0
 10
4.249473087509726
 20
-69.12556475941187
 30
0.0
  0
SPLINE
  5
32E
330
1F
100
AcDbEntity
  8
0
  6
Continuous
 62
     7
370
    15
100
AcDbSpline
210
0.0
220
0.0
230
1.0
 70
    24
 71
     3
 72
     9
 73
     5
 74
     0
 42
0.00000001
 43
0.00000001
 40
0.0
 40
0.0
 40
0.0
 40
0.0
 40
0.6147246284848439
 40
1.0
 40
1.0
 40
1.0
 40
1.0
 10
-0.0357357933916114
 20
-71.32972962204462
 30
0.0
 10
-0.0357357933916391
 20
-71.565000238388
 30
0.0
 10
-0.0357357933916252
 20
-71.94772545459294
 30
0.0
 10
-0.0357357933915975
 20
-72.28198835183616
 30
0.0
 10
-0.0357357933916252
 20
-72.41077161375529
 30
0.0
  0
LINE
  5
32F
330
1F
100
AcDbEntity
  8
0
  6
Continuous
 62
     7
370
    15
100
AcDbLine
 10
-0.0357357934
 20
-65.9214015955
 30
0.0
 11
-0.0357357934
 21
-68.1255627329
 31
0.0
  0
LINE
  5
330
330
1F
100
AcDbEntity
  8
0
  6
Continuous
 62
     7
370
    15
100
AcDbLine
 10
-0.0357357934
 20
-68.1255627329
 30
0.0
 11
-2.239900656
 21
-68.1255627329
 31
0.0
  0
LINE
  5
331
330
1F
100
AcDbEntity
  8
0
  6
Continuous
 62
     7
370
    15
100
AcDbLine
 10
-2.239900656
 20
-69.1255647594
 30
0.0
 11
-0.0357357934
 21
-69.1255647594
 31
0.0
  0
LINE
  5
332
330
1F
100
AcDbEntity
  8
0
  6
Continuous
 62
     7
370
    15
100
AcDbLine
 10
-0.0357357934
 20
-69.1255647594
 30
0.0
 11
-0.0357357934
 21
-71.329729622
 31
0.0
  0
LINE
  5
333
330
1F
100
AcDbEntity
  8
0
  6
Continuous
 62
     7
370
    15
100
AcDbLine
 10
3.1684310958
 20
-68.1255627329
 30
0.0
 11
0.9642662332
 21
-68.1255627329
 31
0.0
  0
LINE
  5
334
330
1F
100
AcDbEntity
  8
0
  6
Continuous
 62
     7
370
    15
100
AcDbLine
 10
0.9642662332
 20
-68.1255627329
 30
0.0
 11
0.9642662332
 21
-65.9214015955
 31
0.0
  0
LINE
  5
335
330
1F
100
AcDbEntity
  8
0
  6
Continuous
 62
     7
370
    15
100
AcDbLine
 10
0.9642662332
 20
-71.329729622
 30
0.0
 11
0.9642662332
 21
-69.1255647594
 31
0.0
  0
LINE
  5
336
330
1F
100
AcDbEntity
  8
0
  6
Continuous
 62
     7
370
    15
100
AcDbLine
 10
0.9642662332
 20
-69.1255647594
 30
0.0
 11
3.1684310958
 21
-69.1255647594
 31
0.0
  0
SPLINE
  5
337
330
1F
100
AcDbEntity
  8
0
  6
Continuous
 62
     7
370
    15
100
AcDbSpline
210
0.0
220
0.0
230
1.0
 70
     8
 71
     3
 72
     9
 73
     5
 74
     0
 42
0.00000001
 43
0.00000001
 40
0.0
 40
0.0
 40
0.0
 40
0.0
 40
0.6022827021471506
 40
1.0
 40
1.0
 40
1.0
 40
1.0
 10
-263.9266504123606
 20
-72.41077161375529
 30
0.0
 10
-264.0317082707453
 20
-72.20470826677283
 30
0.0
 10
-264.2061410711731
 20
-71.86257101752454
 30
0.0
 10
-264.2273107502747
 20
-71.48134843675055
 30
0.0
 10
-264.2357302978434
 20
-71.32972962204462
 30
0.0
  0
LINE
  5
338
330
1F
100
AcDbEntity
  8
0
  6
Continuous
 62
     7
370
    15
100
AcDbLine
 10
-264.2357302978
 20
-71.329729622
 30
0.0
 11
-264.2357302978
 21
-69.1255647594
 31
0.0
  0
SPLINE
  5
339
330
1F
100
AcDbEntity
  8
0
  6
Continuous
 62
     7
370
    15
100
AcDbSpline
210
0.0
220
0.0
230
1.0
 70
    24
 71
     3
 72
     9
 73
     5
 74
     0
 42
0.00000001
 43
0.00000001
 40
0.0
 40
0.0
 40
0.0
 40
0.0
 40
0.6147208324421543
 40
1.0
 40
1.0
 40
1.0
 40
1.0
 10
-264.2357302978434
 20
-69.12556475941187
 30
0.0
 10
-264.2152287274158
 20
-69.12556475941187
 30
0.0
 10
-264.1818777014775
 20
-69.12556475941187
 30
0.0
 10
-263.9976352071889
 20
-69.12556475941187
 30
0.0
 10
-263.9266504123606
 20
-69.12556475941187
 30
0.0
  0
LINE
  5
33A
330
1F
100
AcDbEntity
  8
0
  6
Continuous
 62
     7
370
    15
100
AcDbLine
 10
-263.9266504124
 20
-69.1255647594
 30
0.0
 11
-263.9266504124
 21
-68.1255627329
 31
0.0
  0
SPLINE
  5
33B
330
1F
100
AcDbEntity
  8
0
  6
Continuous
 62
     7
370
    15
100
AcDbSpline
210
0.0
220
0.0
230
1.0
 70
    24
 71
     3
 72
     9
 73
     5
 74
     0
 42
0.00000001
 43
0.00000001
 40
0.0
 40
0.0
 40
0.0
 40
0.0
 40
0.6022808983876082
 40
1.0
 40
1.0
 40
1.0
 40
1.0
 10
-263.9266504123606
 20
-68.12556273285395
 30
0.0
 10
-264.0317082719075
 20
-68.12556273285395
 30
0.0
 10
-264.2061415966702
 20
-68.12556273285395
 30
0.0
 10
-264.2273108724846
 20
-68.12556273285395
 30
0.0
 10
-264.2357302978434
 20
-68.12556273285395
 30
0.0
  0
LINE
  5
33C
330
1F
100
AcDbEntity
  8
0
  6
Continuous
 62
     7
370
    15
100
AcDbLine
 10
-264.2357302978
 20
-68.1255627329
 30
0.0
 11
-264.2357302978
 21
-65.9214015955
 31
0.0
  0
SPLINE
  5
33D
330
1F
100
AcDbEntity
  8
0
  6
Continuous
 62
     7
370
    15
100
AcDbSpline
210
0.0
220
0.0
230
1.0
 70
     8
 71
     3
 72
     9
 73
     5
 74
     0
 42
0.00000001
 43
0.00000001
 40
0.0
 40
0.0
 40
0.0
 40
0.0
 40
0.6147214978679728
 40
1.0
 40
1.0
 40
1.0
 40
1.0
 10
-264.2357302978434
 20
-65.9214015955115
 30
0.0
 10
-264.2152288355083
 20
-65.68612853646172
 30
0.0
 10
-264.1818780215116
 20
-65.30339739745692
 30
0.0
 10
-263.9976352076961
 20
-64.96913860528356
 30
0.0
 10
-263.9266504123606
 20
-64.84035587851054
 30
0.0
  0
LINE
  5
33E
330
1F
100
AcDbEntity
  8
0
  6
Continuous
 62
     7
370
    15
100
AcDbLine
 10
98.9642646015
 20
-76.8255647177
 30
0.0
 11
89.9644279704
 21
-76.8255647177
 31
0.0
  0
LINE
  5
33F
330
1F
100
AcDbEntity
  8
0
  6
Continuous
 62
     7
370
    15
100
AcDbLine
 10
91.0060247258
 20
-74.3960011655
 30
0.0
 11
91.0105192885
 21
-74.3960011655
 31
0.0
  0
SPLINE
  5
340
330
1F
100
AcDbEntity
  8
0
  6
Continuous
 62
     7
370
    15
100
AcDbSpline
210
0.0
220
0.0
230
1.0
 70
     8
 71
     3
 72
    10
 73
     6
 74
     0
 42
0.00000001
 43
0.00000001
 40
0.0
 40
0.0
 40
0.0
 40
0.0
 40
0.3971557743115978
 40
0.794124978694893
 40
1.0
 40
1.0
 40
1.0
 40
1.0
 10
91.0105192885004
 20
-74.39600116554743
 30
0.0
 10
91.17886862460678
 20
-74.24286362957785
 30
0.0
 10
91.51548821217418
 20
-73.936660496311
 30
0.0
 10
92.07286666711396
 20
-73.74923800037273
 30
0.0
 10
92.4151851067162
 20
-73.73159096667497
 30
0.0
 10
92.53208896519766
 20
-73.72556439582354
 30
0.0
  0
LINE
  5
341
330
1F
100
AcDbEntity
  8
0
  6
Continuous
 62
     7
370
    15
100
AcDbLine
 10
92.5320889652
 20
-73.7255643958
 30
0.0
 11
93.9807267711
 21
-73.7255643958
 31
0.0
  0
SPLINE
  5
342
330
1F
100
AcDbEntity
  8
0
  6
Continuous
 62
     7
370
    15
100
AcDbSpline
210
0.0
220
0.0
230
1.0
 70
     8
 71
     3
 72
    10
 73
     6
 74
     0
 42
0.00000001
 43
0.00000001
 40
0.0
 40
0.0
 40
0.0
 40
0.0
 40
0.4119482862699667
 40
0.8219733497532568
 40
0.9999999999999999
 40
0.9999999999999999
 40
0.9999999999999999
 40
0.9999999999999999
 10
93.98072677107677
 20
-73.72556439582354
 30
0.0
 10
93.98272144859905
 20
-73.74857949602773
 30
0.0
 10
93.98670149128718
 20
-73.79450224808251
 30
0.0
 10
93.99104595920605
 20
-74.0865090553707
 30
0.0
 10
93.99304255896863
 20
-74.32407922355897
 30
0.0
 10
93.99364700915442
 20
-74.39600116554743
 30
0.0
  0
LINE
  5
343
330
1F
100
AcDbEntity
  8
0
  6
Continuous
 62
     7
370
    15
100
AcDbLine
 10
93.9936470092
 20
-74.3960011655
 30
0.0
 11
94.9936108515
 21
-74.3960011655
 31
0.0
  0
SPLINE
  5
344
330
1F
100
AcDbEntity
  8
0
  6
Continuous
 62
     7
370
    15
100
AcDbSpline
210
0.0
220
0.0
230
1.0
 70
     8
 71
     3
 72
    10
 73
     6
 74
     0
 42
0.00000001
 43
0.00000001
 40
0.0
 40
0.0
 40
0.0
 40
0.0
 40
0.3971584843361166
 40
0.794129446183043
 40
1.0
 40
1.0
 40
1.0
 40
1.0
 10
94.99361085148678
 20
-74.39600116554743
 30
0.0
 10
94.99218108983051
 20
-74.24286366476521
 30
0.0
 10
94.98932224159473
 20
-73.93666096865687
 30
0.0
 10
94.98459031045724
 20
-73.74923907136116
 30
0.0
 10
94.9816833434812
 20
-73.73159116202166
 30
0.0
 10
94.98069061340914
 20
-73.72556439582354
 30
0.0
  0
LINE
  5
345
330
1F
100
AcDbEntity
  8
0
  6
Continuous
 62
     7
370
    15
100
AcDbLine
 10
94.9806906134
 20
-73.7255643958
 30
0.0
 11
96.4049324244
 21
-73.7255643958
 31
0.0
  0
SPLINE
  5
346
330
1F
100
AcDbEntity
  8
0
  6
Continuous
 62
     7
370
    15
100
AcDbSpline
210
0.0
220
0.0
230
1.0
 70
     8
 71
     3
 72
    10
 73
     6
 74
     0
 42
0.00000001
 43
0.00000001
 40
0.0
 40
0.0
 40
0.0
 40
0.0
 40
0.4119521133792496
 40
0.8219734492926092
 40
1.0
 40
1.0
 40
1.0
 40
1.0
 10
96.4049324244462
 20
-73.72556439582354
 30
0.0
 10
96.63982525547642
 20
-73.74857872481019
 30
0.0
 10
97.10850999883706
 20
-73.79449951697501
 30
0.0
 10
97.62025763875556
 20
-74.08651078052037
 30
0.0
 10
97.85533383038822
 20
-74.32407929602827
 30
0.0
 10
97.92650116982088
 20
-74.39600116554743
 30
0.0
  0
LINE
  5
347
330
1F
100
AcDbEntity
  8
0
  6
Continuous
 62
     7
370
    15
100
AcDbLine
 10
97.9265011698
 20
-74.3960011655
 30
0.0
 11
97.9180103019
 21
-74.3960011655
 31
0.0
  0
SPLINE
  5
348
330
1F
100
AcDbEntity
  8
0
  6
Continuous
 62
     7
370
    15
100
AcDbSpline
210
0.0
220
0.0
230
1.0
 70
     8
 71
     3
 72
    10
 73
     6
 74
     0
 42
0.00000001
 43
0.00000001
 40
0.0
 40
0.0
 40
0.0
 40
0.0
 40
0.4119482846052822
 40
0.8219733504726632
 40
1.0
 40
1.0
 40
1.0
 40
1.0
 10
94.94780375065432
 20
-73.72556439582354
 30
0.0
 10
94.94580918856856
 20
-73.74857949652768
 30
0.0
 10
94.94182937619495
 20
-73.79450224980575
 30
0.0
 10
94.93748351108127
 20
-74.08650905338385
 30
0.0
 10
94.93548700352208
 20
-74.32407922347662
 30
0.0
 10
94.9348825812541
 20
-74.39600116554743
 30
0.0
  0
SPLINE
  5
349
330
1F
100
AcDbEntity
  8
0
  6
Continuous
 62
     7
370
    15
100
AcDbSpline
210
0.0
220
0.0
230
1.0
 70
     8
 71
     3
 72
     9
 73
     5
 74
     0
 42
0.00000001
 43
0.00000001
 40
0.0
 40
0.0
 40
0.0
 40
0.0
 40
0.4163880587337003
 40
1.0
 40
1.0
 40
1.0
 40
1.0
 10
91.41035097094402
 20
-74.08004439417368
 30
0.0
 10
91.34519144531212
 20
-74.11244078464654
 30
0.0
 10
91.18870394701537
 20
-74.19024414570214
 30
0.0
 10
91.07082494507004
 20
-74.32017308503607
 30
0.0
 10
91.00202935191021
 20
-74.39600116554743
 30
0.0
  0
LINE
  5
34A
330
1F
100
AcDbEntity
  8
0
  6
Continuous
 62
     7
370
    15
100
AcDbLine
 10
94.9684930816
 20
-73.7255643958
 30
0.0
 11
94.9684930816
 21
-74.3960011655
 31
0.0
  0
LINE
  5
34B
330
1F
100
AcDbEntity
  8
0
  6
Continuous
 62
     7
370
    15
100
AcDbLine
 10
94.9806906134
 20
-73.7255643958
 30
0.0
 11
94.9684930816
 21
-73.7255643958
 31
0.0
  0
LINE
  5
34C
330
1F
100
AcDbEntity
  8
0
  6
Continuous
 62
     7
370
    15
100
AcDbLine
 10
92.5320889652
 20
-73.7255643958
 30
0.0
 11
92.523597166
 21
-73.7255643958
 31
0.0
  0
LINE
  5
34D
330
1F
100
AcDbEntity
  8
0
  6
Continuous
 62
     7
370
    15
100
AcDbLine
 10
94.9684930816
 20
-73.7255643958
 30
0.0
 11
94.9600012824
 21
-73.7255643958
 31
0.0
  0
LINE
  5
34E
330
1F
100
AcDbEntity
  8
0
  6
Continuous
 62
     7
370
    15
100
AcDbLine
 10
94.9600012824
 20
-73.7255643958
 30
0.0
 11
94.9478037507
 21
-73.7255643958
 31
0.0
  0
SPLINE
  5
34F
330
1F
100
AcDbEntity
  8
0
  6
Continuous
 62
     7
370
    15
100
AcDbSpline
210
0.0
220
0.0
230
1.0
 70
    11
 71
     3
 72
    30
 73
    26
 74
     0
 42
0.00000001
 43
0.00000001
 40
0.0
 40
0.0
 40
0.0
 40
0.0
 40
0.0505481439915117
 40
0.1010318019840819
 40
0.1390809695277988
 40
0.1704299808177335
 40
0.2090876750901058
 40
0.2597209750823697
 40
0.2934545504540069
 40
0.3271434566807104
 40
0.371982237265092
 40
0.4176194189341592
 40
0.4693118710097307
 40
0.5200087135871658
 40
0.5692622745783597
 40
0.6193735808951402
 40
0.671246781155529
 40
0.7066836638256112
 40
0.7422646911557136
 40
0.812554136221849
 40
0.8466198557933451
 40
0.8806515982168206
 40
0.9264647725877562
 40
0.9734215545128448
 40
0.9999999999999999
 40
0.9999999999999999
 40
0.9999999999999999
 40
0.9999999999999999
 10
79.9642642811142
 20
-71.42556271497256
 30
0.0
 10
80.01835953881013
 20
-70.86995812939293
 30
0.0
 10
80.12648104302859
 20
-69.75945776203713
 30
0.0
 10
80.8947163749803
 20
-68.40513931526695
 30
0.0
 10
81.83665348540595
 20
-67.46712276935182
 30
0.0
 10
82.83085781431956
 20
-66.8625191901259
 30
0.0
 10
83.84545591114644
 20
-66.51354409200833
 30
0.0
 10
84.82116313852711
 20
-66.38117107898303
 30
0.0
 10
86.0272946159697
 20
-66.49867039451044
 30
0.0
 10
87.20288618633239
 20
-66.89108151834405
 30
0.0
 10
88.35565346047412
 20
-67.65166331867064
 30
0.0
 10
89.35218049652075
 20
-68.8558451584693
 30
0.0
 10
89.95343905099814
 20
-70.38702985029846
 30
0.0
 10
90.01367946987699
 20
-72.0800132926947
 30
0.0
 10
89.5286860138042
 20
-73.67538387359168
 30
0.0
 10
88.56054577384546
 20
-75.03336283097103
 30
0.0
 10
87.30973467488232
 20
-75.9213633838448
 30
0.0
 10
86.0207182212754
 20
-76.35918954367446
 30
0.0
 10
84.58283499773488
 20
-76.48283383114493
 30
0.0
 10
83.54344195645535
 20
-76.29046303283512
 30
0.0
 10
82.2839579299992
 20
-75.69527584476022
 30
0.0
 10
81.29436200108331
 20
-74.9085819354452
 30
0.0
 10
80.46610148723681
 20
-73.77408346148573
 30
0.0
 10
80.02189192538442
 20
-72.5225282614354
 30
0.0
 10
79.97956342215488
 20
-71.71678806045806
 30
0.0
 10
79.9642642811142
 20
-71.42556271497256
 30
0.0
  0
LINE
  5
350
330
1F
100
AcDbEntity
  8
0
  6
Continuous
 62
     7
370
    15
100
AcDbLine
 10
80.1142649576
 20
-71.425562715
 30
0.0
 11
80.1142649576
 21
-73.9254634732
 31
0.0
  0
ARC
  5
351
330
1F
100
AcDbEntity
  8
0
  6
Continuous
 62
     7
370
    15
100
AcDbCircle
 10
77.7642649815
 20
-73.9254645508
 30
0.0
 40
2.349999999999966
100
AcDbArc
 50
270.0
 51
0.0
  0
LINE
  5
352
330
1F
100
AcDbEntity
  8
0
  6
Continuous
 62
     7
370
    15
100
AcDbLine
 10
78.7642644569
 20
-73.9254634732
 30
0.0
 11
78.7642644569
 21
-71.425562715
 31
0.0
  0
LINE
  5
353
330
1F
100
AcDbEntity
  8
0
  6
Continuous
 62
     7
370
    15
100
AcDbLine
 10
71.4642638192
 20
-76.275562858
 30
0.0
 11
84.9642651007
 21
-76.275562858
 31
0.0
  0
ARC
  5
354
330
1F
100
AcDbEntity
  8
0
  6
Continuous
 62
     7
370
    15
100
AcDbCircle
 10
84.9642649815
 20
-71.4255645508
 30
0.0
 40
6.200000000000017
100
AcDbArc
 50
296.847213326
 51
180.0
  0
LINE
  5
355
330
1F
100
AcDbEntity
  8
0
  6
Continuous
 62
     7
370
    15
100
AcDbLine
 10
71.4642638192
 20
-74.9254654998
 30
0.0
 11
77.764264293
 21
-74.9254654998
 31
0.0
  0
ARC
  5
356
330
1F
100
AcDbEntity
  8
0
  6
Continuous
 62
     7
370
    15
100
AcDbCircle
 10
77.7642649815
 20
-73.9254645508
 30
0.0
 40
1.0
100
AcDbArc
 50
270.0
 51
0.0
  0
LINE
  5
357
330
1F
100
AcDbEntity
  8
0
  6
Continuous
 62
     7
370
    15
100
AcDbLine
 10
77.764264293
 20
-76.2754660005
 30
0.0
 11
71.4642638192
 21
-76.2754660005
 31
0.0
  0
ARC
  5
358
330
1F
100
AcDbEntity
  8
0
  6
Continuous
 62
     7
370
    15
100
AcDbCircle
 10
84.9642649815
 20
-71.4255645508
 30
0.0
 40
4.850000000000023
100
AcDbArc
 50
270.0
 51
180.0
  0
LINE
  5
359
330
1F
100
AcDbEntity
  8
0
  6
Continuous
 62
     7
370
    15
100
AcDbLine
 10
65.1142643616
 20
-77.6255652213
 30
0.0
 11
65.1142643616
 21
-76.275562858
 31
0.0
  0
LINE
  5
35A
330
1F
100
AcDbEntity
  8
0
  6
Continuous
 62
     7
370
    15
100
AcDbLine
 10
65.1142643616
 20
-76.275562858
 30
0.0
 11
71.4642638192
 21
-76.275562858
 31
0.0
  0
LINE
  5
35B
330
1F
100
AcDbEntity
  8
0
  6
Continuous
 62
     7
370
    15
100
AcDbLine
 10
65.1142643616
 20
-74.9254654998
 30
0.0
 11
65.1142643616
 21
-76.2754660005
 31
0.0
  0
LINE
  5
35C
330
1F
100
AcDbEntity
  8
0
  6
Continuous
 62
     7
370
    15
100
AcDbLine
 10
65.1142643616
 20
-74.9254654998
 30
0.0
 11
71.4642638192
 21
-74.9254654998
 31
0.0
  0
LINE
  5
35D
330
1F
100
AcDbEntity
  8
0
  6
Continuous
 62
     7
370
    15
100
AcDbLine
 10
71.4642638192
 20
-76.2754660005
 30
0.0
 11
65.1142643616
 21
-76.2754660005
 31
0.0
  0
ARC
  5
35E
330
1F
100
AcDbEntity
  8
0
  6
Continuous
 62
     7
370
    15
100
AcDbCircle
 10
274.4642649815
 20
302.4902249229
 30
0.0
 40
11.41362237080186
100
AcDbArc
 50
87.4892229935
 51
92.5107770065
  0
LINE
  5
35F
330
1F
100
AcDbEntity
  8
0
  6
Continuous
 62
     7
370
    15
100
AcDbLine
 10
274.9642627165
 20
314.1208086258
 30
0.0
 11
274.9642627165
 21
313.8928804642
 31
0.0
  0
SPLINE
  5
360
330
1F
100
AcDbEntity
  8
0
  6
Continuous
 62
     7
370
    15
100
AcDbSpline
210
0.0
220
0.0
230
1.0
 70
     8
 71
     3
 72
    12
 73
     8
 74
     0
 42
0.00000001
 43
0.00000001
 40
0.0
 40
0.0
 40
0.0
 40
0.0
 40
0.2140857057873002
 40
0.428206815237828
 40
0.6414578007284859
 40
0.8543464441350324
 40
1.0
 40
1.0
 40
1.0
 40
1.0
 10
275.4642711803518
 20
314.1208086257791
 30
0.0
 10
275.408307862403
 20
314.1251485708551
 30
0.0
 10
275.2963719717706
 20
314.1338291787098
 30
0.0
 10
275.1468109234202
 20
314.1393540030704
 30
0.0
 10
275.0339037483919
 20
314.1381929972547
 30
0.0
 10
274.9731316226305
 20
314.1313595439549
 30
0.0
 10
274.9668247922386
 20
314.1238566061206
 30
0.0
 10
274.9642627164923
 20
314.1208086257791
 30
0.0
  0
ARC
  5
361
330
1F
100
AcDbEntity
  8
0
  6
Continuous
 62
     7
370
    15
100
AcDbCircle
 10
274.4642649815
 20
302.4902249229
 30
0.0
 40
11.67350742593114
100
AcDbArc
 50
77.6337406835
 51
85.0857882092
  0
LINE
  5
362
330
1F
100
AcDbEntity
  8
0
  6
Continuous
 62
     7
370
    15
100
AcDbLine
 10
276.9642667696
 20
313.9038477188
 30
0.0
 11
276.9642667696
 21
313.8928804642
 31
0.0
  0
LINE
  5
363
330
1F
100
AcDbEntity
  8
0
  6
Continuous
 62
     7
370
    15
100
AcDbLine
 10
271.964271538
 20
313.8928804642
 30
0.0
 11
271.964271538
 21
313.9038477188
 31
0.0
  0
ARC
  5
364
330
1F
100
AcDbEntity
  8
0
  6
Continuous
 62
     7
370
    15
100
AcDbCircle
 10
274.4642649815
 20
302.4902249229
 30
0.0
 40
11.67350742593114
100
AcDbArc
 50
94.9142117908
 51
102.3662593165
  0
SPLINE
  5
365
330
1F
100
AcDbEntity
  8
0
  6
Continuous
 62
     7
370
    15
100
AcDbSpline
210
0.0
220
0.0
230
1.0
 70
     8
 71
     3
 72
    12
 73
     8
 74
     0
 42
0.00000001
 43
0.00000001
 40
0.0
 40
0.0
 40
0.0
 40
0.0
 40
0.2140792127850537
 40
0.4281968170121854
 40
0.641453296549931
 40
0.8543533809182691
 40
0.9999999999999999
 40
0.9999999999999999
 40
0.9999999999999999
 40
0.9999999999999999
 10
273.9642606899343
 20
314.1208086257791
 30
0.0
 10
273.9587935141422
 20
314.1251485744796
 30
0.0
 10
273.9478581821134
 20
314.1338292501762
 30
0.0
 10
273.8622368272227
 20
314.1393540967952
 30
0.0
 10
273.7362542182274
 20
314.1381927806611
 30
0.0
 10
273.5956367333015
 20
314.1313601244134
 30
0.0
 10
273.5022159419436
 20
314.1238566433423
 30
0.0
 10
273.464267127236
 20
314.1208086257791
 30
0.0
  0
LINE
  5
366
330
1F
100
AcDbEntity
  8
0
  6
Continuous
 62
     7
370
    15
100
AcDbLine
 10
273.9642606899
 20
313.8928804642
 30
0.0
 11
273.9642606899
 21
314.1208086258
 31
0.0
  0
LINE
  5
367
330
1F
100
AcDbEntity
  8
0
  6
Continuous
 62
     7
370
    15
100
AcDbLine
 10
426.4922188446
 20
-68.3255661184
 30
0.0
 11
426.4922188446
 21
-75.3255654031
 31
0.0
  0
LINE
  5
368
330
1F
100
AcDbEntity
  8
0
  6
Continuous
 62
     7
370
    15
100
AcDbLine
 10
426.4922188446
 20
-68.3255661184
 30
0.0
 11
434.9922286198
 21
-68.3255661184
 31
0.0
  0
LINE
  5
369
330
1F
100
AcDbEntity
  8
0
  6
Continuous
 62
     7
370
    15
100
AcDbLine
 10
434.9922286198
 20
-68.3255661184
 30
0.0
 11
434.9922286198
 21
-75.3255654031
 31
0.0
  0
LINE
  5
36A
330
1F
100
AcDbEntity
  8
0
  6
Continuous
 62
     7
370
    15
100
AcDbLine
 10
417.9922090695
 20
-68.3255661184
 30
0.0
 11
417.9922090695
 21
-75.3255654031
 31
0.0
  0
LINE
  5
36B
330
1F
100
AcDbEntity
  8
0
  6
Continuous
 62
     7
370
    15
100
AcDbLine
 10
417.9922090695
 20
-68.3255661184
 30
0.0
 11
426.4922188446
 21
-68.3255661184
 31
0.0
  0
LINE
  5
36C
330
1F
100
AcDbEntity
  8
0
  6
Continuous
 62
     7
370
    15
100
AcDbLine
 10
69.4642634914
 20
77.8744313961
 30
0.0
 11
76.4642646387
 21
77.8744313961
 31
0.0
  0
LINE
  5
36D
330
1F
100
AcDbEntity
  8
0
  6
Continuous
 62
     7
370
    15
100
AcDbLine
 10
69.4642634914
 20
77.8744313961
 30
0.0
 11
69.4642634914
 21
86.3744411713
 31
0.0
  0
LINE
  5
36E
330
1F
100
AcDbEntity
  8
0
  6
Continuous
 62
     7
370
    15
100
AcDbLine
 10
69.4642634914
 20
86.3744411713
 30
0.0
 11
76.4642646387
 21
86.3744411713
 31
0.0
  0
LINE
  5
36F
330
1F
100
AcDbEntity
  8
0
  6
Continuous
 62
     7
370
    15
100
AcDbLine
 10
69.4642634914
 20
94.8744360453
 30
0.0
 11
76.4642646387
 21
94.8744360453
 31
0.0
  0
LINE
  5
370
330
1F
100
AcDbEntity
  8
0
  6
Continuous
 62
     7
370
    15
100
AcDbLine
 10
69.4642634914
 20
86.3744411713
 30
0.0
 11
69.4642634914
 21
94.8744360453
 31
0.0
  0
LINE
  5
371
330
1F
100
AcDbEntity
  8
0
  6
Continuous
 62
     7
370
    15
100
AcDbLine
 10
311.9642631933
 20
-32.718090331
 30
0.0
 11
311.9642631933
 21
-42.5330381745
 31
0.0
  0
LINE
  5
372
330
1F
100
AcDbEntity
  8
0
  6
Continuous
 62
     7
370
    15
100
AcDbLine
 10
320.4642580673
 20
-27.8106089586
 30
0.0
 11
311.9642631933
 21
-32.718090331
 31
0.0
  0
LINE
  5
373
330
1F
100
AcDbEntity
  8
0
  6
Continuous
 62
     7
370
    15
100
AcDbLine
 10
328.9642678425
 20
-32.718090331
 30
0.0
 11
320.4642580673
 21
-27.8106089586
 31
0.0
  0
LINE
  5
374
330
1F
100
AcDbEntity
  8
0
  6
Continuous
 62
     7
370
    15
100
AcDbLine
 10
328.9642678425
 20
-42.5330381745
 30
0.0
 11
328.9642678425
 21
-32.718090331
 31
0.0
  0
LINE
  5
375
330
1F
100
AcDbEntity
  8
0
  6
Continuous
 62
     7
370
    15
100
AcDbLine
 10
320.4642580673
 20
-47.4405195469
 30
0.0
 11
328.9642678425
 21
-42.5330381745
 31
0.0
  0
LINE
  5
376
330
1F
100
AcDbEntity
  8
0
  6
Continuous
 62
     7
370
    15
100
AcDbLine
 10
311.9642631933
 20
-42.5330381745
 30
0.0
 11
320.4642580673
 21
-47.4405195469
 31
0.0
  0
LINE
  5
377
330
1F
100
AcDbEntity
  8
0
  6
Continuous
 62
     7
370
    15
100
AcDbLine
 10
219.9642630145
 20
-32.718090331
 30
0.0
 11
219.9642630145
 21
-42.5330381745
 31
0.0
  0
LINE
  5
378
330
1F
100
AcDbEntity
  8
0
  6
Continuous
 62
     7
370
    15
100
AcDbLine
 10
228.4642653391
 20
-27.8106089586
 30
0.0
 11
219.9642630145
 21
-32.718090331
 31
0.0
  0
LINE
  5
379
330
1F
100
AcDbEntity
  8
0
  6
Continuous
 62
     7
370
    15
100
AcDbLine
 10
236.9642602131
 20
-32.718090331
 30
0.0
 11
228.4642653391
 21
-27.8106089586
 31
0.0
  0
LINE
  5
37A
330
1F
100
AcDbEntity
  8
0
  6
Continuous
 62
     7
370
    15
100
AcDbLine
 10
236.9642602131
 20
-42.5330381745
 30
0.0
 11
236.9642602131
 21
-32.718090331
 31
0.0
  0
LINE
  5
37B
330
1F
100
AcDbEntity
  8
0
  6
Continuous
 62
     7
370
    15
100
AcDbLine
 10
228.4642653391
 20
-47.4405195469
 30
0.0
 11
236.9642602131
 21
-42.5330381745
 31
0.0
  0
LINE
  5
37C
330
1F
100
AcDbEntity
  8
0
  6
Continuous
 62
     7
370
    15
100
AcDbLine
 10
219.9642630145
 20
-42.5330381745
 30
0.0
 11
228.4642653391
 21
-47.4405195469
 31
0.0
  0
LINE
  5
37D
330
1F
100
AcDbEntity
  8
0
  6
Continuous
 62
     7
370
    15
100
AcDbLine
 10
113.9363068938
 20
-68.3255661184
 30
0.0
 11
113.9363068938
 21
-75.3255654031
 31
0.0
  0
LINE
  5
37E
330
1F
100
AcDbEntity
  8
0
  6
Continuous
 62
     7
370
    15
100
AcDbLine
 10
113.9363068938
 20
-68.3255661184
 30
0.0
 11
122.4363073558
 21
-68.3255661184
 31
0.0
  0
LINE
  5
37F
330
1F
100
AcDbEntity
  8
0
  6
Continuous
 62
     7
370
    15
100
AcDbLine
 10
122.4363073558
 20
-68.3255661184
 30
0.0
 11
122.4363073558
 21
-75.3255654031
 31
0.0
  0
LINE
  5
380
330
1F
100
AcDbEntity
  8
0
  6
Continuous
 62
     7
370
    15
100
AcDbLine
 10
122.4363073558
 20
-68.3255661184
 30
0.0
 11
130.9363068864
 21
-68.3255661184
 31
0.0
  0
LINE
  5
381
330
1F
100
AcDbEntity
  8
0
  6
Continuous
 62
     7
370
    15
100
AcDbLine
 10
130.9363068864
 20
-68.3255661184
 30
0.0
 11
130.9363068864
 21
-75.3255654031
 31
0.0
  0
LINE
  5
382
330
1F
100
AcDbEntity
  8
0
  6
Continuous
 62
     7
370
    15
100
AcDbLine
 10
482.164268367
 20
-27.8106089586
 30
0.0
 11
475.1642690823
 21
-27.8106089586
 31
0.0
  0
LINE
  5
383
330
1F
100
AcDbEntity
  8
0
  6
Continuous
 62
     7
370
    15
100
AcDbLine
 10
482.164268367
 20
-32.718090331
 30
0.0
 11
475.1642690823
 21
-32.718090331
 31
0.0
  0
LINE
  5
384
330
1F
100
AcDbEntity
  8
0
  6
Continuous
 62
     7
370
    15
100
AcDbLine
 10
482.164268367
 20
-27.8106089586
 30
0.0
 11
482.164268367
 21
-32.718090331
 31
0.0
  0
LINE
  5
385
330
1F
100
AcDbEntity
  8
0
  6
Continuous
 62
     7
370
    15
100
AcDbLine
 10
482.164268367
 20
-42.5330381745
 30
0.0
 11
475.1642690823
 21
-42.5330381745
 31
0.0
  0
LINE
  5
386
330
1F
100
AcDbEntity
  8
0
  6
Continuous
 62
     7
370
    15
100
AcDbLine
 10
482.164268367
 20
-32.718090331
 30
0.0
 11
482.164268367
 21
-42.5330381745
 31
0.0
  0
LINE
  5
387
330
1F
100
AcDbEntity
  8
0
  6
Continuous
 62
     7
370
    15
100
AcDbLine
 10
482.164268367
 20
-47.4405195469
 30
0.0
 11
475.1642690823
 21
-47.4405195469
 31
0.0
  0
LINE
  5
388
330
1F
100
AcDbEntity
  8
0
  6
Continuous
 62
     7
370
    15
100
AcDbLine
 10
482.164268367
 20
-42.5330381745
 30
0.0
 11
482.164268367
 21
-47.4405195469
 31
0.0
  0
LINE
  5
389
330
1F
100
AcDbEntity
  8
0
  6
Continuous
 62
     7
370
    15
100
AcDbLine
 10
76.4642646387
 20
94.9854049927
 30
0.0
 11
76.4642646387
 21
75.4011962658
 31
0.0
  0
LINE
  5
38A
330
1F
100
AcDbEntity
  8
0
  6
Continuous
 62
     7
370
    15
100
AcDbLine
 10
86.4642644152
 20
94.9854049927
 30
0.0
 11
86.4642644152
 21
75.4011962658
 31
0.0
  0
LINE
  5
38B
330
1F
100
AcDbEntity
  8
0
  6
Continuous
 62
     7
370
    15
100
AcDbLine
 10
76.4642646387
 20
112.5963870531
 30
0.0
 11
76.4642646387
 21
94.9854049927
 31
0.0
  0
LINE
  5
38C
330
1F
100
AcDbEntity
  8
0
  6
Continuous
 62
     7
370
    15
100
AcDbLine
 10
86.4642644152
 20
112.5963870531
 30
0.0
 11
86.4642644152
 21
94.9854049927
 31
0.0
  0
LINE
  5
38D
330
1F
100
AcDbEntity
  8
0
  6
Continuous
 62
     7
370
    15
100
AcDbLine
 10
76.4642646387
 20
75.4011962658
 30
0.0
 11
76.4642646387
 21
73.4279695993
 31
0.0
  0
LINE
  5
38E
330
1F
100
AcDbEntity
  8
0
  6
Continuous
 62
     7
370
    15
100
AcDbLine
 10
86.4642644152
 20
75.4011962658
 30
0.0
 11
86.4642644152
 21
73.4279695993
 31
0.0
  0
LINE
  5
38F
330
1F
100
AcDbEntity
  8
0
  6
Continuous
 62
     7
370
    15
100
AcDbLine
 10
76.4642646387
 20
117.3744294887
 30
0.0
 11
76.4642646387
 21
112.5963870531
 31
0.0
  0
LINE
  5
390
330
1F
100
AcDbEntity
  8
0
  6
Continuous
 62
     7
370
    15
100
AcDbLine
 10
86.4642644152
 20
117.3744294887
 30
0.0
 11
86.4642644152
 21
112.5963870531
 31
0.0
  0
LINE
  5
391
330
1F
100
AcDbEntity
  8
0
  6
Continuous
 62
     7
370
    15
100
AcDbLine
 10
76.4642646387
 20
73.4279695993
 30
0.0
 11
76.4642646387
 21
73.3744297272
 31
0.0
  0
LINE
  5
392
330
1F
100
AcDbEntity
  8
0
  6
Continuous
 62
     7
370
    15
100
AcDbLine
 10
86.4642644152
 20
73.4279695993
 30
0.0
 11
86.4642644152
 21
73.3744297272
 31
0.0
  0
LINE
  5
393
330
1F
100
AcDbEntity
  8
0
  6
Continuous
 62
     7
370
    15
100
AcDbLine
 10
475.8642660305
 20
-21.5082745904
 30
0.0
 11
475.8642660305
 21
-27.8106089586
 31
0.0
  0
LINE
  5
394
330
1F
100
AcDbEntity
  8
0
  6
Continuous
 62
     7
370
    15
100
AcDbLine
 10
475.8642660305
 20
-47.4405195469
 30
0.0
 11
475.8642660305
 21
-53.5082761103
 31
0.0
  0
LINE
  5
395
330
1F
100
AcDbEntity
  8
0
  6
Continuous
 62
     7
370
    15
100
AcDbLine
 10
482.6642619297
 20
-34.0735297555
 30
0.0
 11
482.6642619297
 21
-40.9430172199
 31
0.0
  0
SPLINE
  5
396
330
1F
100
AcDbEntity
  8
0
  6
Continuous
 62
     7
370
    15
100
AcDbSpline
210
0.0
220
0.0
230
1.0
 70
     8
 71
     3
 72
    11
 73
     7
 74
     0
 42
0.00000001
 43
0.00000001
 40
0.0
 40
0.0
 40
0.0
 40
0.0
 40
0.226124859481013
 40
0.4511415713715501
 40
0.7680069089224525
 40
1.0
 40
1.0
 40
1.0
 40
1.0
 10
482.664261929711
 20
-40.94301721993929
 30
0.0
 10
482.6570921711682
 20
-40.97347071924576
 30
0.0
 10
482.6427877902049
 20
-41.03422847742602
 30
0.0
 10
482.5269015793889
 20
-41.21671141171815
 30
0.0
 10
482.3674308804888
 20
-41.43153636263894
 30
0.0
 10
482.2246284973357
 20
-41.59399872976211
 30
0.0
 10
482.1642683670126
 20
-41.66266879979616
 30
0.0
  0
SPLINE
  5
397
330
1F
100
AcDbEntity
  8
0
  6
Continuous
 62
     7
370
    15
100
AcDbSpline
210
0.0
220
0.0
230
1.0
 70
     8
 71
     3
 72
    11
 73
     7
 74
     0
 42
0.00000001
 43
0.00000001
 40
0.0
 40
0.0
 40
0.0
 40
0.0
 40
0.2319929167443897
 40
0.5488623569403506
 40
0.773875310442413
 40
1.0
 40
1.0
 40
1.0
 40
1.0
 10
482.1642683670127
 20
-33.35387817565447
 30
0.0
 10
482.2246287194612
 20
-33.42254779192563
 30
0.0
 10
482.3674327575137
 20
-33.58501037037717
 30
0.0
 10
482.5268987620155
 20
-33.7998446468494
 30
0.0
 10
482.6427886660754
 20
-33.98231723007897
 30
0.0
 10
482.6570924256066
 20
-34.04307567146764
 30
0.0
 10
482.664261929711
 20
-34.07352975551134
 30
0.0
  0
LINE
  5
398
330
1F
100
AcDbEntity
  8
0
  6
Continuous
 62
     7
370
    15
100
AcDbLine
 10
488.6642740891
 20
-41.4082761759
 30
0.0
 11
488.6642740891
 21
-42.0549418682
 31
0.0
  0
ARC
  5
399
330
1F
100
AcDbEntity
  8
0
  6
Continuous
 62
     7
370
    15
100
AcDbCircle
 10
488.1642649815
 20
-41.4082744551
 30
0.0
 40
0.5000000000000071
100
AcDbArc
 50
0.0
 51
90.0
  0
LINE
  5
39A
330
1F
100
AcDbEntity
  8
0
  6
Continuous
 62
     7
370
    15
100
AcDbLine
 10
482.6642619297
 20
-40.9082751626
 30
0.0
 11
488.164250724
 21
-40.9082751626
 31
0.0
  0
LINE
  5
39B
330
1F
100
AcDbEntity
  8
0
  6
Continuous
 62
     7
370
    15
100
AcDbLine
 10
488.6642740891
 20
-32.9616051072
 30
0.0
 11
488.6642740891
 21
-33.6082707996
 31
0.0
  0
ARC
  5
39C
330
1F
100
AcDbEntity
  8
0
  6
Continuous
 62
     7
370
    15
100
AcDbCircle
 10
488.1642649815
 20
-33.6082744551
 30
0.0
 40
0.5
100
AcDbArc
 50
270.0
 51
0.0
  0
LINE
  5
39D
330
1F
100
AcDbEntity
  8
0
  6
Continuous
 62
     7
370
    15
100
AcDbLine
 10
488.164250724
 20
-34.1082718128
 30
0.0
 11
482.6642619297
 21
-34.1082718128
 31
0.0
  0
LINE
  5
39E
330
1F
100
AcDbEntity
  8
0
  6
Continuous
 62
     7
370
    15
100
AcDbLine
 10
488.6642740891
 20
-42.0549418682
 30
0.0
 11
488.6642740891
 21
-45.6085260862
 31
0.0
  0
LINE
  5
39F
330
1F
100
AcDbEntity
  8
0
  6
Continuous
 62
     7
370
    15
100
AcDbLine
 10
488.6642740891
 20
-29.4080208892
 30
0.0
 11
488.6642740891
 21
-32.9616051072
 31
0.0
  0
SPLINE
  5
3A0
330
1F
100
AcDbEntity
  8
0
  6
Continuous
 62
     7
370
    15
100
AcDbSpline
210
0.0
220
0.0
230
1.0
 70
     8
 71
     3
 72
     9
 73
     5
 74
     0
 42
0.00000001
 43
0.00000001
 40
0.0
 40
0.0
 40
0.0
 40
0.0
 40
0.4788797086526079
 40
1.0
 40
1.0
 40
1.0
 40
1.0
 10
482.1642683670126
 20
-46.22146672550684
 30
0.0
 10
482.2254613910876
 20
-46.25810603430882
 30
0.0
 10
482.3532450974537
 20
-46.3346164985026
 30
0.0
 10
482.4469943618976
 20
-46.33739515693757
 30
0.0
 10
482.4958490058981
 20
-46.33884317223077
 30
0.0
  0
LINE
  5
3A1
330
1F
100
AcDbEntity
  8
0
  6
Continuous
 62
     7
370
    15
100
AcDbLine
 10
482.6642619297
 20
-46.3472250754
 30
0.0
 11
482.6642619297
 21
-49.7462469989
 31
0.0
  0
SPLINE
  5
3A2
330
1F
100
AcDbEntity
  8
0
  6
Continuous
 62
     7
370
    15
100
AcDbSpline
210
0.0
220
0.0
230
1.0
 70
     8
 71
     3
 72
    13
 73
     9
 74
     0
 42
0.00000001
 43
0.00000001
 40
0.0
 40
0.0
 40
0.0
 40
0.0
 40
0.1391092263272588
 40
0.2775345820970164
 40
0.4724679482280873
 40
0.7375827622256773
 40
0.9966177032450961
 40
1.0
 40
1.0
 40
1.0
 40
1.0
 10
482.664261929711
 20
-49.74624699894434
 30
0.0
 10
482.6570472981671
 20
-49.82522963125799
 30
0.0
 10
482.6426535027058
 20
-49.9828066118137
 30
0.0
 10
482.5275278897968
 20
-50.26847379963939
 30
0.0
 10
482.3224366790679
 20
-50.59802795010501
 30
0.0
 10
482.0199069833959
 20
-50.91933040730029
 30
0.0
 10
481.7829345226156
 20
-51.0851313835835
 30
0.0
 10
481.665784748193
 20
-51.14873291808897
 30
0.0
 10
481.6642748043142
 20
-51.14955267850404
 30
0.0
  0
SPLINE
  5
3A3
330
1F
100
AcDbEntity
  8
0
  6
Continuous
 62
     7
370
    15
100
AcDbSpline
210
0.0
220
0.0
230
1.0
 70
     8
 71
     3
 72
     9
 73
     5
 74
     0
 42
0.00000001
 43
0.00000001
 40
0.0
 40
0.0
 40
0.0
 40
0.0
 40
0.521118897404134
 40
1.0
 40
1.0
 40
1.0
 40
1.0
 10
482.4958490058981
 20
-28.67770752851015
 30
0.0
 10
482.4469942608601
 20
-28.67915369335145
 30
0.0
 10
482.3532445517603
 20
-28.68192880829837
 30
0.0
 10
482.2254613348296
 20
-28.75844284768739
 30
0.0
 10
482.1642683670126
 20
-28.79508397523409
 30
0.0
  0
LINE
  5
3A4
330
1F
100
AcDbEntity
  8
0
  6
Continuous
 62
     7
370
    15
100
AcDbLine
 10
482.6642619297
 20
-25.2703037018
 30
0.0
 11
482.6642619297
 21
-28.6693256253
 31
0.0
  0
SPLINE
  5
3A5
330
1F
100
AcDbEntity
  8
0
  6
Continuous
 62
     7
370
    15
100
AcDbSpline
210
0.0
220
0.0
230
1.0
 70
     8
 71
     3
 72
    13
 73
     9
 74
     0
 42
0.00000001
 43
0.00000001
 40
0.0
 40
0.0
 40
0.0
 40
0.0
 40
0.0033830241631915
 40
0.2624177894722868
 40
0.5275324236354131
 40
0.7224656575379719
 40
0.8608891434018346
 40
1.0
 40
1.0
 40
1.0
 40
1.0
 10
481.6642748043143
 20
-23.86699429694658
 30
0.0
 10
481.6657847457578
 20
-23.86781530658497
 30
0.0
 10
481.782909388307
 20
-23.93150020035206
 30
0.0
 10
482.0199187385925
 20
-24.09718166607128
 30
0.0
 10
482.3224346077413
 20
-24.41853012989884
 30
0.0
 10
482.5275271023985
 20
-24.74807509703389
 30
0.0
 10
482.6426544464405
 20
-25.03374227555413
 30
0.0
 10
482.657047552794
 20
-25.19131980202552
 30
0.0
 10
482.664261929711
 20
-25.27030370179659
 30
0.0
  0
LINE
  5
3A6
330
1F
100
AcDbEntity
  8
0
  6
Continuous
 62
     7
370
    15
100
AcDbLine
 10
488.6642740891
 20
-45.6085260862
 30
0.0
 11
488.6642740891
 21
-45.8472277874
 31
0.0
  0
LINE
  5
3A7
330
1F
100
AcDbEntity
  8
0
  6
Continuous
 62
     7
370
    15
100
AcDbLine
 10
488.6642740891
 20
-29.169319188
 30
0.0
 11
488.6642740891
 21
-29.4080208892
 31
0.0
  0
LINE
  5
3A8
330
1F
100
AcDbEntity
  8
0
  6
Continuous
 62
     7
370
    15
100
AcDbLine
 10
488.6642740891
 20
-49.9434191639
 30
0.0
 11
488.6642740891
 21
-50.7232639844
 31
0.0
  0
LINE
  5
3A9
330
1F
100
AcDbEntity
  8
0
  6
Continuous
 62
     7
370
    15
100
AcDbLine
 10
488.6642740891
 20
-24.2932867164
 30
0.0
 11
488.6642740891
 21
-25.0731315369
 31
0.0
  0
LINE
  5
3AA
330
1F
100
AcDbEntity
  8
0
  6
Continuous
 62
     7
370
    15
100
AcDbLine
 10
488.6642740891
 20
-49.2147412056
 30
0.0
 11
488.6642740891
 21
-49.9434191639
 31
0.0
  0
LINE
  5
3AB
330
1F
100
AcDbEntity
  8
0
  6
Continuous
 62
     7
370
    15
100
AcDbLine
 10
488.6642740891
 20
-25.0731315369
 30
0.0
 11
488.6642740891
 21
-25.8018057698
 31
0.0
  0
LINE
  5
3AC
330
1F
100
AcDbEntity
  8
0
  6
Continuous
 62
     7
370
    15
100
AcDbLine
 10
488.6642740891
 20
-50.7232639844
 30
0.0
 11
488.6642740891
 21
-52.3264314884
 31
0.0
  0
LINE
  5
3AD
330
1F
100
AcDbEntity
  8
0
  6
Continuous
 62
     7
370
    15
100
AcDbLine
 10
488.6642740891
 20
-22.690115487
 30
0.0
 11
488.6642740891
 21
-24.2932867164
 31
0.0
  0
LINE
  5
3AE
330
1F
100
AcDbEntity
  8
0
  6
Continuous
 62
     7
370
    15
100
AcDbLine
 10
488.6642740891
 20
-49.0682925934
 30
0.0
 11
488.6642740891
 21
-49.2147412056
 31
0.0
  0
LINE
  5
3AF
330
1F
100
AcDbEntity
  8
0
  6
Continuous
 62
     7
370
    15
100
AcDbLine
 10
488.6642740891
 20
-25.8018057698
 30
0.0
 11
488.6642740891
 21
-25.9482543821
 31
0.0
  0
LINE
  5
3B0
330
1F
100
AcDbEntity
  8
0
  6
Continuous
 62
     7
370
    15
100
AcDbLine
 10
488.6642740891
 20
-45.8472277874
 30
0.0
 11
488.6642740891
 21
-49.0682925934
 31
0.0
  0
LINE
  5
3B1
330
1F
100
AcDbEntity
  8
0
  6
Continuous
 62
     7
370
    15
100
AcDbLine
 10
488.6642740891
 20
-25.9482543821
 30
0.0
 11
488.6642740891
 21
-29.169319188
 31
0.0
  0
SPLINE
  5
3B2
330
1F
100
AcDbEntity
  8
0
  6
Continuous
 62
     7
370
    15
100
AcDbSpline
210
0.0
220
0.0
230
1.0
 70
     8
 71
     3
 72
     9
 73
     5
 74
     0
 42
0.00000001
 43
0.00000001
 40
0.0
 40
0.0
 40
0.0
 40
0.0
 40
0.0159211215625818
 40
0.9999999999999999
 40
0.9999999999999999
 40
0.9999999999999999
 40
0.9999999999999999
 10
481.6642748043142
 20
-52.80443838778978
 30
0.0
 10
481.6657848654988
 20
-52.80489635223392
 30
0.0
 10
481.7606312730637
 20
-52.83366093658379
 30
0.0
 10
481.8545681451146
 20
-52.83594715208659
 30
0.0
 10
481.9470094368063
 20
-52.83819696847444
 30
0.0
  0
SPLINE
  5
3B3
330
1F
100
AcDbEntity
  8
0
  6
Continuous
 62
     7
370
    15
100
AcDbSpline
210
0.0
220
0.0
230
1.0
 70
     8
 71
     3
 72
     9
 73
     5
 74
     0
 42
0.00000001
 43
0.00000001
 40
0.0
 40
0.0
 40
0.0
 40
0.0
 40
0.9840807632449378
 40
1.0
 40
1.0
 40
1.0
 40
1.0
 10
481.9470094368063
 20
-22.17835000697618
 30
0.0
 10
481.8545736708315
 20
-22.18063776231058
 30
0.0
 10
481.7606425938027
 20
-22.18296252611032
 30
0.0
 10
481.6657848669263
 20
-22.21165187512161
 30
0.0
 10
481.6642748043142
 20
-22.21210858766084
 30
0.0
  0
LINE
  5
3B4
330
1F
100
AcDbEntity
  8
0
  6
Continuous
 62
     7
370
    15
100
AcDbLine
 10
488.6642740891
 20
-52.3264314884
 30
0.0
 11
488.6642740891
 21
-52.3484293276
 31
0.0
  0
LINE
  5
3B5
330
1F
100
AcDbEntity
  8
0
  6
Continuous
 62
     7
370
    15
100
AcDbLine
 10
488.6642740891
 20
-22.6681213731
 30
0.0
 11
488.6642740891
 21
-22.690115487
 31
0.0
  0
LINE
  5
3B6
330
1F
100
AcDbEntity
  8
0
  6
Continuous
 62
     7
370
    15
100
AcDbLine
 10
471.9642745182
 20
-51.5309367234
 30
0.0
 11
471.9642745182
 21
-23.7201955074
 31
0.0
  0
LINE
  5
3B7
330
1F
100
AcDbEntity
  8
0
  6
Continuous
 62
     7
370
    15
100
AcDbLine
 10
475.1642690823
 20
-51.5309367234
 30
0.0
 11
475.1642690823
 21
-23.7201955074
 31
0.0
  0
LINE
  5
3B8
330
1F
100
AcDbEntity
  8
0
  6
Continuous
 62
     7
370
    15
100
AcDbLine
 10
471.9642745182
 20
-66.8268445784
 30
0.0
 11
471.9642745182
 21
-51.5309367234
 31
0.0
  0
LINE
  5
3B9
330
1F
100
AcDbEntity
  8
0
  6
Continuous
 62
     7
370
    15
100
AcDbLine
 10
475.1642690823
 20
-66.8268445784
 30
0.0
 11
475.1642690823
 21
-51.5309367234
 31
0.0
  0
LINE
  5
3BA
330
1F
100
AcDbEntity
  8
0
  6
Continuous
 62
     7
370
    15
100
AcDbLine
 10
471.9642745182
 20
-23.7201955074
 30
0.0
 11
471.9642745182
 21
-8.4242802018
 31
0.0
  0
LINE
  5
3BB
330
1F
100
AcDbEntity
  8
0
  6
Continuous
 62
     7
370
    15
100
AcDbLine
 10
475.1642690823
 20
-23.7201955074
 30
0.0
 11
475.1642690823
 21
-8.4242802018
 31
0.0
  0
LINE
  5
3BC
330
1F
100
AcDbEntity
  8
0
  6
Continuous
 62
     7
370
    15
100
AcDbLine
 10
471.9642745182
 20
-69.1255647594
 30
0.0
 11
471.9642745182
 21
-66.8268445784
 31
0.0
  0
LINE
  5
3BD
330
1F
100
AcDbEntity
  8
0
  6
Continuous
 62
     7
370
    15
100
AcDbLine
 10
475.1642690823
 20
-69.1255647594
 30
0.0
 11
475.1642690823
 21
-66.8268445784
 31
0.0
  0
LINE
  5
3BE
330
1F
100
AcDbEntity
  8
0
  6
Continuous
 62
     7
370
    15
100
AcDbLine
 10
471.9642745182
 20
-8.4242802018
 30
0.0
 11
471.9642745182
 21
-6.1255674714
 31
0.0
  0
LINE
  5
3BF
330
1F
100
AcDbEntity
  8
0
  6
Continuous
 62
     7
370
    15
100
AcDbLine
 10
475.1642690823
 20
-8.4242802018
 30
0.0
 11
475.1642690823
 21
-6.1255674714
 31
0.0
  0
CIRCLE
  5
3C0
330
1F
100
AcDbEntity
  8
0
  6
Continuous
 62
     7
370
    15
100
AcDbCircle
 10
274.4642649815
 20
-37.6255645508
 30
0.0
 40
31.49999999999994
  0
CIRCLE
  5
3C1
330
1F
100
AcDbEntity
  8
0
  6
Continuous
 62
     7
370
    15
100
AcDbCircle
 10
274.4642649815
 20
-37.6255645508
 30
0.0
 40
19.49999999999994
  0
CIRCLE
  5
3C2
330
1F
100
AcDbEntity
  8
0
  6
Continuous
 62
     7
370
    15
100
AcDbCircle
 10
274.4642649815
 20
-37.6255645508
 30
0.0
 40
17.49999999999994
  0
LINE
  5
3C3
330
1F
100
AcDbEntity
  8
0
  6
Continuous
 62
     7
370
    15
100
AcDbLine
 10
324.089263551
 20
-51.5309367234
 30
0.0
 11
286.2767623589
 21
-66.8268445784
 31
0.0
  0
LINE
  5
3C4
330
1F
100
AcDbEntity
  8
0
  6
Continuous
 62
     7
370
    15
100
AcDbLine
 10
262.6517610476
 20
-66.8268445784
 30
0.0
 11
224.839267306
 21
-51.5309367234
 31
0.0
  0
LINE
  5
3C5
330
1F
100
AcDbEntity
  8
0
  6
Continuous
 62
     7
370
    15
100
AcDbLine
 10
286.2767623589
 20
-8.4242802018
 30
0.0
 11
324.089263551
 21
-23.7201955074
 31
0.0
  0
LINE
  5
3C6
330
1F
100
AcDbEntity
  8
0
  6
Continuous
 62
     7
370
    15
100
AcDbLine
 10
224.839267306
 20
-23.7201955074
 30
0.0
 11
262.6517610476
 21
-8.4242802018
 31
0.0
  0
SPLINE
  5
3C7
330
1F
100
AcDbEntity
  8
0
  6
Continuous
 62
     7
370
    15
100
AcDbSpline
210
0.0
220
0.0
230
1.0
 70
     8
 71
     3
 72
    10
 73
     6
 74
     0
 42
0.00000001
 43
0.00000001
 40
0.0
 40
0.0
 40
0.0
 40
0.0
 40
0.4161089463059444
 40
0.7671132913067484
 40
1.0
 40
1.0
 40
1.0
 40
1.0
 10
328.4642593786322
 20
-45.93218675796037
 30
0.0
 10
328.4681169833383
 20
-46.02527115754365
 30
0.0
 10
328.4752286301054
 20
-46.19687592780284
 30
0.0
 10
328.5423553496911
 20
-46.41636165241206
 30
0.0
 10
328.6241026986434
 20
-46.5142314803276
 30
0.0
 10
328.6567078754507
 20
-46.55326715651994
 30
0.0
  0
LINE
  5
3C8
330
1F
100
AcDbEntity
  8
0
  6
Continuous
 62
     7
370
    15
100
AcDbLine
 10
328.4642593786
 20
-45.932186758
 30
0.0
 11
328.4642593786
 21
-42.8217183704
 31
0.0
  0
LINE
  5
3C9
330
1F
100
AcDbEntity
  8
0
  6
Continuous
 62
     7
370
    15
100
AcDbLine
 10
328.4642593786
 20
-32.4294101352
 30
0.0
 11
328.4642593786
 21
-29.3189417476
 31
0.0
  0
SPLINE
  5
3CA
330
1F
100
AcDbEntity
  8
0
  6
Continuous
 62
     7
370
    15
100
AcDbSpline
210
0.0
220
0.0
230
1.0
 70
     8
 71
     3
 72
    10
 73
     6
 74
     0
 42
0.00000001
 43
0.00000001
 40
0.0
 40
0.0
 40
0.0
 40
0.0
 40
0.2847081061414871
 40
0.6647911111183483
 40
1.0
 40
1.0
 40
1.0
 40
1.0
 10
328.6567078754507
 20
-28.69786134902483
 30
0.0
 10
328.6177532654455
 20
-28.74664873406455
 30
0.0
 10
328.526794568064
 20
-28.86056688114044
 30
0.0
 10
328.4726585338955
 20
-29.08451327232905
 30
0.0
 10
328.4669395018169
 20
-29.24413694019759
 30
0.0
 10
328.4642593786322
 20
-29.3189417475844
 30
0.0
  0
SPLINE
  5
3CB
330
1F
100
AcDbEntity
  8
0
  6
Continuous
 62
     7
370
    15
100
AcDbSpline
210
0.0
220
0.0
230
1.0
 70
     8
 71
     3
 72
    10
 73
     6
 74
     0
 42
0.00000001
 43
0.00000001
 40
0.0
 40
0.0
 40
0.0
 40
0.0
 40
0.2847035759921909
 40
0.6647864489716053
 40
1.0
 40
1.0
 40
1.0
 40
1.0
 10
220.2718229815565
 20
-46.55326715651994
 30
0.0
 10
220.3107775095081
 20
-46.50448105701166
 30
0.0
 10
220.4017368247117
 20
-46.39056489793899
 30
0.0
 10
220.4558747151579
 20
-46.16661791382659
 30
0.0
 10
220.4615870315294
 20
-46.00699280654349
 30
0.0
 10
220.4642640277945
 20
-45.93218675796037
 30
0.0
  0
ARC
  5
3CC
330
1F
100
AcDbEntity
  8
0
  6
Continuous
 62
     7
370
    15
100
AcDbCircle
 10
230.4642649815
 20
-37.6255645508
 30
0.0
 40
15.0
100
AcDbArc
 50
222.3024166942
 51
247.975687163
  0
SPLINE
  5
3CD
330
1F
100
AcDbEntity
  8
0
  6
Continuous
 62
     7
370
    15
100
AcDbSpline
210
0.0
220
0.0
230
1.0
 70
     8
 71
     3
 72
    12
 73
     8
 74
     0
 42
0.00000001
 43
0.00000001
 40
0.0
 40
0.0
 40
0.0
 40
0.0
 40
0.2595735864037022
 40
0.5190896042429282
 40
0.7799968688040837
 40
0.9926731643104063
 40
1.0
 40
1.0
 40
1.0
 40
1.0
 10
220.2718229815565
 20
-46.55326715651994
 30
0.0
 10
220.1239422502001
 20
-46.70292917369767
 30
0.0
 10
219.8282135846665
 20
-47.00222001581814
 30
0.0
 10
219.5173380263233
 20
-47.37478270410455
 30
0.0
 10
219.3613900704749
 20
-47.620092662042
 30
0.0
 10
219.3533470524899
 20
-47.70174451639416
 30
0.0
 10
219.3696769336106
 20
-47.72059247133248
 30
0.0
 10
219.3702207729422
 20
-47.72122017089372
 30
0.0
  0
SPLINE
  5
3CE
330
1F
100
AcDbEntity
  8
0
  6
Continuous
 62
     7
370
    15
100
AcDbSpline
210
0.0
220
0.0
230
1.0
 70
     8
 71
     3
 72
    10
 73
     6
 74
     0
 42
0.00000001
 43
0.00000001
 40
0.0
 40
0.0
 40
0.0
 40
0.0
 40
0.4161091958466576
 40
0.7671233785715709
 40
1.0
 40
1.0
 40
1.0
 40
1.0
 10
220.4642640277945
 20
-29.3189417475844
 30
0.0
 10
220.4604105097428
 20
-29.22585695346627
 30
0.0
 10
220.4533063077288
 20
-29.05424930222891
 30
0.0
 10
220.3861674155549
 20
-28.83476805794083
 30
0.0
 10
220.3044248516051
 20
-28.73689617194339
 30
0.0
 10
220.2718229815565
 20
-28.69786134902483
 30
0.0
  0
LINE
  5
3CF
330
1F
100
AcDbEntity
  8
0
  6
Continuous
 62
     7
370
    15
100
AcDbLine
 10
220.4642640278
 20
-45.932186758
 30
0.0
 11
220.4642640278
 21
-42.8217183704
 31
0.0
  0
LINE
  5
3D0
330
1F
100
AcDbEntity
  8
0
  6
Continuous
 62
     7
370
    15
100
AcDbLine
 10
220.4642640278
 20
-32.4294101352
 30
0.0
 11
220.4642640278
 21
-29.3189417476
 31
0.0
  0
ARC
  5
3D1
330
1F
100
AcDbEntity
  8
0
  6
Continuous
 62
     7
370
    15
100
AcDbCircle
 10
318.4642649815
 20
-37.6255645508
 30
0.0
 40
15.00000000000001
100
AcDbArc
 50
42.3024166942
 51
67.975687163
  0
SPLINE
  5
3D2
330
1F
100
AcDbEntity
  8
0
  6
Continuous
 62
     7
370
    15
100
AcDbSpline
210
0.0
220
0.0
230
1.0
 70
     8
 71
     3
 72
    12
 73
     8
 74
     0
 42
0.00000001
 43
0.00000001
 40
0.0
 40
0.0
 40
0.0
 40
0.0
 40
0.0073266996467085
 40
0.2200034565267993
 40
0.4809122534454442
 40
0.7404269935923099
 40
1.0
 40
1.0
 40
1.0
 40
1.0
 10
329.5583026334845
 20
-27.52990833465105
 30
0.0
 10
329.5588464704093
 20
-27.53053476877773
 30
0.0
 10
329.575176606629
 20
-27.54934510355331
 30
0.0
 10
329.5671466034077
 20
-27.63105650406986
 30
0.0
 10
329.4111836572922
 20
-27.8763453844281
 30
0.0
 10
329.1003080792776
 20
-28.24890331625354
 30
0.0
 10
328.804585674752
 20
-28.54819747310197
 30
0.0
 10
328.6567078754507
 20
-28.69786134902483
 30
0.0
  0
SPLINE
  5
3D3
330
1F
100
AcDbEntity
  8
0
  6
Continuous
 62
     7
370
    15
100
AcDbSpline
210
0.0
220
0.0
230
1.0
 70
     8
 71
     3
 72
    12
 73
     8
 74
     0
 42
0.00000001
 43
0.00000001
 40
0.0
 40
0.0
 40
0.0
 40
0.0
 40
0.0073268442437127
 40
0.2200033321944967
 40
0.4809115942288263
 40
0.7404279150543605
 40
1.0
 40
1.0
 40
1.0
 40
1.0
 10
329.5583026334845
 20
-47.72122017089372
 30
0.0
 10
329.5588464704525
 20
-47.72059247137567
 30
0.0
 10
329.5751762764589
 20
-47.70174452251877
 30
0.0
 10
329.5671470781754
 20
-47.62009231787964
 30
0.0
 10
329.4111820585775
 20
-47.37478303122508
 30
0.0
 10
329.10031038633
 20
-47.00222168076343
 30
0.0
 10
328.8045859686747
 20
-46.70292938196094
 30
0.0
 10
328.6567078754507
 20
-46.55326715651994
 30
0.0
  0
ARC
  5
3D4
330
1F
100
AcDbEntity
  8
0
  6
Continuous
 62
     7
370
    15
100
AcDbCircle
 10
318.4642649815
 20
-37.6255645508
 30
0.0
 40
15.00000000000001
100
AcDbArc
 50
292.024312837
 51
317.6975833058
  0
SPLINE
  5
3D5
330
1F
100
AcDbEntity
  8
0
  6
Continuous
 62
     7
370
    15
100
AcDbSpline
210
0.0
220
0.0
230
1.0
 70
     8
 71
     3
 72
    12
 73
     8
 74
     0
 42
0.00000001
 43
0.00000001
 40
0.0
 40
0.0
 40
0.0
 40
0.0
 40
0.2595745078594409
 40
0.5190889450231848
 40
0.7799967444708655
 40
0.9926733089072038
 40
1.0
 40
1.0
 40
1.0
 40
1.0
 10
220.2718229815565
 20
-28.69786134902483
 30
0.0
 10
220.1239425441238
 20
-28.54819768136246
 30
0.0
 10
219.8282158917281
 20
-28.24890498118243
 30
0.0
 10
219.5173364276439
 20
-27.87634571154848
 30
0.0
 10
219.3613905452487
 20
-27.63105615984354
 30
0.0
 10
219.353346722322
 20
-27.54934510966828
 30
0.0
 10
219.3696769336539
 20
-27.53053476882092
 30
0.0
 10
219.3702207729422
 20
-27.52990833465105
 30
0.0
  0
ARC
  5
3D6
330
1F
100
AcDbEntity
  8
0
  6
Continuous
 62
     7
370
    15
100
AcDbCircle
 10
230.4642649815
 20
-37.6255645508
 30
0.0
 40
14.99999999999998
100
AcDbArc
 50
112.024312837
 51
137.6975833058
  0
ARC
  5
3D7
330
1F
100
AcDbEntity
  8
0
  6
Continuous
 62
     7
370
    15
100
AcDbCircle
 10
230.4642649815
 20
-37.6255645508
 30
0.0
 40
14.99999999999998
100
AcDbArc
 50
137.6975833058
 51
222.3024166942
  0
ARC
  5
3D8
330
1F
100
AcDbEntity
  8
0
  6
Continuous
 62
     7
370
    15
100
AcDbCircle
 10
318.4642649815
 20
-37.6255645508
 30
0.0
 40
15.00000000000001
100
AcDbArc
 50
317.6975833058
 51
42.3024166942
  0
CIRCLE
  5
3D9
330
1F
100
AcDbEntity
  8
0
  6
Continuous
 62
     7
370
    15
100
AcDbCircle
 10
-195.5357350185
 20
-37.6255645508
 30
0.0
 40
22.00000000000003
  0
CIRCLE
  5
3DA
330
1F
100
AcDbEntity
  8
0
  6
Continuous
 62
     7
370
    15
100
AcDbCircle
 10
-195.5357350185
 20
-37.6255645508
 30
0.0
 40
31.49999999999997
  0
CIRCLE
  5
3DB
330
1F
100
AcDbEntity
  8
0
  6
Continuous
 62
     7
370
    15
100
AcDbCircle
 10
-195.5357350185
 20
-37.6255645508
 30
0.0
 40
20.0
  0
LINE
  5
3DC
330
1F
100
AcDbEntity
  8
0
  6
Continuous
 62
     7
370
    15
100
AcDbLine
 10
-161.1357284859
 20
-57.6897542829
 30
0.0
 11
-183.723236449
 21
-66.8268445784
 31
0.0
  0
LINE
  5
3DD
330
1F
100
AcDbEntity
  8
0
  6
Continuous
 62
     7
370
    15
100
AcDbLine
 10
-207.3482228592
 20
-66.8268445784
 30
0.0
 11
-231.1357213333
 21
-57.2043303305
 31
0.0
  0
LINE
  5
3DE
330
1F
100
AcDbEntity
  8
0
  6
Continuous
 62
     7
370
    15
100
AcDbLine
 10
-183.723236449
 20
-8.4242802018
 30
0.0
 11
-166.1827815845
 21
-15.5197437758
 31
0.0
  0
LINE
  5
3DF
330
1F
100
AcDbEntity
  8
0
  6
Continuous
 62
     7
370
    15
100
AcDbLine
 10
-226.4649821594
 20
-16.157386815
 30
0.0
 11
-207.3482228592
 21
-8.4242802018
 31
0.0
  0
CIRCLE
  5
3E0
330
1F
100
AcDbEntity
  8
0
  6
Continuous
 62
     7
370
    15
100
AcDbCircle
 10
274.4642649815
 20
-37.6255645508
 30
0.0
 40
14.0
  0
LINE
  5
3E1
330
1F
100
AcDbEntity
  8
0
  6
Continuous
 62
     7
370
    15
100
AcDbLine
 10
-161.1357284859
 20
-63.0255658085
 30
0.0
 11
38.2642643377
 21
-63.0255658085
 31
0.0
  0
ARC
  5
3E2
330
1F
100
AcDbEntity
  8
0
  6
Continuous
 62
     7
370
    15
100
AcDbCircle
 10
-196.1357350185
 20
-33.6255645508
 30
0.0
 40
35.00000000000003
100
AcDbArc
 50
0.0
 51
180.0
  0
LINE
  5
3E3
330
1F
100
AcDbEntity
  8
0
  6
Continuous
 62
     7
370
    15
100
AcDbLine
 10
-240.5357314423
 20
-63.0255658085
 30
0.0
 11
-231.1357213333
 21
-63.0255658085
 31
0.0
  0
LINE
  5
3E4
330
1F
100
AcDbEntity
  8
0
  6
Continuous
 62
     7
370
    15
100
AcDbLine
 10
-161.1357284859
 20
-63.0255658085
 30
0.0
 11
-161.1357284859
 21
-33.6255635971
 31
0.0
  0
LINE
  5
3E5
330
1F
100
AcDbEntity
  8
0
  6
Continuous
 62
     7
370
    15
100
AcDbLine
 10
-231.1357213333
 20
-33.6255635971
 30
0.0
 11
-231.1357213333
 21
-63.0255658085
 31
0.0
  0
LINE
  5
3E6
330
1F
100
AcDbEntity
  8
0
  6
Continuous
 62
     7
370
    15
100
AcDbLine
 10
-231.1357213333
 20
-63.6255647892
 30
0.0
 11
-240.5357314423
 21
-63.6255647892
 31
0.0
  0
LINE
  5
3E7
330
1F
100
AcDbEntity
  8
0
  6
Continuous
 62
     7
370
    15
100
AcDbLine
 10
-231.1357213333
 20
-63.0255658085
 30
0.0
 11
-231.1357213333
 21
-63.6255647892
 31
0.0
  0
LINE
  5
3E8
330
1F
100
AcDbEntity
  8
0
  6
Continuous
 62
     7
370
    15
100
AcDbLine
 10
-260.5357421711
 20
-63.6255647892
 30
0.0
 11
-240.5357314423
 21
-63.6255647892
 31
0.0
  0
LINE
  5
3E9
330
1F
100
AcDbEntity
  8
0
  6
Continuous
 62
     7
370
    15
100
AcDbLine
 10
-260.5357421711
 20
-63.6255647892
 30
0.0
 11
-261.1357225254
 21
-63.0255658085
 31
0.0
  0
LINE
  5
3EA
330
1F
100
AcDbEntity
  8
0
  6
Continuous
 62
     7
370
    15
100
AcDbLine
 10
-261.1357225254
 20
-63.0255658085
 30
0.0
 11
-240.5357314423
 21
-63.0255658085
 31
0.0
  0
LINE
  5
3EB
330
1F
100
AcDbEntity
  8
0
  6
Continuous
 62
     7
370
    15
100
AcDbLine
 10
38.2642643377
 20
-63.0255658085
 30
0.0
 11
58.8642665968
 21
-63.0255658085
 31
0.0
  0
LINE
  5
3EC
330
1F
100
AcDbEntity
  8
0
  6
Continuous
 62
     7
370
    15
100
AcDbLine
 10
58.8642665968
 20
-63.0255658085
 30
0.0
 11
58.2642638907
 21
-63.6255647892
 31
0.0
  0
LINE
  5
3ED
330
1F
100
AcDbEntity
  8
0
  6
Continuous
 62
     7
370
    15
100
AcDbLine
 10
38.2642643377
 20
-63.6255647892
 30
0.0
 11
58.2642638907
 21
-63.6255647892
 31
0.0
  0
LINE
  5
3EE
330
1F
100
AcDbEntity
  8
0
  6
Continuous
 62
     7
370
    15
100
AcDbLine
 10
38.2642643377
 20
-63.6255647892
 30
0.0
 11
-161.1357284859
 21
-63.6255647892
 31
0.0
  0
LINE
  5
3EF
330
1F
100
AcDbEntity
  8
0
  6
Continuous
 62
     7
370
    15
100
AcDbLine
 10
-161.1357284859
 20
-63.6255647892
 30
0.0
 11
-161.1357284859
 21
-63.0255658085
 31
0.0
  0
LINE
  5
3F0
330
1F
100
AcDbEntity
  8
0
  6
Continuous
 62
     7
370
    15
100
AcDbLine
 10
58.8642665968
 20
251.2543294674
 30
0.0
 11
58.8642665968
 21
-63.0255658085
 31
0.0
  0
LINE
  5
3F1
330
1F
100
AcDbEntity
  8
0
  6
Continuous
 62
     7
370
    15
100
AcDbLine
 10
-261.1357225254
 20
-63.0255658085
 30
0.0
 11
-261.1357225254
 21
251.2543294674
 31
0.0
  0
LWPOLYLINE
  5
3F2
330
1F
100
AcDbEntity
  8
0
  6
Continuous
 62
     7
370
    15
100
AcDbPolyline
 90
        9
 70
   128
 43
0.0
 10
-246.0229946449
 20
266.8466959244
 10
-245.9269119575
 20
266.8497059589
 10
-245.6423891857
 20
266.8586168533
 10
-245.1803339794
 20
266.8730411774
 10
-244.5585383251
 20
266.8924722916
 10
-243.8008440807
 20
266.9161651378
 10
-242.9364277199
 20
266.9431660419
 10
-241.9984592274
 20
266.9724617248
 10
-241.0229994133
 20
267.0029495006
  0
ARC
  5
3F3
330
1F
100
AcDbEntity
  8
0
  6
Continuous
 62
     7
370
    15
100
AcDbCircle
 10
-245.5357350185
 20
251.2543201205
 30
0.0
 40
15.60000000000002
100
AcDbArc
 50
91.7899106082
 51
180.0
  0
LINE
  5
3F4
330
1F
100
AcDbEntity
  8
0
  6
Continuous
 62
     7
370
    15
100
AcDbLine
 10
32.1442829296
 20
267.2094497925
 30
0.0
 11
38.7515248582
 21
267.0029495006
 31
0.0
  0
LWPOLYLINE
  5
3F5
330
1F
100
AcDbEntity
  8
0
  6
Continuous
 62
     7
370
    15
100
AcDbPolyline
 90
       10
 70
   128
 43
0.0
 10
38.7515248582
 20
267.0029495006
 10
39.6197708175
 20
266.9758293873
 10
40.4616268203
 20
266.9495139366
 10
41.2515299246
 20
266.9248376137
 10
41.9654669091
 20
266.9025156742
 10
42.5817491338
 20
266.8832633739
 10
43.0816532895
 20
266.867646957
 10
43.4499876425
 20
266.8561432606
 10
43.6755688712
 20
266.8490801102
 10
43.7515275404
 20
266.8466959244
  0
ARC
  5
3F6
330
1F
100
AcDbEntity
  8
0
  6
Continuous
 62
     7
370
    15
100
AcDbCircle
 10
43.2642649815
 20
251.2543201205
 30
0.0
 40
15.6
100
AcDbArc
 50
0.0
 51
88.2100893918
  0
LINE
  5
3F7
330
1F
100
AcDbEntity
  8
0
  6
Continuous
 62
     7
370
    15
100
AcDbLine
 10
-241.0229994133
 20
267.0029495006
 30
0.0
 11
-234.4157649353
 21
267.2094497925
 31
0.0
  0
LINE
  5
3F8
330
1F
100
AcDbEntity
  8
0
  6
Continuous
 62
     7
370
    15
100
AcDbLine
 10
-260.5357421711
 20
-73.6255627031
 30
0.0
 11
-260.5357421711
 21
-63.6255647892
 31
0.0
  0
LINE
  5
3F9
330
1F
100
AcDbEntity
  8
0
  6
Continuous
 62
     7
370
    15
100
AcDbLine
 10
-240.5357314423
 20
-73.6255627031
 30
0.0
 11
-260.5357421711
 21
-73.6255627031
 31
0.0
  0
LINE
  5
3FA
330
1F
100
AcDbEntity
  8
0
  6
Continuous
 62
     7
370
    15
100
AcDbLine
 10
-231.1357213333
 20
-73.6255627031
 30
0.0
 11
-240.5357314423
 21
-73.6255627031
 31
0.0
  0
LINE
  5
3FB
330
1F
100
AcDbEntity
  8
0
  6
Continuous
 62
     7
370
    15
100
AcDbLine
 10
-231.1357213333
 20
-73.6255627031
 30
0.0
 11
-231.1357213333
 21
-63.6255647892
 31
0.0
  0
LINE
  5
3FC
330
1F
100
AcDbEntity
  8
0
  6
Continuous
 62
     7
370
    15
100
AcDbLine
 10
38.2642643377
 20
-73.6255627031
 30
0.0
 11
3.3642621562
 21
-73.6255627031
 31
0.0
  0
LINE
  5
3FD
330
1F
100
AcDbEntity
  8
0
  6
Continuous
 62
     7
370
    15
100
AcDbLine
 10
3.3642621562
 20
-72.3875444287
 30
0.0
 11
3.3642621562
 21
-73.6255627031
 31
0.0
  0
LINE
  5
3FE
330
1F
100
AcDbEntity
  8
0
  6
Continuous
 62
     7
370
    15
100
AcDbLine
 10
-3.6357371285
 20
-73.6255627031
 30
0.0
 11
-3.6357371285
 21
-71.0240024978
 31
0.0
  0
LINE
  5
3FF
330
1F
100
AcDbEntity
  8
0
  6
Continuous
 62
     7
370
    15
100
AcDbLine
 10
-3.6357371285
 20
-73.6255627031
 30
0.0
 11
-161.1357284859
 21
-73.6255627031
 31
0.0
  0
LINE
  5
400
330
1F
100
AcDbEntity
  8
0
  6
Continuous
 62
     7
370
    15
100
AcDbLine
 10
-161.1357284859
 20
-63.6255647892
 30
0.0
 11
-161.1357284859
 21
-73.6255627031
 31
0.0
  0
LINE
  5
401
330
1F
100
AcDbEntity
  8
0
  6
Continuous
 62
     7
370
    15
100
AcDbLine
 10
58.2642638907
 20
-63.6255647892
 30
0.0
 11
58.2642638907
 21
-73.6255627031
 31
0.0
  0
LINE
  5
402
330
1F
100
AcDbEntity
  8
0
  6
Continuous
 62
     7
370
    15
100
AcDbLine
 10
58.2642638907
 20
-73.6255627031
 30
0.0
 11
38.2642643377
 21
-73.6255627031
 31
0.0
  0
LINE
  5
403
330
1F
100
AcDbEntity
  8
0
  6
Continuous
 62
     7
370
    15
100
AcDbLine
 10
-100.6484730318
 20
271.3592145687
 30
0.0
 11
32.1442829296
 21
267.2094497925
 31
0.0
  0
LINE
  5
404
330
1F
100
AcDbEntity
  8
0
  6
Continuous
 62
     7
370
    15
100
AcDbLine
 10
-234.4157649353
 20
267.2094497925
 30
0.0
 11
-101.6229940727
 21
271.3592145687
 31
0.0
  0
LINE
  5
405
330
1F
100
AcDbEntity
  8
0
  6
Continuous
 62
     7
370
    15
100
AcDbLine
 10
59.4642655775
 20
141.3744334226
 30
0.0
 11
59.4642655775
 21
249.3744287735
 31
0.0
  0
LINE
  5
406
330
1F
100
AcDbEntity
  8
0
  6
Continuous
 62
     7
370
    15
100
AcDbLine
 10
59.4642655775
 20
249.3744287735
 30
0.0
 11
58.8642665968
 21
249.3744287735
 31
0.0
  0
LINE
  5
407
330
1F
100
AcDbEntity
  8
0
  6
Continuous
 62
     7
370
    15
100
AcDbLine
 10
59.4642655775
 20
141.3744334226
 30
0.0
 11
58.8642665968
 21
141.3744334226
 31
0.0
  0
ARC
  5
408
330
1F
100
AcDbEntity
  8
0
  6
Continuous
 62
     7
370
    15
100
AcDbCircle
 10
-101.1357350185
 20
255.7668201205
 30
0.0
 40
15.60000000000002
100
AcDbArc
 50
88.2100893918
 51
91.7899106082
  0
LINE
  5
409
330
1F
100
AcDbEntity
  8
0
  6
Continuous
 62
     7
370
    15
100
AcDbLine
 10
60.4642638788
 20
249.3744287735
 30
0.0
 11
59.4642655775
 21
249.3744287735
 31
0.0
  0
LINE
  5
40A
330
1F
100
AcDbEntity
  8
0
  6
Continuous
 62
     7
370
    15
100
AcDbLine
 10
60.4642638788
 20
141.3744334226
 30
0.0
 11
59.4642655775
 21
141.3744334226
 31
0.0
  0
LINE
  5
40B
330
1F
100
AcDbEntity
  8
0
  6
Continuous
 62
     7
370
    15
100
AcDbLine
 10
72.8642651662
 20
249.3744287735
 30
0.0
 11
60.4642638788
 21
249.3744287735
 31
0.0
  0
LINE
  5
40C
330
1F
100
AcDbEntity
  8
0
  6
Continuous
 62
     7
370
    15
100
AcDbLine
 10
72.8642651662
 20
141.3744334226
 30
0.0
 11
60.4642638788
 21
141.3744334226
 31
0.0
  0
LINE
  5
40D
330
1F
100
AcDbEntity
  8
0
  6
Continuous
 62
     7
370
    15
100
AcDbLine
 10
74.4642661736
 20
249.3744287735
 30
0.0
 11
74.4642661736
 21
141.3744334226
 31
0.0
  0
LINE
  5
40E
330
1F
100
AcDbEntity
  8
0
  6
Continuous
 62
     7
370
    15
100
AcDbLine
 10
72.8642651662
 20
249.3744287735
 30
0.0
 11
74.4642661736
 21
249.3744287735
 31
0.0
  0
LINE
  5
40F
330
1F
100
AcDbEntity
  8
0
  6
Continuous
 62
     7
370
    15
100
AcDbLine
 10
74.4642661736
 20
141.3744334226
 30
0.0
 11
72.8642651662
 21
141.3744334226
 31
0.0
  0
SPLINE
  5
410
330
1F
100
AcDbEntity
  8
0
  6
Continuous
 62
     7
370
    15
100
AcDbSpline
210
0.0
220
0.0
230
1.0
 70
     8
 71
     3
 72
    12
 73
     8
 74
     0
 42
0.00000001
 43
0.00000001
 40
0.0
 40
0.0
 40
0.0
 40
0.0
 40
0.0021518878243383
 40
0.1139684652326379
 40
0.4030260879808832
 40
0.6922560160447251
 40
1.0
 40
1.0
 40
1.0
 40
1.0
 10
-265.1357306316294
 20
-37.28242031280046
 30
0.0
 10
-265.1357229323369
 20
-37.27720245618357
 30
0.0
 10
-265.135315161758
 20
-37.00085389205174
 30
0.0
 10
-265.0673701340388
 20
-36.02261214791994
 30
0.0
 10
-264.5350485834402
 20
-34.40315178780146
 30
0.0
 10
-263.1829029801766
 20
-32.62046181000366
 30
0.0
 10
-261.8320804418624
 20
-31.96398507548773
 30
0.0
 10
-261.1357225253977
 20
-31.62556699458604
 30
0.0
  0
SPLINE
  5
411
330
1F
100
AcDbEntity
  8
0
  6
Continuous
 62
     7
370
    15
100
AcDbSpline
210
0.0
220
0.0
230
1.0
 70
     8
 71
     3
 72
    12
 73
     8
 74
     0
 42
0.00000001
 43
0.00000001
 40
0.0
 40
0.0
 40
0.0
 40
0.0
 40
0.0021509888541062
 40
0.1139684798116902
 40
0.4030252881295298
 40
0.6922559708918729
 40
1.0
 40
1.0
 40
1.0
 40
1.0
 10
-265.1357306316294
 20
-17.282417034545
 30
0.0
 10
-265.1357229303695
 20
-17.27720166460475
 30
0.0
 10
-265.1353148850777
 20
-17.00086932442946
 30
0.0
 10
-265.0673720072684
 20
-16.02259238228877
 30
0.0
 10
-264.5350445486268
 20
-14.40316174933176
 30
0.0
 10
-263.1829058410879
 20
-12.62045614751901
 30
0.0
 10
-261.8320808667889
 20
-11.96398071979834
 30
0.0
 10
-261.1357225253977
 20
-11.62556371633058
 30
0.0
  0
SPLINE
  5
412
330
1F
100
AcDbEntity
  8
0
  6
Continuous
 62
     7
370
    15
100
AcDbSpline
210
0.0
220
0.0
230
1.0
 70
     8
 71
     3
 72
    12
 73
     8
 74
     0
 42
0.00000001
 43
0.00000001
 40
0.0
 40
0.0
 40
0.0
 40
0.0
 40
0.0021518878243383
 40
0.1139684652326379
 40
0.4030260879808832
 40
0.6922560160447251
 40
1.0
 40
1.0
 40
1.0
 40
1.0
 10
-265.1357306316294
 20
2.717578793129865
 30
0.0
 10
-265.1357229323369
 20
2.722796649746742
 30
0.0
 10
-265.135315161758
 20
2.999145213878743
 30
0.0
 10
-265.0673701340388
 20
3.977386958010198
 30
0.0
 10
-264.5350485834402
 20
5.59684731812897
 30
0.0
 10
-263.1829029801766
 20
7.379537295926636
 30
0.0
 10
-261.8320804418624
 20
8.036014030442601
 30
0.0
 10
-261.1357225253977
 20
8.374432111344282
 30
0.0
  0
SPLINE
  5
413
330
1F
100
AcDbEntity
  8
0
  6
Continuous
 62
     7
370
    15
100
AcDbSpline
210
0.0
220
0.0
230
1.0
 70
     8
 71
     3
 72
    12
 73
     8
 74
     0
 42
0.00000001
 43
0.00000001
 40
0.0
 40
0.0
 40
0.0
 40
0.0
 40
0.0021527846211142
 40
0.1139683328945622
 40
0.4030256144250347
 40
0.6922559133288315
 40
0.9999999999999999
 40
0.9999999999999999
 40
0.9999999999999999
 40
0.9999999999999999
 10
-265.1357306316294
 20
22.71757462080473
 30
0.0
 10
-265.1357229342838
 20
22.72279496408355
 30
0.0
 10
-265.1353154371155
 20
22.99915973127597
 30
0.0
 10
-265.0673690411431
 20
23.97736471652825
 30
0.0
 10
-264.5350470716613
 20
25.59685117064511
 30
0.0
 10
-263.1829040264562
 20
27.37953829302153
 30
0.0
 10
-261.8320805866289
 20
28.03602155158849
 30
0.0
 10
-261.1357225253977
 20
28.37444284018034
 30
0.0
  0
LINE
  5
414
330
1F
100
AcDbEntity
  8
0
  6
Continuous
 62
     7
370
    15
100
AcDbLine
 10
-261.1357225254
 20
-43.625561511
 30
0.0
 11
-265.1357306316
 21
-43.625561511
 31
0.0
  0
LINE
  5
415
330
1F
100
AcDbEntity
  8
0
  6
Continuous
 62
     7
370
    15
100
AcDbLine
 10
-265.1357306316
 20
-43.625561511
 30
0.0
 11
-265.1357306316
 21
-37.2824203128
 31
0.0
  0
LINE
  5
416
330
1F
100
AcDbEntity
  8
0
  6
Continuous
 62
     7
370
    15
100
AcDbLine
 10
-261.1357225254
 20
-23.6255656833
 30
0.0
 11
-265.1357306316
 21
-23.6255656833
 31
0.0
  0
LINE
  5
417
330
1F
100
AcDbEntity
  8
0
  6
Continuous
 62
     7
370
    15
100
AcDbLine
 10
-265.1357306316
 20
-23.6255656833
 30
0.0
 11
-265.1357306316
 21
-17.2824170345
 31
0.0
  0
LINE
  5
418
330
1F
100
AcDbEntity
  8
0
  6
Continuous
 62
     7
370
    15
100
AcDbLine
 10
-261.1357225254
 20
-3.625562405
 30
0.0
 11
-265.1357306316
 21
-3.625562405
 31
0.0
  0
LINE
  5
419
330
1F
100
AcDbEntity
  8
0
  6
Continuous
 62
     7
370
    15
100
AcDbLine
 10
-265.1357306316
 20
-3.625562405
 30
0.0
 11
-265.1357306316
 21
2.7175787931
 31
0.0
  0
LINE
  5
41A
330
1F
100
AcDbEntity
  8
0
  6
Continuous
 62
     7
370
    15
100
AcDbLine
 10
-261.1357225254
 20
16.3744334226
 30
0.0
 11
-265.1357306316
 21
16.3744334226
 31
0.0
  0
LINE
  5
41B
330
1F
100
AcDbEntity
  8
0
  6
Continuous
 62
     7
370
    15
100
AcDbLine
 10
-265.1357306316
 20
16.3744334226
 30
0.0
 11
-265.1357306316
 21
22.7175746208
 31
0.0
  0
LINE
  5
41C
330
1F
100
AcDbEntity
  8
0
  6
Continuous
 62
     7
370
    15
100
AcDbLine
 10
-161.1357284859
 20
-73.6255627031
 30
0.0
 11
-231.1357213333
 21
-73.6255627031
 31
0.0
  0
LINE
  5
41D
330
1F
100
AcDbEntity
  8
0
  6
Continuous
 62
     7
370
    15
100
AcDbLine
 10
-161.1357284859
 20
-62.7770367915
 30
0.0
 11
-173.7118316963
 21
-62.7770367915
 31
0.0
  0
LINE
  5
41E
330
1F
100
AcDbEntity
  8
0
  6
Continuous
 62
     7
370
    15
100
AcDbLine
 10
-217.3596276119
 20
-62.7770367915
 30
0.0
 11
-231.1357213333
 21
-62.7770367915
 31
0.0
  0
LINE
  5
41F
330
1F
100
AcDbEntity
  8
0
  6
Continuous
 62
     7
370
    15
100
AcDbLine
 10
397.1253679916
 20
-77.6255652213
 30
0.0
 11
397.1253679916
 21
-75.3255654031
 31
0.0
  0
SPLINE
  5
420
330
1F
100
AcDbEntity
  8
0
  6
Continuous
 62
     7
370
    15
100
AcDbSpline
210
0.0
220
0.0
230
1.0
 70
     8
 71
     3
 72
    11
 73
     7
 74
     0
 42
0.00000001
 43
0.00000001
 40
0.0
 40
0.0
 40
0.0
 40
0.0
 40
0.2343101691337433
 40
0.4755198172487776
 40
0.7332980885995637
 40
1.0
 40
1.0
 40
1.0
 40
1.0
 10
84.5537548735939
 20
121.2976221090173
 30
0.0
 10
84.89329974022739
 20
121.3384946273562
 30
0.0
 10
85.58238768517765
 20
121.4214431930238
 30
0.0
 10
86.7693621492353
 20
120.5243092172922
 30
0.0
 10
88.060317324213
 20
118.862537066905
 30
0.0
 10
88.92611739632002
 20
117.0098211897683
 30
0.0
 10
89.36638290437088
 20
116.0677019601678
 30
0.0
  0
ELLIPSE
  5
421
330
1F
100
AcDbEntity
  8
0
  6
Continuous
 62
     7
370
    15
100
AcDbEllipse
 10
274.4642649815
 20
118.0618428566
 30
0.0
 11
194.4999999999999
 21
0.0
 31
0.0
210
0.0
220
0.0
230
1.0
 40
0.077037037
 41
2.923924394291561
 42
3.187485763908708
  0
SPLINE
  5
422
330
1F
100
AcDbEntity
  8
0
  6
Continuous
 62
     7
370
    15
100
AcDbSpline
210
0.0
220
0.0
230
1.0
 70
     8
 71
     3
 72
    11
 73
     7
 74
     0
 42
0.00000001
 43
0.00000001
 40
0.0
 40
0.0
 40
0.0
 40
0.0
 40
0.2900269220791068
 40
0.5800654858566953
 40
0.8699997925566018
 40
0.9999999999999999
 40
0.9999999999999999
 40
0.9999999999999999
 40
0.9999999999999999
 10
80.12885878237114
 20
69.37443652208799
 30
0.0
 10
80.1928193114572
 20
69.43994315719229
 30
0.0
 10
80.3207429370089
 20
69.57095905684125
 30
0.0
 10
80.6097107129495
 20
70.64284944175874
 30
0.0
 10
80.885815582098
 20
71.91171147147399
 30
0.0
 10
81.06536478413372
 20
73.02865473022504
 30
0.0
 10
81.12094829233513
 20
73.37442972715849
 30
0.0
  0
LINE
  5
423
330
1F
100
AcDbEntity
  8
0
  6
Continuous
 62
     7
370
    15
100
AcDbLine
 10
85.0064856783
 20
69.3744365221
 30
0.0
 11
79.9642642811
 21
69.3744365221
 31
0.0
  0
LINE
  5
424
330
1F
100
AcDbEntity
  8
0
  6
Continuous
 62
     7
370
    15
100
AcDbLine
 10
85.4216972217
 20
69.4334600216
 30
0.0
 11
85.0064856783
 21
69.3744365221
 31
0.0
  0
ELLIPSE
  5
425
330
1F
100
AcDbEntity
  8
0
  6
Continuous
 62
     7
370
    15
100
AcDbEllipse
 10
274.4642649815
 20
66.3452232041
 30
0.0
 11
194.4999999999999
 21
0.0
 31
0.0
210
0.0
220
0.0
230
1.0
 40
0.0675010559
 41
2.827758115320653
 42
2.904143758768376
  0
ELLIPSE
  5
426
330
1F
100
AcDbEntity
  8
0
  6
Continuous
 62
     7
370
    15
100
AcDbEllipse
 10
274.4642649815
 20
66.3452232041
 30
0.0
 11
194.4999999999999
 21
0.0
 31
0.0
210
0.0
220
0.0
230
1.0
 40
0.0675010559
 41
2.745673238969129
 42
2.827758115320655
  0
SPLINE
  5
427
330
1F
100
AcDbEntity
  8
0
  6
Continuous
 62
     7
370
    15
100
AcDbSpline
210
0.0
220
0.0
230
1.0
 70
     8
 71
     3
 72
    22
 73
    18
 74
     0
 42
0.00000001
 43
0.00000001
 40
0.0
 40
0.0
 40
0.0
 40
0.0
 40
0.069371174789661
 40
0.1387106732778445
 40
0.2083725142768683
 40
0.2779947432164303
 40
0.3421734883123989
 40
0.4063435844983349
 40
0.4661933982584259
 40
0.5260586647131671
 40
0.5869169676870077
 40
0.6477986554272216
 40
0.7137846951335326
 40
0.7797929997133087
 40
0.8525324918806209
 40
0.9252830167929346
 40
1.0
 40
1.0
 40
1.0
 40
1.0
 10
98.60150607677326
 20
98.31284918840879
 30
0.0
 10
98.90178494983272
 20
97.78395556577892
 30
0.0
 10
99.50220558245832
 20
96.72640982419706
 30
0.0
 10
100.2724814964073
 20
94.73844661130842
 30
0.0
 10
100.8943476038505
 20
92.49272669103625
 30
0.0
 10
101.3195382399305
 20
90.08861541718608
 30
0.0
 10
101.5263698843376
 20
87.6228057351986
 30
0.0
 10
101.5317275509364
 20
85.2385088788298
 30
0.0
 10
101.345535177375
 20
82.94684259086743
 30
0.0
 10
101.0014032271989
 20
80.79108327161826
 30
0.0
 10
100.5031093281826
 20
78.77744453155597
 30
0.0
 10
99.86065510017377
 20
76.89430667000791
 30
0.0
 10
99.08800808901194
 20
75.21359132948693
 30
0.0
 10
98.17977363019513
 20
73.72835327219049
 30
0.0
 10
97.17703810129068
 20
72.55950750925011
 30
0.0
 10
96.09662170811711
 20
71.71142468636488
 30
0.0
 10
95.37562702580868
 20
71.51036176299341
 30
0.0
 10
95.01032250376568
 20
71.40848972853178
 30
0.0
  0
ELLIPSE
  5
428
330
1F
100
AcDbEntity
  8
0
  6
Continuous
 62
     7
370
    15
100
AcDbEllipse
 10
274.4642649815
 20
161.5127619433
 30
0.0
 11
194.4999999999999
 21
2.842170943040401E-14
 31
0.0
210
0.0
220
0.0
230
1.0
 40
0.7606974616
 41
3.45542719185895
 42
3.582935890230023
  0
ELLIPSE
  5
429
330
1F
100
AcDbEntity
  8
0
  6
Continuous
 62
     7
370
    15
100
AcDbEllipse
 10
274.4642649815
 20
161.5127619433
 30
0.0
 11
194.4999999999999
 21
2.842170943040401E-14
 31
0.0
210
0.0
220
0.0
230
1.0
 40
0.7606974616
 41
3.453792910562552
 42
3.45542719185895
  0
LINE
  5
42A
330
1F
100
AcDbEntity
  8
0
  6
Continuous
 62
     7
370
    15
100
AcDbLine
 10
151.8031665907
 20
-75.3255654031
 30
0.0
 11
151.8031665907
 21
-77.6255652213
 31
0.0
  0
ELLIPSE
  5
42B
330
1F
100
AcDbEntity
  8
0
  6
Continuous
 62
     7
370
    15
100
AcDbEllipse
 10
274.4642649815
 20
-1.3611829024
 30
0.0
 11
194.4999999999999
 21
8.881784197001252E-13
 31
0.0
210
0.0
220
0.0
230
1.0
 40
0.3709911166
 41
6.011148999100461
 42
6.222345277170646
  0
SPLINE
  5
42C
330
1F
100
AcDbEntity
  8
0
  6
Continuous
 62
     7
370
    15
100
AcDbSpline
210
0.0
220
0.0
230
1.0
 70
     8
 71
     3
 72
    22
 73
    18
 74
     0
 42
0.00000001
 43
0.00000001
 40
0.0
 40
0.0
 40
0.0
 40
0.0
 40
0.0718498533129472
 40
0.1436930338167488
 40
0.2156382280988433
 40
0.2875649689903317
 40
0.3574435891991379
 40
0.4273054778070812
 40
0.4935966068533851
 40
0.5598869448874392
 40
0.6244014692543335
 40
0.688927263398892
 40
0.7546448450701821
 40
0.8203768440247499
 40
0.8892473146317216
 40
0.9581265724943511
 40
1.0
 40
1.0
 40
1.0
 40
1.0
 10
461.8116663620077
 20
-54.50162849370485
 30
0.0
 10
461.5422307292128
 20
-54.09401557237184
 30
0.0
 10
461.003384486535
 20
-53.27882758536037
 30
0.0
 10
460.23003416517
 20
-51.46123307461406
 30
0.0
 10
459.5274181635799
 20
-49.24739462953986
 30
0.0
 10
458.9343703934136
 20
-46.68583474291141
 30
0.0
 10
458.4877988989745
 20
-43.85708551688497
 30
0.0
 10
458.2075158266108
 20
-40.90905995489921
 30
0.0
 10
458.1073578427536
 20
-37.90971924906758
 30
0.0
 10
458.1728797351634
 20
-34.98109431517257
 30
0.0
 10
458.4020148794145
 20
-32.15829109794541
 30
0.0
 10
458.7705456754725
 20
-29.49349020179515
 30
0.0
 10
459.2694074718767
 20
-27.03998882657596
 30
0.0
 10
459.8802276165965
 20
-24.8150415170573
 30
0.0
 10
460.5797399939785
 20
-22.9186259711974
 30
0.0
 10
461.2396140646172
 20
-21.57185852656746
 30
0.0
 10
461.6547221147018
 20
-20.97511651350986
 30
0.0
 10
461.8116663620077
 20
-20.74950001183992
 30
0.0
  0
ELLIPSE
  5
42D
330
1F
100
AcDbEntity
  8
0
  6
Continuous
 62
     7
370
    15
100
AcDbEllipse
 10
274.4642649815
 20
-73.8899461992
 30
0.0
 11
194.4999999999999
 21
-8.952838470577262E-13
 31
0.0
210
0.0
220
0.0
230
1.0
 40
0.3709911166
 41
0.0608400300089532
 42
0.2720363080793268
  0
SPLINE
  5
42E
330
1F
100
AcDbEntity
  8
0
  6
Continuous
 62
     7
370
    15
100
AcDbSpline
210
0.0
220
0.0
230
1.0
 70
     8
 71
     3
 72
    10
 73
     6
 74
     0
 42
0.00000001
 43
0.00000001
 40
0.0
 40
0.0
 40
0.0
 40
0.0
 40
0.4319139811716001
 40
0.8747275885722787
 40
1.0
 40
1.0
 40
1.0
 40
1.0
 10
468.964253537377
 20
-71.62556610051638
 30
0.0
 10
468.9505460382651
 20
-71.54732006641937
 30
0.0
 10
468.9227851225129
 20
-71.38885340938883
 30
0.0
 10
468.7579915784358
 20
-70.43325748666126
 30
0.0
 10
468.6321423431381
 20
-69.67072309785588
 30
0.0
 10
468.6043904945456
 20
-69.50257158819682
 30
0.0
  0
SPLINE
  5
42F
330
1F
100
AcDbEntity
  8
0
  6
Continuous
 62
     7
370
    15
100
AcDbSpline
210
0.0
220
0.0
230
1.0
 70
     8
 71
     3
 72
    10
 73
     6
 74
     0
 42
0.00000001
 43
0.00000001
 40
0.0
 40
0.0
 40
0.0
 40
0.0
 40
0.4619678772983368
 40
0.9372848181470622
 40
1.0
 40
1.0
 40
1.0
 40
1.0
 10
468.6043904945456
 20
-5.748553192057665
 30
0.0
 10
468.6986356866156
 20
-5.185054772312695
 30
0.0
 10
468.8898493879386
 20
-4.041775033977721
 30
0.0
 10
468.9611334367232
 20
-3.643918823248354
 30
0.0
 10
468.9639278136019
 20
-3.627478728411127
 30
0.0
 10
468.964253537377
 20
-3.625562405028399
 30
0.0
  0
LINE
  5
430
330
1F
100
AcDbEntity
  8
0
  6
Continuous
 62
     7
370
    15
100
AcDbLine
 10
222.2033934519
 20
-54.5016284937
 30
0.0
 11
262.6381711886
 21
-69.5025715882
 31
0.0
  0
ARC
  5
431
330
1F
100
AcDbEntity
  8
0
  6
Continuous
 62
     7
370
    15
100
AcDbCircle
 10
228.4642649815
 20
-37.6255645508
 30
0.0
 40
18.00000000000001
100
AcDbArc
 50
110.3544063982
 51
249.6455936018
  0
LINE
  5
432
330
1F
100
AcDbEntity
  8
0
  6
Continuous
 62
     7
370
    15
100
AcDbLine
 10
262.6381711886
 20
-5.7485531921
 30
0.0
 11
222.2033934519
 21
-20.7495000118
 31
0.0
  0
ARC
  5
433
330
1F
100
AcDbEntity
  8
0
  6
Continuous
 62
     7
370
    15
100
AcDbCircle
 10
274.4642649815
 20
-37.6255645508
 30
0.0
 40
33.99999999999999
100
AcDbArc
 50
90.0
 51
110.3544063982
  0
ARC
  5
434
330
1F
100
AcDbEntity
  8
0
  6
Continuous
 62
     7
370
    15
100
AcDbCircle
 10
274.4642649815
 20
-37.6255645508
 30
0.0
 40
33.99999999999999
100
AcDbArc
 50
69.6455936018
 51
90.0
  0
LINE
  5
435
330
1F
100
AcDbEntity
  8
0
  6
Continuous
 62
     7
370
    15
100
AcDbLine
 10
326.7251299545
 20
-20.7495000118
 30
0.0
 11
286.2903522179
 21
-5.7485531921
 31
0.0
  0
ARC
  5
436
330
1F
100
AcDbEntity
  8
0
  6
Continuous
 62
     7
370
    15
100
AcDbCircle
 10
320.4642649815
 20
-37.6255645508
 30
0.0
 40
18.00000000000002
100
AcDbArc
 50
290.3544063982
 51
69.6455936018
  0
LINE
  5
437
330
1F
100
AcDbEntity
  8
0
  6
Continuous
 62
     7
370
    15
100
AcDbLine
 10
286.2903522179
 20
-69.5025715882
 30
0.0
 11
326.7251299545
 21
-54.5016284937
 31
0.0
  0
ARC
  5
438
330
1F
100
AcDbEntity
  8
0
  6
Continuous
 62
     7
370
    15
100
AcDbCircle
 10
274.4642649815
 20
-37.6255645508
 30
0.0
 40
34.00000000000006
100
AcDbArc
 50
249.6455936018
 51
270.0
  0
ARC
  5
439
330
1F
100
AcDbEntity
  8
0
  6
Continuous
 62
     7
370
    15
100
AcDbCircle
 10
274.4642649815
 20
-37.6255645508
 30
0.0
 40
34.00000000000004
100
AcDbArc
 50
270.0
 51
290.3544063982
  0
LINE
  5
43A
330
1F
100
AcDbEntity
  8
0
  6
Continuous
 62
     7
370
    15
100
AcDbLine
 10
269.9642674849
 20
297.3492536789
 30
0.0
 11
278.9642708227
 21
297.3492536789
 31
0.0
  0
LINE
  5
43B
330
1F
100
AcDbEntity
  8
0
  6
Continuous
 62
     7
370
    15
100
AcDbLine
 10
414.1178475544
 20
-75.3255654031
 30
0.0
 11
428.2600032017
 21
-75.3255654031
 31
0.0
  0
LINE
  5
43C
330
1F
100
AcDbEntity
  8
0
  6
Continuous
 62
     7
370
    15
100
AcDbLine
 10
120.6685397625
 20
-75.3255654031
 30
0.0
 11
134.810675852
 21
-75.3255654031
 31
0.0
  0
LINE
  5
43D
330
1F
100
AcDbEntity
  8
0
  6
Continuous
 62
     7
370
    15
100
AcDbLine
 10
428.2600032017
 20
-75.3255654031
 30
0.0
 11
442.4021290466
 21
-75.3255654031
 31
0.0
  0
LINE
  5
43E
330
1F
100
AcDbEntity
  8
0
  6
Continuous
 62
     7
370
    15
100
AcDbLine
 10
397.1253679916
 20
-75.3255654031
 30
0.0
 11
414.1178475544
 21
-75.3255654031
 31
0.0
  0
LINE
  5
43F
330
1F
100
AcDbEntity
  8
0
  6
Continuous
 62
     7
370
    15
100
AcDbLine
 10
134.810675852
 20
-75.3255654031
 30
0.0
 11
151.8031665907
 21
-75.3255654031
 31
0.0
  0
LINE
  5
440
330
1F
100
AcDbEntity
  8
0
  6
Continuous
 62
     7
370
    15
100
AcDbLine
 10
106.5264044588
 20
-75.3255654031
 30
0.0
 11
120.6685397625
 21
-75.3255654031
 31
0.0
  0
LINE
  5
441
330
1F
100
AcDbEntity
  8
0
  6
Continuous
 62
     7
370
    15
100
AcDbLine
 10
442.4021290466
 20
-75.3255654031
 30
0.0
 11
445.3310714886
 21
-75.3255654031
 31
0.0
  0
LINE
  5
442
330
1F
100
AcDbEntity
  8
0
  6
Continuous
 62
     7
370
    15
100
AcDbLine
 10
103.5974721741
 20
-75.3255654031
 30
0.0
 11
106.5264044588
 21
-75.3255654031
 31
0.0
  0
LINE
  5
443
330
1F
100
AcDbEntity
  8
0
  6
Continuous
 62
     7
370
    15
100
AcDbLine
 10
89.464264907
 20
71.4084897285
 30
0.0
 11
89.464264907
 21
98.3128491884
 31
0.0
  0
LINE
  5
444
330
1F
100
AcDbEntity
  8
0
  6
Continuous
 62
     7
370
    15
100
AcDbLine
 10
89.464264907
 20
98.3128491884
 30
0.0
 11
89.464264907
 21
115.8376429325
 31
0.0
  0
LINE
  5
445
330
1F
100
AcDbEntity
  8
0
  6
Continuous
 62
     7
370
    15
100
AcDbLine
 10
89.464264907
 20
70.3982357031
 30
0.0
 11
89.464264907
 21
71.4084897285
 31
0.0
  0
LINE
  5
446
330
1F
100
AcDbEntity
  8
0
  6
Continuous
 62
     7
370
    15
100
AcDbLine
 10
468.9642535374
 20
-20.7495000118
 30
0.0
 11
468.9642535374
 21
-54.5016284937
 31
0.0
  0
LINE
  5
447
330
1F
100
AcDbEntity
  8
0
  6
Continuous
 62
     7
370
    15
100
AcDbLine
 10
468.9642535374
 20
-54.5016284937
 30
0.0
 11
468.9642535374
 21
-69.5025715882
 31
0.0
  0
LINE
  5
448
330
1F
100
AcDbEntity
  8
0
  6
Continuous
 62
     7
370
    15
100
AcDbLine
 10
468.9642535374
 20
-5.7485531921
 30
0.0
 11
468.9642535374
 21
-20.7495000118
 31
0.0
  0
LINE
  5
449
330
1F
100
AcDbEntity
  8
0
  6
Continuous
 62
     7
370
    15
100
AcDbLine
 10
468.9642535374
 20
-3.625562405
 30
0.0
 11
468.9642535374
 21
-5.7485531921
 31
0.0
  0
LINE
  5
44A
330
1F
100
AcDbEntity
  8
0
  6
Continuous
 62
     7
370
    15
100
AcDbLine
 10
468.9642535374
 20
-69.5025715882
 30
0.0
 11
468.9642535374
 21
-71.6255661005
 31
0.0
  0
LINE
  5
44B
330
1F
100
AcDbEntity
  8
0
  6
Continuous
 62
     7
370
    15
100
AcDbLine
 10
256.4642624781
 20
297.3744366413
 30
0.0
 11
292.4642609284
 21
297.3744366413
 31
0.0
  0
LINE
  5
44C
330
1F
100
AcDbEntity
  8
0
  6
Continuous
 62
     7
370
    15
100
AcDbLine
 10
256.4642624781
 20
301.3744447475
 30
0.0
 11
292.4642609284
 21
301.3744447475
 31
0.0
  0
LINE
  5
44D
330
1F
100
AcDbEntity
  8
0
  6
Continuous
 62
     7
370
    15
100
AcDbLine
 10
265.2142690346
 20
309.3744311577
 30
0.0
 11
283.714269273
 21
309.3744311577
 31
0.0
  0
LINE
  5
44E
330
1F
100
AcDbEntity
  8
0
  6
Continuous
 62
     7
370
    15
100
AcDbLine
 10
481.4642714188
 20
-105.6255644558
 30
0.0
 11
444.4642709419
 21
-105.6255644558
 31
0.0
  0
LINE
  5
44F
330
1F
100
AcDbEntity
  8
0
  6
Continuous
 62
     7
370
    15
100
AcDbLine
 10
481.4642714188
 20
-105.6255644558
 30
0.0
 11
481.4642714188
 21
-107.6255645508
 31
0.0
  0
LINE
  5
450
330
1F
100
AcDbEntity
  8
0
  6
Continuous
 62
     7
370
    15
100
AcDbLine
 10
481.4642714188
 20
-107.6255645508
 30
0.0
 11
444.4642709419
 21
-107.6255645508
 31
0.0
  0
LINE
  5
451
330
1F
100
AcDbEntity
  8
0
  6
Continuous
 62
     7
370
    15
100
AcDbLine
 10
444.4642709419
 20
-105.6255644558
 30
0.0
 11
-230.535740979
 21
-105.6255644558
 31
0.0
  0
LINE
  5
452
330
1F
100
AcDbEntity
  8
0
  6
Continuous
 62
     7
370
    15
100
AcDbLine
 10
444.4642709419
 20
-107.6255645508
 30
0.0
 11
-230.535740979
 21
-107.6255645508
 31
0.0
  0
LINE
  5
453
330
1F
100
AcDbEntity
  8
0
  6
Continuous
 62
     7
370
    15
100
AcDbLine
 10
-267.5357414558
 20
-105.6255644558
 30
0.0
 11
-267.5357414558
 21
-107.6255645508
 31
0.0
  0
LINE
  5
454
330
1F
100
AcDbEntity
  8
0
  6
Continuous
 62
     7
370
    15
100
AcDbLine
 10
-230.535740979
 20
-107.6255645508
 30
0.0
 11
-267.5357414558
 21
-107.6255645508
 31
0.0
  0
LINE
  5
455
330
1F
100
AcDbEntity
  8
0
  6
Continuous
 62
     7
370
    15
100
AcDbLine
 10
-230.535740979
 20
-105.6255644558
 30
0.0
 11
-267.5357414558
 21
-105.6255644558
 31
0.0
  0
LINE
  5
456
330
1F
100
AcDbEntity
  8
0
  6
Continuous
 62
     7
370
    15
100
AcDbLine
 10
479.4642673657
 20
-81.8255636746
 30
0.0
 11
479.4642673657
 21
-105.6255644558
 31
0.0
  0
LINE
  5
457
330
1F
100
AcDbEntity
  8
0
  6
Continuous
 62
     7
370
    15
100
AcDbLine
 10
-265.5357374027
 20
-105.6255644558
 30
0.0
 11
-265.5357374027
 21
-81.8255636746
 31
0.0
  0
LINE
  5
458
330
1F
100
AcDbEntity
  8
0
  6
Continuous
 62
     7
370
    15
100
AcDbLine
 10
444.4642709419
 20
-77.6255652213
 30
0.0
 11
475.2642558739
 21
-77.6255652213
 31
0.0
  0
ARC
  5
459
330
1F
100
AcDbEntity
  8
0
  6
Continuous
 62
     7
370
    15
100
AcDbCircle
 10
475.2642649815
 20
-81.8255645508
 30
0.0
 40
4.200000000000003
100
AcDbArc
 50
0.0
 51
90.0
  0
LINE
  5
45A
330
1F
100
AcDbEntity
  8
0
  6
Continuous
 62
     7
370
    15
100
AcDbLine
 10
-230.535740979
 20
-77.6255652213
 30
0.0
 11
444.4642709419
 21
-77.6255652213
 31
0.0
  0
ARC
  5
45B
330
1F
100
AcDbEntity
  8
0
  6
Continuous
 62
     7
370
    15
100
AcDbCircle
 10
-261.3357350185
 20
-81.8255645508
 30
0.0
 40
4.200000000000003
100
AcDbArc
 50
90.0
 51
180.0
  0
LINE
  5
45C
330
1F
100
AcDbEntity
  8
0
  6
Continuous
 62
     7
370
    15
100
AcDbLine
 10
-261.3357259109
 20
-77.6255652213
 30
0.0
 11
-230.535740979
 21
-77.6255652213
 31
0.0
  0
LINE
  5
45D
330
1F
100
AcDbEntity
  8
0
  6
Continuous
 62
     7
370
    15
100
AcDbLine
 10
67.1642655358
 20
-76.6255650574
 30
0.0
 11
87.7642640695
 21
-76.6255650574
 31
0.0
  0
LINE
  5
45E
330
1F
100
AcDbEntity
  8
0
  6
Continuous
 62
     7
370
    15
100
AcDbLine
 10
10.4642631337
 20
-73.6255627031
 30
0.0
 11
10.4642631337
 21
-77.6255652213
 31
0.0
  0
LINE
  5
45F
330
1F
100
AcDbEntity
  8
0
  6
Continuous
 62
     7
370
    15
100
AcDbLine
 10
-9.535732694
 20
-73.6255627031
 30
0.0
 11
-9.535732694
 21
-77.6255652213
 31
0.0
  0
LINE
  5
460
330
1F
100
AcDbEntity
  8
0
  6
Continuous
 62
     7
370
    15
100
AcDbLine
 10
-258.3357347324
 20
-73.6255627031
 30
0.0
 11
-258.3357347324
 21
-77.6255652213
 31
0.0
  0
LINE
  5
461
330
1F
100
AcDbEntity
  8
0
  6
Continuous
 62
     7
370
    15
100
AcDbLine
 10
-259.9357320145
 20
-73.6255627031
 30
0.0
 11
-259.9357320145
 21
-77.6255652213
 31
0.0
  0
LINE
  5
462
330
1F
100
AcDbEntity
  8
0
  6
CENTERX2
 62
     7
370
     0
100
AcDbLine
 10
273.9648568625
 20
314.1386149053
 30
0.0
 11
274.9661128217
 21
314.1386149053
 31
0.0
  0
LINE
  5
463
330
1F
100
AcDbEntity
  8
0
  6
CENTERX2
 62
     7
370
     0
100
AcDbLine
 10
-101.3473449068
 20
271.3668201205
 30
0.0
 11
-100.8566715875
 21
271.3668201205
 31
0.0
  0
DIMENSION
  5
464
330
1F
100
AcDbEntity
  8
0
  6
Continuous
 62
     7
370
     0
100
AcDbDimension
  2
*D20
 10
501.0176295251
 20
-107.6255645508
 30
0.0
 11
501.0176295251
 21
95.0357349367
 31
0.0
 70
   160
 71
     2
 42
-1.0
  3
SLDDIMSTYLE2
100
AcDbAlignedDimension
 13
274.9661128217
 23
314.1386149053
 33
0.0
 14
481.4642649815
 24
-107.6255645508
 34
0.0
 50
90.0
100
AcDbRotatedDimension
  0
DIMENSION
  5
46E
330
1F
100
AcDbEntity
  8
0
  6
Continuous
 62
     7
370
     0
100
AcDbDimension
  2
*D21
 10
-283.5357350185
 20
-107.6255645508
 30
0.0
 11
-283.5357350185
 21
90.2302120772
 31
0.0
 70
   160
 71
     2
 42
-1.0
  3
SLDDIMSTYLE2
100
AcDbAlignedDimension
 13
-101.3473449068
 23
271.3668201205
 33
0.0
 14
-267.5357350185
 24
-107.6255645508
 34
0.0
 50
90.0
100
AcDbRotatedDimension
  0
DIMENSION
  5
478
330
1F
100
AcDbEntity
  8
0
  6
Continuous
 62
     7
370
     0
100
AcDbDimension
  2
*D22
 10
493.7754601842
 20
-107.6255645508
 30
0.0
 11
493.7754601842
 21
-70.3780432561
 31
0.0
 70
   160
 71
     2
 42
-1.0
  3
SLDDIMSTYLE0
100
AcDbAlignedDimension
 13
484.6613376295
 23
-37.6255645508
 33
0.0
 14
481.4642649815
 24
-107.6255645508
 34
0.0
 50
90.0
100
AcDbRotatedDimension
  0
DIMENSION
  5
482
330
1F
100
AcDbEntity
  8
0
  6
Continuous
 62
     7
370
     0
100
AcDbDimension
  2
*D23
 10
320.4642649815
 20
-77.6275255833
 30
0.0
 11
274.2210040311
 21
-77.6275255833
 31
0.0
 70
   160
 71
     2
 42
-1.0
  3
SLDDIMSTYLE0
100
AcDbAlignedDimension
 13
228.4642649815
 23
-27.8106099746
 33
0.0
 14
320.4642649815
 24
-27.8106099746
 34
0.0
100
AcDbRotatedDimension
  0
DIMENSION
  5
48C
330
1F
100
AcDbEntity
  8
0
  6
Continuous
 62
     7
370
     0
100
AcDbDimension
  2
*D24
 10
274.4642649815
 20
-117.6255645508
 30
0.0
 11
55.0688326696
 21
-117.6255645508
 31
0.0
 70
   160
 71
     2
 42
-1.0
  3
SLDDIMSTYLE0
100
AcDbAlignedDimension
 13
-195.5357350185
 23
-71.6255645508
 33
0.0
 14
274.4642649815
 24
-71.6255645508
 34
0.0
 50
0.0
100
AcDbRotatedDimension
  0
DIMENSION
  5
496
330
1F
100
AcDbEntity
  8
0
  6
Continuous
 62
     7
370
     0
100
AcDbDimension
  2
*D25
 10
-195.5357350185
 20
-117.6255645508
 30
0.0
 11
-230.6658407964
 21
-117.6255645508
 31
0.0
 70
   160
 71
     2
 42
-1.0
  3
SLDDIMSTYLE0
100
AcDbAlignedDimension
 13
-267.5357350185
 23
-107.6255645508
 33
0.0
 14
-195.5357350185
 24
-71.6255645508
 34
0.0
100
AcDbRotatedDimension
  0
DIMENSION
  5
4A0
330
1F
100
AcDbEntity
  8
0
  6
Continuous
 62
     7
370
     0
100
AcDbDimension
  2
*D26
 10
-271.7997708452
 20
-77.6255645508
 30
0.0
 11
-271.7997708452
 21
-92.5936829067
 31
0.0
 70
   160
 71
     2
 42
-1.0
  3
SLDDIMSTYLE0
100
AcDbAlignedDimension
 13
-267.5357350185
 23
-107.6255645508
 33
0.0
 14
-261.3357350185
 24
-77.6255645508
 34
0.0
 50
90.0
100
AcDbRotatedDimension
  0
DIMENSION
  5
4AA
330
1F
100
AcDbEntity
  8
0
  6
Continuous
 62
     7
370
     0
100
AcDbDimension
  2
*D27
 10
-277.5357350185
 20
-107.6255645508
 30
0.0
 11
-277.5357350185
 21
-76.404119879
 31
0.0
 70
   160
 71
     2
 42
-1.0
  3
SLDDIMSTYLE0
100
AcDbAlignedDimension
 13
-229.5357350185
 23
-37.6255645508
 33
0.0
 14
-267.5357350185
 24
-107.6255645508
 34
0.0
 50
90.0
100
AcDbRotatedDimension
  0
DIMENSION
  5
4B4
330
1F
100
AcDbEntity
  8
0
  6
Continuous
 62
     7
370
     0
100
AcDbDimension
  2
*D28
 10
468.9642649815
 20
321.0566618075
 30
0.0
 11
274.2210040311
 21
321.0566618075
 31
0.0
 70
   160
  1
%%c<>
 71
     2
 42
-1.0
  3
SLDDIMSTYLE0
100
AcDbAlignedDimension
 13
79.9642649815
 23
233.9652652128
 33
0.0
 14
468.9642649815
 24
233.9652652128
 34
0.0
100
AcDbRotatedDimension
  0
MTEXT
  5
4BF
330
1F
100
AcDbEntity
  8
0
  6
Continuous
 62
     7
370
     0
100
AcDbMText
 10
294.3300038578
 20
-68.1753053914
 30
0.0
 40
2.6458333333
 41
0.0
 71
     1
 72
     1
  1
25A（R1）
  7
SLDTEXTSTYLE0
 73
     1
 44
1.0
  0
LEADER
  5
4C1
330
1F
100
AcDbEntity
  8
0
  6
Continuous
 62
     7
370
     0
100
AcDbLeader
  3
SLDDIMSTYLE3
 76
     3
 10
282.1710075803
 20
-49.3134265672
 30
0.0
 10
293.8112682515
 20
-71.5900083361
 30
0.0
 10
307.5830115543
 20
-71.5900083361
 30
0.0
  0
INSERT
  5
4C8
102
{ACAD_REACTORS
330
4C9
102
}
330
1F
100
AcDbEntity
  8
0
  6
Continuous
 62
     7
370
     0
100
AcDbBlockReference
  2
SW_NOTE_1
 10
-240.5227508226
 20
-75.018063244
 30
0.0
  0
LEADER
  5
4C9
330
1F
100
AcDbEntity
  8
0
  6
Continuous
 62
     7
370
     0
100
AcDbLeader
  3
SLDDIMSTYLE3
 73
     2
 76
     3
 10
-207.4027838808
 20
-53.7244201406
 30
0.0
 10
-222.5377556776
 20
-75.018063244
 30
0.0
 10
-240.5227508226
 20
-75.018063244
 30
0.0
340
4C8
  0
INSERT
  5
4D5
330
1F
100
AcDbEntity
  8
0
  6
Continuous
 62
     7
370
     0
100
AcDbBlockReference
  2
SW_CENTERMARKSYMBOL_6
 10
274.4642649815
 20
-37.6255645508
 30
0.0
  0
INSERT
  5
4E1
330
1F
100
AcDbEntity
  8
0
  6
Continuous
 62
     7
370
     0
100
AcDbBlockReference
  2
SW_CENTERMARKSYMBOL_7
 10
-195.5357350185
 20
-37.6255645508
 30
0.0
  0
INSERT
  5
4ED
330
1F
100
AcDbEntity
  8
0
  6
Continuous
 62
     7
370
     0
100
AcDbBlockReference
  2
SW_CENTERMARKSYMBOL_8
 10
274.4642649815
 20
-37.6255645508
 30
0.0
  0
LINE
  5
4EE
330
1F
100
AcDbEntity
  8
0
  6
CENTERX2
 62
     7
370
     0
100
AcDbLine
 10
451.8116735899
 20
-37.6255645508
 30
0.0
 11
484.6613376295
 21
-37.6255645508
 31
0.0
  0
ENDSEC
  0
SECTION
  2
OBJECTS
  0
DICTIONARY
  5
C
330
0
100
AcDbDictionary
281
     1
  3
ACAD_GROUP
350
D
  3
ACAD_LAYOUT
350
1A
  3
ACAD_MLINESTYLE
350
17
  3
ACAD_PLOTSETTINGS
350
19
  3
ACAD_PLOTSTYLENAME
350
E
  0
DICTIONARY
  5
D
102
{ACAD_REACTORS
330
C
102
}
330
C
100
AcDbDictionary
281
     1
  0
DICTIONARY
  5
1A
102
{ACAD_REACTORS
330
C
102
}
330
C
100
AcDbDictionary
281
     1
  3
Layout1
350
1E
  3
Layout2
350
26
  3
Model
350
22
  0
DICTIONARY
  5
17
102
{ACAD_REACTORS
330
C
102
}
330
C
100
AcDbDictionary
281
     1
  3
Standard
350
18
  0
DICTIONARY
  5
19
102
{ACAD_REACTORS
330
C
102
}
330
C
100
AcDbDictionary
281
     1
  0
ACDBDICTIONARYWDFLT
  5
E
102
{ACAD_REACTORS
330
C
102
}
330
C
100
AcDbDictionary
281
     1
  3
Normal
350
F
100
AcDbDictionaryWithDefault
340
F
  0
LAYOUT
  5
1E
102
{ACAD_REACTORS
330
1A
102
}
330
1A
100
AcDbPlotSettings
  1

  2
none_device
  4

  6

 40
0.0
 41
0.0
 42
0.0
 43
0.0
 44
0.0
 45
0.0
 46
0.0
 47
0.0
 48
0.0
 49
0.0
140
0.0
141
0.0
142
1.0
143
1.0
 70
   688
 72
     0
 73
     0
 74
     5
  7

 75
    16
147
1.0
148
0.0
149
0.0
100
AcDbLayout
  1
Layout1
 70
     1
 71
     1
 10
0.0
 20
0.0
 11
420.0
 21
297.0
 12
0.0
 22
0.0
 32
0.0
 14
1.0000000000E+20
 24
1.0000000000E+20
 34
1.0000000000E+20
 15
-1.0000000000E+20
 25
-1.0000000000E+20
 35
-1.0000000000E+20
146
0.0
 13
0.0
 23
0.0
 33
0.0
 16
1.0
 26
0.0
 36
0.0
 17
0.0
 27
1.0
 37
0.0
 76
     0
330
1B
  0
LAYOUT
  5
26
102
{ACAD_REACTORS
330
1A
102
}
330
1A
100
AcDbPlotSettings
  1

  2
none_device
  4

  6

 40
0.0
 41
0.0
 42
0.0
 43
0.0
 44
0.0
 45
0.0
 46
0.0
 47
0.0
 48
0.0
 49
0.0
140
0.0
141
0.0
142
1.0
143
1.0
 70
   688
 72
     0
 73
     0
 74
     5
  7

 75
    16
147
1.0
148
0.0
149
0.0
100
AcDbLayout
  1
Layout2
 70
     1
 71
     2
 10
0.0
 20
0.0
 11
0.0
 21
0.0
 12
0.0
 22
0.0
 32
0.0
 14
0.0
 24
0.0
 34
0.0
 15
0.0
 25
0.0
 35
0.0
146
0.0
 13
0.0
 23
0.0
 33
0.0
 16
1.0
 26
0.0
 36
0.0
 17
0.0
 27
1.0
 37
0.0
 76
     0
330
23
  0
LAYOUT
  5
22
102
{ACAD_REACTORS
330
1A
102
}
330
1A
100
AcDbPlotSettings
  1

  2
none_device
  4

  6

 40
0.0
 41
0.0
 42
0.0
 43
0.0
 44
0.0
 45
0.0
 46
0.0
 47
0.0
 48
0.0
 49
0.0
140
0.0
141
0.0
142
1.0
143
1.0
 70
  1712
 72
     0
 73
     0
 74
     0
  7

 75
     0
147
1.0
148
0.0
149
0.0
100
AcDbLayout
  1
Model
 70
     1
 71
     0
 10
0.0
 20
0.0
 11
210.0
 21
297.0
 12
0.0
 22
0.0
 32
0.0
 14
0.0
 24
0.0
 34
0.0
 15
210.0
 25
297.0
 35
0.0
146
0.0
 13
0.0
 23
0.0
 33
0.0
 16
1.0
 26
0.0
 36
0.0
 17
0.0
 27
1.0
 37
0.0
 76
     0
330
1F
331
29
  0
MLINESTYLE
  5
18
102
{ACAD_REACTORS
330
17
102
}
330
17
100
AcDbMlineStyle
  2
Standard
 70
     0
  3

 62
   256
 51
90.0
 52
90.0
 71
     2
 49
0.5
 62
   256
  6
BYLAYER
 49
-0.5
 62
   256
  6
BYLAYER
  0
ACDBPLACEHOLDER
  5
F
102
{ACAD_REACTORS
330
E
102
}
330
E
  0
ENDSEC
  0
EOF
